  0
SECTION
  2
HEADER
  9
$ACADVER
  1
AC1009
  9
$INSBASE
 10
0.0
 20
0.0
 30
0.0
  9
$EXTMIN
 10
12.9443545521343104
 20
9.9912592880760371
 30
-0.0015258207003583
  9
$EXTMAX
 10
289.469662831415917
 20
201.1294527274095003
 30
0.0000000349246037
  9
$LIMMIN
 10
12.9569999999950802
 20
10.0
  9
$LIMMAX
 10
289.4570000003852783
 20
201.1206999999936045
  9
$ORTHOMODE
 70
     1
  9
$REGENMODE
 70
     1
  9
$FILLMODE
 70
     1
  9
$QTEXTMODE
 70
     0
  9
$MIRRTEXT
 70
     1
  9
$DRAGMODE
 70
     2
  9
$LTSCALE
 40
5.0
  9
$OSMODE
 70
    55
  9
$ATTMODE
 70
     1
  9
$TEXTSIZE
 40
3.0
  9
$TRACEWID
 40
0.05
  9
$TEXTSTYLE
  7
STANDARD
  9
$CLAYER
  8
0
  9
$CELTYPE
  6
BYLAYER
  9
$CECOLOR
 62
   256
  9
$DIMSCALE
 40
1.0
  9
$DIMASZ
 40
2.5
  9
$DIMEXO
 40
1.0
  9
$DIMDLI
 40
10.0
  9
$DIMRND
 40
0.0
  9
$DIMDLE
 40
0.0
  9
$DIMEXE
 40
1.0
  9
$DIMTP
 40
0.1
  9
$DIMTM
 40
0.1
  9
$DIMTXT
 40
3.5
  9
$DIMCEN
 40
0.0
  9
$DIMTSZ
 40
0.0
  9
$DIMTOL
 70
     0
  9
$DIMLIM
 70
     0
  9
$DIMTIH
 70
     0
  9
$DIMTOH
 70
     0
  9
$DIMSE1
 70
     0
  9
$DIMSE2
 70
     0
  9
$DIMTAD
 70
     1
  9
$DIMZIN
 70
     8
  9
$DIMBLK
  1

  9
$DIMASO
 70
     1
  9
$DIMSHO
 70
     1
  9
$DIMPOST
  1

  9
$DIMAPOST
  1
"
  9
$DIMALT
 70
     0
  9
$DIMALTD
 70
     2
  9
$DIMALTF
 40
0.0393701
  9
$DIMLFAC
 40
1.0
  9
$DIMTOFL
 70
     1
  9
$DIMTVP
 40
0.0
  9
$DIMTIX
 70
     0
  9
$DIMSOXD
 70
     0
  9
$DIMSAH
 70
     0
  9
$DIMBLK1
  1

  9
$DIMBLK2
  1

  9
$DIMSTYLE
  2
AM_ISO
  9
$DIMCLRD
 70
   256
  9
$DIMCLRE
 70
   256
  9
$DIMCLRT
 70
     2
  9
$DIMTFAC
 40
0.71
  9
$DIMGAP
 40
1.5
  9
$LUNITS
 70
     2
  9
$LUPREC
 70
     4
  9
$SKETCHINC
 40
0.1
  9
$FILLETRAD
 40
0.0
  9
$AUNITS
 70
     0
  9
$AUPREC
 70
     0
  9
$MENU
  1
acad
  9
$ELEVATION
 40
0.0
  9
$PELEVATION
 40
0.0
  9
$THICKNESS
 40
0.0
  9
$LIMCHECK
 70
     0
  9
$BLIPMODE
 70
     0
  9
$CHAMFERA
 40
0.0
  9
$CHAMFERB
 40
0.0
  9
$SKPOLY
 70
     0
  9
$TDCREATE
 40
2455755.6568634258583188
  9
$TDUPDATE
 40
2459025.3782523148693144
  9
$TDINDWG
 40
0.3566721644
  9
$TDUSRTIMER
 40
0.3566719792
  9
$USRTIMER
 70
     1
  9
$ANGBASE
 50
0.0
  9
$ANGDIR
 70
     0
  9
$PDMODE
 70
     0
  9
$PDSIZE
 40
0.0
  9
$PLINEWID
 40
0.0
  9
$COORDS
 70
     1
  9
$SPLFRAME
 70
     0
  9
$SPLINETYPE
 70
     6
  9
$SPLINESEGS
 70
     8
  9
$ATTDIA
 70
     1
  9
$ATTREQ
 70
     1
  9
$HANDLING
 70
     1
  9
$HANDSEED
  5
4694
  9
$SURFTAB1
 70
     6
  9
$SURFTAB2
 70
     6
  9
$SURFTYPE
 70
     6
  9
$SURFU
 70
     6
  9
$SURFV
 70
     6
  9
$UCSNAME
  2

  9
$UCSORG
 10
0.0
 20
0.0
 30
0.0
  9
$UCSXDIR
 10
1.0
 20
0.0
 30
0.0
  9
$UCSYDIR
 10
0.0
 20
1.0
 30
0.0
  9
$PUCSNAME
  2

  9
$PUCSORG
 10
0.0
 20
0.0
 30
0.0
  9
$PUCSXDIR
 10
1.0
 20
0.0
 30
0.0
  9
$PUCSYDIR
 10
0.0
 20
1.0
 30
0.0
  9
$USERI1
 70
     0
  9
$USERI2
 70
     0
  9
$USERI3
 70
     0
  9
$USERI4
 70
     0
  9
$USERI5
 70
     0
  9
$USERR1
 40
0.0
  9
$USERR2
 40
0.0
  9
$USERR3
 40
0.0
  9
$USERR4
 40
0.0
  9
$USERR5
 40
0.0
  9
$WORLDVIEW
 70
     1
  9
$SHADEDGE
 70
     3
  9
$SHADEDIF
 70
    70
  9
$TILEMODE
 70
     1
  9
$MAXACTVP
 70
    16
  9
$PLIMCHECK
 70
     0
  9
$PEXTMIN
 10
1.0000000000000000E+20
 20
1.0000000000000000E+20
 30
1.0000000000000000E+20
  9
$PEXTMAX
 10
-1.0000000000000000E+20
 20
-1.0000000000000000E+20
 30
-1.0000000000000000E+20
  9
$PLIMMIN
 10
-20.0
 20
-7.5
  9
$PLIMMAX
 10
277.0
 20
202.5
  9
$UNITMODE
 70
     0
  9
$VISRETAIN
 70
     0
  9
$PLINEGEN
 70
     1
  9
$PSLTSCALE
 70
     0
  0
ENDSEC
  0
SECTION
  2
TABLES
  0
TABLE
  2
VPORT
 70
     1
  0
VPORT
  2
*ACTIVE
 70
     0
 10
0.0
 20
0.0
 11
1.0
 21
1.0
 12
151.4717210484081988
 22
105.5603561127987007
 13
0.0
 23
0.0
 14
2.5
 24
2.5
 15
10.0
 25
10.0
 16
0.0
 26
0.0
 36
1.0
 17
0.0
 27
0.0
 37
0.0
 40
192.7113470989037864
 41
2.146978021978021
 42
50.0
 43
0.0
 44
0.0
 50
0.0
 51
0.0
 71
    16
 72
   100
 73
     1
 74
     3
 75
     0
 76
     0
 77
     0
 78
     1
  0
ENDTAB
  0
TABLE
  2
LTYPE
 70
    21
  0
LTYPE
  2
CONTINUOUS
 70
     0
  3
Solid line (NEC CAE2D for Win R7.2 : 2008.02.20
 72
    65
 73
     0
 40
0.0
  0
LTYPE
  2
HIDDEN
 70
     0
  3
Hidden __ __ __ __ __ __ __ __ __ __ __ __ __ _
 72
    65
 73
     2
 40
0.375
 49
0.25
 49
-0.125
  0
LTYPE
  2
PHANTOM2
 70
     0
  3
Phantom (.5x) ___ _ _ ___ _ _ ___ _ _ ___ _ _
 72
    65
 73
     6
 40
1.25
 49
0.625
 49
-0.125
 49
0.125
 49
-0.125
 49
0.125
 49
-0.125
  0
LTYPE
  2
CENTER
 70
     0
  3
Center ____ _ ____ _ ____ _ ____ _ ____ _ ____
 72
    65
 73
     4
 40
2.0
 49
1.25
 49
-0.25
 49
0.25
 49
-0.25
  0
LTYPE
  2
CENTER2
 70
     0
  3
Center (.5x) ___ _ ___ _ ___ _ ___ _ ___ _ ___
 72
    65
 73
     4
 40
1.125
 49
0.75
 49
-0.125
 49
0.125
 49
-0.125
  0
LTYPE
  2
HIDDEN2
 70
     0
  3
Hidden (.5x) _ _ _ _ _ _ _ _ _ _ _ _ _ _ _ _ _
 72
    65
 73
     2
 40
0.1875
 49
0.125
 49
-0.0625
  0
LTYPE
  2
ACANSTGB
 70
     0
  3
__ . . __ . .
 72
    65
 73
     6
 40
0.35433070866
 49
0.15748031496
 49
-0.03937007874
 49
0.03937007874
 49
-0.03937007874
 49
0.03937007874
 49
-0.03937007874
  0
LTYPE
  2
ACANSTGL
 70
     0
  3
_ _ _ _ _
 72
    65
 73
     2
 40
0.11811023622
 49
0.07874015748
 49
-0.03937007874
  0
LTYPE
  2
ACJISWELD
 70
     0
  3
_ _ _ _ _
 72
    65
 73
     2
 40
2.0
 49
2.0
 49
-1.0
  0
LTYPE
  2
ACJISTGB
 70
     0
  3
__ . . __ . .
 72
    65
 73
     6
 40
9.0
 49
4.0
 49
-1.0
 49
1.0
 49
-1.0
 49
1.0
 49
-1.0
  0
LTYPE
  2
ACJISTGL
 70
     0
  3
_ _ _ _ _
 72
    65
 73
     2
 40
3.0
 49
2.0
 49
-1.0
  0
LTYPE
  2
ACISOWELD
 70
     0
  3
_ _ _ _ _
 72
    65
 73
     2
 40
2.0
 49
2.0
 49
-1.0
  0
LTYPE
  2
ACISOTGB
 70
     0
  3
__ . . __ . .
 72
    65
 73
     6
 40
9.0
 49
4.0
 49
-1.0
 49
1.0
 49
-1.0
 49
1.0
 49
-1.0
  0
LTYPE
  2
ACISOTGL
 70
     0
  3
_ _ _ _ _
 72
    65
 73
     2
 40
3.0
 49
2.0
 49
-1.0
  0
LTYPE
  2
AM_ISO02W050
 70
     0
  3
__ __ __ __ __ __ __ __ __ __ __ __ __ __ __
 72
    65
 73
     2
 40
7.5
 49
6.0
 49
-1.5
  0
LTYPE
  2
AM_ISO08W050
 70
     0
  3
____ . ____ . ____ . ____ . ____ . ____ . ____
 72
    65
 73
     4
 40
18.0
 49
12.0
 49
-1.5
 49
3.0
 49
-1.5
  0
LTYPE
  2
AM_ISO09W050
 70
     0
  3
_____ . . _____ . . _____ . . ____ .. ____
 72
    65
 73
     6
 40
22.5
 49
12.0
 49
-1.5
 49
3.0
 49
-1.5
 49
3.0
 49
-1.5
  0
LTYPE
  2
AMCONSTR
 70
     0
  3
_______________________
 72
    65
 73
     2
 40
9999.0
 49
9999.0
 49
0.0
  0
LTYPE
  2
AM_ISO08W050X2
 70
     0
  3
__ . __ . __ . __ . __ . __
 72
    65
 73
     4
 40
9.0
 49
6.0
 49
-0.75
 49
1.5
 49
-0.75
  0
LTYPE
  2
AM_ISO02W050X2
 70
     0
  3
 _ _ _ _ _ _ _ _ _ _ _ _
 72
    65
 73
     2
 40
3.75
 49
3.0
 49
-0.75
  0
LTYPE
  2
AMZIGZAG
 70
     0
  3
/\/-/\/-/\/-/\/-/\/-/\/
 72
    65
 73
     2
 40
11.0000999999999998
 49
0.0001
 49
-11.0
  0
ENDTAB
  0
TABLE
  2
LAYER
 70
    25
  0
LAYER
  2
0
 70
     0
 62
     3
  6
CONTINUOUS
  0
LAYER
  2
SYS-BUHIN0
 70
     0
 62
     7
  6
CONTINUOUS
  0
LAYER
  2
AM_0
 70
     0
 62
     3
  6
CONTINUOUS
  0
LAYER
  2
DEFPOINTS
 70
     0
 62
     7
  6
CONTINUOUS
  0
LAYER
  2
AM_5
 70
     0
 62
     7
  6
CONTINUOUS
  0
LAYER
  2
AM_BOR
 70
     0
 62
     7
  6
CONTINUOUS
  0
LAYER
  2
AM_7
 70
     0
 62
     4
  6
CENTER
  0
LAYER
  2
AM_3
 70
     0
 62
     7
  6
HIDDEN
  0
LAYER
  2
AM_12
 70
     0
 62
   253
  6
CONTINUOUS
  0
LAYER
  2
AM_PAREF
 70
     0
 62
     4
  6
CONTINUOUS
  0
LAYER
  2
AM_6
 70
     0
 62
     7
  6
CONTINUOUS
  0
LAYER
  2
AM_8
 70
     0
 62
   253
  6
CONTINUOUS
  0
LAYER
  2
AM_4
 70
     0
 62
     6
  6
CONTINUOUS
  0
LAYER
  2
AM_10
 70
     0
 62
     7
  6
CONTINUOUS
  0
LAYER
  2
AM_CL
 70
     0
 62
     1
  6
CONTINUOUS
  0
LAYER
  2
AM_2
 70
     0
 62
     5
  6
PHANTOM2
  0
LAYER
  2
AM_1N
 70
     0
 62
    14
  6
CONTINUOUS
  0
LAYER
  2
AM_1
 70
     0
 62
    14
  6
PHANTOM2
  0
LAYER
  2
AM_9
 70
     0
 62
    -7
  6
CONTINUOUS
  0
LAYER
  2
SYS-TEISEI0
 70
     0
 62
     7
  6
CONTINUOUS
  0
LAYER
  2
外形線
 70
     0
 62
     7
  6
CONTINUOUS
  0
LAYER
  2
中心線
 70
     0
 62
     1
  6
CENTER
  0
LAYER
  2
寸法
 70
     0
 62
     4
  6
CONTINUOUS
  0
LAYER
  2
かくれ線
 70
     0
 62
     6
  6
HIDDEN
  0
ENDTAB
  0
TABLE
  2
STYLE
 70
    13
  0
STYLE
  2
STANDARD
 70
     0
 40
0.0
 41
1.0
 50
0.0
 71
     0
 42
3.0
  3
dim.shx
  4
extfont.shx
  0
STYLE
  2
R寸法
 70
     0
 40
2.0
 41
1.0
 50
0.0
 71
     0
 42
3.0
  3
dim.shx
  4
extfont.shx
  0
STYLE
  2
ACISOGDT
 70
     0
 40
0.0
 41
1.0
 50
0.0
 71
     0
 42
2.5
  3
amgdt.shx
  4

  0
STYLE
  2

 70
     1
 40
0.0
 41
1.0
 50
0.0
 71
     0
 42
3.0
  3
genltshp.shx
  4

  0
ENDTAB
  0
TABLE
  2
VIEW
 70
     6
  0
VIEW
  2
AM_VIEW1
 70
     0
 40
95.560349999996788
 10
100.7985233311002986
 20
153.3405249999952105
 41
175.683046662210387
 11
0.0
 21
0.0
 31
1.0
 12
0.0
 22
0.0
 32
0.0
 42
50.0
 43
0.0
 44
0.0
 50
0.0
 71
    16
  0
VIEW
  2
AM_VIEW2
 70
     0
 40
95.560349999996788
 10
201.615476669280099
 20
153.3405249999952105
 41
175.683046662210387
 11
0.0
 21
0.0
 31
1.0
 12
0.0
 22
0.0
 32
0.0
 42
50.0
 43
0.0
 44
0.0
 50
0.0
 71
    16
  0
VIEW
  2
AM_VIEW3
 70
     0
 40
95.560349999996788
 10
100.7985233311002986
 20
57.7801749999984011
 41
175.683046662210387
 11
0.0
 21
0.0
 31
1.0
 12
0.0
 22
0.0
 32
0.0
 42
50.0
 43
0.0
 44
0.0
 50
0.0
 71
    16
  0
VIEW
  2
AM_VIEW4
 70
     0
 40
95.560349999996788
 10
201.615476669280099
 20
57.7801749999984011
 41
175.683046662210387
 11
0.0
 21
0.0
 31
1.0
 12
0.0
 22
0.0
 32
0.0
 42
50.0
 43
0.0
 44
0.0
 50
0.0
 71
    16
  0
VIEW
  2
AM_VIEW5
 70
     0
 40
95.5603499999968165
 10
151.2070000001901064
 20
105.5603499999968022
 41
175.683046662210387
 11
0.0
 21
0.0
 31
1.0
 12
0.0
 22
0.0
 32
0.0
 42
50.0
 43
0.0
 44
0.0
 50
0.0
 71
    16
  0
VIEW
  2
AM_VIEW6
 70
     0
 40
191.1187887929935982
 10
151.2070000001901917
 20
105.5603499999968022
 41
351.3625796634876224
 11
0.0
 21
0.0
 31
1.0
 12
0.0
 22
0.0
 32
0.0
 42
50.0
 43
0.0
 44
0.0
 50
0.0
 71
    16
  0
ENDTAB
  0
TABLE
  2
UCS
 70
     0
  0
ENDTAB
  0
TABLE
  2
APPID
 70
    65
  0
APPID
  2
ACAD
 70
     0
  0
APPID
  2
ACADANNOTATIVE
 70
     0
  0
APPID
  2
ACAD_MLEADERVER
 70
     0
  0
APPID
  2
MCAD_NO_VIS
 70
     0
  0
APPID
  2
ACAD_TEMP_GRAPHIC
 70
     0
  0
APPID
  2
AD_DRAW
 70
     0
  0
APPID
  2
ACATTRIBSERVICES
 70
     0
  0
APPID
  2
DESIGNERASSEMBLIES
 70
     0
  0
APPID
  2
ACADM_DIM_EDIT
 70
     0
  0
APPID
  2
AMDT_DM_ADJ
 70
     0
  0
APPID
  2
ACADANNOPO
 70
     0
  0
APPID
  2
ACAECLAYERSTANDARD
 70
     0
  0
APPID
  2
ACDBDYNAMICBLOCKGUID
 70
     0
  0
APPID
  2
ACDBBLOCKREPETAG
 70
     0
  0
APPID
  2
ACAUTHENVIRON
 70
     0
  0
APPID
  2
ACDBDYNAMICBLOCKTRUENAME
 70
     0
  0
APPID
  2
GENIUS_GENREC_14
 70
     0
  0
APPID
  2
GENIUS_GENOBJ-N-REC_13
 70
     0
  0
APPID
  2
GENIUS_GENODEF_13
 70
     0
  0
APPID
  2
ACAD_EXEMPT_FROM_CAD_STANDARDS
 70
     0
  0
APPID
  2
GENIUS_GENOBJ-N-CEN_13
 70
     0
  0
APPID
  2
GENIUS_GENCEN_19
 70
     0
  0
APPID
  2
ACAD_DSTYLE_DIMINSPECT
 70
     0
  0
APPID
  2
DCO15
 70
     0
  0
APPID
  2
ACAD_PSEXT
 70
     0
  0
APPID
  2
GENIUS_GENBH_13
 70
     0
  0
APPID
  2
GENIUS_GENOENT_13
 70
     0
  0
APPID
  2
GENIUS_GENOLIS_13
 70
     0
  0
APPID
  2
GENIUS_GENOBJ-NBEHI-BHF_13
 70
     0
  0
APPID
  2
GENIUS_GENOREF_13
 70
     0
  0
APPID
  2
GENIUS_GENOBJ-NBEHI-BHB_13
 70
     0
  0
APPID
  2
AMG_2DHIDE
 70
     0
  0
APPID
  2
AMG_2DSTRUCT_BTR
 70
     0
  0
APPID
  2
GENIUS_AMGTXT_16
 70
     0
  0
APPID
  2
GENIUS_GENOBJ-N-HTC_13
 70
     0
  0
APPID
  2
GENIUS_GENHATCH_13
 70
     0
  0
APPID
  2
GEVID1208849169
 70
     0
  0
APPID
  2
GEVDC
 70
     0
  0
APPID
  2
ACADM_2DVIEW_IGN_NOTIFY
 70
     0
  0
APPID
  2
GEVID1208849170
 70
     0
  0
APPID
  2
GEVID1208849171
 70
     0
  0
APPID
  2
GEVRADREF
 70
     0
  0
APPID
  2
ACAD_DSTYLE_DIMJAG
 70
     0
  0
APPID
  2
ACAD_DSTYLE_DIMTALN
 70
     0
  0
APPID
  2
GENIUS_GENDTOL_13
 70
     0
  0
APPID
  2
GENIUS_GENTRA_14
 70
     0
  0
APPID
  2
GENIUS_GENOBJ-N-TIT_13
 70
     0
  0
APPID
  2
GENIUS_GENTITLE_13
 70
     0
  0
APPID
  2
GENIUS_GENSCREG_15
 70
     0
  0
APPID
  2
GENIUS_GENOBJ-N-SDF_13
 70
     0
  0
APPID
  2
ACAD_DSTYLE_DIMRADIAL_EXTENSION
 70
     0
  0
APPID
  2
GENIUS_GENOBJ-N-FIL_13
 70
     0
  0
APPID
  2
GENIUS_GENOBJ-N-CRS_13
 70
     0
  0
APPID
  2
GENIUS_GENDIMSH_14
 70
     0
  0
APPID
  2
ACAD_DSTYLE_DIMANGULAR_EXT
 70
     0
  0
APPID
  2
ACAD_NAV_VCDISPLAY
 70
     0
  0
APPID
  2
ACAD_DSTYLE_DIMBREAK
 70
     0
  0
APPID
  2
ACAD_DSTYLE_DIMARC_LENGTH_
 70
     0
  0
APPID
  2
ACAD_DSTYLE_DIM_LINETYPE
 70
     0
  0
APPID
  2
ACAD_DSTYLE_DIM_EXT1_LINETYPE
 70
     0
  0
APPID
  2
ACAD_DSTYLE_DIM_EXT2_LINETYPE
 70
     0
  0
APPID
  2
ACDBATTR
 70
     0
  0
APPID
  2
GEVID1428372193
 70
     0
  0
APPID
  2
ACAD_DSTYLE_DIMJOGGED_JOGA
 70
     0
  0
APPID
  2
GENIUS_GENSCREG_13
 70
     0
  0
ENDTAB
  0
TABLE
  2
DIMSTYLE
 70
    26
  0
DIMSTYLE
  2
STANDARD
 70
     0
  3

  4

  5

  6

  7

 40
1.0
 41
1.0
 42
0.8
 43
0.38
 44
1.0
 45
0.0
 46
0.0
 47
0.0
 48
0.0
140
3.1000000000000001
141
0.09
142
0.0
143
25.3999999999999986
144
1.0
145
0.5
146
1.0
147
0.09
 71
     0
 72
     0
 73
     0
 74
     0
 75
     0
 76
     0
 77
     1
 78
     0
170
     0
171
     2
172
     0
173
     0
174
     0
175
     0
176
     0
177
     0
178
     0
  0
DIMSTYLE
  2
AM_ANSI
 70
     0
  3

  4
mm
  5

  6

  7

 40
1.0
 41
0.1
 42
0.05
 43
0.5
 44
0.1
 45
0.0
 46
0.0
 47
0.1
 48
0.1
140
0.12
141
0.0
142
0.0
143
25.3999999999999986
144
1.0
145
0.0
146
0.71
147
0.06
 71
     0
 72
     0
 73
     1
 74
     1
 75
     0
 76
     0
 77
     0
 78
     7
170
     0
171
     2
172
     0
173
     0
174
     0
175
     0
176
   256
177
   256
178
     2
  0
DIMSTYLE
  2
AM_ANSI$3
 70
     0
  3

  4
mm
  5

  6

  7

 40
1.0
 41
0.1
 42
0.05
 43
0.5
 44
0.1
 45
0.0
 46
0.0
 47
0.1
 48
0.1
140
0.12
141
0.0
142
0.0
143
25.3999999999999986
144
1.0
145
0.0
146
0.71
147
0.06
 71
     0
 72
     0
 73
     1
 74
     1
 75
     0
 76
     0
 77
     0
 78
     7
170
     0
171
     2
172
     0
173
     0
174
     0
175
     0
176
   256
177
   256
178
     2
  0
DIMSTYLE
  2
AM_ANSI$4
 70
     0
  3

  4
mm
  5

  6

  7

 40
1.0
 41
0.1
 42
0.05
 43
0.5
 44
0.1
 45
0.0
 46
0.0
 47
0.1
 48
0.1
140
0.12
141
0.0
142
0.0
143
25.3999999999999986
144
1.0
145
0.0
146
0.71
147
0.06
 71
     0
 72
     0
 73
     1
 74
     1
 75
     0
 76
     0
 77
     0
 78
     7
170
     0
171
     2
172
     0
173
     0
174
     0
175
     0
176
   256
177
   256
178
     2
  0
DIMSTYLE
  2
AM_ANSI$7
 70
     0
  3

  4
mm
  5

  6

  7

 40
1.0
 41
0.1
 42
0.05
 43
0.5
 44
0.1
 45
0.0
 46
0.0
 47
0.1
 48
0.1
140
0.24
141
0.0
142
0.0
143
25.3999999999999986
144
1.0
145
0.0
146
0.71
147
0.06
 71
     0
 72
     0
 73
     1
 74
     1
 75
     0
 76
     0
 77
     0
 78
     7
170
     0
171
     2
172
     0
173
     0
174
     0
175
     0
176
   256
177
   256
178
     2
  0
DIMSTYLE
  2
AM_ANSI$SF
 70
     0
  3

  4
mm
  5

  6

  7

 40
1.0
 41
0.1
 42
0.05
 43
0.5
 44
0.1
 45
0.0
 46
0.0
 47
0.1
 48
0.1
140
0.12
141
0.0
142
0.0
143
25.3999999999999986
144
1.0
145
0.0
146
0.71
147
0.06
 71
     0
 72
     0
 73
     1
 74
     1
 75
     1
 76
     1
 77
     0
 78
     7
170
     0
171
     2
172
     0
173
     0
174
     0
175
     0
176
   256
177
   256
178
     2
  0
DIMSTYLE
  2
AM_ANSI$SH
 70
     0
  3

  4
mm
  5

  6
GENAXEH
  7

 40
1.0
 41
0.1
 42
0.05
 43
0.5
 44
0.1
 45
0.0
 46
0.0
 47
0.1
 48
0.1
140
0.12
141
0.0
142
0.0
143
25.3999999999999986
144
1.0
145
0.0
146
0.71
147
0.06
 71
     0
 72
     0
 73
     1
 74
     1
 75
     1
 76
     1
 77
     0
 78
     7
170
     0
171
     2
172
     0
173
     1
174
     0
175
     0
176
   256
177
   256
178
     2
  0
DIMSTYLE
  2
AM_JIS
 70
     0
  3

  4
"
  5
OPEN30
  6

  7

 40
1.0
 41
2.5
 42
1.0
 43
7.0
 44
1.0
 45
0.0
 46
0.0
 47
0.1
 48
0.1
140
3.0
141
0.0
142
0.0
143
0.0393701
144
1.0
145
0.0
146
0.71
147
1.0
 71
     0
 72
     0
 73
     0
 74
     0
 75
     0
 76
     0
 77
     3
 78
     8
170
     0
171
     2
172
     1
173
     0
174
     0
175
     0
176
     7
177
     7
178
     7
  0
DIMSTYLE
  2
AM_JIS$3
 70
     0
  3

  4
"
  5
OPEN30
  6

  7

 40
1.0
 41
2.5
 42
1.0
 43
10.0
 44
1.0
 45
0.0
 46
0.0
 47
0.1
 48
0.1
140
3.0
141
0.0
142
0.0
143
0.0393701
144
1.0
145
0.0
146
0.71
147
1.0
 71
     0
 72
     0
 73
     0
 74
     1
 75
     0
 76
     0
 77
     3
 78
     8
170
     0
171
     2
172
     0
173
     0
174
     0
175
     0
176
     7
177
     7
178
     7
  0
DIMSTYLE
  2
AM_JIS$4
 70
     0
  3

  4
"
  5
OPEN30
  6

  7

 40
1.0
 41
2.5
 42
1.0
 43
10.0
 44
1.0
 45
0.0
 46
0.0
 47
0.1
 48
0.1
140
2.0
141
0.0
142
0.0
143
0.0393701
144
1.0
145
0.0
146
0.71
147
1.0
 71
     0
 72
     0
 73
     0
 74
     0
 75
     0
 76
     0
 77
     3
 78
     8
170
     0
171
     2
172
     0
173
     0
174
     0
175
     0
176
     7
177
     7
178
     7
  0
DIMSTYLE
  2
AM_JIS$6
 70
     0
  3

  4
"
  5
OPEN30
  6

  7

 40
1.0
 41
2.5
 42
1.0
 43
10.0
 44
1.0
 45
0.0
 46
0.0
 47
0.1
 48
0.1
140
3.0
141
0.0
142
0.0
143
0.0393701
144
1.0
145
0.0
146
0.71
147
1.0
 71
     0
 72
     0
 73
     0
 74
     0
 75
     0
 76
     0
 77
     0
 78
     8
170
     0
171
     2
172
     1
173
     0
174
     0
175
     0
176
   256
177
     7
178
     7
  0
DIMSTYLE
  2
AM_JIS$7
 70
     0
  3

  4
"
  5
OPEN30
  6

  7

 40
1.0
 41
2.5
 42
1.0
 43
10.0
 44
1.0
 45
0.0
 46
0.0
 47
0.1
 48
0.1
140
3.0
141
0.0
142
0.0
143
0.0393701
144
1.0
145
0.0
146
0.71
147
1.0
 71
     0
 72
     0
 73
     0
 74
     0
 75
     0
 76
     0
 77
     3
 78
     8
170
     0
171
     2
172
     1
173
     0
174
     0
175
     0
176
     7
177
   256
178
     7
  0
DIMSTYLE
  2
AM_JIS$SF
 70
     0
  3

  4
"
  5
OPEN30
  6

  7

 40
1.0
 41
2.5
 42
1.0
 43
7.0
 44
1.0
 45
0.0
 46
0.0
 47
0.1
 48
0.1
140
3.0
141
0.0
142
0.0
143
0.0393701
144
1.0
145
0.0
146
0.71
147
1.0
 71
     0
 72
     0
 73
     0
 74
     0
 75
     1
 76
     1
 77
     3
 78
     8
170
     0
171
     2
172
     1
173
     0
174
     0
175
     0
176
     7
177
   256
178
     7
  0
DIMSTYLE
  2
AM_JIS$SH
 70
     0
  3

  4
"
  5

  6
GENAXEH
  7
OPEN30
 40
1.0
 41
2.5
 42
1.0
 43
7.0
 44
1.0
 45
0.0
 46
0.0
 47
0.1
 48
0.1
140
3.0
141
0.0
142
0.0
143
0.0393701
144
2.0
145
0.0
146
0.71
147
1.0
 71
     0
 72
     0
 73
     0
 74
     0
 75
     1
 76
     1
 77
     3
 78
     8
170
     0
171
     2
172
     1
173
     1
174
     0
175
     0
176
     7
177
   256
178
     7
  0
DIMSTYLE
  2
AM_JIS$2
 70
     0
  3

  4
"
  5
OPEN30
  6

  7

 40
1.0
 41
2.5
 42
1.0
 43
7.0
 44
1.0
 45
0.0
 46
0.0
 47
0.1
 48
0.1
140
3.0
141
0.0
142
0.0
143
0.0393701
144
1.0
145
0.0
146
0.71
147
1.0
 71
     0
 72
     0
 73
     0
 74
     0
 75
     0
 76
     0
 77
     3
 78
     8
170
     0
171
     2
172
     1
173
     0
174
     0
175
     0
176
     7
177
     7
178
     7
  0
DIMSTYLE
  2
AM_JIS$0
 70
     0
  3

  4
"
  5
OPEN30
  6

  7

 40
1.0
 41
2.5
 42
1.0
 43
7.0
 44
1.0
 45
0.0
 46
0.0
 47
0.1
 48
0.1
140
3.0
141
0.0
142
0.0
143
0.0393701
144
1.0
145
0.0
146
0.71
147
1.0
 71
     0
 72
     0
 73
     0
 74
     0
 75
     0
 76
     0
 77
     3
 78
     8
170
     0
171
     2
172
     1
173
     0
174
     0
175
     0
176
     7
177
     7
178
     7
  0
DIMSTYLE
  2
STANDARD$0
 70
     0
  3

  4

  5

  6

  7

 40
1.0
 41
1.0
 42
0.8
 43
0.38
 44
1.0
 45
0.0
 46
0.0
 47
0.0
 48
0.0
140
3.1000000000000001
141
0.09
142
0.0
143
25.3999999999999986
144
1.0
145
0.5
146
1.0
147
0.09
 71
     0
 72
     0
 73
     0
 74
     0
 75
     0
 76
     0
 77
     1
 78
     0
170
     0
171
     2
172
     0
173
     0
174
     0
175
     0
176
     0
177
     0
178
     0
  0
DIMSTYLE
  2
ANNOTATIVE
 70
     0
  3

  4

  5

  6

  7

 40
1.0
 41
0.18
 42
0.0625
 43
0.38
 44
0.18
 45
0.0
 46
0.0
 47
0.0
 48
0.0
140
0.18
141
0.09
142
0.0
143
25.3999999999999986
144
1.0
145
0.0
146
1.0
147
0.09
 71
     0
 72
     0
 73
     1
 74
     1
 75
     0
 76
     0
 77
     0
 78
     0
170
     0
171
     2
172
     0
173
     0
174
     0
175
     0
176
     0
177
     0
178
     0
  0
DIMSTYLE
  2
AM_ISO
 70
     0
  3

  4
"
  5

  6

  7

 40
1.0
 41
2.5
 42
1.0
 43
10.0
 44
1.0
 45
0.0
 46
0.0
 47
0.1
 48
0.1
140
3.5
141
0.0
142
0.0
143
0.0393701
144
1.0
145
0.0
146
0.71
147
1.5
 71
     0
 72
     0
 73
     0
 74
     0
 75
     0
 76
     0
 77
     1
 78
     8
170
     0
171
     2
172
     1
173
     0
174
     0
175
     0
176
   256
177
   256
178
     2
  0
DIMSTYLE
  2
AM_ISO$3
 70
     0
  3

  4
"
  5

  6

  7

 40
1.0
 41
2.5
 42
1.0
 43
10.0
 44
1.0
 45
0.0
 46
0.0
 47
0.1
 48
0.1
140
3.5
141
0.0
142
0.0
143
0.0393701
144
1.0
145
0.0
146
0.71
147
1.5
 71
     0
 72
     0
 73
     0
 74
     1
 75
     0
 76
     0
 77
     1
 78
     8
170
     0
171
     2
172
     0
173
     0
174
     0
175
     0
176
   256
177
   256
178
     2
  0
DIMSTYLE
  2
AM_ISO$4
 70
     0
  3

  4
"
  5

  6

  7

 40
1.0
 41
2.5
 42
1.0
 43
10.0
 44
1.0
 45
0.0
 46
0.0
 47
0.1
 48
0.1
140
3.5
141
0.0
142
0.0
143
0.0393701
144
1.0
145
0.0
146
0.71
147
1.5
 71
     0
 72
     0
 73
     0
 74
     1
 75
     0
 76
     0
 77
     1
 78
     8
170
     0
171
     2
172
     0
173
     0
174
     0
175
     0
176
   256
177
   256
178
     2
  0
DIMSTYLE
  2
AM_ISO$6
 70
     0
  3

  4
"
  5

  6

  7

 40
1.0
 41
2.5
 42
1.0
 43
10.0
 44
1.0
 45
0.0
 46
0.0
 47
0.1
 48
0.1
140
3.5
141
0.0
142
0.0
143
0.0393701
144
1.0
145
0.0
146
0.71
147
1.5
 71
     0
 72
     0
 73
     0
 74
     0
 75
     0
 76
     0
 77
     0
 78
     8
170
     0
171
     2
172
     1
173
     0
174
     0
175
     0
176
   256
177
   256
178
     2
  0
DIMSTYLE
  2
AM_ISO$7
 70
     0
  3

  4
"
  5

  6

  7

 40
1.0
 41
2.5
 42
1.0
 43
10.0
 44
1.0
 45
0.0
 46
0.0
 47
0.1
 48
0.1
140
5.0
141
0.0
142
0.0
143
0.0393701
144
1.0
145
0.0
146
0.71
147
1.5
 71
     0
 72
     0
 73
     0
 74
     0
 75
     0
 76
     0
 77
     1
 78
     8
170
     0
171
     2
172
     1
173
     0
174
     0
175
     0
176
   256
177
   256
178
     2
  0
DIMSTYLE
  2
AM_ISO$SF
 70
     0
  3

  4
"
  5

  6

  7

 40
1.0
 41
2.5
 42
1.0
 43
10.0
 44
1.0
 45
0.0
 46
0.0
 47
0.1
 48
0.1
140
3.5
141
0.0
142
0.0
143
0.0393701
144
1.0
145
0.0
146
0.71
147
1.5
 71
     0
 72
     0
 73
     0
 74
     0
 75
     1
 76
     1
 77
     1
 78
     8
170
     0
171
     2
172
     1
173
     0
174
     0
175
     0
176
   256
177
   256
178
     2
  0
DIMSTYLE
  2
AM_ISO$SH
 70
     0
  3

  4
"
  5

  6
GENAXEH
  7

 40
1.0
 41
2.5
 42
1.0
 43
10.0
 44
1.0
 45
0.0
 46
0.0
 47
0.1
 48
0.1
140
3.5
141
0.0
142
0.0
143
0.0393701
144
2.0
145
0.0
146
0.71
147
1.5
 71
     0
 72
     0
 73
     0
 74
     0
 75
     1
 76
     1
 77
     1
 78
     8
170
     0
171
     2
172
     1
173
     1
174
     0
175
     0
176
   256
177
   256
178
     2
  0
DIMSTYLE
  2
AM_ISO$0
 70
     0
  3

  4
"
  5

  6

  7

 40
1.0
 41
2.5
 42
1.0
 43
10.0
 44
1.0
 45
0.0
 46
0.0
 47
0.1
 48
0.1
140
3.5
141
0.0
142
0.0
143
0.0393701
144
1.0
145
0.0
146
0.71
147
1.5
 71
     0
 72
     0
 73
     0
 74
     0
 75
     0
 76
     0
 77
     1
 78
     8
170
     0
171
     2
172
     1
173
     0
174
     0
175
     0
176
   256
177
   256
178
     2
  0
ENDTAB
  0
ENDSEC
  0
SECTION
  2
BLOCKS
  0
BLOCK
  8
0
  2
$MODEL_SPACE
 70
     0
 10
0.0
 20
0.0
 30
0.0
  3
$MODEL_SPACE
  1

  0
ENDBLK
  5
1D3
  8
0
  0
BLOCK
 67
     1
  8
0
  2
$PAPER_SPACE
 70
     0
 10
0.0
 20
0.0
 30
0.0
  3
$PAPER_SPACE
  1

  0
ENDBLK
  5
1D1
 67
     1
  8
0
  0
BLOCK
  8
0
  2
GENAXEH
 70
     0
 10
0.0
 20
0.0
 30
0.0
  3
GENAXEH
  1

  0
LINE
  5
264
  8
0
 10
-1.0
 20
0.0
 30
0.0
 11
1.0
 21
0.0
 31
0.0
  0
ENDBLK
  5
266
  8
0
  0
BLOCK
  8
0
  2
_OPEN30
 70
     0
 10
0.0
 20
0.0
 30
0.0
  3
_OPEN30
  1

  0
LINE
  5
2FA
  8
0
  6
BYBLOCK
 62
     0
 10
-1.0
 20
0.26794919
 30
0.0
 11
0.0
 21
0.0
 31
0.0
  0
LINE
  5
2FB
  8
0
  6
BYBLOCK
 62
     0
 10
0.0
 20
0.0
 30
0.0
 11
-1.0
 21
-0.26794919
 31
0.0
  0
LINE
  5
2FC
  8
0
  6
BYBLOCK
 62
     0
 10
0.0
 20
0.0
 30
0.0
 11
-1.0
 21
0.0
 31
0.0
  0
ENDBLK
  5
2FE
  8
0
  0
BLOCK
  8
0
  2
ZUWAKU-A4H
 70
     0
 10
0.0
 20
0.0
 30
0.0
  3
ZUWAKU-A4H
  1

  0
LINE
  5
1B9F
  8
AM_BOR
 62
     3
 10
12.9569999999950891
 20
201.1206999999936045
 30
0.0
 11
12.9569999999997592
 21
10.0
 31
0.0
  0
LINE
  5
1BA0
  8
AM_BOR
 62
     3
 10
289.4570000003852783
 20
201.1206999998576919
 30
0.0
 11
289.4570000000192067
 21
10.0
 31
0.0
  0
LINE
  5
1BA1
  8
AM_BOR
 62
     3
 10
12.9569999999950802
 20
201.1206999999936045
 30
0.0
 11
289.4570000003852783
 21
201.1206999998576919
 31
0.0
  0
LINE
  5
1BA2
  8
AM_BOR
 62
     3
 10
12.9569999999997396
 20
10.0
 30
0.0
 11
289.4570000000192067
 21
10.0
 31
0.0
  0
TEXT
  5
1BA3
  8
SYS-TEISEI0
  6
CONTINUOUS
 62
     3
 10
21.8420000176578597
 20
20.9500000476837194
 30
0.0
 40
3.099999904632567
  1
 
  0
TEXT
  5
1BA4
  8
SYS-TEISEI0
  6
CONTINUOUS
 62
     3
 10
47.3420000444799385
 20
20.9500000476837194
 30
0.0
 40
3.099999904632567
  1
 
  0
TEXT
  5
1BA5
  8
SYS-TEISEI0
  6
CONTINUOUS
 62
     3
 10
106.7019999570845954
 20
20.9500000476837194
 30
0.0
 40
3.099999904632567
  1
 
  0
TEXT
  5
1BA6
  8
SYS-TEISEI0
  6
CONTINUOUS
 62
     3
 10
114.4019999570845982
 20
20.9500000476837194
 30
0.0
 40
3.099999904632567
  1
 
  0
TEXT
  5
1BA7
  8
SYS-TEISEI0
  6
CONTINUOUS
 62
     3
 10
21.8420000176578597
 20
25.9500000476837194
 30
0.0
 40
3.099999904632567
  1
 
  0
TEXT
  5
1BA8
  8
SYS-TEISEI0
  6
CONTINUOUS
 62
     3
 10
47.3420000444799385
 20
25.9500000476837194
 30
0.0
 40
3.099999904632567
  1
 
  0
TEXT
  5
1BA9
  8
SYS-TEISEI0
  6
CONTINUOUS
 62
     3
 10
106.7019999570845954
 20
25.9500000476837194
 30
0.0
 40
3.099999904632567
  1
 
  0
TEXT
  5
1BAA
  8
SYS-TEISEI0
  6
CONTINUOUS
 62
     3
 10
114.4019999570845982
 20
25.9500000476837194
 30
0.0
 40
3.099999904632567
  1
 
  0
TEXT
  5
1BAB
  8
SYS-BUHIN0
  6
CONTINUOUS
 62
     3
 10
260.7069999999999936
 20
52.4500000476837229
 30
0.0
 40
3.099999904632567
  1
 
  0
TEXT
  5
1BAC
  8
SYS-BUHIN0
  6
CONTINUOUS
 62
     3
 10
260.7069999999999936
 20
58.45000004768373
 30
0.0
 40
3.099999904632567
  1
 
  0
TEXT
  5
1BAD
  8
SYS-BUHIN0
  6
CONTINUOUS
 62
     3
 10
260.7069999999999936
 20
64.4500000476837158
 30
0.0
 40
3.099999904632567
  1
 
  0
TEXT
  5
1BAE
  8
AM_BOR
 10
12.9569999999997592
 20
10.0
 30
0.0
 40
5.0
  1
!GENTITLE-LL
  0
TEXT
  5
1BAF
  8
AM_BOR
 10
289.4570000000192067
 20
10.0
 30
0.0
 40
5.0
  1
!GENTITLE-INSERT
  0
TEXT
  5
1BB0
  8
AM_BOR
 10
289.4570000003852783
 20
201.1206999998576919
 30
0.0
 40
5.0
  1
!GENTITLE-RU
  0
TEXT
  5
1BB1
  8
AM_BOR
 10
297.0
 20
210.0
 30
0.0
 40
5.0
  1
!GENTITLE-MAX
  0
ENDBLK
  5
1BB3
  8
0
  0
BLOCK
  8
0
  2
A$C1C06296A
 70
     2
 10
0.0
 20
0.0
 30
0.0
  3
A$C1C06296A
  1

  0
LINE
  5
204C
  8
AM_BOR
 10
198.8685188039937088
 20
17.8867445779319887
 30
0.0
 11
203.2337455721774973
 21
13.5215178097486195
 31
0.0
  0
LINE
  5
204D
  8
AM_BOR
 10
198.8685188039935952
 20
17.8667153513160386
 30
0.0
 11
198.8685188039939931
 21
14.1289643611789106
 31
0.0
  0
LINE
  5
204E
  8
AM_BOR
 10
204.7045172738833969
 20
17.8667153264694107
 30
0.0
 11
204.7045172738839085
 21
14.1811288456255493
 31
0.0
  0
LINE
  5
204F
  8
AM_BOR
 10
204.2042888336073077
 20
17.7930102901758609
 30
0.0
 11
204.204288833606995
 21
14.6986103577410798
 31
0.0
  0
LINE
  5
2050
  8
AM_BOR
 10
199.3687472442697981
 20
17.1760524653333491
 30
0.0
 11
199.3687472442705939
 21
14.1978003551034107
 31
0.0
  0
LINE
  5
2051
  8
AM_BOR
 10
200.4375646203926919
 20
18.4653345709555303
 30
0.0
 11
204.2042888336073077
 21
14.6986103577405203
 31
0.0
  0
LINE
  5
2052
  8
AM_BOR
 10
199.3687472442697128
 20
17.1760524653325497
 30
0.0
 11
203.0271328720340875
 21
13.5176668375685196
 31
0.0
  0
ARC
  5
2053
  8
AM_BOR
 10
198.3682903686870134
 20
17.8667153513160493
 30
0.0
 40
0.500228440276212
 50
0.0
 51
50.265515568291427
  0
ARC
  5
2054
  8
AM_BOR
 10
198.3682903438408118
 20
14.1289643611789195
 30
0.0
 40
0.500228440276212
 50
304.6975967840527915
 51
0.0
  0
ARC
  5
2055
  8
AM_BOR
 10
205.2047457340366918
 20
17.8667153264694107
 30
0.0
 40
0.500228440276212
 50
127.0284887689632995
 51
180.0000050089562933
  0
ARC
  5
2056
  8
AM_BOR
 10
203.5373175699668877
 20
17.7930102901758183
 30
0.0
 40
0.6669712537016159
 50
0.0
 51
74.7148235688661515
  0
ARC
  5
2057
  8
AM_BOR
 10
200.0357184979716862
 20
14.1978003551033893
 30
0.0
 40
0.6669712537016159
 50
180.0000050089562933
 51
256.4857883914604031
  0
LINE
  5
2058
  8
AM_BOR
 10
210.9573727773361895
 20
15.9934456649946792
 30
0.0
 11
210.9224749062998967
 21
16.211434571273589
 31
0.0
  0
LINE
  5
2059
  8
AM_BOR
 10
210.9224749062994135
 20
16.2114345712734114
 30
0.0
 11
210.8180468870608024
 21
16.4277644503503701
 31
0.0
  0
LINE
  5
205A
  8
AM_BOR
 10
210.8180468870604045
 20
16.4277644503503701
 30
0.0
 11
210.6448834799014946
 21
16.6407889012216685
 31
0.0
  0
LINE
  5
205B
  8
AM_BOR
 10
210.6448834799012957
 20
16.6407889012216188
 30
0.0
 11
210.4043025629098054
 21
16.8488866791887588
 31
0.0
  0
LINE
  5
205C
  8
AM_BOR
 10
210.4043025629094927
 20
16.8488866791890004
 30
0.0
 11
210.098135102129703
 21
17.0504740345086887
 31
0.0
  0
LINE
  5
205D
  8
AM_BOR
 10
210.0981351021299872
 20
17.0504740345085501
 30
0.0
 11
209.7287112168075964
 21
17.2440167656851386
 31
0.0
  0
LINE
  5
205E
  8
AM_BOR
 10
209.7287112168071133
 20
17.2440167656852097
 30
0.0
 11
209.2988424457736869
 21
17.4280418956699883
 31
0.0
  0
LINE
  5
205F
  8
AM_BOR
 10
209.2988424457736869
 20
17.4280418956700807
 30
0.0
 11
208.8118003499388919
 21
17.6011488821063686
 31
0.0
  0
LINE
  5
2060
  8
AM_BOR
 10
208.8118003499388919
 20
17.6011488821064397
 30
0.0
 11
208.2712916137359116
 21
17.7620202763029695
 31
0.0
  0
LINE
  5
2061
  8
AM_BOR
 10
208.2712916137361105
 20
17.7620202763030903
 30
0.0
 11
207.681429835015507
 21
17.9094317498130806
 31
0.0
  0
LINE
  5
2062
  8
AM_BOR
 10
207.6814298350153081
 20
17.9094317498129705
 30
0.0
 11
207.0467042180816861
 21
18.0422614123133584
 31
0.0
  0
LINE
  5
2063
  8
AM_BOR
 10
207.0467042180816861
 20
18.0422614123134402
 30
0.0
 11
206.371945408137293
 21
18.1594983498679703
 31
0.0
  0
LINE
  5
2064
  8
AM_BOR
 10
206.371945408137492
 20
18.1594983498678815
 30
0.0
 11
205.6622887271568061
 21
18.2602503185922984
 31
0.0
  0
LINE
  5
2065
  8
AM_BOR
 10
205.6622887271566071
 20
18.2602503185923695
 30
0.0
 11
205.022423745999788
 21
18.3325341603967402
 31
0.0
  0
LINE
  5
2066
  8
AM_BOR
 10
205.0224237459993901
 20
18.3325341603967793
 30
0.0
 11
204.923135090983692
 21
18.3437505351688195
 31
0.0
  0
LINE
  5
2067
  8
AM_BOR
 10
204.923135090983692
 20
18.3437505351687484
 30
0.0
 11
204.1601099051040933
 21
18.409363512530259
 31
0.0
  0
LINE
  5
2068
  8
AM_BOR
 10
204.1601099051048038
 20
18.409363512530259
 30
0.0
 11
203.713146860105013
 21
18.4363878729324711
 31
0.0
  0
LINE
  5
2069
  8
AM_BOR
 10
200.437564620392493
 20
18.4653345709555694
 30
0.0
 11
200.1940158259679094
 21
18.4565898963008799
 31
0.0
  0
LINE
  5
206A
  8
AM_BOR
 10
200.1940158259679947
 20
18.4565898963009012
 30
0.0
 11
199.4129261727725861
 21
18.4093635125303088
 31
0.0
  0
LINE
  5
206B
  8
AM_BOR
 10
199.4129261727725861
 20
18.4093635125302484
 30
0.0
 11
198.6499009868929875
 21
18.3437505351687591
 31
0.0
  0
LINE
  5
206C
  8
AM_BOR
 10
198.550612373156298
 20
18.3325341650599789
 30
0.0
 11
197.9107473507208965
 21
18.2602503185924689
 31
0.0
  0
LINE
  5
206D
  8
AM_BOR
 10
198.6499009868929875
 20
18.3437505351687911
 30
0.0
 11
198.550612373156298
 21
18.3325341650599185
 31
0.0
  0
LINE
  5
206E
  8
AM_BOR
 10
197.9107473507212092
 20
18.2602503185924299
 30
0.0
 11
197.2010906697404948
 21
18.1594983498680413
 31
0.0
  0
LINE
  5
206F
  8
AM_BOR
 10
197.2010906697404096
 20
18.1594983498680911
 30
0.0
 11
196.5263318597957891
 21
18.042261412313529
 31
0.0
  0
LINE
  5
2070
  8
AM_BOR
 10
196.5263318597959028
 20
18.0422614123135894
 30
0.0
 11
195.8916062428623945
 21
17.9094317498132192
 31
0.0
  0
LINE
  5
2071
  8
AM_BOR
 10
195.8916062428617124
 20
17.9094317498130202
 30
0.0
 11
195.3017444641411942
 21
17.7620202763030584
 31
0.0
  0
LINE
  5
2072
  8
AM_BOR
 10
195.3017444641409952
 20
17.7620202763031614
 30
0.0
 11
194.7612357279377875
 21
17.6011488821066102
 31
0.0
  0
LINE
  5
2073
  8
AM_BOR
 10
194.7612357279377875
 20
17.6011488821065605
 30
0.0
 11
194.2741936321029925
 21
17.4280418956701517
 31
0.0
  0
LINE
  5
2074
  8
AM_BOR
 10
194.2741936321033904
 20
17.4280418956701517
 30
0.0
 11
193.8443248610695946
 21
17.2440167656852594
 31
0.0
  0
LINE
  5
2075
  8
AM_BOR
 10
193.8443248610695946
 20
17.2440167656852097
 30
0.0
 11
193.4749009757472038
 21
17.0504740345086496
 31
0.0
  0
LINE
  5
2076
  8
AM_BOR
 10
193.4749009757472038
 20
17.0504740345086709
 30
0.0
 11
193.1687335149671867
 21
16.8488866791889293
 31
0.0
  0
LINE
  5
2077
  8
AM_BOR
 10
193.1687335149673004
 20
16.8488866791889507
 30
0.0
 11
192.9281525979749858
 21
16.6407889012216188
 31
0.0
  0
LINE
  5
2078
  8
AM_BOR
 10
192.9281525979752985
 20
16.6407889012218106
 30
0.0
 11
192.7549891908163886
 21
16.4277644503504199
 31
0.0
  0
LINE
  5
2079
  8
AM_BOR
 10
192.7549891908163886
 20
16.4277644503503488
 30
0.0
 11
192.6505611715776922
 21
16.2114345712734789
 31
0.0
  0
LINE
  5
207A
  8
AM_BOR
 10
192.6505611715778912
 20
16.2114345712737311
 30
0.0
 11
192.6156633005415131
 21
15.9934456649946792
 31
0.0
  0
LINE
  5
207B
  8
AM_BOR
 10
192.6156633005406889
 20
15.9934456649946402
 30
0.0
 11
192.6505611715772091
 21
15.7754567587157908
 31
0.0
  0
LINE
  5
207C
  8
AM_BOR
 10
192.6505611715776922
 20
15.7754567587159293
 30
0.0
 11
192.7549891908163033
 21
15.5591268796391304
 31
0.0
  0
LINE
  5
207D
  8
AM_BOR
 10
192.7549891908163886
 20
15.5591268796390292
 30
0.0
 11
192.9281525979752985
 21
15.3461024287676402
 31
0.0
  0
LINE
  5
207E
  8
AM_BOR
 10
192.9281525979750995
 20
15.3461024287676899
 30
0.0
 11
193.1687335149671867
 21
15.1380046508005002
 31
0.0
  0
LINE
  5
207F
  8
AM_BOR
 10
193.1687335149669025
 20
15.1380046508005002
 30
0.0
 11
193.4749009757468912
 21
14.9364172954808101
 31
0.0
  0
LINE
  5
2080
  8
AM_BOR
 10
193.4749009757472891
 20
14.9364172954807106
 30
0.0
 11
193.8443248610695946
 21
14.7428745643040795
 31
0.0
  0
LINE
  5
2081
  8
AM_BOR
 10
193.8443248610695093
 20
14.7428745643041701
 30
0.0
 11
194.2741936321027083
 21
14.5588494343193506
 31
0.0
  0
LINE
  5
2082
  8
AM_BOR
 10
194.2741936321031915
 20
14.5588494343194395
 30
0.0
 11
194.7612357279379012
 21
14.3857424478829596
 31
0.0
  0
LINE
  5
2083
  8
AM_BOR
 10
194.7612357279377875
 20
14.3857424478827696
 30
0.0
 11
195.3017444641409952
 21
14.2248710536861704
 31
0.0
  0
LINE
  5
2084
  8
AM_BOR
 10
195.3017444641409952
 20
14.2248710536863108
 30
0.0
 11
195.8916062428619966
 21
14.0774595801763507
 31
0.0
  0
LINE
  5
2085
  8
AM_BOR
 10
195.8916062428619114
 20
14.0774595801762192
 30
0.0
 11
196.5263318597957891
 21
13.9446299176757904
 31
0.0
  0
LINE
  5
2086
  8
AM_BOR
 10
196.5263318597953912
 20
13.9446299176758206
 30
0.0
 11
197.201090669739699
 21
13.8273929801213207
 31
0.0
  0
LINE
  5
2087
  8
AM_BOR
 10
197.2010906697404948
 20
13.8273929801213296
 30
0.0
 11
197.9107473507208965
 21
13.7266410113970494
 31
0.0
  0
LINE
  5
2088
  8
AM_BOR
 10
197.9107473507204986
 20
13.7266410113971098
 30
0.0
 11
198.5412166771806994
 21
13.6554185716662193
 31
0.0
  0
LINE
  5
2089
  8
AM_BOR
 10
198.5412166771799889
 20
13.6554185716662495
 30
0.0
 11
198.6499009868925896
 21
13.6431407948207308
 31
0.0
  0
LINE
  5
208A
  8
AM_BOR
 10
198.6499009868929022
 20
13.6431407948206793
 30
0.0
 11
199.4129261727725861
 21
13.57752781745919
 31
0.0
  0
LINE
  5
208B
  8
AM_BOR
 10
199.4129261727725861
 20
13.5775278174592007
 30
0.0
 11
199.8798563250743996
 21
13.5492962022068202
 31
0.0
  0
LINE
  5
208C
  8
AM_BOR
 10
203.0271328720324959
 20
13.5176668375699904
 30
0.0
 11
203.379020251909111
 21
13.5303014336886491
 31
0.0
  0
LINE
  5
208D
  8
AM_BOR
 10
203.3790202519091963
 20
13.5303014336885994
 30
0.0
 11
204.1601099051044059
 21
13.57752781745919
 31
0.0
  0
LINE
  5
208E
  8
AM_BOR
 10
204.7045172738839938
 20
13.6243417221955792
 30
0.0
 11
204.9231350909844025
 21
13.6431407948207504
 31
0.0
  0
LINE
  5
208F
  8
AM_BOR
 10
204.1601099051044059
 20
13.5775278174591705
 30
0.0
 11
204.7045172738837948
 21
13.6243417221955099
 31
0.0
  0
LINE
  5
2090
  8
AM_BOR
 10
204.9231350909840899
 20
13.6431407948207593
 30
0.0
 11
205.6622887271566924
 21
13.7266410113971506
 31
0.0
  0
LINE
  5
2091
  8
AM_BOR
 10
205.6622887271566071
 20
13.7266410113971098
 30
0.0
 11
206.3719454081370941
 21
13.8273929801214006
 31
0.0
  0
LINE
  5
2092
  8
AM_BOR
 10
206.371945408137492
 20
13.8273929801214503
 30
0.0
 11
207.0467042180819135
 21
13.9446299176759396
 31
0.0
  0
LINE
  5
2093
  8
AM_BOR
 10
207.0467042180816861
 20
13.9446299176759698
 30
0.0
 11
207.6814298350155923
 21
14.0774595801763702
 31
0.0
  0
LINE
  5
2094
  8
AM_BOR
 10
207.681429835015507
 20
14.0774595801762903
 30
0.0
 11
208.2712916137361105
 21
14.2248710536862504
 31
0.0
  0
LINE
  5
2095
  8
AM_BOR
 10
208.2712916137361958
 20
14.2248710536862895
 30
0.0
 11
208.8118003499392898
 21
14.3857424478828904
 31
0.0
  0
LINE
  5
2096
  8
AM_BOR
 10
208.8118003499392898
 20
14.3857424478829206
 30
0.0
 11
209.2988424457741132
 21
14.5588494343193506
 31
0.0
  0
LINE
  5
2097
  8
AM_BOR
 10
209.2988424457739995
 20
14.5588494343193204
 30
0.0
 11
209.7287112168075112
 21
14.7428745643042198
 31
0.0
  0
LINE
  5
2098
  8
AM_BOR
 10
209.7287112168071133
 20
14.7428745643041506
 30
0.0
 11
210.098135102129703
 21
14.9364172954808296
 31
0.0
  0
LINE
  5
2099
  8
AM_BOR
 10
210.0981351021299872
 20
14.9364172954808101
 30
0.0
 11
210.4043025629098906
 21
15.1380046508003598
 31
0.0
  0
LINE
  5
209A
  8
AM_BOR
 10
210.4043025629100043
 20
15.1380046508005499
 30
0.0
 11
210.6448834799020062
 21
15.3461024287677308
 31
0.0
  0
LINE
  5
209B
  8
AM_BOR
 10
210.6448834799016936
 20
15.3461024287678303
 30
0.0
 11
210.8180468870608024
 21
15.5591268796390292
 31
0.0
  0
LINE
  5
209C
  8
AM_BOR
 10
210.8180468870606887
 20
15.5591268796390594
 30
0.0
 11
210.9224749062989872
 21
15.7754567587158601
 31
0.0
  0
LINE
  5
209D
  8
AM_BOR
 10
210.9224749062998114
 20
15.7754567587157908
 30
0.0
 11
210.9573727773361895
 21
15.9934456649946206
 31
0.0
  0
LINE
  5
209E
  8
AM_BOR
 10
199.1051424870479138
 20
18.3828970152541906
 30
0.0
 11
203.9247425107741094
 21
13.5632969915274995
 31
0.0
  0
ARC
  5
209F
  8
AM_BOR
 10
205.2047457141601967
 20
14.1811288456255493
 30
0.0
 40
0.500228440276212
 50
180.0
 51
244.5184856857075033
  0
LINE
  5
20A0
  8
AM_BOR
 10
199.3652192817665139
 20
18.405261169360589
 30
0.0
 11
204.1903520906298866
 21
13.5801283604962197
 31
0.0
  0
LINE
  5
20A1
  8
AM_BOR
 10
199.6304084355469968
 20
18.4225129644057191
 30
0.0
 11
204.4504288853489982
 21
13.6024925146027709
 31
0.0
  0
LINE
  5
20A2
  8
AM_BOR
 10
199.8967460324556953
 20
18.4386163163227188
 30
0.0
 11
204.7077689502328894
 21
13.6275933985446098
 31
0.0
  0
LINE
  5
20A3
  8
AM_BOR
 10
200.1630836293643085
 20
18.4547196682397612
 30
0.0
 11
204.9488987968830997
 21
13.66890450072008
 31
0.0
  0
LINE
  5
20A4
  8
AM_BOR
 10
198.8450656923284043
 20
18.3605328611475898
 30
0.0
 11
203.6584049138650983
 21
13.5471936396104091
 31
0.0
  0
LINE
  5
20A5
  8
AM_BOR
 10
198.7943784573330959
 20
18.1287791473180704
 30
0.0
 11
203.3920673169571103
 21
13.5310902876933596
 31
0.0
  0
LINE
  5
20A6
  8
AM_BOR
 10
199.0183057366432138
 20
18.3754298728270093
 30
0.0
 11
199.0183057366432138
 21
13.6114614571624397
 31
0.0
  0
LINE
  5
20A7
  8
AM_BOR
 10
199.2180216468426011
 20
18.3926035595376796
 30
0.0
 11
199.2180216468426011
 21
13.5942877704517908
 31
0.0
  0
LINE
  5
20A8
  8
AM_BOR
 10
204.5547303412338067
 20
18.3754298728269987
 30
0.0
 11
204.5547303412338067
 21
13.6114614571624504
 31
0.0
  0
LINE
  5
20A9
  8
AM_BOR
 10
204.35501443103459
 20
18.3926035595376405
 30
0.0
 11
204.35501443103459
 21
13.5942877704517908
 31
0.0
  0
LINE
  5
20AA
  8
AM_BOR
 62
     4
 10
-0.0000001316067255
 20
15.0000001731112906
 30
0.0
 11
190.4999998683931892
 21
15.0000001731112906
 31
0.0
  0
LINE
  5
20AB
  8
AM_BOR
 62
     4
 10
276.4999998683932745
 20
28.0000001731112889
 30
0.0
 11
276.4999998683932745
 21
0.000000173111296
 31
0.0
  0
LINE
  5
20AC
  8
AM_BOR
 62
     4
 10
-0.0000001316067255
 20
15.0000001731112906
 30
0.0
 11
-0.0000001316067255
 21
0.000000173111296
 31
0.0
  0
LINE
  5
20AD
  8
AM_BOR
 62
     4
 10
-0.0000001316067255
 20
28.0000001731112889
 30
0.0
 11
276.4999998683932745
 21
28.0000001731112889
 31
0.0
  0
LINE
  5
20AE
  8
AM_BOR
 62
     4
 10
15.9999998683932692
 20
15.0000001731112906
 30
0.0
 11
15.9999998683932692
 21
0.000000173111296
 31
0.0
  0
TEXT
  5
20AF
  8
AM_BOR
 62
     4
 10
215.1799998683933097
 20
10.0000001731112906
 30
0.0
 40
1.5
  1
NAKANISHI　INDUSTRIAL CO., LTD.
 41
1.5
  0
TEXT
  5
20B0
  8
AM_BOR
 62
     3
 10
213.1999998683932915
 20
13.5000001731112906
 30
0.0
 40
5.5
  1
中西産業株式会社
 41
1.1999999999999991
  0
TEXT
  5
20B1
  8
AM_BOR
 62
     4
 10
196.1927879374059955
 20
10.0000001731112906
 30
0.0
 40
1.5
  1
Nakanishi
 41
1.1999999999999991
  0
TEXT
  5
20B2
  8
AM_BOR
 62
     7
 10
98.104999768257457
 20
15.6500001850322192
 30
0.0
 40
1.0
  1
FINISH
 41
1.6000000000000001
  0
TEXT
  5
20B3
  8
AM_BOR
 62
     7
 10
96.9799997086527981
 20
17.7000002207950082
 30
0.0
 40
2.7999999999999989
  1
仕　　上
  0
TEXT
  5
20B4
  8
AM_BOR
 62
     7
 10
3.1549997801784002
 20
15.6500001850322192
 30
0.0
 40
1.0
  1
MATERIAL
 41
1.6000000000000001
  0
TEXT
  5
20B5
  8
AM_BOR
 62
     7
 10
1.729999708652826
 20
17.7000002207950082
 30
0.0
 40
2.7999999999999989
  1
材　　質
  0
LINE
  5
20B6
  8
AM_BOR
 62
     4
 10
190.4999998683931892
 20
28.0000001731112889
 30
0.0
 11
190.4999998683931892
 21
0.000000173111296
 31
0.0
  0
LINE
  5
20B7
  8
AM_BOR
 62
     4
 10
-0.0000001316067255
 20
28.0000001731112889
 30
0.0
 11
-0.0000001316067255
 21
15.0000001731112906
 31
0.0
  0
LINE
  5
20B8
  8
AM_BOR
 62
     4
 10
-0.0000001316067255
 20
21.5000001731112889
 30
0.0
 11
190.4999998683931892
 21
21.5000001731112889
 31
0.0
  0
LINE
  5
20B9
  8
AM_BOR
 62
     4
 10
15.9999998683932692
 20
28.0000001731112889
 30
0.0
 11
15.9999998683932692
 21
15.0000001731112906
 31
0.0
  0
TEXT
  5
20BA
  8
AM_BOR
 62
     7
 10
98.104999768257457
 20
22.1500001850322192
 30
0.0
 40
1.0
  1
ART. NO.
 41
1.6000000000000001
  0
TEXT
  5
20BB
  8
AM_BOR
 62
     7
 10
96.9799997086526844
 20
24.2000002207950082
 30
0.0
 40
2.7999999999999989
  1
品　　番
  0
TEXT
  5
20BC
  8
AM_BOR
 62
     7
 10
3.1549997801784002
 20
22.1500001850322192
 30
0.0
 40
1.0
  1
ARTICLE
 41
1.6000000000000001
  0
TEXT
  5
20BD
  8
AM_BOR
 62
     7
 10
1.7299997086527119
 20
24.2000002207950082
 30
0.0
 40
2.7999999999999989
  1
品　　名
  0
LINE
  5
20BE
  8
AM_BOR
 62
     4
 10
-0.0000001316067255
 20
15.0000001731112906
 30
0.0
 11
-0.0000001316067255
 21
0.0000001731112924
 31
0.0
  0
LINE
  5
20BF
  8
AM_BOR
 62
     4
 10
95.2499998683932461
 20
28.0000001731112889
 30
0.0
 11
95.2499998683932461
 21
0.000000173111296
 31
0.0
  0
TEXT
  5
20C0
  8
AM_BOR
 62
     7
 10
3.1549997801784002
 20
9.1500001850322192
 30
0.0
 40
1.0
  1
REMARKS
 41
1.6000000000000001
  0
TEXT
  5
20C1
  8
AM_BOR
 62
     7
 10
1.7299997086527119
 20
11.20000022079501
 30
0.0
 40
2.7999999999999989
  1
備　　考
  0
LINE
  5
20C2
  8
AM_BOR
 62
     4
 10
111.2499998683932034
 20
28.0000001731112889
 30
0.0
 11
111.2499998683932034
 21
0.000000173111296
 31
0.0
  0
LINE
  5
20C3
  8
AM_BOR
 62
     4
 10
-0.0000001316067255
 20
0.000000173111296
 30
0.0
 11
276.4999998683932745
 21
0.000000173111296
 31
0.0
  0
TEXT
  5
20C4
  8
AM_BOR
 62
     7
 10
98.404999780178386
 20
9.1500001850322157
 30
0.0
 40
1.0
  1
SETS
 41
1.6000000000000001
  0
TEXT
  5
20C5
  8
AM_BOR
 62
     7
 10
96.9799997086526844
 20
11.20000022079501
 30
0.0
 40
2.7999999999999989
  1
セット品
  0
ATTDEF
  5
20C6
  8
AM_BOR
 62
     7
 10
114.3107095753831004
 20
0.5000001731112853
 30
0.0
 40
3.0
  1

 11
114.3107095753831004
 21
2.0000001731112849
 31
0.0
  3
セット
  2
SETS｛20｝
 70
     0
 74
     2
1001
ACADANNOTATIVE
1000
AnnotativeData
1002
{
1070
     1
1070
     0
1002
}
1001
ACDBATTR
1070
     0
1070
     1
  0
ATTDEF
  5
20CA
  8
AM_BOR
 62
     7
 10
19.0607095753831608
 20
0.5000001731112889
 30
0.0
 40
3.0
  1

 11
19.0607095753831608
 21
2.000000173111288
 31
0.0
  3
備　　考
  2
REMARKS｛20｝
 70
     0
 74
     2
1001
ACADANNOTATIVE
1000
AnnotativeData
1002
{
1070
     1
1070
     0
1002
}
1001
ACDBATTR
1070
     0
1070
     1
  0
ATTDEF
  5
20CE
  8
AM_BOR
 62
     7
 10
114.3107095753831004
 20
5.5000001731112853
 30
0.0
 40
3.0
  1

 11
114.3107095753831004
 21
7.0000001731112853
 31
0.0
  3
セット
  2
SETS｛20｝
 70
     0
 74
     2
1001
ACADANNOTATIVE
1000
AnnotativeData
1002
{
1070
     1
1070
     0
1002
}
1001
ACDBATTR
1070
     0
1070
     1
  0
ATTDEF
  5
20D2
  8
AM_BOR
 62
     7
 10
19.0607095753831608
 20
5.500000173111288
 30
0.0
 40
3.0
  1

 11
19.0607095753831608
 21
7.000000173111288
 31
0.0
  3
備　　考
  2
REMARKS｛20｝
 70
     0
 74
     2
1001
ACADANNOTATIVE
1000
AnnotativeData
1002
{
1070
     1
1070
     0
1002
}
1001
ACDBATTR
1070
     0
1070
     1
  0
ATTDEF
  5
20D6
  8
AM_BOR
 62
     7
 10
114.3107095753831004
 20
10.50000017311128
 30
0.0
 40
3.0
  1

 11
114.3107095753831004
 21
12.00000017311128
 31
0.0
  3
セット
  2
SETS｛20｝
 70
     0
 74
     2
1001
ACADANNOTATIVE
1000
AnnotativeData
1002
{
1070
     1
1070
     0
1002
}
1001
ACDBATTR
1070
     0
1070
     1
  0
ATTDEF
  5
20DA
  8
AM_BOR
 62
     7
 10
19.0607095753831608
 20
10.5000001731112906
 30
0.0
 40
3.0
  1

 11
19.0607095753831608
 21
12.0000001731112906
 31
0.0
  3
備　　考
  2
REMARKS｛20｝
 70
     0
 74
     2
1001
ACADANNOTATIVE
1000
AnnotativeData
1002
{
1070
     1
1070
     0
1002
}
1001
ACDBATTR
1070
     0
1070
     1
  0
ATTDEF
  5
20DE
  8
AM_BOR
 62
     7
 10
114.2499998683932034
 20
23.5000001731112889
 30
0.0
 40
3.0
  1

 11
114.2499998683932034
 21
25.0000001731112889
 31
0.0
  3
品    番
  2
ART_NO｛20｝
 70
     0
 74
     2
1001
ACADANNOTATIVE
1000
AnnotativeData
1002
{
1070
     1
1070
     0
1002
}
1001
ACDBATTR
1070
     0
1070
     1
  0
ATTDEF
  5
20E2
  8
AM_BOR
 62
     7
 10
18.9999998683932709
 20
23.5000001731112889
 30
0.0
 40
3.0
  1

 11
18.9999998683932709
 21
25.0000001731112889
 31
0.0
  3
品    名
  2
ARTICLE｛20｝
 70
     0
 74
     2
1001
ACADANNOTATIVE
1000
AnnotativeData
1002
{
1070
     1
1070
     0
1002
}
1001
ACDBATTR
1070
     0
1070
     1
  0
ATTDEF
  5
20E6
  8
AM_BOR
 62
     7
 10
114.2499998683932034
 20
17.0000001731112889
 30
0.0
 40
3.0
  1

 11
114.2499998683932034
 21
18.5000001731112889
 31
0.0
  3
仕上
  2
FINISH｛20｝
 70
     0
 74
     2
1001
ACADANNOTATIVE
1000
AnnotativeData
1002
{
1070
     1
1070
     0
1002
}
1001
ACDBATTR
1070
     0
1070
     1
  0
ATTDEF
  5
20EA
  8
AM_BOR
 62
     7
 10
18.9999998683932709
 20
17.0000001731112889
 30
0.0
 40
3.0
  1

 11
18.9999998683932709
 21
18.5000001731112889
 31
0.0
  3
材　　質
  2
MATERIAK｛20｝
 70
     0
 74
     2
1001
ACADANNOTATIVE
1000
AnnotativeData
1002
{
1070
     1
1070
     0
1002
}
1001
ACDBATTR
1070
     0
1070
     1
  0
ENDBLK
  5
20F1
  8
0
  0
BLOCK
  8
0
  2
*D27
 70
     1
 10
0.0
 20
0.0
 30
0.0
  3
*D27
  1

  0
LINE
  5
4577
  8
寸法
 62
     0
 10
226.0668112088054045
 20
127.0807641122414964
 30
0.0
 11
226.0668112088054045
 21
127.2807641122414992
 31
0.0
  0
LINE
  5
4578
  8
寸法
 62
     0
 10
225.0668112088054045
 20
129.3841083412312969
 30
0.0
 11
225.0668112088054045
 21
125.2807641122414992
 31
0.0
  0
LINE
  5
4579
  8
寸法
 62
     0
 10
227.0668112088054045
 20
126.2807641122414992
 30
0.0
 11
228.0668112088054045
 21
126.2807641122414992
 31
0.0
  0
LINE
  5
457A
  8
寸法
 62
     0
 10
224.0668112088054045
 20
126.2807641122414992
 30
0.0
 11
223.0668112088054045
 21
126.2807641122414992
 31
0.0
  0
INSERT
  5
457B
  8
0
  2
*U43
 10
0.0
 20
0.0
 30
0.0
  0
SOLID
  5
457C
  8
寸法
 62
     0
 10
227.0668112088054045
 20
126.4474307789080996
 30
0.0
 11
227.0668112088054045
 21
126.1140974455747994
 31
0.0
 12
226.0668112088054045
 22
126.2807641122414992
 32
0.0
 13
226.0668112088054045
 23
126.2807641122414992
 33
0.0
  0
SOLID
  5
457D
  8
寸法
 62
     0
 10
224.0668112088054045
 20
126.4474307789080996
 30
0.0
 11
224.0668112088054045
 21
126.1140974455747994
 31
0.0
 12
225.0668112088054045
 22
126.2807641122414992
 32
0.0
 13
225.0668112088054045
 23
126.2807641122414992
 33
0.0
  0
POINT
  5
457E
  8
DEFPOINTS
 62
     0
 10
226.0668112088054045
 20
126.2807641122414992
 30
0.0
  0
POINT
  5
457F
  8
DEFPOINTS
 62
     0
 10
225.0668112088054045
 20
130.1841083412313935
 30
0.0
  0
POINT
  5
4580
  8
DEFPOINTS
 62
     0
 10
225.0668112088054045
 20
126.2807641122414992
 30
0.0
  0
ENDBLK
  5
4391
  8
0
  0
BLOCK
  8
0
  2
*D28
 70
     1
 10
0.0
 20
0.0
 30
0.0
  3
*D28
  1

  0
LINE
  5
4654
  8
寸法
 62
     0
 10
101.6650366792865015
 20
150.8341083412313992
 30
0.0
 11
70.4936823280840343
 21
150.8341083412313992
 31
0.0
  0
LINE
  5
4655
  8
寸法
 62
     0
 10
101.0150366792864958
 20
131.8341083412313992
 30
0.0
 11
70.4936823280840343
 21
131.8341083412313992
 31
0.0
  0
LINE
  5
4656
  8
寸法
 62
     0
 10
71.4936823280840485
 20
149.8341083412313992
 30
0.0
 11
71.4936823280840485
 21
132.8341083412313992
 31
0.0
  0
SOLID
  5
4657
  8
寸法
 62
     0
 10
71.3270156614173629
 20
149.8341083412313992
 30
0.0
 11
71.6603489947507057
 21
149.8341083412313992
 31
0.0
 12
71.4936823280840485
 22
150.8341083412313992
 32
0.0
 13
71.4936823280840485
 23
150.8341083412313992
 33
0.0
  0
SOLID
  5
4658
  8
寸法
 62
     0
 10
71.3270156614173629
 20
132.8341083412313992
 30
0.0
 11
71.6603489947507057
 21
132.8341083412313992
 31
0.0
 12
71.4936823280840485
 22
131.8341083412313992
 32
0.0
 13
71.4936823280840485
 23
131.8341083412313992
 33
0.0
  0
TEXT
  8
寸法
  40
3.1
  5
4692
  62
0
  72
0
  71
0
 10
63.6537
 20
135.847
 30
0.000000
  1
19
  0
POINT
  5
465A
  8
DEFPOINTS
 62
     0
 10
102.4650366792864986
 20
150.8341083412313992
 30
0.0
  0
POINT
  5
465B
  8
DEFPOINTS
 62
     0
 10
101.8150366792864929
 20
131.8341083412313992
 30
0.0
  0
POINT
  5
465C
  8
DEFPOINTS
 62
     0
 10
71.4936823280840485
 20
131.8341083412313992
 30
0.0
  0
ENDBLK
  5
439E
  8
0
  0
BLOCK
  8
0
  2
*D29
 70
     1
 10
0.0
 20
0.0
 30
0.0
  3
*D29
  1

  0
LINE
  5
4581
  8
寸法
 62
     0
 10
228.3668112088053874
 20
172.1341083412312969
 30
0.0
 11
228.3668112088053874
 21
177.2102188627970065
 31
0.0
  0
LINE
  5
4582
  8
寸法
 62
     0
 10
226.0668112088054045
 20
172.1341083412312969
 30
0.0
 11
226.0668112088054045
 21
177.2102188627970065
 31
0.0
  0
LINE
  5
4583
  8
寸法
 62
     0
 10
227.3668112088053874
 20
176.2102188627970065
 30
0.0
 11
227.0668112088054045
 21
176.2102188627970065
 31
0.0
  0
INSERT
  5
4584
  8
0
  2
*U44
 10
0.0
 20
0.0
 30
0.0
  0
SOLID
  5
4585
  8
寸法
 62
     0
 10
227.3668112088053874
 20
176.3768855294636921
 30
0.0
 11
227.3668112088053874
 21
176.0435521961302925
 31
0.0
 12
228.3668112088053874
 22
176.2102188627970065
 32
0.0
 13
228.3668112088053874
 23
176.2102188627970065
 33
0.0
  0
SOLID
  5
4586
  8
寸法
 62
     0
 10
227.0668112088054045
 20
176.3768855294636921
 30
0.0
 11
227.0668112088054045
 21
176.0435521961302925
 31
0.0
 12
226.0668112088054045
 22
176.2102188627970065
 32
0.0
 13
226.0668112088054045
 23
176.2102188627970065
 33
0.0
  0
POINT
  5
4587
  8
DEFPOINTS
 62
     0
 10
228.3668112088053874
 20
171.3341083412313139
 30
0.0
  0
POINT
  5
4588
  8
DEFPOINTS
 62
     0
 10
226.0668112088054045
 20
171.3341083412313139
 30
0.0
  0
POINT
  5
4589
  8
DEFPOINTS
 62
     0
 10
226.0668112088054045
 20
176.2102188627970065
 30
0.0
  0
ENDBLK
  5
43AA
  8
0
  0
BLOCK
  8
0
  2
*D30
 70
     1
 10
0.0
 20
0.0
 30
0.0
  3
*D30
  1

  0
LINE
  5
454A
  8
寸法
 62
     0
 10
83.3150366792864929
 20
171.3341083412313992
 30
0.0
 11
59.68009042844362
 21
171.3341083412313139
 31
0.0
  0
LINE
  5
454B
  8
寸法
 62
     0
 10
83.3150366792864929
 20
111.3341083412313992
 30
0.0
 11
59.6800904284436271
 21
111.3341083412313992
 31
0.0
  0
LINE
  5
454C
  8
寸法
 62
     0
 10
60.68009042844362
 20
170.3341083412313139
 30
0.0
 11
60.68009042844362
 21
112.3341083412313992
 31
0.0
  0
SOLID
  5
454D
  8
寸法
 62
     0
 10
60.5134237617769628
 20
170.3341083412313139
 30
0.0
 11
60.8467570951102772
 21
170.3341083412313139
 31
0.0
 12
60.68009042844362
 22
171.3341083412313139
 32
0.0
 13
60.68009042844362
 23
171.3341083412313139
 33
0.0
  0
SOLID
  5
454E
  8
寸法
 62
     0
 10
60.5134237617769628
 20
112.3341083412313992
 30
0.0
 11
60.8467570951102914
 21
112.3341083412313992
 31
0.0
 12
60.6800904284436271
 22
111.3341083412313992
 32
0.0
 13
60.6800904284436271
 23
111.3341083412313992
 33
0.0
  0
INSERT
  5
454F
  8
0
  2
*U41
 10
0.0
 20
0.0
 30
0.0
  0
POINT
  5
4550
  8
DEFPOINTS
 62
     0
 10
84.1150366792865043
 20
171.3341083412313992
 30
0.0
  0
POINT
  5
4551
  8
DEFPOINTS
 62
     0
 10
84.1150366792865043
 20
111.3341083412313992
 30
0.0
  0
POINT
  5
4552
  8
DEFPOINTS
 62
     0
 10
60.6800904284436271
 20
111.3341083412313992
 30
0.0
  0
ENDBLK
  5
43C0
  8
0
  0
BLOCK
  8
0
  2
*D31
 70
     1
 10
0.0
 20
0.0
 30
0.0
  3
*D31
  1

  0
LINE
  5
465D
  8
寸法
 62
     0
 10
104.9650366792863991
 20
152.6341083412312969
 30
0.0
 11
104.9650366792863991
 21
180.8359245318521005
 31
0.0
  0
LINE
  5
465E
  8
寸法
 62
     0
 10
123.9650366792863991
 20
151.6341083412312969
 30
0.0
 11
123.9650366792863991
 21
180.8359245318521005
 31
0.0
  0
LINE
  5
465F
  8
寸法
 62
     0
 10
105.9650366792863991
 20
179.8359245318521005
 30
0.0
 11
122.9650366792863991
 21
179.8359245318521005
 31
0.0
  0
SOLID
  5
4660
  8
寸法
 62
     0
 10
105.9650366792863991
 20
180.0025911985187861
 30
0.0
 11
105.9650366792863991
 21
179.6692578651855001
 31
0.0
 12
104.9650366792863991
 22
179.8359245318521005
 32
0.0
 13
104.9650366792863991
 23
179.8359245318521005
 33
0.0
  0
SOLID
  5
4661
  8
寸法
 62
     0
 10
122.9650366792863991
 20
180.0025911985187861
 30
0.0
 11
122.9650366792863991
 21
179.6692578651855001
 31
0.0
 12
123.9650366792863991
 22
179.8359245318521005
 32
0.0
 13
123.9650366792863991
 23
179.8359245318521005
 33
0.0
  0
TEXT
  8
寸法
  40
3.1
  5
4693
  62
0
  72
0
  71
0
 10
108.265
 20
175.989
 30
0.000000
  1
19
  0
POINT
  5
4663
  8
DEFPOINTS
 62
     0
 10
104.9650366792863991
 20
151.8341083412313139
 30
0.0
  0
POINT
  5
4664
  8
DEFPOINTS
 62
     0
 10
123.9650366792863991
 20
150.8341083412313139
 30
0.0
  0
POINT
  5
4665
  8
DEFPOINTS
 62
     0
 10
123.9650366792863991
 20
179.8359245318521005
 30
0.0
  0
ENDBLK
  5
43D5
  8
0
  0
BLOCK
  8
0
  2
*D32
 70
     1
 10
0.0
 20
0.0
 30
0.0
  3
*D32
  1

  0
LINE
  5
4565
  8
寸法
 62
     0
 10
144.8150366792864077
 20
110.5341083412313026
 30
0.0
 11
144.8150366792864077
 21
99.7442330039295797
 31
0.0
  0
LINE
  5
4566
  8
寸法
 62
     0
 10
84.1150366792864759
 20
110.5341083412313026
 30
0.0
 11
84.1150366792864759
 21
99.7442330039295797
 31
0.0
  0
LINE
  5
4567
  8
寸法
 62
     0
 10
143.8150366792864077
 20
100.7442330039295939
 30
0.0
 11
85.1150366792864759
 21
100.7442330039295939
 31
0.0
  0
SOLID
  5
4568
  8
寸法
 62
     0
 10
143.8150366792864077
 20
100.9108996705961943
 30
0.0
 11
143.8150366792864077
 21
100.5775663372628941
 31
0.0
 12
144.8150366792864077
 22
100.7442330039295939
 32
0.0
 13
144.8150366792864077
 23
100.7442330039295939
 33
0.0
  0
SOLID
  5
4569
  8
寸法
 62
     0
 10
85.1150366792864759
 20
100.9108996705961943
 30
0.0
 11
85.1150366792864759
 21
100.5775663372628941
 31
0.0
 12
84.1150366792864759
 22
100.7442330039295939
 32
0.0
 13
84.1150366792864759
 23
100.7442330039295939
 33
0.0
  0
INSERT
  5
456A
  8
0
  2
*U42
 10
0.0
 20
0.0
 30
0.0
  0
POINT
  5
456B
  8
DEFPOINTS
 62
     0
 10
144.8150366792864077
 20
111.3341083412312997
 30
0.0
  0
POINT
  5
456C
  8
DEFPOINTS
 62
     0
 10
84.1150366792864759
 20
111.3341083412312997
 30
0.0
  0
POINT
  5
456D
  8
DEFPOINTS
 62
     0
 10
84.1150366792864759
 20
100.7442330039295939
 30
0.0
  0
ENDBLK
  5
43E1
  8
0
  0
BLOCK
  8
0
  2
*U33
 70
     1
 10
0.0
 20
0.0
 30
0.0
  3
*U33
  1

  0
SOLID
  5
4639
  8
寸法
 10
67.8055679142961196
 20
31.6055499254227392
 30
0.0
 11
66.9149464156944731
 21
32.0898753573446811
 31
0.0
 12
67.9145047301301616
 22
31.9205798942622891
 32
0.0
 13
67.9145047301301616
 23
31.9205798942622891
 33
0.0
  0
POLYLINE
  5
463A
  8
寸法
 66
     1
 10
0.0
 20
0.0
 30
0.0
  0
VERTEX
  5
463B
  8
寸法
 10
67.8600363222131335
 20
31.7630649098425195
 30
0.0
  0
VERTEX
  5
463C
  8
寸法
 10
93.7388395222495632
 20
22.814219729833809
 30
0.0
  0
VERTEX
  5
463D
  8
寸法
 10
96.7711367362907851
 20
23.3542197298338117
 30
0.0
  0
VERTEX
  5
463E
  8
寸法
 10
125.3468510220050973
 20
23.3542197298338117
 30
0.0
  0
SEQEND
  5
463F
  8
寸法
  0
ENDBLK
  5
4641
  8
0
  0
BLOCK
  8
0
  2
*U34
 70
     1
 10
0.0
 20
0.0
 30
0.0
  3
*U34
  1

  0
TEXT
  5
4643
  8
寸法
 10
96.8611367362908027
 20
23.4442197298338115
 30
0.0
 40
3.0
  1
2-\U+22054.5エンボス
  0
ENDBLK
  5
4645
  8
0
  0
BLOCK
  8
0
  2
*U35
 70
     1
 10
0.0
 20
0.0
 30
0.0
  3
*U35
  1

  0
SOLID
  5
4647
  8
寸法
 10
67.8110020529109505
 20
50.6156791186518902
 30
0.0
 11
66.9149464156944731
 21
51.0898753573446811
 31
0.0
 12
67.9163599877725801
 22
50.9319239868676519
 32
0.0
 13
67.9163599877725801
 23
50.9319239868676519
 33
0.0
  0
POLYLINE
  5
4648
  8
寸法
 66
     1
 10
0.0
 20
0.0
 30
0.0
  0
VERTEX
  5
4649
  8
寸法
 10
67.8636810203417582
 20
50.7738015527597781
 30
0.0
  0
VERTEX
  5
464A
  8
寸法
 10
93.5998740176605679
 20
42.1997109732153888
 30
0.0
  0
VERTEX
  5
464B
  8
寸法
 10
94.110980613650014
 20
42.7397109732153666
 30
0.0
  0
VERTEX
  5
464C
  8
寸法
 10
145.1724091850786067
 20
42.7397109732153666
 30
0.0
  0
SEQEND
  5
464D
  8
寸法
  0
ENDBLK
  5
464F
  8
0
  0
BLOCK
  8
0
  2
*U36
 70
     1
 10
0.0
 20
0.0
 30
0.0
  3
*U36
  1

  0
TEXT
  5
4651
  8
寸法
 10
95.2009806136500174
 20
42.8297109732153771
 30
0.0
 40
3.0
  1
2-M5（P=0.8）バーリング
  0
ENDBLK
  5
4653
  8
0
  0
BLOCK
  8
0
  2
*U37
 70
     1
 10
0.0
 20
0.0
 30
0.0
  3
*U37
  1

  0
SOLID
  5
4667
  8
寸法
 10
124.8556581778881025
 20
131.3497829093093969
 30
0.0
 11
123.9650366792863991
 21
131.8341083412313139
 31
0.0
 12
124.9645949937221019
 22
131.6648128781488936
 32
0.0
 13
124.9645949937221019
 23
131.6648128781488936
 33
0.0
  0
POLYLINE
  5
4668
  8
寸法
 66
     1
 10
0.0
 20
0.0
 30
0.0
  0
VERTEX
  5
4669
  8
寸法
 10
124.9101265858051022
 20
131.5072978937290884
 30
0.0
  0
VERTEX
  5
466A
  8
寸法
 10
150.7889297858415034
 20
122.5584527137204987
 30
0.0
  0
VERTEX
  5
466B
  8
寸法
 10
153.8212269998828106
 20
123.0984527137204054
 30
0.0
  0
VERTEX
  5
466C
  8
寸法
 10
182.3969412855971086
 20
123.0984527137204054
 30
0.0
  0
SEQEND
  5
466D
  8
寸法
  0
ENDBLK
  5
466F
  8
0
  0
BLOCK
  8
0
  2
*U38
 70
     1
 10
0.0
 20
0.0
 30
0.0
  3
*U38
  1

  0
TEXT
  5
4671
  8
寸法
 10
153.911226999882814
 20
123.1884527137203946
 30
0.0
 40
3.0
  1
2-\U+22054.5エンボス
  0
ENDBLK
  5
4673
  8
0
  0
BLOCK
  8
0
  2
*U39
 70
     1
 10
0.0
 20
0.0
 30
0.0
  3
*U39
  1

  0
SOLID
  5
4675
  8
寸法
 10
124.861092316502905
 20
150.3599121025384875
 30
0.0
 11
123.9650366792863991
 21
150.8341083412313139
 31
0.0
 12
124.9664502513645061
 22
150.676156970754306
 32
0.0
 13
124.9664502513645061
 23
150.676156970754306
 33
0.0
  0
POLYLINE
  5
4676
  8
寸法
 66
     1
 10
0.0
 20
0.0
 30
0.0
  0
VERTEX
  5
4677
  8
寸法
 10
124.9137712839336984
 20
150.518034536646411
 30
0.0
  0
VERTEX
  5
4678
  8
寸法
 10
150.6499642812524939
 20
141.9439439571019932
 30
0.0
  0
VERTEX
  5
4679
  8
寸法
 10
151.1610708772419969
 20
142.4839439571020137
 30
0.0
  0
VERTEX
  5
467A
  8
寸法
 10
202.2224994486705896
 20
142.4839439571020137
 30
0.0
  0
SEQEND
  5
467B
  8
寸法
  0
ENDBLK
  5
467D
  8
0
  0
BLOCK
  8
0
  2
*U40
 70
     1
 10
0.0
 20
0.0
 30
0.0
  3
*U40
  1

  0
TEXT
  5
467F
  8
寸法
 10
152.2510708772420003
 20
142.5739439571019886
 30
0.0
 40
3.0
  1
2-M5（P=0.8）バーリング
  0
ENDBLK
  5
4681
  8
0
  0
BLOCK
  8
0
  2
*U41
 70
     1
 10
0.0
 20
0.0
 30
0.0
  3
*U41
  1

  0
TEXT
  5
4683
  8
寸法
 62
     0
 10
60.5900904284436521
 20
138.8245845317075009
 30
0.0
 40
3.1000000000000001
  1
60
 50
90.0
  0
ENDBLK
  5
4685
  8
0
  0
BLOCK
  8
0
  2
*U42
 70
     1
 10
0.0
 20
0.0
 30
0.0
  3
*U42
  1

  0
TEXT
  5
4687
  8
寸法
 62
     0
 10
109.7412271554769063
 20
100.8342330039294978
 30
0.0
 40
3.1000000000000001
  1
60.7
  0
ENDBLK
  5
4689
  8
0
  0
BLOCK
  8
0
  2
*U43
 70
     1
 10
0.0
 20
0.0
 30
0.0
  3
*U43
  1

  0
TEXT
  5
468B
  8
寸法
 62
     0
 10
219.2850684864052084
 20
126.3707641122415026
 30
0.0
 40
3.1000000000000001
  1
1
  0
ENDBLK
  5
468D
  8
0
  0
BLOCK
  8
0
  2
*U44
 70
     1
 10
0.0
 20
0.0
 30
0.0
  3
*U44
  1

  0
TEXT
  5
468F
  8
寸法
 62
     0
 10
212.010374019470504
 20
177.3452188627969974
 30
0.0
 40
3.1000000000000001
  1
t=2.3
  0
ENDBLK
  5
4691
  8
0
  0
ENDSEC
  0
SECTION
  2
ENTITIES
  0
INSERT
  5
1BB5
  8
0
  2
ZUWAKU-A4H
 10
0.0
 20
0.0
 30
0.0
1001
GENIUS_GENOREF_13
1005
1C93
1001
GENIUS_GENOBJ-N-SDF_13
1002
{
1000
OWNER
1000
GEN
1002
}
1001
GENIUS_GENODEF_13
1002
{
1000
HIER
1070
     0
1002
}
1002
{
1000
MANEDIT
1070
     0
1002
}
1002
{
1000
NOSEL
1070
     0
1002
}
1002
{
1000
BEHIND
1070
     0
1002
}
1002
{
1000
OTHER
1070
     0
1002
}
1002
{
1000
REACTOR
1002
}
1001
GENIUS_GENSCREG_13
1040
1.0
1040
1.0
1011
12.9569999999950802
1021
6116713.4446033062413335
1031
0.0
1021
10.0
1031
0.0
1011
289.4570000003852783
1021
6116713.4446033062413335
1031
0.0
1021
201.1206999999936045
1031
0.0
1070
     3
  0
POINT
  5
1C93
  8
0
 10
0.0
 20
0.0
 30
0.0
1001
GENIUS_GENOLIS_13
1002
{
1000
ENT
1005
1C84
1005
1BB5
1002
}
1001
GENIUS_GENOENT_13
1002
{
1000
MYREF
1005
1C93
1002
}
1002
{
1000
GRP
1005
0
1002
}
1001
GENIUS_GENOBJ-N-TIT_13
1002
{
1000
OWNER
1000
GEN
1002
}
1001
GENIUS_GENTITLE_13
1002
{
1000
BORDER
1000
C:\Program Files\Autodesk\ACADM 2008\Acadm\gen\Dwg\Format\ZUWAKU-A4H
1002
}
1002
{
1000
TITLE
1000
C:\Program Files\Autodesk\ACADM 2008\Acadm\gen\Dwg\Title\N_Title
1002
}
1002
{
1000
ADDITIONAL1
1000

1002
}
1002
{
1000
ADDITIONAL2
1000

1002
}
1002
{
1000
SCALE
1000
1:1
1002
}
1002
{
1000
TITLESTD
1000
JIS
1002
}
1002
{
1000
HRA
1005
1BB5
1002
}
1002
{
1000
HTIT
1005
1C84
1002
}
1002
{
1000
INVTXTID
1005
0
1002
}
1002
{
1000
UNCHG
1002
{
1000
GEN-TITLE-SIZ
1000
GEN-TITLE-SCA
1002
}
1002
}
1002
{
1000
GENIUSID
1005
1C93
1002
}
1001
GENIUS_GENODEF_13
1002
{
1000
HIER
1070
     1
1002
}
1002
{
1000
MANEDIT
1070
     1
1002
}
1002
{
1000
NOSEL
1070
     0
1002
}
1002
{
1000
BEHIND
1070
     0
1002
}
1002
{
1000
OTHER
1070
     0
1002
}
1002
{
1000
REACTOR
1002
}
  0
INSERT
  5
20F2
  8
0
 66
     1
  2
A$C1C06296A
 10
12.9570001316259305
 20
9.9999998268887111
 30
0.0
  0
ATTRIB
  5
20F3
  8
AM_BOR
 62
     7
 10
127.2677097070090042
 20
10.5
 30
0.0
 40
3.0
  1

 11
127.2677097070090042
 21
12.0
 31
0.0
  2
SETS｛20｝
 70
     0
 74
     2
1001
ACDBATTR
1070
     0
1070
     1
  0
ATTRIB
  5
20F4
  8
AM_BOR
 62
     7
 10
32.0177097070090895
 20
10.5
 30
0.0
 40
3.0
  1

 11
32.0177097070090895
 21
12.0
 31
0.0
  2
REMARKS｛20｝
 70
     0
 74
     2
1001
ACDBATTR
1070
     0
1070
     1
  0
ATTRIB
  5
20F5
  8
AM_BOR
 62
     7
 10
127.2677097070090042
 20
15.5
 30
0.0
 40
3.0
  1

 11
127.2677097070090042
 21
17.0
 31
0.0
  2
SETS｛20｝
 70
     0
 74
     2
1001
ACDBATTR
1070
     0
1070
     1
  0
ATTRIB
  5
20F6
  8
AM_BOR
 62
     7
 10
32.0177097070090895
 20
15.5
 30
0.0
 40
3.0
  1

 11
32.0177097070090895
 21
17.0
 31
0.0
  2
REMARKS｛20｝
 70
     0
 74
     2
1001
ACDBATTR
1070
     0
1070
     1
  0
ATTRIB
  5
20F7
  8
AM_BOR
 62
     7
 10
127.2677097070090042
 20
20.5
 30
0.0
 40
3.0
  1

 11
127.2677097070090042
 21
22.0
 31
0.0
  2
SETS｛20｝
 70
     0
 74
     2
1001
ACDBATTR
1070
     0
1070
     1
  0
ATTRIB
  5
20F8
  8
AM_BOR
 62
     7
 10
32.0177097070090895
 20
20.5
 30
0.0
 40
3.0
  1

 11
32.0177097070090895
 21
22.0
 31
0.0
  2
REMARKS｛20｝
 70
     0
 74
     2
1001
ACDBATTR
1070
     0
1070
     1
  0
ATTRIB
  5
20F9
  8
AM_BOR
 62
     7
 10
127.2070000000192067
 20
33.5
 30
0.0
 40
3.0
  1
BPC-1(60×60)
 11
127.2070000000192067
 21
35.0
 31
0.0
  2
ART_NO｛20｝
 70
     0
 74
     2
1001
ACDBATTR
1070
     0
1070
     1
  0
ATTRIB
  5
20FA
  8
AM_BOR
 62
     7
 10
31.9570000000192103
 20
33.5
 30
0.0
 40
3.0
  1
ドアクローザー用裏板
 11
31.9570000000192103
 21
35.0
 31
0.0
  2
ARTICLE｛20｝
 70
     0
 74
     2
1001
ACDBATTR
1070
     0
1070
     1
  0
ATTRIB
  5
20FB
  8
AM_BOR
 62
     7
 10
127.2070000000192067
 20
27.0
 30
0.0
 40
3.0
  1
クロメート
 11
127.2070000000192067
 21
28.5
 31
0.0
  2
FINISH｛20｝
 70
     0
 74
     2
1001
ACDBATTR
1070
     0
1070
     1
  0
ATTRIB
  5
20FC
  8
AM_BOR
 62
     7
 10
31.9570000000192103
 20
27.0
 30
0.0
 40
3.0
  1
鉄
 11
31.9570000000192103
 21
28.5
 31
0.0
  2
MATERIAK｛20｝
 70
     0
 74
     2
1001
ACDBATTR
1070
     0
1070
     1
  0
SEQEND
  5
20FD
  8
0
  0
CIRCLE
  5
4347
  8
外形線
 10
104.9650366792863991
 20
150.8341083412313139
 30
0.0
 40
2.5
  0
CIRCLE
  5
4348
  8
外形線
 10
123.9650366792863991
 20
150.8341083412313139
 30
0.0
 40
2.5
  0
CIRCLE
  5
4349
  8
外形線
 10
123.9650366792863991
 20
150.8341083412313139
 30
0.0
 40
2.0
  0
CIRCLE
  5
434A
  8
外形線
 10
104.9650366792863991
 20
150.8341083412313139
 30
0.0
 40
2.0
  0
LINE
  5
434B
  8
外形線
 10
144.8150366792864077
 20
171.3341083412313139
 30
0.0
 11
144.8150366792864077
 21
111.3341083412312997
 31
0.0
  0
LINE
  5
434C
  8
外形線
 10
84.1150366792864759
 20
171.3341083412313139
 30
0.0
 11
84.1150366792864759
 21
111.3341083412312997
 31
0.0
  0
LINE
  5
434D
  8
外形線
 10
144.8150366792864077
 20
111.3341083412312997
 30
0.0
 11
84.1150366792864759
 21
111.3341083412312997
 31
0.0
  0
DIMENSION
  5
434E
  8
寸法
  2
*D30
 10
60.6800904284436271
 20
111.3341083412313992
 30
0.0
 11
59.0400904284436407
 21
141.3341083412313139
 31
0.0
 70
     0
 13
84.1150366792864759
 23
171.3341083412313139
 33
0.0
 14
84.1150366792864759
 24
111.3341083412312997
 34
0.0
 50
90.0
1001
ACAD
1000
DSTYLE
1002
{
1070
   271
1070
     0
1070
    40
1040
1.0
1002
}
  0
DIMENSION
  5
4351
  8
寸法
  2
*D28
 10
71.4936823280840485
 20
131.8341083412313992
 30
0.0
 11
69.8536823280840764
 21
141.3341083412313139
 31
0.0
 70
     0
 13
102.4650366792864986
 23
150.8341083412313139
 33
0.0
 14
101.8150366792863935
 24
131.8341083412313139
 34
0.0
 50
90.0
1001
ACAD
1000
DSTYLE
1002
{
1070
   287
1070
     4
1070
   271
1070
     0
1070
    40
1040
1.0
1070
   279
1070
     1
1002
}
  0
DIMENSION
  5
4352
  8
寸法
  2
*D31
 10
123.9650366792863991
 20
179.8359245318521005
 30
0.0
 11
114.4650366792863991
 21
181.4759245318520868
 31
0.0
 70
     0
 13
104.9650366792863991
 23
151.8341083412313139
 33
0.0
 14
123.9650366792863991
 24
150.8341083412313139
 34
0.0
1001
ACAD
1000
DSTYLE
1002
{
1070
   287
1070
     4
1070
   271
1070
     0
1070
    40
1040
1.0
1070
   279
1070
     1
1002
}
  0
INSERT
  5
4355
  8
0
  2
*U37
 10
0.0
 20
0.0
 30
0.0
1001
ACAD
1000
DSTYLE
1002
{
1070
    40
1040
1.0
1002
}
  0
INSERT
  5
4356
  8
0
  2
*U38
 10
0.0
 20
0.0
 30
0.0
  0
INSERT
  5
4357
  8
0
  2
*U39
 10
0.0
 20
0.0
 30
0.0
1001
ACAD
1000
DSTYLE
1002
{
1070
    40
1040
1.0
1002
}
  0
INSERT
  5
4358
  8
0
  2
*U40
 10
0.0
 20
0.0
 30
0.0
  0
LINE
  5
4359
  8
外形線
 10
144.8150366792864077
 20
171.3341083412313139
 30
0.0
 11
84.1150366792864759
 21
171.3341083412313139
 31
0.0
  0
DIMENSION
  5
435A
  8
寸法
  2
*D32
 10
84.1150366792864759
 20
100.7442330039295939
 30
0.0
 11
114.4650366792863991
 21
102.3842330039295945
 31
0.0
 70
     0
 13
144.8150366792864077
 23
111.3341083412312997
 33
0.0
 14
84.1150366792864759
 24
111.3341083412312997
 34
0.0
1001
ACAD
1000
DSTYLE
1002
{
1070
   271
1070
     1
1070
    40
1040
1.0
1002
}
  0
LINE
  5
435D
  8
中心線
 10
114.4650366792863991
 20
106.9949046879495
 30
0.0
 11
114.4650366792863991
 21
176.0713758275736893
 31
0.0
  0
LINE
  5
435E
  8
中心線
 10
78.4322619188826877
 20
141.0841083412313139
 30
0.0
 11
147.1376988245592088
 21
141.0841083412313139
 31
0.0
  0
LINE
  5
435F
  8
中心線
 10
102.4650366792864986
 20
131.8341083412313139
 30
0.0
 11
107.4650366792863991
 21
131.8341083412313139
 31
0.0
  0
LINE
  5
4360
  8
中心線
 10
104.9650366792863991
 20
129.3341083412313992
 30
0.0
 11
104.9650366792863991
 21
134.3341083412313139
 31
0.0
  0
LINE
  5
4361
  8
中心線
 10
102.4650366792864986
 20
150.8341083412313139
 30
0.0
 11
107.4650366792863991
 21
150.8341083412313139
 31
0.0
  0
LINE
  5
4362
  8
中心線
 10
104.9650366792863991
 20
148.3341083412313139
 30
0.0
 11
104.9650366792863991
 21
153.3341083412313139
 31
0.0
  0
LINE
  5
4363
  8
中心線
 10
121.4650366792863991
 20
150.8341083412313139
 30
0.0
 11
126.4650366792864986
 21
150.8341083412313139
 31
0.0
  0
LINE
  5
4364
  8
中心線
 10
123.9650366792863991
 20
148.3341083412313139
 30
0.0
 11
123.9650366792863991
 21
153.3341083412313139
 31
0.0
  0
LINE
  5
4365
  8
中心線
 10
121.4650366792863991
 20
131.8341083412313139
 30
0.0
 11
126.4650366792864986
 21
131.8341083412313139
 31
0.0
  0
LINE
  5
4366
  8
中心線
 10
123.9650366792863991
 20
129.3341083412313992
 30
0.0
 11
123.9650366792863991
 21
134.3341083412313139
 31
0.0
  0
LINE
  5
4367
  8
外形線
 10
228.3668112088053874
 20
171.3341083412313139
 30
0.0
 11
226.0668112088054045
 21
171.3341083412313139
 31
0.0
  0
LINE
  5
4368
  8
外形線
 10
226.0668112088054045
 20
111.3341083412312997
 30
0.0
 11
228.3668112088053874
 21
111.3341083412312997
 31
0.0
  0
LINE
  5
4369
  8
外形線
 10
226.0668112088054045
 20
130.0841083412313992
 30
0.0
 11
225.0668112088054045
 21
130.0841083412313992
 31
0.0
  0
LINE
  5
436A
  8
外形線
 10
225.0668112088054045
 20
130.0841083412313992
 30
0.0
 11
225.0668112088054045
 21
134.5841083412313139
 31
0.0
  0
LINE
  5
436B
  8
外形線
 10
225.0668112088054045
 20
134.5841083412313139
 30
0.0
 11
226.0668112088054045
 21
134.5841083412313139
 31
0.0
  0
LINE
  5
436C
  8
かくれ線
 10
228.3668112088053874
 20
130.0841083412313992
 30
0.0
 11
227.3668112088055011
 21
130.0841083412313992
 31
0.0
  0
LINE
  5
436D
  8
かくれ線
 10
227.3668112088051885
 20
130.0841083412313992
 30
0.0
 11
227.3668112088055011
 21
134.5841083412313139
 31
0.0
  0
LINE
  5
436E
  8
かくれ線
 10
227.3668112088055011
 20
134.5841083412313139
 30
0.0
 11
228.3668112088053874
 21
134.5841083412313139
 31
0.0
  0
LINE
  5
436F
  8
かくれ線
 10
226.0668112088054045
 20
148.8341083412313139
 30
0.0
 11
228.3668112088053874
 21
148.8341083412313139
 31
0.0
  0
LINE
  5
4370
  8
外形線
 10
228.3668112088053874
 20
148.8341083412313139
 30
0.0
 11
228.3668112088053874
 21
153.8341083412313139
 31
0.0
  0
LINE
  5
4371
  8
かくれ線
 10
228.3668112088053874
 20
153.8341083412313139
 30
0.0
 11
226.0668112088054045
 21
153.8341083412313139
 31
0.0
  0
LINE
  5
4372
  8
外形線
 10
226.0668112088054045
 20
153.8341083412313139
 30
0.0
 11
226.0668112088054045
 21
148.8341083412313139
 31
0.0
  0
LINE
  5
4373
  8
外形線
 10
228.3668112088053874
 20
147.8341083412313139
 30
0.0
 11
229.6668112088053988
 21
147.8341083412313139
 31
0.0
  0
LINE
  5
4374
  8
外形線
 10
229.6668112088053988
 20
154.8341083412313139
 30
0.0
 11
228.3668112088053874
 21
154.8341083412313139
 31
0.0
  0
LINE
  5
4375
  8
外形線
 10
228.3668112088053874
 20
154.8341083412313139
 30
0.0
 11
228.3668112088053874
 21
147.8341083412313139
 31
0.0
  0
LINE
  5
4376
  8
かくれ線
 10
226.0668112088054045
 20
148.8341083412313139
 30
0.0
 11
229.8668112088055011
 21
148.8341083412313139
 31
0.0
  0
LINE
  5
4377
  8
外形線
 10
229.8668112088055011
 20
148.8341083412313139
 30
0.0
 11
229.8668112088055011
 21
153.8341083412313139
 31
0.0
  0
LINE
  5
4378
  8
かくれ線
 10
229.8668112088055011
 20
153.8341083412313139
 30
0.0
 11
226.0668112088054045
 21
153.8341083412313139
 31
0.0
  0
LINE
  5
4379
  8
外形線
 10
226.0668112088054045
 20
153.8341083412313139
 30
0.0
 11
226.0668112088054045
 21
148.8341083412313139
 31
0.0
  0
LINE
  5
437A
  8
外形線
 10
228.3668112088053874
 20
147.8341083412313139
 30
0.0
 11
229.8668112088055011
 21
147.8341083412313139
 31
0.0
  0
LINE
  5
437B
  8
外形線
 10
229.8668112088055011
 20
147.8341083412313139
 30
0.0
 11
229.8668112088055011
 21
154.8341083412313139
 31
0.0
  0
LINE
  5
437C
  8
外形線
 10
229.8668112088055011
 20
154.8341083412313139
 30
0.0
 11
228.3668112088053874
 21
154.8341083412313139
 31
0.0
  0
LINE
  5
437D
  8
外形線
 10
228.3668112088053874
 20
154.8341083412313139
 30
0.0
 11
228.3668112088053874
 21
147.8341083412313139
 31
0.0
  0
LINE
  5
437E
  8
かくれ線
 10
226.0668112088054045
 20
149.3341083412313139
 30
0.0
 11
229.8668112088055011
 21
149.3341083412313139
 31
0.0
  0
LINE
  5
437F
  8
外形線
 10
229.8668112088055011
 20
149.3341083412313139
 30
0.0
 11
229.8668112088055011
 21
153.3341083412313139
 31
0.0
  0
LINE
  5
4380
  8
かくれ線
 10
229.8668112088055011
 20
153.3341083412313139
 30
0.0
 11
226.0668112088054045
 21
153.3341083412313139
 31
0.0
  0
LINE
  5
4381
  8
外形線
 10
226.0668112088054045
 20
153.3341083412313139
 30
0.0
 11
226.0668112088054045
 21
149.3341083412313139
 31
0.0
  0
LINE
  5
4382
  8
外形線
 10
228.3668112088053874
 20
111.3341083412312997
 30
0.0
 11
228.3668112088053874
 21
130.1841083412313935
 31
0.0
  0
LINE
  5
4383
  8
外形線
 10
228.3668112088053874
 20
130.1841083412313935
 30
0.0
 11
228.3668112088053874
 21
171.3341083412313139
 31
0.0
  0
LINE
  5
4384
  8
外形線
 10
226.0668112088054045
 20
171.3341083412313139
 30
0.0
 11
226.0668112088054045
 21
130.1841083412313935
 31
0.0
  0
LINE
  5
4385
  8
外形線
 10
226.0668112088054045
 20
130.1841083412313935
 30
0.0
 11
226.0668112088054045
 21
111.3341083412312997
 31
0.0
  0
DIMENSION
  5
4386
  8
寸法
  2
*D29
 10
226.0668112088054045
 20
176.2102188627970065
 30
0.0
 11
218.2103740194704926
 21
178.8952188627970088
 31
0.0
 70
   128
 13
228.3668112088053874
 23
171.3341083412313139
 33
0.0
 14
226.0668112088054045
 24
171.3341083412313139
 34
0.0
 50
180.0
1001
ACAD
1000
DSTYLE
1002
{
1070
     3
1000
t=<>
1070
   271
1070
     1
1002
}
  0
DIMENSION
  5
4389
  8
寸法
  2
*D27
 10
225.0668112088054045
 20
126.2807641122414992
 30
0.0
 11
219.6541161054529141
 21
127.9207641122414998
 31
0.0
 70
   128
 13
226.0668112088054045
 23
126.2807641122414992
 33
0.0
 14
225.0668112088054045
 24
130.1841083412313935
 34
0.0
 50
180.0
1001
ACAD
1000
DSTYLE
1002
{
1070
   271
1070
     0
1002
}
  0
LINE
  5
438A
  8
中心線
 10
232.4136771194690994
 20
151.3341083412313139
 30
0.0
 11
221.63484421946319
 21
151.3341083412313139
 31
0.0
  0
LINE
  5
438B
  8
中心線
 10
222.2021516929004861
 20
132.3341083412313139
 30
0.0
 11
230.7117567203355009
 21
132.3341083412313139
 31
0.0
  0
LINE
  5
438C
  8
中心線
 10
223.0531123977617085
 20
141.0841083412313139
 30
0.0
 11
230.8535828307529982
 21
141.0841083412313139
 31
0.0
  0
CIRCLE
  5
438D
  8
外形線
 10
123.9650366792863991
 20
131.8341083412313139
 30
0.0
 40
2.25
  0
CIRCLE
  5
438E
  8
外形線
 10
104.9650366792863991
 20
131.8341083412313139
 30
0.0
 40
2.25
  0
VIEWPORT
  5
95A
 67
     1
  8
0
  6
CONTINUOUS
 10
128.5
 20
97.5
 30
0.0
 40
386.7385514018691879
 41
222.1800000000000068
 68
     1
 69
     1
1001
ACAD
1000
MVIEW
1002
{
1070
    16
1010
0.0
1020
0.0
1030
0.0
1010
0.0
1020
0.0
1030
1.0
1040
0.0
1040
222.1800000000000068
1040
128.5
1040
97.5
1040
50.0
1040
0.0
1040
0.0
1070
     0
1070
   100
1070
     1
1070
     1
1070
     0
1070
     0
1070
     0
1070
     0
1040
0.0
1040
0.0
1040
0.0
1040
10.0
1040
10.0
1040
10.0
1040
10.0
1070
     0
1002
{
1002
}
1002
}
1001
GENIUS_GENOBJ-N-SDF_13
1002
{
1000
OWNER
1000
GEN
1002
}
1001
GENIUS_GENODEF_13
1002
{
1000
HIER
1070
     0
1002
}
1002
{
1000
MANEDIT
1070
     0
1002
}
1002
{
1000
NOSEL
1070
     0
1002
}
1002
{
1000
BEHIND
1070
     0
1002
}
1002
{
1000
OTHER
1070
     0
1002
}
1002
{
1000
REACTOR
1002
}
1001
GENIUS_GENSCREG_15
1000
PF
1040
1.0
1000
DF
1040
1.0
1000
MIN
1011
-64.8692757009345655
1021
6116713.4446033062413335
1031
0.0
1021
-13.5899999999999999
1031
0.0
1000
MAX
1011
321.8692757009346224
1021
6116713.4446033062413335
1031
0.0
1021
208.5900000000000034
1031
0.0
1000
FLAGS
1070
     4
  0
ENDSEC
  0
EOF
