  0
SECTION
  2
HEADER
  9
$ACADVER
  1
AC1009
  9
$INSBASE
 10
0.0
 20
0.0
 30
0.0
  9
$EXTMIN
 10
12.9443545521343104
 20
9.9912592880760371
 30
-0.0015258207003583
  9
$EXTMAX
 10
289.469662831415917
 20
201.1294527274095003
 30
0.0000000349246037
  9
$LIMMIN
 10
12.9569999999950802
 20
10.0
  9
$LIMMAX
 10
289.4570000003852783
 20
201.1206999999936045
  9
$ORTHOMODE
 70
     1
  9
$REGENMODE
 70
     1
  9
$FILLMODE
 70
     1
  9
$QTEXTMODE
 70
     0
  9
$MIRRTEXT
 70
     1
  9
$DRAGMODE
 70
     2
  9
$LTSCALE
 40
5.0
  9
$OSMODE
 70
    55
  9
$ATTMODE
 70
     1
  9
$TEXTSIZE
 40
3.0
  9
$TRACEWID
 40
0.05
  9
$TEXTSTYLE
  7
STANDARD
  9
$CLAYER
  8
0
  9
$CELTYPE
  6
BYLAYER
  9
$CECOLOR
 62
   256
  9
$DIMSCALE
 40
1.0
  9
$DIMASZ
 40
2.5
  9
$DIMEXO
 40
1.0
  9
$DIMDLI
 40
10.0
  9
$DIMRND
 40
0.0
  9
$DIMDLE
 40
0.0
  9
$DIMEXE
 40
1.0
  9
$DIMTP
 40
0.1
  9
$DIMTM
 40
0.1
  9
$DIMTXT
 40
3.5
  9
$DIMCEN
 40
0.0
  9
$DIMTSZ
 40
0.0
  9
$DIMTOL
 70
     0
  9
$DIMLIM
 70
     0
  9
$DIMTIH
 70
     0
  9
$DIMTOH
 70
     0
  9
$DIMSE1
 70
     0
  9
$DIMSE2
 70
     0
  9
$DIMTAD
 70
     1
  9
$DIMZIN
 70
     8
  9
$DIMBLK
  1

  9
$DIMASO
 70
     1
  9
$DIMSHO
 70
     1
  9
$DIMPOST
  1

  9
$DIMAPOST
  1
"
  9
$DIMALT
 70
     0
  9
$DIMALTD
 70
     2
  9
$DIMALTF
 40
0.0393701
  9
$DIMLFAC
 40
1.0
  9
$DIMTOFL
 70
     1
  9
$DIMTVP
 40
0.0
  9
$DIMTIX
 70
     0
  9
$DIMSOXD
 70
     0
  9
$DIMSAH
 70
     0
  9
$DIMBLK1
  1

  9
$DIMBLK2
  1

  9
$DIMSTYLE
  2
AM_ISO
  9
$DIMCLRD
 70
   256
  9
$DIMCLRE
 70
   256
  9
$DIMCLRT
 70
     2
  9
$DIMTFAC
 40
0.71
  9
$DIMGAP
 40
1.5
  9
$LUNITS
 70
     2
  9
$LUPREC
 70
     4
  9
$SKETCHINC
 40
0.1
  9
$FILLETRAD
 40
0.0
  9
$AUNITS
 70
     0
  9
$AUPREC
 70
     0
  9
$MENU
  1
acad
  9
$ELEVATION
 40
0.0
  9
$PELEVATION
 40
0.0
  9
$THICKNESS
 40
0.0
  9
$LIMCHECK
 70
     0
  9
$BLIPMODE
 70
     0
  9
$CHAMFERA
 40
0.0
  9
$CHAMFERB
 40
0.0
  9
$SKPOLY
 70
     0
  9
$TDCREATE
 40
2455755.6568634258583188
  9
$TDUPDATE
 40
2459024.3781828708015382
  9
$TDINDWG
 40
0.1949364931
  9
$TDUSRTIMER
 40
0.1949363079
  9
$USRTIMER
 70
     1
  9
$ANGBASE
 50
0.0
  9
$ANGDIR
 70
     0
  9
$PDMODE
 70
     0
  9
$PDSIZE
 40
0.0
  9
$PLINEWID
 40
0.0
  9
$COORDS
 70
     1
  9
$SPLFRAME
 70
     0
  9
$SPLINETYPE
 70
     6
  9
$SPLINESEGS
 70
     8
  9
$ATTDIA
 70
     1
  9
$ATTREQ
 70
     1
  9
$HANDLING
 70
     1
  9
$HANDSEED
  5
45F2
  9
$SURFTAB1
 70
     6
  9
$SURFTAB2
 70
     6
  9
$SURFTYPE
 70
     6
  9
$SURFU
 70
     6
  9
$SURFV
 70
     6
  9
$UCSNAME
  2

  9
$UCSORG
 10
0.0
 20
0.0
 30
0.0
  9
$UCSXDIR
 10
1.0
 20
0.0
 30
0.0
  9
$UCSYDIR
 10
0.0
 20
1.0
 30
0.0
  9
$PUCSNAME
  2

  9
$PUCSORG
 10
0.0
 20
0.0
 30
0.0
  9
$PUCSXDIR
 10
1.0
 20
0.0
 30
0.0
  9
$PUCSYDIR
 10
0.0
 20
1.0
 30
0.0
  9
$USERI1
 70
     0
  9
$USERI2
 70
     0
  9
$USERI3
 70
     0
  9
$USERI4
 70
     0
  9
$USERI5
 70
     0
  9
$USERR1
 40
0.0
  9
$USERR2
 40
0.0
  9
$USERR3
 40
0.0
  9
$USERR4
 40
0.0
  9
$USERR5
 40
0.0
  9
$WORLDVIEW
 70
     1
  9
$SHADEDGE
 70
     3
  9
$SHADEDIF
 70
    70
  9
$TILEMODE
 70
     1
  9
$MAXACTVP
 70
    16
  9
$PLIMCHECK
 70
     0
  9
$PEXTMIN
 10
1.0000000000000000E+20
 20
1.0000000000000000E+20
 30
1.0000000000000000E+20
  9
$PEXTMAX
 10
-1.0000000000000000E+20
 20
-1.0000000000000000E+20
 30
-1.0000000000000000E+20
  9
$PLIMMIN
 10
-20.0
 20
-7.5
  9
$PLIMMAX
 10
277.0
 20
202.5
  9
$UNITMODE
 70
     0
  9
$VISRETAIN
 70
     0
  9
$PLINEGEN
 70
     1
  9
$PSLTSCALE
 70
     0
  0
ENDSEC
  0
SECTION
  2
TABLES
  0
TABLE
  2
VPORT
 70
     1
  0
VPORT
  2
*ACTIVE
 70
     0
 10
0.0
 20
0.0
 11
1.0
 21
1.0
 12
151.4717211132017951
 22
106.8839230007645966
 13
0.0
 23
0.0
 14
2.5
 24
2.5
 15
10.0
 25
10.0
 16
0.0
 26
0.0
 36
1.0
 17
0.0
 27
0.0
 37
0.0
 40
192.7113475324063074
 41
2.146978021978021
 42
50.0
 43
0.0
 44
0.0
 50
0.0
 51
0.0
 71
    16
 72
   100
 73
     1
 74
     3
 75
     0
 76
     0
 77
     0
 78
     1
  0
ENDTAB
  0
TABLE
  2
LTYPE
 70
    22
  0
LTYPE
  2
CONTINUOUS
 70
     0
  3
Solid line (NEC CAE2D for Win R7.2 : 2008.02.20
 72
    65
 73
     0
 40
0.0
  0
LTYPE
  2
HIDDEN
 70
     0
  3
Hidden __ __ __ __ __ __ __ __ __ __ __ __ __ _
 72
    65
 73
     2
 40
0.375
 49
0.25
 49
-0.125
  0
LTYPE
  2
PHANTOM2
 70
     0
  3
Phantom (.5x) ___ _ _ ___ _ _ ___ _ _ ___ _ _
 72
    65
 73
     6
 40
1.25
 49
0.625
 49
-0.125
 49
0.125
 49
-0.125
 49
0.125
 49
-0.125
  0
LTYPE
  2
CENTER
 70
     0
  3
Center ____ _ ____ _ ____ _ ____ _ ____ _ ____
 72
    65
 73
     4
 40
2.0
 49
1.25
 49
-0.25
 49
0.25
 49
-0.25
  0
LTYPE
  2
CENTER2
 70
     0
  3
Center (.5x) ___ _ ___ _ ___ _ ___ _ ___ _ ___
 72
    65
 73
     4
 40
1.125
 49
0.75
 49
-0.125
 49
0.125
 49
-0.125
  0
LTYPE
  2
HIDDEN2
 70
     0
  3
Hidden (.5x) _ _ _ _ _ _ _ _ _ _ _ _ _ _ _ _ _
 72
    65
 73
     2
 40
0.1875
 49
0.125
 49
-0.0625
  0
LTYPE
  2
ACANSTGB
 70
     0
  3
__ . . __ . .
 72
    65
 73
     6
 40
0.35433070866
 49
0.15748031496
 49
-0.03937007874
 49
0.03937007874
 49
-0.03937007874
 49
0.03937007874
 49
-0.03937007874
  0
LTYPE
  2
ACANSTGL
 70
     0
  3
_ _ _ _ _
 72
    65
 73
     2
 40
0.11811023622
 49
0.07874015748
 49
-0.03937007874
  0
LTYPE
  2
ACJISWELD
 70
     0
  3
_ _ _ _ _
 72
    65
 73
     2
 40
2.0
 49
2.0
 49
-1.0
  0
LTYPE
  2
ACJISTGB
 70
     0
  3
__ . . __ . .
 72
    65
 73
     6
 40
9.0
 49
4.0
 49
-1.0
 49
1.0
 49
-1.0
 49
1.0
 49
-1.0
  0
LTYPE
  2
ACJISTGL
 70
     0
  3
_ _ _ _ _
 72
    65
 73
     2
 40
3.0
 49
2.0
 49
-1.0
  0
LTYPE
  2
ACISOWELD
 70
     0
  3
_ _ _ _ _
 72
    65
 73
     2
 40
2.0
 49
2.0
 49
-1.0
  0
LTYPE
  2
ACISOTGB
 70
     0
  3
__ . . __ . .
 72
    65
 73
     6
 40
9.0
 49
4.0
 49
-1.0
 49
1.0
 49
-1.0
 49
1.0
 49
-1.0
  0
LTYPE
  2
ACISOTGL
 70
     0
  3
_ _ _ _ _
 72
    65
 73
     2
 40
3.0
 49
2.0
 49
-1.0
  0
LTYPE
  2
AM_ISO02W050
 70
     0
  3
__ __ __ __ __ __ __ __ __ __ __ __ __ __ __
 72
    65
 73
     2
 40
7.5
 49
6.0
 49
-1.5
  0
LTYPE
  2
AM_ISO08W050
 70
     0
  3
____ . ____ . ____ . ____ . ____ . ____ . ____
 72
    65
 73
     4
 40
18.0
 49
12.0
 49
-1.5
 49
3.0
 49
-1.5
  0
LTYPE
  2
AM_ISO09W050
 70
     0
  3
_____ . . _____ . . _____ . . ____ .. ____
 72
    65
 73
     6
 40
22.5
 49
12.0
 49
-1.5
 49
3.0
 49
-1.5
 49
3.0
 49
-1.5
  0
LTYPE
  2
AMCONSTR
 70
     0
  3
_______________________
 72
    65
 73
     2
 40
9999.0
 49
9999.0
 49
0.0
  0
LTYPE
  2
AM_ISO08W050X2
 70
     0
  3
__ . __ . __ . __ . __ . __
 72
    65
 73
     4
 40
9.0
 49
6.0
 49
-0.75
 49
1.5
 49
-0.75
  0
LTYPE
  2
AM_ISO02W050X2
 70
     0
  3
 _ _ _ _ _ _ _ _ _ _ _ _
 72
    65
 73
     2
 40
3.75
 49
3.0
 49
-0.75
  0
LTYPE
  2
AMZIGZAG
 70
     0
  3
/\/-/\/-/\/-/\/-/\/-/\/
 72
    65
 73
     2
 40
11.0000999999999998
 49
0.0001
 49
-11.0
  0
LTYPE
  2
JIS_08_11
 70
     0
  3
1SASEN11 ___ _ ___ _ ___ _ ___ _ ___ _ ___
 72
    65
 73
     4
 40
12.8000000000000007
 49
11.0
 49
-0.6
 49
0.6
 49
-0.6
  0
ENDTAB
  0
TABLE
  2
LAYER
 70
    26
  0
LAYER
  2
0
 70
     0
 62
     3
  6
CONTINUOUS
  0
LAYER
  2
SYS-BUHIN0
 70
     0
 62
     7
  6
CONTINUOUS
  0
LAYER
  2
AM_0
 70
     0
 62
     3
  6
CONTINUOUS
  0
LAYER
  2
DEFPOINTS
 70
     0
 62
     7
  6
CONTINUOUS
  0
LAYER
  2
AM_5
 70
     0
 62
     7
  6
CONTINUOUS
  0
LAYER
  2
AM_BOR
 70
     0
 62
     7
  6
CONTINUOUS
  0
LAYER
  2
AM_7
 70
     0
 62
     4
  6
CENTER
  0
LAYER
  2
AM_3
 70
     0
 62
     7
  6
HIDDEN
  0
LAYER
  2
AM_12
 70
     0
 62
   253
  6
CONTINUOUS
  0
LAYER
  2
AM_PAREF
 70
     0
 62
     4
  6
CONTINUOUS
  0
LAYER
  2
AM_6
 70
     0
 62
     7
  6
CONTINUOUS
  0
LAYER
  2
AM_8
 70
     0
 62
   253
  6
CONTINUOUS
  0
LAYER
  2
AM_4
 70
     0
 62
     6
  6
CONTINUOUS
  0
LAYER
  2
AM_10
 70
     0
 62
     7
  6
CONTINUOUS
  0
LAYER
  2
AM_CL
 70
     0
 62
     1
  6
CONTINUOUS
  0
LAYER
  2
AM_2
 70
     0
 62
     5
  6
PHANTOM2
  0
LAYER
  2
AM_1N
 70
     0
 62
    14
  6
CONTINUOUS
  0
LAYER
  2
AM_1
 70
     0
 62
    14
  6
PHANTOM2
  0
LAYER
  2
AM_9
 70
     0
 62
    -7
  6
CONTINUOUS
  0
LAYER
  2
SYS-TEISEI0
 70
     0
 62
     7
  6
CONTINUOUS
  0
LAYER
  2
AM_INV
 70
     0
 62
  -253
  6
CONTINUOUS
  0
LAYER
  2
寸法
 70
     0
 62
     6
  6
CONTINUOUS
  0
LAYER
  2
外形線
 70
     0
 62
     7
  6
CONTINUOUS
  0
LAYER
  2
中心線
 70
     0
 62
     1
  6
CENTER
  0
LAYER
  2
かくれ線
 70
     0
 62
     4
  6
JIS_08_11
  0
ENDTAB
  0
TABLE
  2
STYLE
 70
    13
  0
STYLE
  2
STANDARD
 70
     0
 40
0.0
 41
1.0
 50
0.0
 71
     0
 42
3.0
  3
dim.shx
  4
extfont.shx
  0
STYLE
  2
R寸法
 70
     0
 40
2.0
 41
1.0
 50
0.0
 71
     0
 42
3.0
  3
dim.shx
  4
extfont.shx
  0
STYLE
  2
ACISOGDT
 70
     0
 40
0.0
 41
1.0
 50
0.0
 71
     0
 42
2.5
  3
amgdt.shx
  4

  0
STYLE
  2

 70
     1
 40
0.0
 41
1.0
 50
0.0
 71
     0
 42
3.0
  3
genltshp.shx
  4

  0
ENDTAB
  0
TABLE
  2
VIEW
 70
     6
  0
VIEW
  2
AM_VIEW1
 70
     0
 40
95.560349999996788
 10
100.7985233311002986
 20
153.3405249999952105
 41
175.683046662210387
 11
0.0
 21
0.0
 31
1.0
 12
0.0
 22
0.0
 32
0.0
 42
50.0
 43
0.0
 44
0.0
 50
0.0
 71
    16
  0
VIEW
  2
AM_VIEW2
 70
     0
 40
95.560349999996788
 10
201.615476669280099
 20
153.3405249999952105
 41
175.683046662210387
 11
0.0
 21
0.0
 31
1.0
 12
0.0
 22
0.0
 32
0.0
 42
50.0
 43
0.0
 44
0.0
 50
0.0
 71
    16
  0
VIEW
  2
AM_VIEW3
 70
     0
 40
95.560349999996788
 10
100.7985233311002986
 20
57.7801749999984011
 41
175.683046662210387
 11
0.0
 21
0.0
 31
1.0
 12
0.0
 22
0.0
 32
0.0
 42
50.0
 43
0.0
 44
0.0
 50
0.0
 71
    16
  0
VIEW
  2
AM_VIEW4
 70
     0
 40
95.560349999996788
 10
201.615476669280099
 20
57.7801749999984011
 41
175.683046662210387
 11
0.0
 21
0.0
 31
1.0
 12
0.0
 22
0.0
 32
0.0
 42
50.0
 43
0.0
 44
0.0
 50
0.0
 71
    16
  0
VIEW
  2
AM_VIEW5
 70
     0
 40
95.5603499999968165
 10
151.2070000001901064
 20
105.5603499999968022
 41
175.683046662210387
 11
0.0
 21
0.0
 31
1.0
 12
0.0
 22
0.0
 32
0.0
 42
50.0
 43
0.0
 44
0.0
 50
0.0
 71
    16
  0
VIEW
  2
AM_VIEW6
 70
     0
 40
191.1187887929935982
 10
151.2070000001901917
 20
105.5603499999968022
 41
351.3625796634876224
 11
0.0
 21
0.0
 31
1.0
 12
0.0
 22
0.0
 32
0.0
 42
50.0
 43
0.0
 44
0.0
 50
0.0
 71
    16
  0
ENDTAB
  0
TABLE
  2
UCS
 70
     0
  0
ENDTAB
  0
TABLE
  2
APPID
 70
    65
  0
APPID
  2
ACAD
 70
     0
  0
APPID
  2
ACADANNOTATIVE
 70
     0
  0
APPID
  2
ACAD_MLEADERVER
 70
     0
  0
APPID
  2
MCAD_NO_VIS
 70
     0
  0
APPID
  2
ACAD_TEMP_GRAPHIC
 70
     0
  0
APPID
  2
AD_DRAW
 70
     0
  0
APPID
  2
ACATTRIBSERVICES
 70
     0
  0
APPID
  2
DESIGNERASSEMBLIES
 70
     0
  0
APPID
  2
ACADM_DIM_EDIT
 70
     0
  0
APPID
  2
AMDT_DM_ADJ
 70
     0
  0
APPID
  2
ACADANNOPO
 70
     0
  0
APPID
  2
ACAECLAYERSTANDARD
 70
     0
  0
APPID
  2
ACDBDYNAMICBLOCKGUID
 70
     0
  0
APPID
  2
ACDBBLOCKREPETAG
 70
     0
  0
APPID
  2
ACAUTHENVIRON
 70
     0
  0
APPID
  2
ACDBDYNAMICBLOCKTRUENAME
 70
     0
  0
APPID
  2
GENIUS_GENREC_14
 70
     0
  0
APPID
  2
GENIUS_GENOBJ-N-REC_13
 70
     0
  0
APPID
  2
GENIUS_GENODEF_13
 70
     0
  0
APPID
  2
ACAD_EXEMPT_FROM_CAD_STANDARDS
 70
     0
  0
APPID
  2
GENIUS_GENOBJ-N-CEN_13
 70
     0
  0
APPID
  2
GENIUS_GENCEN_19
 70
     0
  0
APPID
  2
ACAD_DSTYLE_DIMINSPECT
 70
     0
  0
APPID
  2
DCO15
 70
     0
  0
APPID
  2
ACAD_PSEXT
 70
     0
  0
APPID
  2
GENIUS_GENBH_13
 70
     0
  0
APPID
  2
GENIUS_GENOENT_13
 70
     0
  0
APPID
  2
GENIUS_GENOLIS_13
 70
     0
  0
APPID
  2
GENIUS_GENOBJ-NBEHI-BHF_13
 70
     0
  0
APPID
  2
GENIUS_GENOREF_13
 70
     0
  0
APPID
  2
GENIUS_GENOBJ-NBEHI-BHB_13
 70
     0
  0
APPID
  2
AMG_2DHIDE
 70
     0
  0
APPID
  2
AMG_2DSTRUCT_BTR
 70
     0
  0
APPID
  2
GENIUS_AMGTXT_16
 70
     0
  0
APPID
  2
GENIUS_GENOBJ-N-HTC_13
 70
     0
  0
APPID
  2
GENIUS_GENHATCH_13
 70
     0
  0
APPID
  2
GEVID1208849169
 70
     0
  0
APPID
  2
GEVDC
 70
     0
  0
APPID
  2
ACADM_2DVIEW_IGN_NOTIFY
 70
     0
  0
APPID
  2
GEVID1208849170
 70
     0
  0
APPID
  2
GEVID1208849171
 70
     0
  0
APPID
  2
GEVRADREF
 70
     0
  0
APPID
  2
ACAD_DSTYLE_DIMJAG
 70
     0
  0
APPID
  2
ACAD_DSTYLE_DIMTALN
 70
     0
  0
APPID
  2
GENIUS_GENDTOL_13
 70
     0
  0
APPID
  2
GENIUS_GENTRA_14
 70
     0
  0
APPID
  2
GENIUS_GENOBJ-N-TIT_13
 70
     0
  0
APPID
  2
GENIUS_GENTITLE_13
 70
     0
  0
APPID
  2
GENIUS_GENSCREG_15
 70
     0
  0
APPID
  2
GENIUS_GENOBJ-N-SDF_13
 70
     0
  0
APPID
  2
ACAD_DSTYLE_DIMRADIAL_EXTENSION
 70
     0
  0
APPID
  2
GENIUS_GENOBJ-N-FIL_13
 70
     0
  0
APPID
  2
GENIUS_GENOBJ-N-CRS_13
 70
     0
  0
APPID
  2
GENIUS_GENDIMSH_14
 70
     0
  0
APPID
  2
ACAD_DSTYLE_DIMANGULAR_EXT
 70
     0
  0
APPID
  2
ACAD_NAV_VCDISPLAY
 70
     0
  0
APPID
  2
ACAD_DSTYLE_DIMBREAK
 70
     0
  0
APPID
  2
ACAD_DSTYLE_DIMARC_LENGTH_
 70
     0
  0
APPID
  2
ACAD_DSTYLE_DIM_LINETYPE
 70
     0
  0
APPID
  2
ACAD_DSTYLE_DIM_EXT1_LINETYPE
 70
     0
  0
APPID
  2
ACAD_DSTYLE_DIM_EXT2_LINETYPE
 70
     0
  0
APPID
  2
ACDBATTR
 70
     0
  0
APPID
  2
GEVID1428372192
 70
     0
  0
APPID
  2
ACAD_DSTYLE_DIMJOGGED_JOGA
 70
     0
  0
APPID
  2
GENIUS_GENSCREG_13
 70
     0
  0
ENDTAB
  0
TABLE
  2
DIMSTYLE
 70
    27
  0
DIMSTYLE
  2
STANDARD
 70
     0
  3

  4

  5

  6

  7

 40
1.0
 41
1.0
 42
0.8
 43
0.38
 44
1.0
 45
0.0
 46
0.0
 47
0.0
 48
0.0
140
3.1000000000000001
141
0.09
142
0.0
143
25.3999999999999986
144
1.0
145
0.5
146
1.0
147
0.09
 71
     0
 72
     0
 73
     0
 74
     0
 75
     0
 76
     0
 77
     1
 78
     0
170
     0
171
     2
172
     0
173
     0
174
     0
175
     0
176
     0
177
     0
178
     0
  0
DIMSTYLE
  2
AM_ANSI
 70
     0
  3

  4
mm
  5

  6

  7

 40
1.0
 41
0.1
 42
0.05
 43
0.5
 44
0.1
 45
0.0
 46
0.0
 47
0.1
 48
0.1
140
0.12
141
0.0
142
0.0
143
25.3999999999999986
144
1.0
145
0.0
146
0.71
147
0.06
 71
     0
 72
     0
 73
     1
 74
     1
 75
     0
 76
     0
 77
     0
 78
     7
170
     0
171
     2
172
     0
173
     0
174
     0
175
     0
176
   256
177
   256
178
     2
  0
DIMSTYLE
  2
AM_ANSI$3
 70
     0
  3

  4
mm
  5

  6

  7

 40
1.0
 41
0.1
 42
0.05
 43
0.5
 44
0.1
 45
0.0
 46
0.0
 47
0.1
 48
0.1
140
0.12
141
0.0
142
0.0
143
25.3999999999999986
144
1.0
145
0.0
146
0.71
147
0.06
 71
     0
 72
     0
 73
     1
 74
     1
 75
     0
 76
     0
 77
     0
 78
     7
170
     0
171
     2
172
     0
173
     0
174
     0
175
     0
176
   256
177
   256
178
     2
  0
DIMSTYLE
  2
AM_ANSI$4
 70
     0
  3

  4
mm
  5

  6

  7

 40
1.0
 41
0.1
 42
0.05
 43
0.5
 44
0.1
 45
0.0
 46
0.0
 47
0.1
 48
0.1
140
0.12
141
0.0
142
0.0
143
25.3999999999999986
144
1.0
145
0.0
146
0.71
147
0.06
 71
     0
 72
     0
 73
     1
 74
     1
 75
     0
 76
     0
 77
     0
 78
     7
170
     0
171
     2
172
     0
173
     0
174
     0
175
     0
176
   256
177
   256
178
     2
  0
DIMSTYLE
  2
AM_ANSI$7
 70
     0
  3

  4
mm
  5

  6

  7

 40
1.0
 41
0.1
 42
0.05
 43
0.5
 44
0.1
 45
0.0
 46
0.0
 47
0.1
 48
0.1
140
0.24
141
0.0
142
0.0
143
25.3999999999999986
144
1.0
145
0.0
146
0.71
147
0.06
 71
     0
 72
     0
 73
     1
 74
     1
 75
     0
 76
     0
 77
     0
 78
     7
170
     0
171
     2
172
     0
173
     0
174
     0
175
     0
176
   256
177
   256
178
     2
  0
DIMSTYLE
  2
AM_ANSI$SF
 70
     0
  3

  4
mm
  5

  6

  7

 40
1.0
 41
0.1
 42
0.05
 43
0.5
 44
0.1
 45
0.0
 46
0.0
 47
0.1
 48
0.1
140
0.12
141
0.0
142
0.0
143
25.3999999999999986
144
1.0
145
0.0
146
0.71
147
0.06
 71
     0
 72
     0
 73
     1
 74
     1
 75
     1
 76
     1
 77
     0
 78
     7
170
     0
171
     2
172
     0
173
     0
174
     0
175
     0
176
   256
177
   256
178
     2
  0
DIMSTYLE
  2
AM_ANSI$SH
 70
     0
  3

  4
mm
  5

  6
GENAXEH
  7

 40
1.0
 41
0.1
 42
0.05
 43
0.5
 44
0.1
 45
0.0
 46
0.0
 47
0.1
 48
0.1
140
0.12
141
0.0
142
0.0
143
25.3999999999999986
144
1.0
145
0.0
146
0.71
147
0.06
 71
     0
 72
     0
 73
     1
 74
     1
 75
     1
 76
     1
 77
     0
 78
     7
170
     0
171
     2
172
     0
173
     1
174
     0
175
     0
176
   256
177
   256
178
     2
  0
DIMSTYLE
  2
AM_JIS
 70
     0
  3

  4
"
  5
OPEN30
  6

  7

 40
1.0
 41
2.5
 42
1.0
 43
7.0
 44
1.0
 45
0.0
 46
0.0
 47
0.1
 48
0.1
140
3.0
141
0.0
142
0.0
143
0.0393701
144
1.0
145
0.0
146
0.71
147
1.0
 71
     0
 72
     0
 73
     0
 74
     0
 75
     0
 76
     0
 77
     3
 78
     8
170
     0
171
     2
172
     1
173
     0
174
     0
175
     0
176
     7
177
     7
178
     7
  0
DIMSTYLE
  2
AM_JIS$3
 70
     0
  3

  4
"
  5
OPEN30
  6

  7

 40
1.0
 41
2.5
 42
1.0
 43
10.0
 44
1.0
 45
0.0
 46
0.0
 47
0.1
 48
0.1
140
3.0
141
0.0
142
0.0
143
0.0393701
144
1.0
145
0.0
146
0.71
147
1.0
 71
     0
 72
     0
 73
     0
 74
     1
 75
     0
 76
     0
 77
     3
 78
     8
170
     0
171
     2
172
     0
173
     0
174
     0
175
     0
176
     7
177
     7
178
     7
  0
DIMSTYLE
  2
AM_JIS$4
 70
     0
  3

  4
"
  5
OPEN30
  6

  7

 40
1.0
 41
2.5
 42
1.0
 43
10.0
 44
1.0
 45
0.0
 46
0.0
 47
0.1
 48
0.1
140
2.0
141
0.0
142
0.0
143
0.0393701
144
1.0
145
0.0
146
0.71
147
1.0
 71
     0
 72
     0
 73
     0
 74
     0
 75
     0
 76
     0
 77
     3
 78
     8
170
     0
171
     2
172
     0
173
     0
174
     0
175
     0
176
     7
177
     7
178
     7
  0
DIMSTYLE
  2
AM_JIS$6
 70
     0
  3

  4
"
  5
OPEN30
  6

  7

 40
1.0
 41
2.5
 42
1.0
 43
10.0
 44
1.0
 45
0.0
 46
0.0
 47
0.1
 48
0.1
140
3.0
141
0.0
142
0.0
143
0.0393701
144
1.0
145
0.0
146
0.71
147
1.0
 71
     0
 72
     0
 73
     0
 74
     0
 75
     0
 76
     0
 77
     0
 78
     8
170
     0
171
     2
172
     1
173
     0
174
     0
175
     0
176
   256
177
     7
178
     7
  0
DIMSTYLE
  2
AM_JIS$7
 70
     0
  3

  4
"
  5
OPEN30
  6

  7

 40
1.0
 41
2.5
 42
1.0
 43
10.0
 44
1.0
 45
0.0
 46
0.0
 47
0.1
 48
0.1
140
3.0
141
0.0
142
0.0
143
0.0393701
144
1.0
145
0.0
146
0.71
147
1.0
 71
     0
 72
     0
 73
     0
 74
     0
 75
     0
 76
     0
 77
     3
 78
     8
170
     0
171
     2
172
     1
173
     0
174
     0
175
     0
176
     7
177
   256
178
     7
  0
DIMSTYLE
  2
AM_JIS$SF
 70
     0
  3

  4
"
  5
OPEN30
  6

  7

 40
1.0
 41
2.5
 42
1.0
 43
7.0
 44
1.0
 45
0.0
 46
0.0
 47
0.1
 48
0.1
140
3.0
141
0.0
142
0.0
143
0.0393701
144
1.0
145
0.0
146
0.71
147
1.0
 71
     0
 72
     0
 73
     0
 74
     0
 75
     1
 76
     1
 77
     3
 78
     8
170
     0
171
     2
172
     1
173
     0
174
     0
175
     0
176
     7
177
   256
178
     7
  0
DIMSTYLE
  2
AM_JIS$SH
 70
     0
  3

  4
"
  5

  6
GENAXEH
  7
OPEN30
 40
1.0
 41
2.5
 42
1.0
 43
7.0
 44
1.0
 45
0.0
 46
0.0
 47
0.1
 48
0.1
140
3.0
141
0.0
142
0.0
143
0.0393701
144
2.0
145
0.0
146
0.71
147
1.0
 71
     0
 72
     0
 73
     0
 74
     0
 75
     1
 76
     1
 77
     3
 78
     8
170
     0
171
     2
172
     1
173
     1
174
     0
175
     0
176
     7
177
   256
178
     7
  0
DIMSTYLE
  2
AM_JIS$2
 70
     0
  3

  4
"
  5
OPEN30
  6

  7

 40
1.0
 41
2.5
 42
1.0
 43
7.0
 44
1.0
 45
0.0
 46
0.0
 47
0.1
 48
0.1
140
3.0
141
0.0
142
0.0
143
0.0393701
144
1.0
145
0.0
146
0.71
147
1.0
 71
     0
 72
     0
 73
     0
 74
     0
 75
     0
 76
     0
 77
     3
 78
     8
170
     0
171
     2
172
     1
173
     0
174
     0
175
     0
176
     7
177
     7
178
     7
  0
DIMSTYLE
  2
AM_JIS$0
 70
     0
  3

  4
"
  5
OPEN30
  6

  7

 40
1.0
 41
2.5
 42
1.0
 43
7.0
 44
1.0
 45
0.0
 46
0.0
 47
0.1
 48
0.1
140
3.0
141
0.0
142
0.0
143
0.0393701
144
1.0
145
0.0
146
0.71
147
1.0
 71
     0
 72
     0
 73
     0
 74
     0
 75
     0
 76
     0
 77
     3
 78
     8
170
     0
171
     2
172
     1
173
     0
174
     0
175
     0
176
     7
177
     7
178
     7
  0
DIMSTYLE
  2
STANDARD$0
 70
     0
  3

  4

  5

  6

  7

 40
1.0
 41
1.0
 42
0.8
 43
0.38
 44
1.0
 45
0.0
 46
0.0
 47
0.0
 48
0.0
140
3.1000000000000001
141
0.09
142
0.0
143
25.3999999999999986
144
1.0
145
0.5
146
1.0
147
0.09
 71
     0
 72
     0
 73
     0
 74
     0
 75
     0
 76
     0
 77
     1
 78
     0
170
     0
171
     2
172
     0
173
     0
174
     0
175
     0
176
     0
177
     0
178
     0
  0
DIMSTYLE
  2
ANNOTATIVE
 70
     0
  3

  4

  5

  6

  7

 40
1.0
 41
0.18
 42
0.0625
 43
0.38
 44
0.18
 45
0.0
 46
0.0
 47
0.0
 48
0.0
140
0.18
141
0.09
142
0.0
143
25.3999999999999986
144
1.0
145
0.0
146
1.0
147
0.09
 71
     0
 72
     0
 73
     1
 74
     1
 75
     0
 76
     0
 77
     0
 78
     0
170
     0
171
     2
172
     0
173
     0
174
     0
175
     0
176
     0
177
     0
178
     0
  0
DIMSTYLE
  2
AM_ISO
 70
     0
  3

  4
"
  5

  6

  7

 40
1.0
 41
2.5
 42
1.0
 43
10.0
 44
1.0
 45
0.0
 46
0.0
 47
0.1
 48
0.1
140
3.5
141
0.0
142
0.0
143
0.0393701
144
1.0
145
0.0
146
0.71
147
1.5
 71
     0
 72
     0
 73
     0
 74
     0
 75
     0
 76
     0
 77
     1
 78
     8
170
     0
171
     2
172
     1
173
     0
174
     0
175
     0
176
   256
177
   256
178
     2
  0
DIMSTYLE
  2
AM_ISO$3
 70
     0
  3

  4
"
  5

  6

  7

 40
1.0
 41
2.5
 42
1.0
 43
10.0
 44
1.0
 45
0.0
 46
0.0
 47
0.1
 48
0.1
140
3.5
141
0.0
142
0.0
143
0.0393701
144
1.0
145
0.0
146
0.71
147
1.5
 71
     0
 72
     0
 73
     0
 74
     1
 75
     0
 76
     0
 77
     1
 78
     8
170
     0
171
     2
172
     0
173
     0
174
     0
175
     0
176
   256
177
   256
178
     2
  0
DIMSTYLE
  2
AM_ISO$4
 70
     0
  3

  4
"
  5

  6

  7

 40
1.0
 41
2.5
 42
1.0
 43
10.0
 44
1.0
 45
0.0
 46
0.0
 47
0.1
 48
0.1
140
3.5
141
0.0
142
0.0
143
0.0393701
144
1.0
145
0.0
146
0.71
147
1.5
 71
     0
 72
     0
 73
     0
 74
     1
 75
     0
 76
     0
 77
     1
 78
     8
170
     0
171
     2
172
     0
173
     0
174
     0
175
     0
176
   256
177
   256
178
     2
  0
DIMSTYLE
  2
AM_ISO$6
 70
     0
  3

  4
"
  5

  6

  7

 40
1.0
 41
2.5
 42
1.0
 43
10.0
 44
1.0
 45
0.0
 46
0.0
 47
0.1
 48
0.1
140
3.5
141
0.0
142
0.0
143
0.0393701
144
1.0
145
0.0
146
0.71
147
1.5
 71
     0
 72
     0
 73
     0
 74
     0
 75
     0
 76
     0
 77
     0
 78
     8
170
     0
171
     2
172
     1
173
     0
174
     0
175
     0
176
   256
177
   256
178
     2
  0
DIMSTYLE
  2
AM_ISO$7
 70
     0
  3

  4
"
  5

  6

  7

 40
1.0
 41
2.5
 42
1.0
 43
10.0
 44
1.0
 45
0.0
 46
0.0
 47
0.1
 48
0.1
140
5.0
141
0.0
142
0.0
143
0.0393701
144
1.0
145
0.0
146
0.71
147
1.5
 71
     0
 72
     0
 73
     0
 74
     0
 75
     0
 76
     0
 77
     1
 78
     8
170
     0
171
     2
172
     1
173
     0
174
     0
175
     0
176
   256
177
   256
178
     2
  0
DIMSTYLE
  2
AM_ISO$SF
 70
     0
  3

  4
"
  5

  6

  7

 40
1.0
 41
2.5
 42
1.0
 43
10.0
 44
1.0
 45
0.0
 46
0.0
 47
0.1
 48
0.1
140
3.5
141
0.0
142
0.0
143
0.0393701
144
1.0
145
0.0
146
0.71
147
1.5
 71
     0
 72
     0
 73
     0
 74
     0
 75
     1
 76
     1
 77
     1
 78
     8
170
     0
171
     2
172
     1
173
     0
174
     0
175
     0
176
   256
177
   256
178
     2
  0
DIMSTYLE
  2
AM_ISO$SH
 70
     0
  3

  4
"
  5

  6
GENAXEH
  7

 40
1.0
 41
2.5
 42
1.0
 43
10.0
 44
1.0
 45
0.0
 46
0.0
 47
0.1
 48
0.1
140
3.5
141
0.0
142
0.0
143
0.0393701
144
2.0
145
0.0
146
0.71
147
1.5
 71
     0
 72
     0
 73
     0
 74
     0
 75
     1
 76
     1
 77
     1
 78
     8
170
     0
171
     2
172
     1
173
     1
174
     0
175
     0
176
   256
177
   256
178
     2
  0
DIMSTYLE
  2
AM_ISO$0
 70
     0
  3

  4
"
  5

  6

  7

 40
1.0
 41
2.5
 42
1.0
 43
10.0
 44
1.0
 45
0.0
 46
0.0
 47
0.1
 48
0.1
140
3.5
141
0.0
142
0.0
143
0.0393701
144
1.0
145
0.0
146
0.71
147
1.5
 71
     0
 72
     0
 73
     0
 74
     0
 75
     0
 76
     0
 77
     1
 78
     8
170
     0
171
     2
172
     1
173
     0
174
     0
175
     0
176
   256
177
   256
178
     2
  0
DIMSTYLE
  2
ISO-25
 70
     0
  3

  4

  5

  6

  7

 40
1.0
 41
2.5
 42
0.625
 43
3.75
 44
1.25
 45
0.0
 46
0.0
 47
0.0
 48
0.0
140
2.5
141
2.5
142
0.0
143
0.03937007874016
144
1.0
145
0.0
146
1.0
147
0.625
 71
     0
 72
     0
 73
     0
 74
     0
 75
     0
 76
     0
 77
     1
 78
     8
170
     0
171
     3
172
     1
173
     0
174
     0
175
     0
176
     0
177
     0
178
     0
  0
ENDTAB
  0
ENDSEC
  0
SECTION
  2
BLOCKS
  0
BLOCK
  8
0
  2
$MODEL_SPACE
 70
     0
 10
0.0
 20
0.0
 30
0.0
  3
$MODEL_SPACE
  1

  0
ENDBLK
  5
1D3
  8
0
  0
BLOCK
 67
     1
  8
0
  2
$PAPER_SPACE
 70
     0
 10
0.0
 20
0.0
 30
0.0
  3
$PAPER_SPACE
  1

  0
ENDBLK
  5
1D1
 67
     1
  8
0
  0
BLOCK
  8
0
  2
GENAXEH
 70
     0
 10
0.0
 20
0.0
 30
0.0
  3
GENAXEH
  1

  0
LINE
  5
264
  8
0
 10
-1.0
 20
0.0
 30
0.0
 11
1.0
 21
0.0
 31
0.0
  0
ENDBLK
  5
266
  8
0
  0
BLOCK
  8
0
  2
_OPEN30
 70
     0
 10
0.0
 20
0.0
 30
0.0
  3
_OPEN30
  1

  0
LINE
  5
2FA
  8
0
  6
BYBLOCK
 62
     0
 10
-1.0
 20
0.26794919
 30
0.0
 11
0.0
 21
0.0
 31
0.0
  0
LINE
  5
2FB
  8
0
  6
BYBLOCK
 62
     0
 10
0.0
 20
0.0
 30
0.0
 11
-1.0
 21
-0.26794919
 31
0.0
  0
LINE
  5
2FC
  8
0
  6
BYBLOCK
 62
     0
 10
0.0
 20
0.0
 30
0.0
 11
-1.0
 21
0.0
 31
0.0
  0
ENDBLK
  5
2FE
  8
0
  0
BLOCK
  8
0
  2
ZUWAKU-A4H
 70
     0
 10
0.0
 20
0.0
 30
0.0
  3
ZUWAKU-A4H
  1

  0
LINE
  5
1B9F
  8
AM_BOR
 62
     3
 10
12.9569999999950891
 20
201.1206999999936045
 30
0.0
 11
12.9569999999997592
 21
10.0
 31
0.0
  0
LINE
  5
1BA0
  8
AM_BOR
 62
     3
 10
289.4570000003852783
 20
201.1206999998576919
 30
0.0
 11
289.4570000000192067
 21
10.0
 31
0.0
  0
LINE
  5
1BA1
  8
AM_BOR
 62
     3
 10
12.9569999999950802
 20
201.1206999999936045
 30
0.0
 11
289.4570000003852783
 21
201.1206999998576919
 31
0.0
  0
LINE
  5
1BA2
  8
AM_BOR
 62
     3
 10
12.9569999999997396
 20
10.0
 30
0.0
 11
289.4570000000192067
 21
10.0
 31
0.0
  0
TEXT
  5
1BA3
  8
SYS-TEISEI0
  6
CONTINUOUS
 62
     3
 10
21.8420000176578597
 20
20.9500000476837194
 30
0.0
 40
3.099999904632567
  1
 
  0
TEXT
  5
1BA4
  8
SYS-TEISEI0
  6
CONTINUOUS
 62
     3
 10
47.3420000444799385
 20
20.9500000476837194
 30
0.0
 40
3.099999904632567
  1
 
  0
TEXT
  5
1BA5
  8
SYS-TEISEI0
  6
CONTINUOUS
 62
     3
 10
106.7019999570845954
 20
20.9500000476837194
 30
0.0
 40
3.099999904632567
  1
 
  0
TEXT
  5
1BA6
  8
SYS-TEISEI0
  6
CONTINUOUS
 62
     3
 10
114.4019999570845982
 20
20.9500000476837194
 30
0.0
 40
3.099999904632567
  1
 
  0
TEXT
  5
1BA7
  8
SYS-TEISEI0
  6
CONTINUOUS
 62
     3
 10
21.8420000176578597
 20
25.9500000476837194
 30
0.0
 40
3.099999904632567
  1
 
  0
TEXT
  5
1BA8
  8
SYS-TEISEI0
  6
CONTINUOUS
 62
     3
 10
47.3420000444799385
 20
25.9500000476837194
 30
0.0
 40
3.099999904632567
  1
 
  0
TEXT
  5
1BA9
  8
SYS-TEISEI0
  6
CONTINUOUS
 62
     3
 10
106.7019999570845954
 20
25.9500000476837194
 30
0.0
 40
3.099999904632567
  1
 
  0
TEXT
  5
1BAA
  8
SYS-TEISEI0
  6
CONTINUOUS
 62
     3
 10
114.4019999570845982
 20
25.9500000476837194
 30
0.0
 40
3.099999904632567
  1
 
  0
TEXT
  5
1BAB
  8
SYS-BUHIN0
  6
CONTINUOUS
 62
     3
 10
260.7069999999999936
 20
52.4500000476837229
 30
0.0
 40
3.099999904632567
  1
 
  0
TEXT
  5
1BAC
  8
SYS-BUHIN0
  6
CONTINUOUS
 62
     3
 10
260.7069999999999936
 20
58.45000004768373
 30
0.0
 40
3.099999904632567
  1
 
  0
TEXT
  5
1BAD
  8
SYS-BUHIN0
  6
CONTINUOUS
 62
     3
 10
260.7069999999999936
 20
64.4500000476837158
 30
0.0
 40
3.099999904632567
  1
 
  0
TEXT
  5
1BAE
  8
AM_BOR
 10
12.9569999999997592
 20
10.0
 30
0.0
 40
5.0
  1
!GENTITLE-LL
  0
TEXT
  5
1BAF
  8
AM_BOR
 10
289.4570000000192067
 20
10.0
 30
0.0
 40
5.0
  1
!GENTITLE-INSERT
  0
TEXT
  5
1BB0
  8
AM_BOR
 10
289.4570000003852783
 20
201.1206999998576919
 30
0.0
 40
5.0
  1
!GENTITLE-RU
  0
TEXT
  5
1BB1
  8
AM_BOR
 10
297.0
 20
210.0
 30
0.0
 40
5.0
  1
!GENTITLE-MAX
  0
ENDBLK
  5
1BB3
  8
0
  0
BLOCK
  8
0
  2
A$C1C06296A
 70
     2
 10
0.0
 20
0.0
 30
0.0
  3
A$C1C06296A
  1

  0
LINE
  5
204C
  8
AM_BOR
 10
198.8685188039937088
 20
17.8867445779319887
 30
0.0
 11
203.2337455721774973
 21
13.5215178097486195
 31
0.0
  0
LINE
  5
204D
  8
AM_BOR
 10
198.8685188039935952
 20
17.8667153513160386
 30
0.0
 11
198.8685188039939931
 21
14.1289643611789106
 31
0.0
  0
LINE
  5
204E
  8
AM_BOR
 10
204.7045172738833969
 20
17.8667153264694107
 30
0.0
 11
204.7045172738839085
 21
14.1811288456255493
 31
0.0
  0
LINE
  5
204F
  8
AM_BOR
 10
204.2042888336073077
 20
17.7930102901758609
 30
0.0
 11
204.204288833606995
 21
14.6986103577410798
 31
0.0
  0
LINE
  5
2050
  8
AM_BOR
 10
199.3687472442697981
 20
17.1760524653333491
 30
0.0
 11
199.3687472442705939
 21
14.1978003551034107
 31
0.0
  0
LINE
  5
2051
  8
AM_BOR
 10
200.4375646203926919
 20
18.4653345709555303
 30
0.0
 11
204.2042888336073077
 21
14.6986103577405203
 31
0.0
  0
LINE
  5
2052
  8
AM_BOR
 10
199.3687472442697128
 20
17.1760524653325497
 30
0.0
 11
203.0271328720340875
 21
13.5176668375685196
 31
0.0
  0
ARC
  5
2053
  8
AM_BOR
 10
198.3682903686870134
 20
17.8667153513160493
 30
0.0
 40
0.500228440276212
 50
0.0
 51
50.265515568291427
  0
ARC
  5
2054
  8
AM_BOR
 10
198.3682903438408118
 20
14.1289643611789195
 30
0.0
 40
0.500228440276212
 50
304.6975967840527915
 51
0.0
  0
ARC
  5
2055
  8
AM_BOR
 10
205.2047457340366918
 20
17.8667153264694107
 30
0.0
 40
0.500228440276212
 50
127.0284887689632995
 51
180.0000050089562933
  0
ARC
  5
2056
  8
AM_BOR
 10
203.5373175699668877
 20
17.7930102901758183
 30
0.0
 40
0.6669712537016159
 50
0.0
 51
74.7148235688661515
  0
ARC
  5
2057
  8
AM_BOR
 10
200.0357184979716862
 20
14.1978003551033893
 30
0.0
 40
0.6669712537016159
 50
180.0000050089562933
 51
256.4857883914604031
  0
LINE
  5
2058
  8
AM_BOR
 10
210.9573727773361895
 20
15.9934456649946792
 30
0.0
 11
210.9224749062998967
 21
16.211434571273589
 31
0.0
  0
LINE
  5
2059
  8
AM_BOR
 10
210.9224749062994135
 20
16.2114345712734114
 30
0.0
 11
210.8180468870608024
 21
16.4277644503503701
 31
0.0
  0
LINE
  5
205A
  8
AM_BOR
 10
210.8180468870604045
 20
16.4277644503503701
 30
0.0
 11
210.6448834799014946
 21
16.6407889012216685
 31
0.0
  0
LINE
  5
205B
  8
AM_BOR
 10
210.6448834799012957
 20
16.6407889012216188
 30
0.0
 11
210.4043025629098054
 21
16.8488866791887588
 31
0.0
  0
LINE
  5
205C
  8
AM_BOR
 10
210.4043025629094927
 20
16.8488866791890004
 30
0.0
 11
210.098135102129703
 21
17.0504740345086887
 31
0.0
  0
LINE
  5
205D
  8
AM_BOR
 10
210.0981351021299872
 20
17.0504740345085501
 30
0.0
 11
209.7287112168075964
 21
17.2440167656851386
 31
0.0
  0
LINE
  5
205E
  8
AM_BOR
 10
209.7287112168071133
 20
17.2440167656852097
 30
0.0
 11
209.2988424457736869
 21
17.4280418956699883
 31
0.0
  0
LINE
  5
205F
  8
AM_BOR
 10
209.2988424457736869
 20
17.4280418956700807
 30
0.0
 11
208.8118003499388919
 21
17.6011488821063686
 31
0.0
  0
LINE
  5
2060
  8
AM_BOR
 10
208.8118003499388919
 20
17.6011488821064397
 30
0.0
 11
208.2712916137359116
 21
17.7620202763029695
 31
0.0
  0
LINE
  5
2061
  8
AM_BOR
 10
208.2712916137361105
 20
17.7620202763030903
 30
0.0
 11
207.681429835015507
 21
17.9094317498130806
 31
0.0
  0
LINE
  5
2062
  8
AM_BOR
 10
207.6814298350153081
 20
17.9094317498129705
 30
0.0
 11
207.0467042180816861
 21
18.0422614123133584
 31
0.0
  0
LINE
  5
2063
  8
AM_BOR
 10
207.0467042180816861
 20
18.0422614123134402
 30
0.0
 11
206.371945408137293
 21
18.1594983498679703
 31
0.0
  0
LINE
  5
2064
  8
AM_BOR
 10
206.371945408137492
 20
18.1594983498678815
 30
0.0
 11
205.6622887271568061
 21
18.2602503185922984
 31
0.0
  0
LINE
  5
2065
  8
AM_BOR
 10
205.6622887271566071
 20
18.2602503185923695
 30
0.0
 11
205.022423745999788
 21
18.3325341603967402
 31
0.0
  0
LINE
  5
2066
  8
AM_BOR
 10
205.0224237459993901
 20
18.3325341603967793
 30
0.0
 11
204.923135090983692
 21
18.3437505351688195
 31
0.0
  0
LINE
  5
2067
  8
AM_BOR
 10
204.923135090983692
 20
18.3437505351687484
 30
0.0
 11
204.1601099051040933
 21
18.409363512530259
 31
0.0
  0
LINE
  5
2068
  8
AM_BOR
 10
204.1601099051048038
 20
18.409363512530259
 30
0.0
 11
203.713146860105013
 21
18.4363878729324711
 31
0.0
  0
LINE
  5
2069
  8
AM_BOR
 10
200.437564620392493
 20
18.4653345709555694
 30
0.0
 11
200.1940158259679094
 21
18.4565898963008799
 31
0.0
  0
LINE
  5
206A
  8
AM_BOR
 10
200.1940158259679947
 20
18.4565898963009012
 30
0.0
 11
199.4129261727725861
 21
18.4093635125303088
 31
0.0
  0
LINE
  5
206B
  8
AM_BOR
 10
199.4129261727725861
 20
18.4093635125302484
 30
0.0
 11
198.6499009868929875
 21
18.3437505351687591
 31
0.0
  0
LINE
  5
206C
  8
AM_BOR
 10
198.550612373156298
 20
18.3325341650599789
 30
0.0
 11
197.9107473507208965
 21
18.2602503185924689
 31
0.0
  0
LINE
  5
206D
  8
AM_BOR
 10
198.6499009868929875
 20
18.3437505351687911
 30
0.0
 11
198.550612373156298
 21
18.3325341650599185
 31
0.0
  0
LINE
  5
206E
  8
AM_BOR
 10
197.9107473507212092
 20
18.2602503185924299
 30
0.0
 11
197.2010906697404948
 21
18.1594983498680413
 31
0.0
  0
LINE
  5
206F
  8
AM_BOR
 10
197.2010906697404096
 20
18.1594983498680911
 30
0.0
 11
196.5263318597957891
 21
18.042261412313529
 31
0.0
  0
LINE
  5
2070
  8
AM_BOR
 10
196.5263318597959028
 20
18.0422614123135894
 30
0.0
 11
195.8916062428623945
 21
17.9094317498132192
 31
0.0
  0
LINE
  5
2071
  8
AM_BOR
 10
195.8916062428617124
 20
17.9094317498130202
 30
0.0
 11
195.3017444641411942
 21
17.7620202763030584
 31
0.0
  0
LINE
  5
2072
  8
AM_BOR
 10
195.3017444641409952
 20
17.7620202763031614
 30
0.0
 11
194.7612357279377875
 21
17.6011488821066102
 31
0.0
  0
LINE
  5
2073
  8
AM_BOR
 10
194.7612357279377875
 20
17.6011488821065605
 30
0.0
 11
194.2741936321029925
 21
17.4280418956701517
 31
0.0
  0
LINE
  5
2074
  8
AM_BOR
 10
194.2741936321033904
 20
17.4280418956701517
 30
0.0
 11
193.8443248610695946
 21
17.2440167656852594
 31
0.0
  0
LINE
  5
2075
  8
AM_BOR
 10
193.8443248610695946
 20
17.2440167656852097
 30
0.0
 11
193.4749009757472038
 21
17.0504740345086496
 31
0.0
  0
LINE
  5
2076
  8
AM_BOR
 10
193.4749009757472038
 20
17.0504740345086709
 30
0.0
 11
193.1687335149671867
 21
16.8488866791889293
 31
0.0
  0
LINE
  5
2077
  8
AM_BOR
 10
193.1687335149673004
 20
16.8488866791889507
 30
0.0
 11
192.9281525979749858
 21
16.6407889012216188
 31
0.0
  0
LINE
  5
2078
  8
AM_BOR
 10
192.9281525979752985
 20
16.6407889012218106
 30
0.0
 11
192.7549891908163886
 21
16.4277644503504199
 31
0.0
  0
LINE
  5
2079
  8
AM_BOR
 10
192.7549891908163886
 20
16.4277644503503488
 30
0.0
 11
192.6505611715776922
 21
16.2114345712734789
 31
0.0
  0
LINE
  5
207A
  8
AM_BOR
 10
192.6505611715778912
 20
16.2114345712737311
 30
0.0
 11
192.6156633005415131
 21
15.9934456649946792
 31
0.0
  0
LINE
  5
207B
  8
AM_BOR
 10
192.6156633005406889
 20
15.9934456649946402
 30
0.0
 11
192.6505611715772091
 21
15.7754567587157908
 31
0.0
  0
LINE
  5
207C
  8
AM_BOR
 10
192.6505611715776922
 20
15.7754567587159293
 30
0.0
 11
192.7549891908163033
 21
15.5591268796391304
 31
0.0
  0
LINE
  5
207D
  8
AM_BOR
 10
192.7549891908163886
 20
15.5591268796390292
 30
0.0
 11
192.9281525979752985
 21
15.3461024287676402
 31
0.0
  0
LINE
  5
207E
  8
AM_BOR
 10
192.9281525979750995
 20
15.3461024287676899
 30
0.0
 11
193.1687335149671867
 21
15.1380046508005002
 31
0.0
  0
LINE
  5
207F
  8
AM_BOR
 10
193.1687335149669025
 20
15.1380046508005002
 30
0.0
 11
193.4749009757468912
 21
14.9364172954808101
 31
0.0
  0
LINE
  5
2080
  8
AM_BOR
 10
193.4749009757472891
 20
14.9364172954807106
 30
0.0
 11
193.8443248610695946
 21
14.7428745643040795
 31
0.0
  0
LINE
  5
2081
  8
AM_BOR
 10
193.8443248610695093
 20
14.7428745643041701
 30
0.0
 11
194.2741936321027083
 21
14.5588494343193506
 31
0.0
  0
LINE
  5
2082
  8
AM_BOR
 10
194.2741936321031915
 20
14.5588494343194395
 30
0.0
 11
194.7612357279379012
 21
14.3857424478829596
 31
0.0
  0
LINE
  5
2083
  8
AM_BOR
 10
194.7612357279377875
 20
14.3857424478827696
 30
0.0
 11
195.3017444641409952
 21
14.2248710536861704
 31
0.0
  0
LINE
  5
2084
  8
AM_BOR
 10
195.3017444641409952
 20
14.2248710536863108
 30
0.0
 11
195.8916062428619966
 21
14.0774595801763507
 31
0.0
  0
LINE
  5
2085
  8
AM_BOR
 10
195.8916062428619114
 20
14.0774595801762192
 30
0.0
 11
196.5263318597957891
 21
13.9446299176757904
 31
0.0
  0
LINE
  5
2086
  8
AM_BOR
 10
196.5263318597953912
 20
13.9446299176758206
 30
0.0
 11
197.201090669739699
 21
13.8273929801213207
 31
0.0
  0
LINE
  5
2087
  8
AM_BOR
 10
197.2010906697404948
 20
13.8273929801213296
 30
0.0
 11
197.9107473507208965
 21
13.7266410113970494
 31
0.0
  0
LINE
  5
2088
  8
AM_BOR
 10
197.9107473507204986
 20
13.7266410113971098
 30
0.0
 11
198.5412166771806994
 21
13.6554185716662193
 31
0.0
  0
LINE
  5
2089
  8
AM_BOR
 10
198.5412166771799889
 20
13.6554185716662495
 30
0.0
 11
198.6499009868925896
 21
13.6431407948207308
 31
0.0
  0
LINE
  5
208A
  8
AM_BOR
 10
198.6499009868929022
 20
13.6431407948206793
 30
0.0
 11
199.4129261727725861
 21
13.57752781745919
 31
0.0
  0
LINE
  5
208B
  8
AM_BOR
 10
199.4129261727725861
 20
13.5775278174592007
 30
0.0
 11
199.8798563250743996
 21
13.5492962022068202
 31
0.0
  0
LINE
  5
208C
  8
AM_BOR
 10
203.0271328720324959
 20
13.5176668375699904
 30
0.0
 11
203.379020251909111
 21
13.5303014336886491
 31
0.0
  0
LINE
  5
208D
  8
AM_BOR
 10
203.3790202519091963
 20
13.5303014336885994
 30
0.0
 11
204.1601099051044059
 21
13.57752781745919
 31
0.0
  0
LINE
  5
208E
  8
AM_BOR
 10
204.7045172738839938
 20
13.6243417221955792
 30
0.0
 11
204.9231350909844025
 21
13.6431407948207504
 31
0.0
  0
LINE
  5
208F
  8
AM_BOR
 10
204.1601099051044059
 20
13.5775278174591705
 30
0.0
 11
204.7045172738837948
 21
13.6243417221955099
 31
0.0
  0
LINE
  5
2090
  8
AM_BOR
 10
204.9231350909840899
 20
13.6431407948207593
 30
0.0
 11
205.6622887271566924
 21
13.7266410113971506
 31
0.0
  0
LINE
  5
2091
  8
AM_BOR
 10
205.6622887271566071
 20
13.7266410113971098
 30
0.0
 11
206.3719454081370941
 21
13.8273929801214006
 31
0.0
  0
LINE
  5
2092
  8
AM_BOR
 10
206.371945408137492
 20
13.8273929801214503
 30
0.0
 11
207.0467042180819135
 21
13.9446299176759396
 31
0.0
  0
LINE
  5
2093
  8
AM_BOR
 10
207.0467042180816861
 20
13.9446299176759698
 30
0.0
 11
207.6814298350155923
 21
14.0774595801763702
 31
0.0
  0
LINE
  5
2094
  8
AM_BOR
 10
207.681429835015507
 20
14.0774595801762903
 30
0.0
 11
208.2712916137361105
 21
14.2248710536862504
 31
0.0
  0
LINE
  5
2095
  8
AM_BOR
 10
208.2712916137361958
 20
14.2248710536862895
 30
0.0
 11
208.8118003499392898
 21
14.3857424478828904
 31
0.0
  0
LINE
  5
2096
  8
AM_BOR
 10
208.8118003499392898
 20
14.3857424478829206
 30
0.0
 11
209.2988424457741132
 21
14.5588494343193506
 31
0.0
  0
LINE
  5
2097
  8
AM_BOR
 10
209.2988424457739995
 20
14.5588494343193204
 30
0.0
 11
209.7287112168075112
 21
14.7428745643042198
 31
0.0
  0
LINE
  5
2098
  8
AM_BOR
 10
209.7287112168071133
 20
14.7428745643041506
 30
0.0
 11
210.098135102129703
 21
14.9364172954808296
 31
0.0
  0
LINE
  5
2099
  8
AM_BOR
 10
210.0981351021299872
 20
14.9364172954808101
 30
0.0
 11
210.4043025629098906
 21
15.1380046508003598
 31
0.0
  0
LINE
  5
209A
  8
AM_BOR
 10
210.4043025629100043
 20
15.1380046508005499
 30
0.0
 11
210.6448834799020062
 21
15.3461024287677308
 31
0.0
  0
LINE
  5
209B
  8
AM_BOR
 10
210.6448834799016936
 20
15.3461024287678303
 30
0.0
 11
210.8180468870608024
 21
15.5591268796390292
 31
0.0
  0
LINE
  5
209C
  8
AM_BOR
 10
210.8180468870606887
 20
15.5591268796390594
 30
0.0
 11
210.9224749062989872
 21
15.7754567587158601
 31
0.0
  0
LINE
  5
209D
  8
AM_BOR
 10
210.9224749062998114
 20
15.7754567587157908
 30
0.0
 11
210.9573727773361895
 21
15.9934456649946206
 31
0.0
  0
LINE
  5
209E
  8
AM_BOR
 10
199.1051424870479138
 20
18.3828970152541906
 30
0.0
 11
203.9247425107741094
 21
13.5632969915274995
 31
0.0
  0
ARC
  5
209F
  8
AM_BOR
 10
205.2047457141601967
 20
14.1811288456255493
 30
0.0
 40
0.500228440276212
 50
180.0
 51
244.5184856857075033
  0
LINE
  5
20A0
  8
AM_BOR
 10
199.3652192817665139
 20
18.405261169360589
 30
0.0
 11
204.1903520906298866
 21
13.5801283604962197
 31
0.0
  0
LINE
  5
20A1
  8
AM_BOR
 10
199.6304084355469968
 20
18.4225129644057191
 30
0.0
 11
204.4504288853489982
 21
13.6024925146027709
 31
0.0
  0
LINE
  5
20A2
  8
AM_BOR
 10
199.8967460324556953
 20
18.4386163163227188
 30
0.0
 11
204.7077689502328894
 21
13.6275933985446098
 31
0.0
  0
LINE
  5
20A3
  8
AM_BOR
 10
200.1630836293643085
 20
18.4547196682397612
 30
0.0
 11
204.9488987968830997
 21
13.66890450072008
 31
0.0
  0
LINE
  5
20A4
  8
AM_BOR
 10
198.8450656923284043
 20
18.3605328611475898
 30
0.0
 11
203.6584049138650983
 21
13.5471936396104091
 31
0.0
  0
LINE
  5
20A5
  8
AM_BOR
 10
198.7943784573330959
 20
18.1287791473180704
 30
0.0
 11
203.3920673169571103
 21
13.5310902876933596
 31
0.0
  0
LINE
  5
20A6
  8
AM_BOR
 10
199.0183057366432138
 20
18.3754298728270093
 30
0.0
 11
199.0183057366432138
 21
13.6114614571624397
 31
0.0
  0
LINE
  5
20A7
  8
AM_BOR
 10
199.2180216468426011
 20
18.3926035595376796
 30
0.0
 11
199.2180216468426011
 21
13.5942877704517908
 31
0.0
  0
LINE
  5
20A8
  8
AM_BOR
 10
204.5547303412338067
 20
18.3754298728269987
 30
0.0
 11
204.5547303412338067
 21
13.6114614571624504
 31
0.0
  0
LINE
  5
20A9
  8
AM_BOR
 10
204.35501443103459
 20
18.3926035595376405
 30
0.0
 11
204.35501443103459
 21
13.5942877704517908
 31
0.0
  0
LINE
  5
20AA
  8
AM_BOR
 62
     4
 10
-0.0000001316067255
 20
15.0000001731112906
 30
0.0
 11
190.4999998683931892
 21
15.0000001731112906
 31
0.0
  0
LINE
  5
20AB
  8
AM_BOR
 62
     4
 10
276.4999998683932745
 20
28.0000001731112889
 30
0.0
 11
276.4999998683932745
 21
0.000000173111296
 31
0.0
  0
LINE
  5
20AC
  8
AM_BOR
 62
     4
 10
-0.0000001316067255
 20
15.0000001731112906
 30
0.0
 11
-0.0000001316067255
 21
0.000000173111296
 31
0.0
  0
LINE
  5
20AD
  8
AM_BOR
 62
     4
 10
-0.0000001316067255
 20
28.0000001731112889
 30
0.0
 11
276.4999998683932745
 21
28.0000001731112889
 31
0.0
  0
LINE
  5
20AE
  8
AM_BOR
 62
     4
 10
15.9999998683932692
 20
15.0000001731112906
 30
0.0
 11
15.9999998683932692
 21
0.000000173111296
 31
0.0
  0
TEXT
  5
20AF
  8
AM_BOR
 62
     4
 10
215.1799998683933097
 20
10.0000001731112906
 30
0.0
 40
1.5
  1
NAKANISHI　INDUSTRIAL CO., LTD.
 41
1.5
  0
TEXT
  5
20B0
  8
AM_BOR
 62
     3
 10
213.1999998683932915
 20
13.5000001731112906
 30
0.0
 40
5.5
  1
中西産業株式会社
 41
1.1999999999999991
  0
TEXT
  5
20B1
  8
AM_BOR
 62
     4
 10
196.1927879374059955
 20
10.0000001731112906
 30
0.0
 40
1.5
  1
Nakanishi
 41
1.1999999999999991
  0
TEXT
  5
20B2
  8
AM_BOR
 62
     7
 10
98.104999768257457
 20
15.6500001850322192
 30
0.0
 40
1.0
  1
FINISH
 41
1.6000000000000001
  0
TEXT
  5
20B3
  8
AM_BOR
 62
     7
 10
96.9799997086527981
 20
17.7000002207950082
 30
0.0
 40
2.7999999999999989
  1
仕　　上
  0
TEXT
  5
20B4
  8
AM_BOR
 62
     7
 10
3.1549997801784002
 20
15.6500001850322192
 30
0.0
 40
1.0
  1
MATERIAL
 41
1.6000000000000001
  0
TEXT
  5
20B5
  8
AM_BOR
 62
     7
 10
1.729999708652826
 20
17.7000002207950082
 30
0.0
 40
2.7999999999999989
  1
材　　質
  0
LINE
  5
20B6
  8
AM_BOR
 62
     4
 10
190.4999998683931892
 20
28.0000001731112889
 30
0.0
 11
190.4999998683931892
 21
0.000000173111296
 31
0.0
  0
LINE
  5
20B7
  8
AM_BOR
 62
     4
 10
-0.0000001316067255
 20
28.0000001731112889
 30
0.0
 11
-0.0000001316067255
 21
15.0000001731112906
 31
0.0
  0
LINE
  5
20B8
  8
AM_BOR
 62
     4
 10
-0.0000001316067255
 20
21.5000001731112889
 30
0.0
 11
190.4999998683931892
 21
21.5000001731112889
 31
0.0
  0
LINE
  5
20B9
  8
AM_BOR
 62
     4
 10
15.9999998683932692
 20
28.0000001731112889
 30
0.0
 11
15.9999998683932692
 21
15.0000001731112906
 31
0.0
  0
TEXT
  5
20BA
  8
AM_BOR
 62
     7
 10
98.104999768257457
 20
22.1500001850322192
 30
0.0
 40
1.0
  1
ART. NO.
 41
1.6000000000000001
  0
TEXT
  5
20BB
  8
AM_BOR
 62
     7
 10
96.9799997086526844
 20
24.2000002207950082
 30
0.0
 40
2.7999999999999989
  1
品　　番
  0
TEXT
  5
20BC
  8
AM_BOR
 62
     7
 10
3.1549997801784002
 20
22.1500001850322192
 30
0.0
 40
1.0
  1
ARTICLE
 41
1.6000000000000001
  0
TEXT
  5
20BD
  8
AM_BOR
 62
     7
 10
1.7299997086527119
 20
24.2000002207950082
 30
0.0
 40
2.7999999999999989
  1
品　　名
  0
LINE
  5
20BE
  8
AM_BOR
 62
     4
 10
-0.0000001316067255
 20
15.0000001731112906
 30
0.0
 11
-0.0000001316067255
 21
0.0000001731112924
 31
0.0
  0
LINE
  5
20BF
  8
AM_BOR
 62
     4
 10
95.2499998683932461
 20
28.0000001731112889
 30
0.0
 11
95.2499998683932461
 21
0.000000173111296
 31
0.0
  0
TEXT
  5
20C0
  8
AM_BOR
 62
     7
 10
3.1549997801784002
 20
9.1500001850322192
 30
0.0
 40
1.0
  1
REMARKS
 41
1.6000000000000001
  0
TEXT
  5
20C1
  8
AM_BOR
 62
     7
 10
1.7299997086527119
 20
11.20000022079501
 30
0.0
 40
2.7999999999999989
  1
備　　考
  0
LINE
  5
20C2
  8
AM_BOR
 62
     4
 10
111.2499998683932034
 20
28.0000001731112889
 30
0.0
 11
111.2499998683932034
 21
0.000000173111296
 31
0.0
  0
LINE
  5
20C3
  8
AM_BOR
 62
     4
 10
-0.0000001316067255
 20
0.000000173111296
 30
0.0
 11
276.4999998683932745
 21
0.000000173111296
 31
0.0
  0
TEXT
  5
20C4
  8
AM_BOR
 62
     7
 10
98.404999780178386
 20
9.1500001850322157
 30
0.0
 40
1.0
  1
SETS
 41
1.6000000000000001
  0
TEXT
  5
20C5
  8
AM_BOR
 62
     7
 10
96.9799997086526844
 20
11.20000022079501
 30
0.0
 40
2.7999999999999989
  1
セット品
  0
ATTDEF
  5
20C6
  8
AM_BOR
 62
     7
 10
114.3107095753831004
 20
0.5000001731112853
 30
0.0
 40
3.0
  1

 11
114.3107095753831004
 21
2.0000001731112849
 31
0.0
  3
セット
  2
SETS｛20｝
 70
     0
 74
     2
1001
ACADANNOTATIVE
1000
AnnotativeData
1002
{
1070
     1
1070
     0
1002
}
1001
ACDBATTR
1070
     0
1070
     1
  0
ATTDEF
  5
20CA
  8
AM_BOR
 62
     7
 10
19.0607095753831608
 20
0.5000001731112889
 30
0.0
 40
3.0
  1

 11
19.0607095753831608
 21
2.000000173111288
 31
0.0
  3
備　　考
  2
REMARKS｛20｝
 70
     0
 74
     2
1001
ACADANNOTATIVE
1000
AnnotativeData
1002
{
1070
     1
1070
     0
1002
}
1001
ACDBATTR
1070
     0
1070
     1
  0
ATTDEF
  5
20CE
  8
AM_BOR
 62
     7
 10
114.3107095753831004
 20
5.5000001731112853
 30
0.0
 40
3.0
  1

 11
114.3107095753831004
 21
7.0000001731112853
 31
0.0
  3
セット
  2
SETS｛20｝
 70
     0
 74
     2
1001
ACADANNOTATIVE
1000
AnnotativeData
1002
{
1070
     1
1070
     0
1002
}
1001
ACDBATTR
1070
     0
1070
     1
  0
ATTDEF
  5
20D2
  8
AM_BOR
 62
     7
 10
19.0607095753831608
 20
5.500000173111288
 30
0.0
 40
3.0
  1

 11
19.0607095753831608
 21
7.000000173111288
 31
0.0
  3
備　　考
  2
REMARKS｛20｝
 70
     0
 74
     2
1001
ACADANNOTATIVE
1000
AnnotativeData
1002
{
1070
     1
1070
     0
1002
}
1001
ACDBATTR
1070
     0
1070
     1
  0
ATTDEF
  5
20D6
  8
AM_BOR
 62
     7
 10
114.3107095753831004
 20
10.50000017311128
 30
0.0
 40
3.0
  1

 11
114.3107095753831004
 21
12.00000017311128
 31
0.0
  3
セット
  2
SETS｛20｝
 70
     0
 74
     2
1001
ACADANNOTATIVE
1000
AnnotativeData
1002
{
1070
     1
1070
     0
1002
}
1001
ACDBATTR
1070
     0
1070
     1
  0
ATTDEF
  5
20DA
  8
AM_BOR
 62
     7
 10
19.0607095753831608
 20
10.5000001731112906
 30
0.0
 40
3.0
  1

 11
19.0607095753831608
 21
12.0000001731112906
 31
0.0
  3
備　　考
  2
REMARKS｛20｝
 70
     0
 74
     2
1001
ACADANNOTATIVE
1000
AnnotativeData
1002
{
1070
     1
1070
     0
1002
}
1001
ACDBATTR
1070
     0
1070
     1
  0
ATTDEF
  5
20DE
  8
AM_BOR
 62
     7
 10
114.2499998683932034
 20
23.5000001731112889
 30
0.0
 40
3.0
  1

 11
114.2499998683932034
 21
25.0000001731112889
 31
0.0
  3
品    番
  2
ART_NO｛20｝
 70
     0
 74
     2
1001
ACADANNOTATIVE
1000
AnnotativeData
1002
{
1070
     1
1070
     0
1002
}
1001
ACDBATTR
1070
     0
1070
     1
  0
ATTDEF
  5
20E2
  8
AM_BOR
 62
     7
 10
18.9999998683932709
 20
23.5000001731112889
 30
0.0
 40
3.0
  1

 11
18.9999998683932709
 21
25.0000001731112889
 31
0.0
  3
品    名
  2
ARTICLE｛20｝
 70
     0
 74
     2
1001
ACADANNOTATIVE
1000
AnnotativeData
1002
{
1070
     1
1070
     0
1002
}
1001
ACDBATTR
1070
     0
1070
     1
  0
ATTDEF
  5
20E6
  8
AM_BOR
 62
     7
 10
114.2499998683932034
 20
17.0000001731112889
 30
0.0
 40
3.0
  1

 11
114.2499998683932034
 21
18.5000001731112889
 31
0.0
  3
仕上
  2
FINISH｛20｝
 70
     0
 74
     2
1001
ACADANNOTATIVE
1000
AnnotativeData
1002
{
1070
     1
1070
     0
1002
}
1001
ACDBATTR
1070
     0
1070
     1
  0
ATTDEF
  5
20EA
  8
AM_BOR
 62
     7
 10
18.9999998683932709
 20
17.0000001731112889
 30
0.0
 40
3.0
  1

 11
18.9999998683932709
 21
18.5000001731112889
 31
0.0
  3
材　　質
  2
MATERIAK｛20｝
 70
     0
 74
     2
1001
ACADANNOTATIVE
1000
AnnotativeData
1002
{
1070
     1
1070
     0
1002
}
1001
ACDBATTR
1070
     0
1070
     1
  0
ENDBLK
  5
20F1
  8
0
  0
BLOCK
  8
0
  2
*D27
 70
     1
 10
0.0
 20
0.0
 30
0.0
  3
*D27
  1

  0
LINE
  5
45B8
  8
寸法
 62
     0
 10
109.6909016542292932
 20
148.2641067695861068
 30
0.0
 11
109.6909016542292932
 21
168.6731805149495926
 31
0.0
  0
LINE
  5
45B9
  8
寸法
 62
     0
 10
128.6909016542292932
 20
148.2641067695859931
 30
0.0
 11
128.6909016542292932
 21
168.6731805149495926
 31
0.0
  0
LINE
  5
45BA
  8
寸法
 62
     0
 10
110.6909016542292932
 20
167.6731805149495926
 30
0.0
 11
127.6909016542292932
 21
167.6731805149495926
 31
0.0
  0
SOLID
  5
45BB
  8
寸法
 62
     0
 10
110.6909016542292932
 20
167.8398471816163067
 30
0.0
 11
110.6909016542292932
 21
167.5065138482829923
 31
0.0
 12
109.6909016542292932
 22
167.6731805149495926
 32
0.0
 13
109.6909016542292932
 23
167.6731805149495926
 33
0.0
  0
SOLID
  5
45BC
  8
寸法
 62
     0
 10
127.6909016542292932
 20
167.8398471816163067
 30
0.0
 11
127.6909016542292932
 21
167.5065138482829923
 31
0.0
 12
128.6909016542292932
 22
167.6731805149495926
 32
0.0
 13
128.6909016542292932
 23
167.6731805149495926
 33
0.0
  0
TEXT
  8
寸法
  40
3.1
  5
45F1
  62
0
  72
0
  71
0
 10
112.991
 20
163.826
 30
0.000000
  1
19
  0
POINT
  5
45BE
  8
DEFPOINTS
 62
     0
 10
109.6909016542292932
 20
147.4641067695860954
 30
0.0
  0
POINT
  5
45BF
  8
DEFPOINTS
 62
     0
 10
128.6909016542292932
 20
147.4641067695860102
 30
0.0
  0
POINT
  5
45C0
  8
DEFPOINTS
 62
     0
 10
128.6909016542292932
 20
167.6731805149495926
 30
0.0
  0
ENDBLK
  5
42D0
  8
0
  0
BLOCK
  8
0
  2
*D28
 70
     1
 10
0.0
 20
0.0
 30
0.0
  3
*D28
  1

  0
LINE
  5
44B7
  8
寸法
 62
     0
 10
98.441070738456645
 20
159.1688410202532111
 30
0.0
 11
74.7559554033862241
 21
159.1688410202532111
 31
0.0
  0
LINE
  5
44B8
  8
寸法
 62
     0
 10
98.3909016542293671
 20
99.1713643243288061
 30
0.0
 11
74.7559554033862241
 21
99.1713643243287919
 31
0.0
  0
LINE
  5
44B9
  8
寸法
 62
     0
 10
75.7559554033862241
 20
158.1688410202532111
 30
0.0
 11
75.7559554033862241
 21
100.1713643243288061
 31
0.0
  0
SOLID
  5
44BA
  8
寸法
 62
     0
 10
75.5892887367195527
 20
158.1688410202532111
 30
0.0
 11
75.9226220700528955
 21
158.1688410202532111
 31
0.0
 12
75.7559554033862241
 22
159.1688410202532111
 32
0.0
 13
75.7559554033862241
 23
159.1688410202532111
 33
0.0
  0
SOLID
  5
44BB
  8
寸法
 62
     0
 10
75.5892887367195527
 20
100.1713643243288061
 30
0.0
 11
75.9226220700528955
 21
100.1713643243288061
 31
0.0
 12
75.7559554033862241
 22
99.1713643243287919
 32
0.0
 13
75.7559554033862241
 23
99.1713643243287919
 33
0.0
  0
INSERT
  5
44BC
  8
0
  2
*U42
 10
0.0
 20
0.0
 30
0.0
  0
POINT
  5
44BD
  8
DEFPOINTS
 62
     0
 10
99.2410707384566422
 20
159.1688410202532111
 30
0.0
  0
POINT
  5
44BE
  8
DEFPOINTS
 62
     0
 10
99.1909016542293642
 20
99.1713643243288061
 30
0.0
  0
POINT
  5
44BF
  8
DEFPOINTS
 62
     0
 10
75.7559554033862241
 20
99.1713643243287919
 30
0.0
  0
ENDBLK
  5
42DC
  8
0
  0
BLOCK
  8
0
  2
*D29
 70
     1
 10
0.0
 20
0.0
 30
0.0
  3
*D29
  1

  0
LINE
  5
44EE
  8
寸法
 62
     0
 10
99.1909016542292932
 20
98.8713643243287521
 30
0.0
 11
99.1909016542292932
 21
78.2560330720689876
 31
0.0
  0
LINE
  5
44EF
  8
寸法
 62
     0
 10
139.1909016542292932
 20
98.3713643243287663
 30
0.0
 11
139.1909016542292932
 21
78.2560330720689876
 31
0.0
  0
LINE
  5
44F0
  8
寸法
 62
     0
 10
100.1909016542292932
 20
79.2560330720689734
 30
0.0
 11
138.1909016542292932
 21
79.2560330720689734
 31
0.0
  0
SOLID
  5
44F1
  8
寸法
 62
     0
 10
100.1909016542292932
 20
79.422699738735659
 30
0.0
 11
100.1909016542292932
 21
79.0893664054023162
 31
0.0
 12
99.1909016542292932
 22
79.2560330720689734
 32
0.0
 13
99.1909016542292932
 23
79.2560330720689734
 33
0.0
  0
SOLID
  5
44F2
  8
寸法
 62
     0
 10
138.1909016542292932
 20
79.422699738735659
 30
0.0
 11
138.1909016542292932
 21
79.0893664054023162
 31
0.0
 12
139.1909016542292932
 22
79.2560330720689734
 32
0.0
 13
139.1909016542292932
 23
79.2560330720689734
 33
0.0
  0
INSERT
  5
44F3
  8
0
  2
*U44
 10
0.0
 20
0.0
 30
0.0
  0
POINT
  5
44F4
  8
DEFPOINTS
 62
     0
 10
99.1909016542292932
 20
99.6713643243287493
 30
0.0
  0
POINT
  5
44F5
  8
DEFPOINTS
 62
     0
 10
139.1909016542292932
 20
99.1713643243287635
 30
0.0
  0
POINT
  5
44F6
  8
DEFPOINTS
 62
     0
 10
139.1909016542292932
 20
79.2560330720689734
 30
0.0
  0
ENDBLK
  5
42F1
  8
0
  0
BLOCK
  8
0
  2
*D30
 70
     1
 10
0.0
 20
0.0
 30
0.0
  3
*D30
  1

  0
LINE
  5
44F7
  8
寸法
 62
     0
 10
227.6829287384566101
 20
160.4713643243287038
 30
0.0
 11
227.6829287384566101
 21
165.5474748458944134
 31
0.0
  0
LINE
  5
44F8
  8
寸法
 62
     0
 10
225.3829287384565987
 20
160.4713643243287038
 30
0.0
 11
225.3829287384565987
 21
165.5474748458944134
 31
0.0
  0
LINE
  5
44F9
  8
寸法
 62
     0
 10
226.6829287384564964
 20
164.5474748458944134
 30
0.0
 11
226.3829287384565987
 21
164.5474748458944134
 31
0.0
  0
INSERT
  5
44FA
  8
0
  2
*U45
 10
0.0
 20
0.0
 30
0.0
  0
SOLID
  5
44FB
  8
寸法
 62
     0
 10
226.6829287384564964
 20
164.714141512561099
 30
0.0
 11
226.6829287384564964
 21
164.3808081792278131
 31
0.0
 12
227.6829287384566101
 22
164.5474748458944134
 32
0.0
 13
227.6829287384566101
 23
164.5474748458944134
 33
0.0
  0
SOLID
  5
44FC
  8
寸法
 62
     0
 10
226.3829287384565987
 20
164.714141512561099
 30
0.0
 11
226.3829287384565987
 21
164.3808081792278131
 31
0.0
 12
225.3829287384565987
 22
164.5474748458944134
 32
0.0
 13
225.3829287384565987
 23
164.5474748458944134
 33
0.0
  0
POINT
  5
44FD
  8
DEFPOINTS
 62
     0
 10
227.6829287384566101
 20
159.6713643243286924
 30
0.0
  0
POINT
  5
44FE
  8
DEFPOINTS
 62
     0
 10
225.3829287384565987
 20
159.6713643243286924
 30
0.0
  0
POINT
  5
44FF
  8
DEFPOINTS
 62
     0
 10
225.3829287384565987
 20
164.5474748458944134
 30
0.0
  0
ENDBLK
  5
42FD
  8
0
  0
BLOCK
  8
0
  2
*D31
 70
     1
 10
0.0
 20
0.0
 30
0.0
  3
*D31
  1

  0
LINE
  5
44E4
  8
寸法
 62
     0
 10
225.3829287384565987
 20
117.7213643243287038
 30
0.0
 11
225.3829287384565987
 21
109.1479319013238012
 31
0.0
  0
LINE
  5
44E5
  8
寸法
 62
     0
 10
224.3829287384565987
 20
117.7213643243287038
 30
0.0
 11
224.3829287384565987
 21
109.1479319013238012
 31
0.0
  0
LINE
  5
44E6
  8
寸法
 62
     0
 10
226.3829287384565987
 20
110.1479319013238012
 30
0.0
 11
227.3829287384565987
 21
110.1479319013238012
 31
0.0
  0
LINE
  5
44E7
  8
寸法
 62
     0
 10
223.3829287384565987
 20
110.1479319013238012
 30
0.0
 11
222.3829287384565987
 21
110.1479319013238012
 31
0.0
  0
INSERT
  5
44E8
  8
0
  2
*U43
 10
0.0
 20
0.0
 30
0.0
  0
SOLID
  5
44E9
  8
寸法
 62
     0
 10
226.3829287384565987
 20
110.314598567990501
 30
0.0
 11
226.3829287384565987
 21
109.9812652346572008
 31
0.0
 12
225.3829287384565987
 22
110.1479319013238012
 32
0.0
 13
225.3829287384565987
 23
110.1479319013238012
 33
0.0
  0
SOLID
  5
44EA
  8
寸法
 62
     0
 10
223.3829287384565987
 20
110.314598567990501
 30
0.0
 11
223.3829287384565987
 21
109.9812652346572008
 31
0.0
 12
224.3829287384565987
 22
110.1479319013238012
 32
0.0
 13
224.3829287384565987
 23
110.1479319013238012
 33
0.0
  0
POINT
  5
44EB
  8
DEFPOINTS
 62
     0
 10
225.3829287384565987
 20
118.5213643243287009
 30
0.0
  0
POINT
  5
44EC
  8
DEFPOINTS
 62
     0
 10
224.3829287384565987
 20
118.5213643243287009
 30
0.0
  0
POINT
  5
44ED
  8
DEFPOINTS
 62
     0
 10
224.3829287384565987
 20
110.1479319013238012
 30
0.0
  0
ENDBLK
  5
4309
  8
0
  0
BLOCK
  8
0
  2
*D32
 70
     1
 10
0.0
 20
0.0
 30
0.0
  3
*D32
  1

  0
LINE
  5
44AE
  8
寸法
 62
     0
 10
106.390901654229296
 20
120.6713643243288061
 30
0.0
 11
90.6645593747012413
 21
120.6713643243288061
 31
0.0
  0
LINE
  5
44AF
  8
寸法
 62
     0
 10
106.390901654229296
 20
139.6713643243288061
 30
0.0
 11
90.6645593747012413
 21
139.6713643243288061
 31
0.0
  0
LINE
  5
44B0
  8
寸法
 62
     0
 10
91.6645593747012271
 20
121.6713643243288061
 30
0.0
 11
91.6645593747012271
 21
138.6713643243288061
 31
0.0
  0
SOLID
  5
44B1
  8
寸法
 62
     0
 10
91.4978927080345841
 20
121.6713643243288061
 30
0.0
 11
91.8312260413679127
 21
121.6713643243288061
 31
0.0
 12
91.6645593747012271
 22
120.6713643243288061
 32
0.0
 13
91.6645593747012271
 23
120.6713643243288061
 33
0.0
  0
SOLID
  5
44B2
  8
寸法
 62
     0
 10
91.4978927080345841
 20
138.6713643243288061
 30
0.0
 11
91.8312260413679127
 21
138.6713643243288061
 31
0.0
 12
91.6645593747012271
 22
139.6713643243288061
 32
0.0
 13
91.6645593747012271
 23
139.6713643243288061
 33
0.0
  0
INSERT
  5
44B3
  8
0
  2
*U41
 10
0.0
 20
0.0
 30
0.0
  0
POINT
  5
44B4
  8
DEFPOINTS
 62
     0
 10
107.1909016542292932
 20
120.6713643243288061
 30
0.0
  0
POINT
  5
44B5
  8
DEFPOINTS
 62
     0
 10
107.1909016542292932
 20
139.6713643243288061
 30
0.0
  0
POINT
  5
44B6
  8
DEFPOINTS
 62
     0
 10
91.6645593747012271
 20
139.6713643243288061
 30
0.0
  0
ENDBLK
  5
4316
  8
0
  0
BLOCK
  8
0
  2
*U33
 70
     1
 10
0.0
 20
0.0
 30
0.0
  3
*U33
  1

  0
SOLID
  5
459D
  8
寸法
 10
57.8364264253699076
 20
30.9433279948069995
 30
0.0
 11
57.0997686252570986
 21
31.6398285786622786
 31
0.0
 12
58.0224991660736293
 22
31.219892718295231
 32
0.0
 13
58.0224991660736293
 23
31.219892718295231
 33
0.0
  0
POLYLINE
  5
459E
  8
寸法
 66
     1
 10
0.0
 20
0.0
 30
0.0
  0
VERTEX
  5
459F
  8
寸法
 10
57.9294627957217685
 20
31.0816103565511206
 30
0.0
  0
VERTEX
  5
45A0
  8
寸法
 10
72.3727411548971986
 20
21.3641729511513709
 30
0.0
  0
VERTEX
  5
45A1
  8
寸法
 10
75.4050383689383921
 20
21.9041729511513701
 30
0.0
  0
VERTEX
  5
45A2
  8
寸法
 10
103.9807526546527043
 20
21.9041729511513701
 30
0.0
  0
SEQEND
  5
45A3
  8
寸法
  0
ENDBLK
  5
45A5
  8
0
  0
BLOCK
  8
0
  2
*U34
 70
     1
 10
0.0
 20
0.0
 30
0.0
  3
*U34
  1

  0
TEXT
  5
45A7
  8
寸法
 10
75.4950383689383955
 20
21.9941729511513699
 30
0.0
 40
3.0
  1
2-\U+22054.3エンボス
  0
ENDBLK
  5
45A9
  8
0
  0
BLOCK
  8
0
  2
*U35
 70
     1
 10
0.0
 20
0.0
 30
0.0
  3
*U35
  1

  0
SOLID
  5
45AB
  8
寸法
 10
57.8456936568615774
 20
49.9532620305377506
 30
0.0
 11
57.0997686252570986
 21
50.6398285786622822
 31
0.0
 12
58.0280436167071301
 22
50.2322953677134976
 32
0.0
 13
58.0280436167071301
 23
50.2322953677134976
 33
0.0
  0
POLYLINE
  5
45AC
  8
寸法
 66
     1
 10
0.0
 20
0.0
 30
0.0
  0
VERTEX
  5
45AD
  8
寸法
 10
57.9368686367843608
 20
50.092778699125617
 30
0.0
  0
VERTEX
  5
45AE
  8
寸法
 10
72.2337756503082176
 20
40.7496641945331035
 30
0.0
  0
VERTEX
  5
45AF
  8
寸法
 10
72.7448822462976921
 20
41.2896641945330813
 30
0.0
  0
VERTEX
  5
45B0
  8
寸法
 10
113.5063108177263018
 20
41.2896641945330813
 30
0.0
  0
SEQEND
  5
45B1
  8
寸法
  0
ENDBLK
  5
45B3
  8
0
  0
BLOCK
  8
0
  2
*U36
 70
     1
 10
0.0
 20
0.0
 30
0.0
  3
*U36
  1

  0
TEXT
  5
45B5
  8
寸法
 10
73.8348822462976955
 20
41.3796641945330919
 30
0.0
 40
3.0
  1
2-M5バーリングタップ
  0
ENDBLK
  5
45B7
  8
0
  0
BLOCK
  8
0
  2
*U37
 70
     1
 10
0.0
 20
0.0
 30
0.0
  3
*U37
  1

  0
SOLID
  5
45C2
  8
寸法
 10
129.427559454342088
 20
119.974863740473495
 30
0.0
 11
128.6909016542292932
 21
120.6713643243287066
 31
0.0
 12
129.6136321950457955
 22
120.2514284639617017
 32
0.0
 13
129.6136321950457955
 23
120.2514284639617017
 33
0.0
  0
POLYLINE
  5
45C3
  8
寸法
 66
     1
 10
0.0
 20
0.0
 30
0.0
  0
VERTEX
  5
45C4
  8
寸法
 10
129.5205958246939133
 20
120.1131461022175984
 30
0.0
  0
VERTEX
  5
45C5
  8
寸法
 10
143.9638741838693932
 20
110.3957086968178061
 30
0.0
  0
VERTEX
  5
45C6
  8
寸法
 10
146.9961713979105866
 20
110.9357086968177981
 30
0.0
  0
VERTEX
  5
45C7
  8
寸法
 10
175.5718856836249131
 20
110.9357086968177981
 30
0.0
  0
SEQEND
  5
45C8
  8
寸法
  0
ENDBLK
  5
45CA
  8
0
  0
BLOCK
  8
0
  2
*U38
 70
     1
 10
0.0
 20
0.0
 30
0.0
  3
*U38
  1

  0
TEXT
  5
45CC
  8
寸法
 10
147.08617139791059
 20
111.0257086968178015
 30
0.0
 40
3.0
  1
2-\U+22054.3エンボス
  0
ENDBLK
  5
45CE
  8
0
  0
BLOCK
  8
0
  2
*U39
 70
     1
 10
0.0
 20
0.0
 30
0.0
  3
*U39
  1

  0
SOLID
  5
45D0
  8
寸法
 10
129.4368266858338075
 20
138.9847977762042035
 30
0.0
 11
128.6909016542292932
 21
139.6713643243286924
 31
0.0
 12
129.6191766456792891
 22
139.2638311133800073
 32
0.0
 13
129.6191766456792891
 23
139.2638311133800073
 33
0.0
  0
POLYLINE
  5
45D1
  8
寸法
 66
     1
 10
0.0
 20
0.0
 30
0.0
  0
VERTEX
  5
45D2
  8
寸法
 10
129.5280016657565056
 20
139.1243144447921054
 30
0.0
  0
VERTEX
  5
45D3
  8
寸法
 10
143.8249086792804121
 20
129.7811999401995138
 30
0.0
  0
VERTEX
  5
45D4
  8
寸法
 10
144.3360152752698866
 20
130.3211999401995058
 30
0.0
  0
VERTEX
  5
45D5
  8
寸法
 10
185.0974438466984964
 20
130.3211999401995058
 30
0.0
  0
SEQEND
  5
45D6
  8
寸法
  0
ENDBLK
  5
45D8
  8
0
  0
BLOCK
  8
0
  2
*U40
 70
     1
 10
0.0
 20
0.0
 30
0.0
  3
*U40
  1

  0
TEXT
  5
45DA
  8
寸法
 10
145.42601527526989
 20
130.4111999401995092
 30
0.0
 40
3.0
  1
2-M5バーリングタップ
  0
ENDBLK
  5
45DC
  8
0
  0
BLOCK
  8
0
  2
*U41
 70
     1
 10
0.0
 20
0.0
 30
0.0
  3
*U41
  1

  0
TEXT
  5
45DE
  8
寸法
 62
     0
 10
91.5745593747012663
 20
128.0308881338524998
 30
0.0
 40
3.1000000000000001
  1
19
 50
90.0
  0
ENDBLK
  5
45E0
  8
0
  0
BLOCK
  8
0
  2
*U42
 70
     1
 10
0.0
 20
0.0
 30
0.0
  3
*U42
  1

  0
TEXT
  5
45E2
  8
寸法
 62
     0
 10
75.6659554033862349
 20
126.6605788627670961
 30
0.0
 40
3.1000000000000001
  1
60
 50
90.0
  0
ENDBLK
  5
45E4
  8
0
  0
BLOCK
  8
0
  2
*U43
 70
     1
 10
0.0
 20
0.0
 30
0.0
  3
*U43
  1

  0
TEXT
  5
45E6
  8
寸法
 62
     0
 10
220.103098659597805
 20
110.2379319013238046
 30
0.0
 40
3.1000000000000001
  1
1
  0
ENDBLK
  5
45E8
  8
0
  0
BLOCK
  8
0
  2
*U44
 70
     1
 10
0.0
 20
0.0
 30
0.0
  3
*U44
  1

  0
TEXT
  5
45EA
  8
寸法
 62
     0
 10
116.6813778447054943
 20
79.346033072068991
 30
0.0
 40
3.1000000000000001
  1
40
  0
ENDBLK
  5
45EC
  8
0
  0
BLOCK
  8
0
  2
*U45
 70
     1
 10
0.0
 20
0.0
 30
0.0
  3
*U45
  1

  0
TEXT
  5
45EE
  8
寸法
 62
     0
 10
228.2733266499473075
 20
165.6824748458944896
 30
0.0
 40
3.1000000000000001
  1
t=2.3
  0
ENDBLK
  5
45F0
  8
0
  0
ENDSEC
  0
SECTION
  2
ENTITIES
  0
INSERT
  5
1BB5
  8
0
  2
ZUWAKU-A4H
 10
0.0
 20
0.0
 30
0.0
1001
GENIUS_GENOREF_13
1005
1C93
1001
GENIUS_GENOBJ-N-SDF_13
1002
{
1000
OWNER
1000
GEN
1002
}
1001
GENIUS_GENODEF_13
1002
{
1000
HIER
1070
     0
1002
}
1002
{
1000
MANEDIT
1070
     0
1002
}
1002
{
1000
NOSEL
1070
     0
1002
}
1002
{
1000
BEHIND
1070
     0
1002
}
1002
{
1000
OTHER
1070
     0
1002
}
1002
{
1000
REACTOR
1002
}
1001
GENIUS_GENSCREG_13
1040
1.0
1040
1.0
1011
12.9569999999950802
1021
0.0
1031
0.0
1021
10.0
1031
0.0
1011
289.4570000003852783
1021
0.0
1031
0.0
1021
201.1206999999936045
1031
0.0
1070
     3
  0
POINT
  5
1C93
  8
0
 10
0.0
 20
0.0
 30
0.0
1001
GENIUS_GENOLIS_13
1002
{
1000
ENT
1005
1C84
1005
1BB5
1002
}
1001
GENIUS_GENOENT_13
1002
{
1000
MYREF
1005
1C93
1002
}
1002
{
1000
GRP
1005
0
1002
}
1001
GENIUS_GENOBJ-N-TIT_13
1002
{
1000
OWNER
1000
GEN
1002
}
1001
GENIUS_GENTITLE_13
1002
{
1000
BORDER
1000
C:\Program Files\Autodesk\ACADM 2008\Acadm\gen\Dwg\Format\ZUWAKU-A4H
1002
}
1002
{
1000
TITLE
1000
C:\Program Files\Autodesk\ACADM 2008\Acadm\gen\Dwg\Title\N_Title
1002
}
1002
{
1000
ADDITIONAL1
1000

1002
}
1002
{
1000
ADDITIONAL2
1000

1002
}
1002
{
1000
SCALE
1000
1:1
1002
}
1002
{
1000
TITLESTD
1000
JIS
1002
}
1002
{
1000
HRA
1005
1BB5
1002
}
1002
{
1000
HTIT
1005
1C84
1002
}
1002
{
1000
INVTXTID
1005
0
1002
}
1002
{
1000
UNCHG
1002
{
1000
GEN-TITLE-SIZ
1000
GEN-TITLE-SCA
1002
}
1002
}
1002
{
1000
GENIUSID
1005
1C93
1002
}
1001
GENIUS_GENODEF_13
1002
{
1000
HIER
1070
     1
1002
}
1002
{
1000
MANEDIT
1070
     1
1002
}
1002
{
1000
NOSEL
1070
     0
1002
}
1002
{
1000
BEHIND
1070
     0
1002
}
1002
{
1000
OTHER
1070
     0
1002
}
1002
{
1000
REACTOR
1002
}
  0
INSERT
  5
20F2
  8
0
 66
     1
  2
A$C1C06296A
 10
12.9570001316259305
 20
9.9999998268887111
 30
0.0
  0
ATTRIB
  5
20F3
  8
AM_BOR
 62
     7
 10
127.2677097070090042
 20
10.5
 30
0.0
 40
3.0
  1

 11
127.2677097070090042
 21
12.0
 31
0.0
  2
SETS｛20｝
 70
     0
 74
     2
1001
ACDBATTR
1070
     0
1070
     1
  0
ATTRIB
  5
20F4
  8
AM_BOR
 62
     7
 10
32.0177097070090895
 20
10.5
 30
0.0
 40
3.0
  1

 11
32.0177097070090895
 21
12.0
 31
0.0
  2
REMARKS｛20｝
 70
     0
 74
     2
1001
ACDBATTR
1070
     0
1070
     1
  0
ATTRIB
  5
20F5
  8
AM_BOR
 62
     7
 10
127.2677097070090042
 20
15.5
 30
0.0
 40
3.0
  1

 11
127.2677097070090042
 21
17.0
 31
0.0
  2
SETS｛20｝
 70
     0
 74
     2
1001
ACDBATTR
1070
     0
1070
     1
  0
ATTRIB
  5
20F6
  8
AM_BOR
 62
     7
 10
32.0177097070090895
 20
15.5
 30
0.0
 40
3.0
  1

 11
32.0177097070090895
 21
17.0
 31
0.0
  2
REMARKS｛20｝
 70
     0
 74
     2
1001
ACDBATTR
1070
     0
1070
     1
  0
ATTRIB
  5
20F7
  8
AM_BOR
 62
     7
 10
127.2677097070090042
 20
20.5
 30
0.0
 40
3.0
  1

 11
127.2677097070090042
 21
22.0
 31
0.0
  2
SETS｛20｝
 70
     0
 74
     2
1001
ACDBATTR
1070
     0
1070
     1
  0
ATTRIB
  5
20F8
  8
AM_BOR
 62
     7
 10
32.0177097070090895
 20
20.5
 30
0.0
 40
3.0
  1

 11
32.0177097070090895
 21
22.0
 31
0.0
  2
REMARKS｛20｝
 70
     0
 74
     2
1001
ACDBATTR
1070
     0
1070
     1
  0
ATTRIB
  5
20F9
  8
AM_BOR
 62
     7
 10
127.2070000000192067
 20
33.5
 30
0.0
 40
3.0
  1
BPC-1(60×40)
 11
127.2070000000192067
 21
35.0
 31
0.0
  2
ART_NO｛20｝
 70
     0
 74
     2
1001
ACDBATTR
1070
     0
1070
     1
  0
ATTRIB
  5
20FA
  8
AM_BOR
 62
     7
 10
31.9570000000192103
 20
33.5
 30
0.0
 40
3.0
  1
ドアクローザー用裏板
 11
31.9570000000192103
 21
35.0
 31
0.0
  2
ARTICLE｛20｝
 70
     0
 74
     2
1001
ACDBATTR
1070
     0
1070
     1
  0
ATTRIB
  5
20FB
  8
AM_BOR
 62
     7
 10
127.2070000000192067
 20
27.0
 30
0.0
 40
3.0
  1
クロメート
 11
127.2070000000192067
 21
28.5
 31
0.0
  2
FINISH｛20｝
 70
     0
 74
     2
1001
ACDBATTR
1070
     0
1070
     1
  0
ATTRIB
  5
20FC
  8
AM_BOR
 62
     7
 10
31.9570000000192103
 20
27.0
 30
0.0
 40
3.0
  1
鉄
 11
31.9570000000192103
 21
28.5
 31
0.0
  2
MATERIAK｛20｝
 70
     0
 74
     2
1001
ACDBATTR
1070
     0
1070
     1
  0
SEQEND
  5
20FD
  8
0
  0
LINE
  5
3D11
  8
AM_INV
 10
155.7334465628314888
 20
148.3928652928103133
 30
0.0
 11
151.5994719666159085
 21
148.3928652928103133
 31
0.0
1001
GENIUS_GENBH_13
1002
{
1000
ML
1040
3.1415926535900001
1002
}
1002
{
1000
OA
1000
AM_7
1070
   256
1000
CENTER
1005
D57
1005
207
1071
       -1
1002
}
1001
GENIUS_GENOREF_13
1005
3D16
  0
LINE
  5
3D13
  8
AM_INV
 10
153.6664592647236987
 20
146.3258779947024948
 30
0.0
 11
153.6664592647236987
 21
150.4598525909179898
 31
0.0
1001
GENIUS_GENBH_13
1002
{
1000
ML
1040
3.1415926535900001
1002
}
1002
{
1000
OA
1000
AM_7
1070
   256
1000
CENTER
1005
D57
1005
207
1071
       -1
1002
}
1001
GENIUS_GENOREF_13
1005
3D16
  0
POINT
  5
3D16
  8
0
 10
0.0
 20
0.0
 30
0.0
1001
GENIUS_GENOBJ-NBEHI-BHB_13
1002
{
1000
OWNER
1000
genbehi
1002
}
1001
GENIUS_GENOENT_13
1002
{
1000
MYREF
1005
3D16
1002
}
1002
{
1000
GRP
1005
0
1002
}
1001
GENIUS_GENOLIS_13
1002
{
1000
ENT
1005
3D14
1005
3D13
1005
3D12
1005
3D11
1005
362E
1005
3630
1002
}
1001
GENIUS_GENBH_13
1002
{
1000
FGO
1005
3D15
1002
}
1001
GENIUS_GENODEF_13
1002
{
1000
HIER
1070
     1
1002
}
1002
{
1000
MANEDIT
1070
     1
1002
}
1002
{
1000
NOSEL
1070
     1
1002
}
1002
{
1000
BEHIND
1070
     0
1002
}
1002
{
1000
OTHER
1070
     1
1002
}
1002
{
1000
REACTOR
1002
}
  0
LINE
  5
4282
  8
外形線
 10
227.6829287384566101
 20
159.6713643243286924
 30
0.0
 11
225.3829287384565987
 21
159.6713643243286924
 31
0.0
  0
LINE
  5
4283
  8
外形線
 10
225.3829287384565987
 20
99.6713643243287493
 30
0.0
 11
227.6829287384566101
 21
99.6713643243287493
 31
0.0
  0
CIRCLE
  5
4284
  8
外形線
 10
109.6909016542292932
 20
139.6713643243286924
 30
0.0
 40
2.5
  0
CIRCLE
  5
4285
  8
外形線
 10
128.6909016542292932
 20
139.6713643243286924
 30
0.0
 40
2.5
  0
CIRCLE
  5
4286
  8
外形線
 10
128.6909016542292932
 20
139.6713643243286924
 30
0.0
 40
2.0
  0
CIRCLE
  5
4287
  8
外形線
 10
109.6909016542292932
 20
139.6713643243286924
 30
0.0
 40
2.0
  0
CIRCLE
  5
4288
  8
外形線
 10
109.6909016542292932
 20
120.6713643243287066
 30
0.0
 40
2.149999999999999
  0
CIRCLE
  5
4289
  8
外形線
 10
128.6909016542292932
 20
120.6713643243287066
 30
0.0
 40
2.149999999999999
  0
LINE
  5
428A
  8
外形線
 10
225.3829287384565987
 20
118.5213643243287009
 30
0.0
 11
224.3829287384565987
 21
118.5213643243288004
 31
0.0
  0
LINE
  5
428B
  8
外形線
 10
224.3829287384565987
 20
118.5213643243287009
 30
0.0
 11
224.3829287384565987
 21
122.8213643243286981
 31
0.0
  0
LINE
  5
428C
  8
外形線
 10
224.3829287384565987
 20
122.8213643243286981
 30
0.0
 11
225.3829287384565987
 21
122.8213643243286981
 31
0.0
  0
LINE
  5
428D
  8
かくれ線
 10
227.6829287384566101
 20
118.5213643243287009
 30
0.0
 11
226.6829287384564964
 21
118.5213643243288004
 31
0.0
  0
LINE
  5
428E
  8
かくれ線
 10
226.6829287384564964
 20
118.5213643243287009
 30
0.0
 11
226.6829287384564964
 21
122.8213643243286981
 31
0.0
  0
LINE
  5
428F
  8
かくれ線
 10
226.6829287384564964
 20
122.8213643243286981
 30
0.0
 11
227.6829287384566101
 21
122.8213643243286981
 31
0.0
  0
LINE
  5
4290
  8
かくれ線
 10
225.3829287384565987
 20
137.1713643243286924
 30
0.0
 11
227.6829287384566101
 21
137.1713643243286924
 31
0.0
  0
LINE
  5
4291
  8
外形線
 10
227.6829287384566101
 20
137.1713643243286924
 30
0.0
 11
227.6829287384566101
 21
142.1713643243286924
 31
0.0
  0
LINE
  5
4292
  8
かくれ線
 10
227.6829287384566101
 20
142.1713643243286924
 30
0.0
 11
225.3829287384565987
 21
142.1713643243286924
 31
0.0
  0
LINE
  5
4293
  8
外形線
 10
225.3829287384565987
 20
142.1713643243286924
 30
0.0
 11
225.3829287384565987
 21
137.1713643243286924
 31
0.0
  0
LINE
  5
4294
  8
外形線
 10
227.6829287384566101
 20
136.1713643243286924
 30
0.0
 11
228.982928738456593
 21
136.1713643243286924
 31
0.0
  0
LINE
  5
4295
  8
外形線
 10
228.982928738456593
 20
143.1713643243286924
 30
0.0
 11
227.6829287384566101
 21
143.1713643243286924
 31
0.0
  0
LINE
  5
4296
  8
外形線
 10
227.6829287384566101
 20
143.1713643243286924
 30
0.0
 11
227.6829287384566101
 21
136.1713643243286924
 31
0.0
  0
LINE
  5
4297
  8
かくれ線
 10
225.3829287384565987
 20
137.1713643243286924
 30
0.0
 11
229.1829287384564964
 21
137.1713643243286924
 31
0.0
  0
LINE
  5
4298
  8
外形線
 10
229.1829287384564964
 20
137.1713643243286924
 30
0.0
 11
229.1829287384564964
 21
142.1713643243286924
 31
0.0
  0
LINE
  5
4299
  8
かくれ線
 10
229.1829287384564964
 20
142.1713643243286924
 30
0.0
 11
225.3829287384565987
 21
142.1713643243286924
 31
0.0
  0
LINE
  5
429A
  8
外形線
 10
225.3829287384565987
 20
142.1713643243286924
 30
0.0
 11
225.3829287384565987
 21
137.1713643243286924
 31
0.0
  0
LINE
  5
429B
  8
外形線
 10
227.6829287384566101
 20
136.1713643243286924
 30
0.0
 11
229.1829287384564964
 21
136.1713643243286924
 31
0.0
  0
LINE
  5
429C
  8
外形線
 10
229.1829287384564964
 20
136.1713643243286924
 30
0.0
 11
229.1829287384564964
 21
143.1713643243286924
 31
0.0
  0
LINE
  5
429D
  8
外形線
 10
229.1829287384564964
 20
143.1713643243286924
 30
0.0
 11
227.6829287384566101
 21
143.1713643243286924
 31
0.0
  0
LINE
  5
429E
  8
外形線
 10
227.6829287384566101
 20
143.1713643243286924
 30
0.0
 11
227.6829287384566101
 21
136.1713643243286924
 31
0.0
  0
LINE
  5
429F
  8
かくれ線
 10
225.3829287384565987
 20
137.6713643243286924
 30
0.0
 11
229.1829287384564964
 21
137.6713643243286924
 31
0.0
  0
LINE
  5
42A0
  8
外形線
 10
229.1829287384564964
 20
137.6713643243286924
 30
0.0
 11
229.1829287384564964
 21
141.6713643243286924
 31
0.0
  0
LINE
  5
42A1
  8
かくれ線
 10
229.1829287384564964
 20
141.6713643243286924
 30
0.0
 11
225.3829287384565987
 21
141.6713643243286924
 31
0.0
  0
LINE
  5
42A2
  8
外形線
 10
225.3829287384565987
 20
141.6713643243286924
 30
0.0
 11
225.3829287384565987
 21
137.6713643243286924
 31
0.0
  0
LINE
  5
42A3
  8
外形線
 10
227.6829287384566101
 20
99.6713643243287493
 30
0.0
 11
227.6829287384566101
 21
118.5213643243287009
 31
0.0
  0
LINE
  5
42A4
  8
外形線
 10
227.6829287384566101
 20
118.5213643243287009
 30
0.0
 11
227.6829287384566101
 21
159.6713643243286924
 31
0.0
  0
LINE
  5
42A5
  8
外形線
 10
225.3829287384565987
 20
159.6713643243286924
 30
0.0
 11
225.3829287384565987
 21
118.5213643243287009
 31
0.0
  0
LINE
  5
42A6
  8
外形線
 10
225.3829287384565987
 20
118.5213643243287009
 30
0.0
 11
225.3829287384565987
 21
99.6713643243287493
 31
0.0
  0
LINE
  5
42A7
  8
外形線
 10
99.2410707384565853
 20
159.1688410202530974
 30
0.0
 11
139.2410707384566138
 21
159.1688410202530974
 31
0.0
  0
LINE
  5
42A8
  8
外形線
 10
139.2410707384566138
 20
159.1688410202530974
 30
0.0
 11
139.1909016542292932
 21
99.1713643243287635
 31
0.0
  0
LINE
  5
42A9
  8
外形線
 10
99.2410707384565853
 20
159.1688410202530974
 30
0.0
 11
99.1909016542292932
 21
99.1713643243287635
 31
0.0
  0
LINE
  5
42AA
  8
外形線
 10
139.1909016542292932
 20
99.1713643243287635
 30
0.0
 11
99.1909016542292932
 21
99.1713643243287635
 31
0.0
  0
DIMENSION
  5
42AB
  8
寸法
  2
*D28
 10
75.7559554033862241
 20
99.1713643243287919
 30
0.0
 11
74.115955403386252
 21
129.1701026722909091
 31
0.0
 70
     0
 13
99.2410707384565853
 23
159.1688410202530974
 33
0.0
 14
99.1909016542292932
 24
99.1713643243287635
 34
0.0
 50
90.0
1001
ACAD
1000
DSTYLE
1002
{
1070
   271
1070
     0
1070
    40
1040
1.0
1002
}
  0
DIMENSION
  5
42AE
  8
寸法
  2
*D27
 10
128.6909016542292932
 20
167.6731805149495926
 30
0.0
 11
119.1909016542292932
 21
169.3131805149496074
 31
0.0
 70
     0
 13
109.6909016542292932
 23
147.4641067695860954
 33
0.0
 14
128.6909016542292932
 24
147.4641067695860102
 34
0.0
1001
ACAD
1000
DSTYLE
1002
{
1070
   287
1070
     4
1070
   271
1070
     0
1070
    40
1040
1.0
1070
   279
1070
     1
1002
}
  0
DIMENSION
  5
42AF
  8
寸法
  2
*D29
 10
139.1909016542292932
 20
79.2560330720689734
 30
0.0
 11
119.1909016542292932
 21
80.896033072068974
 31
0.0
 70
     0
 13
99.1909016542292932
 23
99.6713643243287493
 33
0.0
 14
139.1909016542292932
 24
99.1713643243287635
 34
0.0
1001
ACAD
1000
DSTYLE
1002
{
1070
   271
1070
     0
1002
}
  0
INSERT
  5
42B2
  8
0
  2
*U37
 10
0.0
 20
0.0
 30
0.0
1001
ACAD
1000
DSTYLE
1002
{
1070
    40
1040
1.0
1002
}
  0
INSERT
  5
42B5
  8
0
  2
*U38
 10
0.0
 20
0.0
 30
0.0
  0
INSERT
  5
42B6
  8
0
  2
*U39
 10
0.0
 20
0.0
 30
0.0
1001
ACAD
1000
DSTYLE
1002
{
1070
    40
1040
1.0
1002
}
  0
INSERT
  5
42B7
  8
0
  2
*U40
 10
0.0
 20
0.0
 30
0.0
  0
DIMENSION
  5
42B8
  8
寸法
  2
*D30
 10
225.3829287384565987
 20
164.5474748458944134
 30
0.0
 11
234.4733266499474098
 21
167.232474845894501
 31
0.0
 70
   128
 13
227.6829287384566101
 23
159.6713643243286924
 33
0.0
 14
225.3829287384565987
 24
159.6713643243286924
 34
0.0
 50
180.0
1001
ACAD
1000
DSTYLE
1002
{
1070
     3
1000
t=<>
1070
   271
1070
     1
1002
}
  0
DIMENSION
  5
42BB
  8
寸法
  2
*D31
 10
224.3829287384565987
 20
110.1479319013238012
 30
0.0
 11
220.4721462786455106
 21
111.7879319013238018
 31
0.0
 70
   128
 13
225.3829287384565987
 23
118.5213643243287009
 33
0.0
 14
224.3829287384565987
 24
118.5213643243287009
 34
0.0
 50
180.0
1001
ACAD
1000
DSTYLE
1002
{
1070
   271
1070
     0
1002
}
  0
LINE
  5
42BE
  8
中心線
 10
107.1909016542292932
 20
139.6713643243286924
 30
0.0
 11
112.1909016542292932
 21
139.6713643243286924
 31
0.0
  0
LINE
  5
42BF
  8
中心線
 10
109.6909016542292932
 20
137.1713643243286924
 30
0.0
 11
109.6909016542292932
 21
142.1713643243286924
 31
0.0
  0
LINE
  5
42C0
  8
中心線
 10
126.1909016542292932
 20
139.6713643243286924
 30
0.0
 11
131.1909016542292932
 21
139.6713643243286924
 31
0.0
  0
LINE
  5
42C1
  8
中心線
 10
128.6909016542292932
 20
137.1713643243286924
 30
0.0
 11
128.6909016542292932
 21
142.1713643243286924
 31
0.0
  0
LINE
  5
42C2
  8
中心線
 10
107.1909016542292932
 20
120.6713643243287066
 30
0.0
 11
112.1909016542292932
 21
120.6713643243287066
 31
0.0
  0
LINE
  5
42C3
  8
中心線
 10
109.6909016542292932
 20
118.1713643243287066
 30
0.0
 11
109.6909016542292932
 21
123.1713643243287066
 31
0.0
  0
LINE
  5
42C4
  8
中心線
 10
126.1909016542292932
 20
120.6713643243287066
 30
0.0
 11
131.1909016542292932
 21
120.6713643243287066
 31
0.0
  0
LINE
  5
42C5
  8
中心線
 10
128.6909016542292932
 20
118.1713643243287066
 30
0.0
 11
128.6909016542292932
 21
123.1713643243287066
 31
0.0
  0
DIMENSION
  5
42C6
  8
寸法
  2
*D32
 10
91.6645593747012271
 20
139.6713643243288061
 30
0.0
 11
90.0245593747012691
 21
130.1713643243286924
 31
0.0
 70
     0
 13
107.1909016542292932
 23
120.6713643243287066
 33
0.0
 14
107.1909016542292932
 24
139.6713643243286924
 34
0.0
 50
90.0
1001
ACAD
1000
DSTYLE
1002
{
1070
   271
1070
     0
1070
    40
1040
1.0
1002
}
  0
LINE
  5
42C9
  8
中心線
 10
221.6984116778052112
 20
139.0963643243287038
 30
0.0
 11
231.4126062714217937
 21
139.0963643243287038
 31
0.0
  0
LINE
  5
42CA
  8
中心線
 10
221.3045932825779119
 20
120.7628221514090967
 30
0.0
 11
229.4435127930165095
 21
120.7628221514090967
 31
0.0
  0
LINE
  5
42CB
  8
中心線
 10
119.1909016542292932
 20
93.6615356107668333
 30
0.0
 11
119.1909016542292932
 21
163.649235056067198
 31
0.0
  0
LINE
  5
42CC
  8
中心線
 10
94.929526425067408
 20
129.1701026722909091
 30
0.0
 11
141.7122815714272974
 21
129.1701026722909091
 31
0.0
  0
LINE
  5
42CD
  8
中心線
 10
222.0961018648013976
 20
129.1701026722909091
 30
0.0
 11
232.1765066889670948
 21
129.1701026722909091
 31
0.0
  0
VIEWPORT
  5
95A
 67
     1
  8
0
  6
CONTINUOUS
 10
128.5
 20
97.5
 30
0.0
 40
386.7385514018691879
 41
222.1800000000000068
 68
     1
 69
     1
1001
ACAD
1000
MVIEW
1002
{
1070
    16
1010
0.0
1020
0.0
1030
0.0
1010
0.0
1020
0.0
1030
1.0
1040
0.0
1040
222.1800000000000068
1040
128.5
1040
97.5
1040
50.0
1040
0.0
1040
0.0
1070
     0
1070
   100
1070
     1
1070
     1
1070
     0
1070
     0
1070
     0
1070
     0
1040
0.0
1040
0.0
1040
0.0
1040
10.0
1040
10.0
1040
10.0
1040
10.0
1070
     0
1002
{
1002
}
1002
}
1001
GENIUS_GENOBJ-N-SDF_13
1002
{
1000
OWNER
1000
GEN
1002
}
1001
GENIUS_GENODEF_13
1002
{
1000
HIER
1070
     0
1002
}
1002
{
1000
MANEDIT
1070
     0
1002
}
1002
{
1000
NOSEL
1070
     0
1002
}
1002
{
1000
BEHIND
1070
     0
1002
}
1002
{
1000
OTHER
1070
     0
1002
}
1002
{
1000
REACTOR
1002
}
1001
GENIUS_GENSCREG_15
1000
PF
1040
1.0
1000
DF
1040
1.0
1000
MIN
1011
-64.8692757009345655
1021
0.0
1031
0.0
1021
-13.5899999999999999
1031
0.0
1000
MAX
1011
321.8692757009346224
1021
0.0
1031
0.0
1021
208.5900000000000034
1031
0.0
1000
FLAGS
1070
     4
  0
ENDSEC
  0
EOF
