  0
SECTION
  2
HEADER
  9
$ACADVER
  1
AC1009
  9
$INSBASE
 10
0.0
 20
0.0
 30
0.0
  9
$EXTMIN
 10
12.95278390635235
 20
9.9970857766065802
 30
-0.0000000000112498
  9
$EXTMAX
 10
289.46121995692403
 20
201.1236168934752
 30
0.0000000000002956
  9
$LIMMIN
 10
12.95699999999508
 20
10.0
  9
$LIMMAX
 10
289.45700000038528
 20
201.1206999999936
  9
$ORTHOMODE
 70
     1
  9
$REGENMODE
 70
     1
  9
$FILLMODE
 70
     1
  9
$QTEXTMODE
 70
     0
  9
$MIRRTEXT
 70
     1
  9
$DRAGMODE
 70
     2
  9
$LTSCALE
 40
7.0
  9
$OSMODE
 70
    39
  9
$ATTMODE
 70
     1
  9
$TEXTSIZE
 40
3.0
  9
$TRACEWID
 40
0.05
  9
$TEXTSTYLE
  7
STANDARD
  9
$CLAYER
  8
0
  9
$CELTYPE
  6
BYLAYER
  9
$CECOLOR
 62
   256
  9
$DIMSCALE
 40
1.0
  9
$DIMASZ
 40
2.5
  9
$DIMEXO
 40
1.0
  9
$DIMDLI
 40
7.0
  9
$DIMRND
 40
0.0
  9
$DIMDLE
 40
0.0
  9
$DIMEXE
 40
1.0
  9
$DIMTP
 40
0.1
  9
$DIMTM
 40
0.1
  9
$DIMTXT
 40
3.0
  9
$DIMCEN
 40
0.0
  9
$DIMTSZ
 40
0.0
  9
$DIMTOL
 70
     0
  9
$DIMLIM
 70
     0
  9
$DIMTIH
 70
     0
  9
$DIMTOH
 70
     0
  9
$DIMSE1
 70
     0
  9
$DIMSE2
 70
     0
  9
$DIMTAD
 70
     3
  9
$DIMZIN
 70
     8
  9
$DIMBLK
  1
OPEN30
  9
$DIMASO
 70
     1
  9
$DIMSHO
 70
     1
  9
$DIMPOST
  1

  9
$DIMAPOST
  1
"
  9
$DIMALT
 70
     0
  9
$DIMALTD
 70
     2
  9
$DIMALTF
 40
0.0393701
  9
$DIMLFAC
 40
1.0
  9
$DIMTOFL
 70
     1
  9
$DIMTVP
 40
0.0
  9
$DIMTIX
 70
     0
  9
$DIMSOXD
 70
     0
  9
$DIMSAH
 70
     0
  9
$DIMBLK1
  1

  9
$DIMBLK2
  1

  9
$DIMSTYLE
  2
AM_JIS
  9
$DIMCLRD
 70
     7
  9
$DIMCLRE
 70
     7
  9
$DIMCLRT
 70
     7
  9
$DIMTFAC
 40
0.71
  9
$DIMGAP
 40
1.0
  9
$LUNITS
 70
     2
  9
$LUPREC
 70
     4
  9
$SKETCHINC
 40
0.1
  9
$FILLETRAD
 40
0.0
  9
$AUNITS
 70
     0
  9
$AUPREC
 70
     0
  9
$MENU
  1
acad
  9
$ELEVATION
 40
0.0
  9
$PELEVATION
 40
0.0
  9
$THICKNESS
 40
0.0
  9
$LIMCHECK
 70
     0
  9
$BLIPMODE
 70
     0
  9
$CHAMFERA
 40
0.0
  9
$CHAMFERB
 40
0.0
  9
$SKPOLY
 70
     0
  9
$TDCREATE
 40
2455755.6568701151
  9
$TDUPDATE
 40
2457596.7207759381
  9
$TDINDWG
 40
0.1729947222
  9
$TDUSRTIMER
 40
0.172994537
  9
$USRTIMER
 70
     1
  9
$ANGBASE
 50
0.0
  9
$ANGDIR
 70
     0
  9
$PDMODE
 70
     0
  9
$PDSIZE
 40
0.0
  9
$PLINEWID
 40
0.0
  9
$COORDS
 70
     1
  9
$SPLFRAME
 70
     0
  9
$SPLINETYPE
 70
     6
  9
$SPLINESEGS
 70
     8
  9
$ATTDIA
 70
     1
  9
$ATTREQ
 70
     1
  9
$HANDLING
 70
     1
  9
$HANDSEED
  5
37F2
  9
$SURFTAB1
 70
     6
  9
$SURFTAB2
 70
     6
  9
$SURFTYPE
 70
     6
  9
$SURFU
 70
     6
  9
$SURFV
 70
     6
  9
$UCSNAME
  2

  9
$UCSORG
 10
0.0
 20
0.0
 30
0.0
  9
$UCSXDIR
 10
1.0
 20
0.0
 30
0.0
  9
$UCSYDIR
 10
0.0
 20
1.0
 30
0.0
  9
$PUCSNAME
  2

  9
$PUCSORG
 10
0.0
 20
0.0
 30
0.0
  9
$PUCSXDIR
 10
1.0
 20
0.0
 30
0.0
  9
$PUCSYDIR
 10
0.0
 20
1.0
 30
0.0
  9
$USERI1
 70
     0
  9
$USERI2
 70
     0
  9
$USERI3
 70
     0
  9
$USERI4
 70
     0
  9
$USERI5
 70
     0
  9
$USERR1
 40
0.0
  9
$USERR2
 40
0.0
  9
$USERR3
 40
0.0
  9
$USERR4
 40
0.0
  9
$USERR5
 40
0.0
  9
$WORLDVIEW
 70
     1
  9
$SHADEDGE
 70
     3
  9
$SHADEDIF
 70
    70
  9
$TILEMODE
 70
     1
  9
$MAXACTVP
 70
    16
  9
$PLIMCHECK
 70
     0
  9
$PEXTMIN
 10
1.0000000000000000E+020
 20
1.0000000000000000E+020
 30
1.0000000000000000E+020
  9
$PEXTMAX
 10
-1.0000000000000000E+020
 20
-1.0000000000000000E+020
 30
-1.0000000000000000E+020
  9
$PLIMMIN
 10
-20.0
 20
-7.5
  9
$PLIMMAX
 10
277.0
 20
202.5
  9
$UNITMODE
 70
     0
  9
$VISRETAIN
 70
     0
  9
$PLINEGEN
 70
     1
  9
$PSLTSCALE
 70
     0
  0
ENDSEC
  0
SECTION
  2
TABLES
  0
TABLE
  2
VPORT
 70
     1
  0
VPORT
  2
*ACTIVE
 70
     0
 10
0.0
 20
0.0
 11
1.0
 21
1.0
 12
151.2070019316381
 22
105.56035133504081
 13
0.0
 23
0.0
 14
2.5
 24
2.5
 15
10.0
 25
10.0
 16
0.0
 26
0.0
 36
1.0
 17
0.0
 27
0.0
 37
0.0
 40
192.74491419820541
 41
2.0759493670886071
 42
50.0
 43
0.0
 44
0.0
 50
0.0
 51
0.0
 71
    16
 72
   100
 73
     1
 74
     3
 75
     0
 76
     0
 77
     0
 78
     1
  0
ENDTAB
  0
TABLE
  2
LTYPE
 70
    16
  0
LTYPE
  2
CONTINUOUS
 70
     0
  3
Solid line (NEC CAE2D for Win R7.2 : 2008.02.20
 72
    65
 73
     0
 40
0.0
  0
LTYPE
  2
CENTER2
 70
     0
  3
Center (.5x) ___ _ ___ _ ___ _ ___ _ ___ _ ___
 72
    65
 73
     4
 40
1.125
 49
0.75
 49
-0.125
 49
0.125
 49
-0.125
  0
LTYPE
  2
HIDDEN2
 70
     0
  3
Hidden (.5x) _ _ _ _ _ _ _ _ _ _ _ _ _ _ _ _ _
 72
    65
 73
     2
 40
0.1875
 49
0.125
 49
-0.0625
  0
LTYPE
  2
ACISOWELD
 70
     0
  3
_ _ _ _ _
 72
    65
 73
     2
 40
2.0
 49
2.0
 49
-1.0
  0
LTYPE
  2
ACISOTGB
 70
     0
  3
__ . . __ . .
 72
    65
 73
     6
 40
9.0
 49
4.0
 49
-1.0
 49
1.0
 49
-1.0
 49
1.0
 49
-1.0
  0
LTYPE
  2
ACISOTGL
 70
     0
  3
_ _ _ _ _
 72
    65
 73
     2
 40
3.0
 49
2.0
 49
-1.0
  0
LTYPE
  2
AM_ISO02W050
 70
     0
  3
__ __ __ __ __ __ __ __ __ __ __ __ __ __ __
 72
    65
 73
     2
 40
7.5
 49
6.0
 49
-1.5
  0
LTYPE
  2
AM_ISO08W050
 70
     0
  3
____ . ____ . ____ . ____ . ____ . ____ . ____
 72
    65
 73
     4
 40
18.0
 49
12.0
 49
-1.5
 49
3.0
 49
-1.5
  0
LTYPE
  2
AM_ISO09W050
 70
     0
  3
_____ . . _____ . . _____ . . ____ .. ____
 72
    65
 73
     6
 40
22.5
 49
12.0
 49
-1.5
 49
3.0
 49
-1.5
 49
3.0
 49
-1.5
  0
LTYPE
  2
AMCONSTR
 70
     0
  3
_______________________
 72
    65
 73
     2
 40
9999.0
 49
9999.0
 49
0.0
  0
LTYPE
  2
AM_ISO08W050X2
 70
     0
  3
__ . __ . __ . __ . __ . __
 72
    65
 73
     4
 40
9.0
 49
6.0
 49
-0.75
 49
1.5
 49
-0.75
  0
LTYPE
  2
AM_ISO02W050X2
 70
     0
  3
 _ _ _ _ _ _ _ _ _ _ _ _
 72
    65
 73
     2
 40
3.75
 49
3.0
 49
-0.75
  0
LTYPE
  2
AMZIGZAG
 70
     0
  3
/\/-/\/-/\/-/\/-/\/-/\/
 72
    65
 73
     2
 40
11.0001
 49
0.0001
 49
-11.0
  0
ENDTAB
  0
TABLE
  2
LAYER
 70
    10
  0
LAYER
  2
0
 70
     0
 62
     3
  6
CONTINUOUS
  0
LAYER
  2
SYS-BUHIN0
 70
     0
 62
     7
  6
CONTINUOUS
  0
LAYER
  2
DEFPOINTS
 70
     0
 62
     7
  6
CONTINUOUS
  0
LAYER
  2
AM_BOR
 70
     0
 62
     7
  6
CONTINUOUS
  0
LAYER
  2
SYS-TEISEI0
 70
     0
 62
     7
  6
CONTINUOUS
  0
LAYER
  2
実線
 70
     0
 62
     3
  6
CONTINUOUS
  0
LAYER
  2
中心線
 70
     0
 62
     4
  6
CENTER2
  0
LAYER
  2
寸法線
 70
     0
 62
     2
  6
CONTINUOUS
  0
LAYER
  2
隠れ線
 70
     0
 62
     5
  6
HIDDEN2
  0
ENDTAB
  0
TABLE
  2
STYLE
 70
     5
  0
STYLE
  2
STANDARD
 70
     0
 40
0.0
 41
1.0
 50
0.0
 71
     0
 42
3.0
  3
dim.shx
  4
extfont.shx
  0
STYLE
  2
ACISOGDT
 70
     0
 40
0.0
 41
1.0
 50
0.0
 71
     0
 42
2.5
  3
amgdt.shx
  4

  0
STYLE
  2

 70
     1
 40
0.0
 41
1.0
 50
0.0
 71
     0
 42
3.0
  3
genltshp.shx
  4

  0
ENDTAB
  0
TABLE
  2
VIEW
 70
     6
  0
VIEW
  2
AM_VIEW1
 70
     0
 40
95.560349999996788
 10
100.7985233311003
 20
153.34052499999521
 41
175.68304666221039
 11
0.0
 21
0.0
 31
1.0
 12
0.0
 22
0.0
 32
0.0
 42
50.0
 43
0.0
 44
0.0
 50
0.0
 71
    16
  0
VIEW
  2
AM_VIEW2
 70
     0
 40
95.560349999996788
 10
201.6154766692801
 20
153.34052499999521
 41
175.68304666221039
 11
0.0
 21
0.0
 31
1.0
 12
0.0
 22
0.0
 32
0.0
 42
50.0
 43
0.0
 44
0.0
 50
0.0
 71
    16
  0
VIEW
  2
AM_VIEW3
 70
     0
 40
95.560349999996788
 10
100.7985233311003
 20
57.780174999998401
 41
175.68304666221039
 11
0.0
 21
0.0
 31
1.0
 12
0.0
 22
0.0
 32
0.0
 42
50.0
 43
0.0
 44
0.0
 50
0.0
 71
    16
  0
VIEW
  2
AM_VIEW4
 70
     0
 40
95.560349999996788
 10
201.6154766692801
 20
57.780174999998401
 41
175.68304666221039
 11
0.0
 21
0.0
 31
1.0
 12
0.0
 22
0.0
 32
0.0
 42
50.0
 43
0.0
 44
0.0
 50
0.0
 71
    16
  0
VIEW
  2
AM_VIEW5
 70
     0
 40
95.560349999996816
 10
151.20700000019011
 20
105.5603499999968
 41
175.68304666221039
 11
0.0
 21
0.0
 31
1.0
 12
0.0
 22
0.0
 32
0.0
 42
50.0
 43
0.0
 44
0.0
 50
0.0
 71
    16
  0
VIEW
  2
AM_VIEW6
 70
     0
 40
191.1187887929936
 10
151.20700000019019
 20
105.5603499999968
 41
351.36257966348762
 11
0.0
 21
0.0
 31
1.0
 12
0.0
 22
0.0
 32
0.0
 42
50.0
 43
0.0
 44
0.0
 50
0.0
 71
    16
  0
ENDTAB
  0
TABLE
  2
UCS
 70
     0
  0
ENDTAB
  0
TABLE
  2
APPID
 70
    63
  0
APPID
  2
ACAD
 70
     0
  0
APPID
  2
ACADANNOTATIVE
 70
     0
  0
APPID
  2
ACAD_MLEADERVER
 70
     0
  0
APPID
  2
MCAD_NO_VIS
 70
     0
  0
APPID
  2
ACAD_TEMP_GRAPHIC
 70
     0
  0
APPID
  2
AD_DRAW
 70
     0
  0
APPID
  2
ACATTRIBSERVICES
 70
     0
  0
APPID
  2
DESIGNERASSEMBLIES
 70
     0
  0
APPID
  2
ACADM_DIM_EDIT
 70
     0
  0
APPID
  2
AMDT_DM_ADJ
 70
     0
  0
APPID
  2
ACADANNOPO
 70
     0
  0
APPID
  2
ACAECLAYERSTANDARD
 70
     0
  0
APPID
  2
ACDBDYNAMICBLOCKGUID
 70
     0
  0
APPID
  2
ACDBBLOCKREPETAG
 70
     0
  0
APPID
  2
ACAUTHENVIRON
 70
     0
  0
APPID
  2
ACDBDYNAMICBLOCKTRUENAME
 70
     0
  0
APPID
  2
GENIUS_GENREC_14
 70
     0
  0
APPID
  2
GENIUS_GENOBJ-N-REC_13
 70
     0
  0
APPID
  2
GENIUS_GENODEF_13
 70
     0
  0
APPID
  2
ACAD_EXEMPT_FROM_CAD_STANDARDS
 70
     0
  0
APPID
  2
GENIUS_GENOBJ-N-CEN_13
 70
     0
  0
APPID
  2
GENIUS_GENCEN_19
 70
     0
  0
APPID
  2
ACAD_DSTYLE_DIMINSPECT
 70
     0
  0
APPID
  2
DCO15
 70
     0
  0
APPID
  2
ACAD_PSEXT
 70
     0
  0
APPID
  2
GENIUS_GENBH_13
 70
     0
  0
APPID
  2
GENIUS_GENOENT_13
 70
     0
  0
APPID
  2
GENIUS_GENOLIS_13
 70
     0
  0
APPID
  2
GENIUS_GENOBJ-NBEHI-BHF_13
 70
     0
  0
APPID
  2
GENIUS_GENOREF_13
 70
     0
  0
APPID
  2
GENIUS_GENOBJ-NBEHI-BHB_13
 70
     0
  0
APPID
  2
AMG_2DHIDE
 70
     0
  0
APPID
  2
AMG_2DSTRUCT_BTR
 70
     0
  0
APPID
  2
GENIUS_AMGTXT_16
 70
     0
  0
APPID
  2
GENIUS_GENOBJ-N-HTC_13
 70
     0
  0
APPID
  2
GENIUS_GENHATCH_13
 70
     0
  0
APPID
  2
GEVID1208849169
 70
     0
  0
APPID
  2
GEVDC
 70
     0
  0
APPID
  2
ACADM_2DVIEW_IGN_NOTIFY
 70
     0
  0
APPID
  2
GEVID1208849170
 70
     0
  0
APPID
  2
GEVID1208849171
 70
     0
  0
APPID
  2
GEVRADREF
 70
     0
  0
APPID
  2
ACAD_DSTYLE_DIMJAG
 70
     0
  0
APPID
  2
ACAD_DSTYLE_DIMTALN
 70
     0
  0
APPID
  2
GENIUS_GENDTOL_13
 70
     0
  0
APPID
  2
GENIUS_GENTRA_14
 70
     0
  0
APPID
  2
GENIUS_GENOBJ-N-TIT_13
 70
     0
  0
APPID
  2
GENIUS_GENTITLE_13
 70
     0
  0
APPID
  2
GENIUS_GENSCREG_15
 70
     0
  0
APPID
  2
GENIUS_GENOBJ-N-SDF_13
 70
     0
  0
APPID
  2
ACAD_DSTYLE_DIMRADIAL_EXTENSION
 70
     0
  0
APPID
  2
GENIUS_GENOBJ-N-FIL_13
 70
     0
  0
APPID
  2
GENIUS_GENOBJ-N-CRS_13
 70
     0
  0
APPID
  2
GENIUS_GENDIMSH_14
 70
     0
  0
APPID
  2
ACAD_DSTYLE_DIMANGULAR_EXT
 70
     0
  0
APPID
  2
ACAD_NAV_VCDISPLAY
 70
     0
  0
APPID
  2
ACAD_DSTYLE_DIMBREAK
 70
     0
  0
APPID
  2
ACAD_DSTYLE_DIMARC_LENGTH_
 70
     0
  0
APPID
  2
ACAD_DSTYLE_DIM_LINETYPE
 70
     0
  0
APPID
  2
ACAD_DSTYLE_DIM_EXT1_LINETYPE
 70
     0
  0
APPID
  2
ACAD_DSTYLE_DIM_EXT2_LINETYPE
 70
     0
  0
APPID
  2
ACDBATTR
 70
     0
  0
APPID
  2
GENIUS_GENSCREG_13
 70
     0
  0
ENDTAB
  0
TABLE
  2
DIMSTYLE
 70
    10
  0
DIMSTYLE
  2
STANDARD
 70
     0
  3

  4

  5

  6

  7

 40
1.0
 41
1.0
 42
0.8
 43
0.38
 44
1.0
 45
0.0
 46
0.0
 47
0.0
 48
0.0
140
3.1000000000000001
141
0.09
142
0.0
143
25.399999999999999
144
1.0
145
0.5
146
1.0
147
0.09
 71
     0
 72
     0
 73
     0
 74
     0
 75
     0
 76
     0
 77
     1
 78
     0
170
     0
171
     2
172
     0
173
     0
174
     0
175
     0
176
     0
177
     0
178
     0
  0
DIMSTYLE
  2
AM_JIS
 70
     0
  3

  4
"
  5
OPEN30
  6

  7

 40
1.0
 41
2.5
 42
1.0
 43
7.0
 44
1.0
 45
0.0
 46
0.0
 47
0.1
 48
0.1
140
3.0
141
0.0
142
0.0
143
0.0393701
144
1.0
145
0.0
146
0.71
147
1.0
 71
     0
 72
     0
 73
     0
 74
     0
 75
     0
 76
     0
 77
     3
 78
     8
170
     0
171
     2
172
     1
173
     0
174
     0
175
     0
176
     7
177
     7
178
     7
  0
DIMSTYLE
  2
AM_ISO
 70
     0
  3

  4
"
  5

  6

  7

 40
1.0
 41
2.5
 42
1.0
 43
10.0
 44
1.0
 45
0.0
 46
0.0
 47
0.1
 48
0.1
140
3.5
141
0.0
142
0.0
143
0.0393701
144
1.0
145
0.0
146
0.71
147
1.5
 71
     0
 72
     0
 73
     0
 74
     0
 75
     0
 76
     0
 77
     1
 78
     8
170
     0
171
     2
172
     1
173
     0
174
     0
175
     0
176
   256
177
   256
178
     2
  0
DIMSTYLE
  2
AM_ISO$3
 70
     0
  3

  4
"
  5

  6

  7

 40
1.0
 41
2.5
 42
1.0
 43
10.0
 44
1.0
 45
0.0
 46
0.0
 47
0.1
 48
0.1
140
3.5
141
0.0
142
0.0
143
0.0393701
144
1.0
145
0.0
146
0.71
147
1.5
 71
     0
 72
     0
 73
     0
 74
     1
 75
     0
 76
     0
 77
     1
 78
     8
170
     0
171
     2
172
     0
173
     0
174
     0
175
     0
176
   256
177
   256
178
     2
  0
DIMSTYLE
  2
AM_ISO$4
 70
     0
  3

  4
"
  5

  6

  7

 40
1.0
 41
2.5
 42
1.0
 43
10.0
 44
1.0
 45
0.0
 46
0.0
 47
0.1
 48
0.1
140
3.5
141
0.0
142
0.0
143
0.0393701
144
1.0
145
0.0
146
0.71
147
1.5
 71
     0
 72
     0
 73
     0
 74
     1
 75
     0
 76
     0
 77
     1
 78
     8
170
     0
171
     2
172
     0
173
     0
174
     0
175
     0
176
   256
177
   256
178
     2
  0
DIMSTYLE
  2
AM_ISO$6
 70
     0
  3

  4
"
  5

  6

  7

 40
1.0
 41
2.5
 42
1.0
 43
10.0
 44
1.0
 45
0.0
 46
0.0
 47
0.1
 48
0.1
140
3.5
141
0.0
142
0.0
143
0.0393701
144
1.0
145
0.0
146
0.71
147
1.5
 71
     0
 72
     0
 73
     0
 74
     0
 75
     0
 76
     0
 77
     0
 78
     8
170
     0
171
     2
172
     1
173
     0
174
     0
175
     0
176
   256
177
   256
178
     2
  0
DIMSTYLE
  2
AM_ISO$7
 70
     0
  3

  4
"
  5

  6

  7

 40
1.0
 41
2.5
 42
1.0
 43
10.0
 44
1.0
 45
0.0
 46
0.0
 47
0.1
 48
0.1
140
5.0
141
0.0
142
0.0
143
0.0393701
144
1.0
145
0.0
146
0.71
147
1.5
 71
     0
 72
     0
 73
     0
 74
     0
 75
     0
 76
     0
 77
     1
 78
     8
170
     0
171
     2
172
     1
173
     0
174
     0
175
     0
176
   256
177
   256
178
     2
  0
DIMSTYLE
  2
AM_ISO$SF
 70
     0
  3

  4
"
  5

  6

  7

 40
1.0
 41
2.5
 42
1.0
 43
10.0
 44
1.0
 45
0.0
 46
0.0
 47
0.1
 48
0.1
140
3.5
141
0.0
142
0.0
143
0.0393701
144
1.0
145
0.0
146
0.71
147
1.5
 71
     0
 72
     0
 73
     0
 74
     0
 75
     1
 76
     1
 77
     1
 78
     8
170
     0
171
     2
172
     1
173
     0
174
     0
175
     0
176
   256
177
   256
178
     2
  0
DIMSTYLE
  2
AM_ISO$SH
 70
     0
  3

  4
"
  5

  6
GENAXEH
  7

 40
1.0
 41
2.5
 42
1.0
 43
10.0
 44
1.0
 45
0.0
 46
0.0
 47
0.1
 48
0.1
140
3.5
141
0.0
142
0.0
143
0.0393701
144
2.0
145
0.0
146
0.71
147
1.5
 71
     0
 72
     0
 73
     0
 74
     0
 75
     1
 76
     1
 77
     1
 78
     8
170
     0
171
     2
172
     1
173
     1
174
     0
175
     0
176
   256
177
   256
178
     2
  0
ENDTAB
  0
ENDSEC
  0
SECTION
  2
BLOCKS
  0
BLOCK
  8
0
  2
$MODEL_SPACE
 70
     0
 10
0.0
 20
0.0
 30
0.0
  3
$MODEL_SPACE
  1

  0
ENDBLK
  5
1D3
  8
0
  0
BLOCK
 67
     1
  8
0
  2
$PAPER_SPACE
 70
     0
 10
0.0
 20
0.0
 30
0.0
  3
$PAPER_SPACE
  1

  0
ENDBLK
  5
1D1
 67
     1
  8
0
  0
BLOCK
  8
0
  2
GENAXEH
 70
     0
 10
0.0
 20
0.0
 30
0.0
  3
GENAXEH
  1

  0
LINE
  5
264
  8
0
 10
-1.0
 20
0.0
 30
0.0
 11
1.0
 21
0.0
 31
0.0
  0
ENDBLK
  5
266
  8
0
  0
BLOCK
  8
0
  2
_OPEN30
 70
     0
 10
0.0
 20
0.0
 30
0.0
  3
_OPEN30
  1

  0
LINE
  5
2FA
  8
0
  6
BYBLOCK
 62
     0
 10
-1.0
 20
0.26794919
 30
0.0
 11
0.0
 21
0.0
 31
0.0
  0
LINE
  5
2FB
  8
0
  6
BYBLOCK
 62
     0
 10
0.0
 20
0.0
 30
0.0
 11
-1.0
 21
-0.26794919
 31
0.0
  0
LINE
  5
2FC
  8
0
  6
BYBLOCK
 62
     0
 10
0.0
 20
0.0
 30
0.0
 11
-1.0
 21
0.0
 31
0.0
  0
ENDBLK
  5
2FE
  8
0
  0
BLOCK
  8
0
  2
ZUWAKU-A4H
 70
     0
 10
0.0
 20
0.0
 30
0.0
  3
ZUWAKU-A4H
  1

  0
LINE
  5
1B9F
  8
AM_BOR
 62
     3
 10
12.956999999995089
 20
201.1206999999936
 30
0.0
 11
12.956999999999759
 21
10.0
 31
0.0
  0
LINE
  5
1BA0
  8
AM_BOR
 62
     3
 10
289.45700000038528
 20
201.12069999985769
 30
0.0
 11
289.45700000001921
 21
10.0
 31
0.0
  0
LINE
  5
1BA1
  8
AM_BOR
 62
     3
 10
12.95699999999508
 20
201.1206999999936
 30
0.0
 11
289.45700000038528
 21
201.12069999985769
 31
0.0
  0
LINE
  5
1BA2
  8
AM_BOR
 62
     3
 10
12.95699999999974
 20
10.0
 30
0.0
 11
289.45700000001921
 21
10.0
 31
0.0
  0
TEXT
  5
1BA3
  8
SYS-TEISEI0
  6
CONTINUOUS
 62
     3
 10
21.84200001765786
 20
20.950000047683719
 30
0.0
 40
3.099999904632567
  1
 
  0
TEXT
  5
1BA4
  8
SYS-TEISEI0
  6
CONTINUOUS
 62
     3
 10
47.342000044479938
 20
20.950000047683719
 30
0.0
 40
3.099999904632567
  1
 
  0
TEXT
  5
1BA5
  8
SYS-TEISEI0
  6
CONTINUOUS
 62
     3
 10
106.7019999570846
 20
20.950000047683719
 30
0.0
 40
3.099999904632567
  1
 
  0
TEXT
  5
1BA6
  8
SYS-TEISEI0
  6
CONTINUOUS
 62
     3
 10
114.4019999570846
 20
20.950000047683719
 30
0.0
 40
3.099999904632567
  1
 
  0
TEXT
  5
1BA7
  8
SYS-TEISEI0
  6
CONTINUOUS
 62
     3
 10
21.84200001765786
 20
25.950000047683719
 30
0.0
 40
3.099999904632567
  1
 
  0
TEXT
  5
1BA8
  8
SYS-TEISEI0
  6
CONTINUOUS
 62
     3
 10
47.342000044479938
 20
25.950000047683719
 30
0.0
 40
3.099999904632567
  1
 
  0
TEXT
  5
1BA9
  8
SYS-TEISEI0
  6
CONTINUOUS
 62
     3
 10
106.7019999570846
 20
25.950000047683719
 30
0.0
 40
3.099999904632567
  1
 
  0
TEXT
  5
1BAA
  8
SYS-TEISEI0
  6
CONTINUOUS
 62
     3
 10
114.4019999570846
 20
25.950000047683719
 30
0.0
 40
3.099999904632567
  1
 
  0
TEXT
  5
1BAB
  8
SYS-BUHIN0
  6
CONTINUOUS
 62
     3
 10
260.70699999999999
 20
52.450000047683723
 30
0.0
 40
3.099999904632567
  1
 
  0
TEXT
  5
1BAC
  8
SYS-BUHIN0
  6
CONTINUOUS
 62
     3
 10
260.70699999999999
 20
58.45000004768373
 30
0.0
 40
3.099999904632567
  1
 
  0
TEXT
  5
1BAD
  8
SYS-BUHIN0
  6
CONTINUOUS
 62
     3
 10
260.70699999999999
 20
64.450000047683716
 30
0.0
 40
3.099999904632567
  1
 
  0
TEXT
  5
1BAE
  8
AM_BOR
 10
12.956999999999759
 20
10.0
 30
0.0
 40
5.0
  1
!GENTITLE-LL
  0
TEXT
  5
1BAF
  8
AM_BOR
 10
289.45700000001921
 20
10.0
 30
0.0
 40
5.0
  1
!GENTITLE-INSERT
  0
TEXT
  5
1BB0
  8
AM_BOR
 10
289.45700000038528
 20
201.12069999985769
 30
0.0
 40
5.0
  1
!GENTITLE-RU
  0
TEXT
  5
1BB1
  8
AM_BOR
 10
297.0
 20
210.0
 30
0.0
 40
5.0
  1
!GENTITLE-MAX
  0
ENDBLK
  5
1BB3
  8
0
  0
BLOCK
  8
0
  2
A$C1C06296A
 70
     2
 10
0.0
 20
0.0
 30
0.0
  3
A$C1C06296A
  1

  0
LINE
  5
204C
  8
AM_BOR
 10
198.86851880399371
 20
17.886744577931989
 30
0.0
 11
203.2337455721775
 21
13.521517809748619
 31
0.0
  0
LINE
  5
204D
  8
AM_BOR
 10
198.8685188039936
 20
17.866715351316039
 30
0.0
 11
198.86851880399399
 21
14.128964361178911
 31
0.0
  0
LINE
  5
204E
  8
AM_BOR
 10
204.7045172738834
 20
17.866715326469411
 30
0.0
 11
204.70451727388391
 21
14.181128845625549
 31
0.0
  0
LINE
  5
204F
  8
AM_BOR
 10
204.20428883360731
 20
17.793010290175861
 30
0.0
 11
204.204288833607
 21
14.69861035774108
 31
0.0
  0
LINE
  5
2050
  8
AM_BOR
 10
199.3687472442698
 20
17.176052465333349
 30
0.0
 11
199.36874724427059
 21
14.197800355103411
 31
0.0
  0
LINE
  5
2051
  8
AM_BOR
 10
200.43756462039269
 20
18.46533457095553
 30
0.0
 11
204.20428883360731
 21
14.69861035774052
 31
0.0
  0
LINE
  5
2052
  8
AM_BOR
 10
199.36874724426971
 20
17.17605246533255
 30
0.0
 11
203.02713287203409
 21
13.51766683756852
 31
0.0
  0
ARC
  5
2053
  8
AM_BOR
 10
198.36829036868701
 20
17.866715351316049
 30
0.0
 40
0.5002284402762121
 50
0.0
 51
50.265515568291427
  0
ARC
  5
2054
  8
AM_BOR
 10
198.36829034384081
 20
14.12896436117892
 30
0.0
 40
0.5002284402762121
 50
304.69759678405279
 51
0.0
  0
ARC
  5
2055
  8
AM_BOR
 10
205.20474573403669
 20
17.866715326469411
 30
0.0
 40
0.5002284402762121
 50
127.0284887689633
 51
180.00000500895629
  0
ARC
  5
2056
  8
AM_BOR
 10
203.53731756996689
 20
17.793010290175818
 30
0.0
 40
0.6669712537016159
 50
0.0
 51
74.714823568866152
  0
ARC
  5
2057
  8
AM_BOR
 10
200.03571849797169
 20
14.197800355103389
 30
0.0
 40
0.6669712537016159
 50
180.00000500895629
 51
256.4857883914604
  0
LINE
  5
2058
  8
AM_BOR
 10
210.95737277733619
 20
15.993445664994679
 30
0.0
 11
210.9224749062999
 21
16.211434571273589
 31
0.0
  0
LINE
  5
2059
  8
AM_BOR
 10
210.92247490629941
 20
16.211434571273411
 30
0.0
 11
210.8180468870608
 21
16.42776445035037
 31
0.0
  0
LINE
  5
205A
  8
AM_BOR
 10
210.8180468870604
 20
16.42776445035037
 30
0.0
 11
210.64488347990149
 21
16.640788901221669
 31
0.0
  0
LINE
  5
205B
  8
AM_BOR
 10
210.6448834799013
 20
16.640788901221619
 30
0.0
 11
210.40430256290981
 21
16.848886679188759
 31
0.0
  0
LINE
  5
205C
  8
AM_BOR
 10
210.40430256290949
 20
16.848886679189
 30
0.0
 11
210.0981351021297
 21
17.050474034508689
 31
0.0
  0
LINE
  5
205D
  8
AM_BOR
 10
210.09813510212999
 20
17.05047403450855
 30
0.0
 11
209.7287112168076
 21
17.244016765685139
 31
0.0
  0
LINE
  5
205E
  8
AM_BOR
 10
209.72871121680711
 20
17.24401676568521
 30
0.0
 11
209.29884244577369
 21
17.428041895669988
 31
0.0
  0
LINE
  5
205F
  8
AM_BOR
 10
209.29884244577369
 20
17.428041895670081
 30
0.0
 11
208.81180034993889
 21
17.601148882106369
 31
0.0
  0
LINE
  5
2060
  8
AM_BOR
 10
208.81180034993889
 20
17.60114888210644
 30
0.0
 11
208.27129161373591
 21
17.76202027630297
 31
0.0
  0
LINE
  5
2061
  8
AM_BOR
 10
208.27129161373611
 20
17.76202027630309
 30
0.0
 11
207.68142983501551
 21
17.909431749813081
 31
0.0
  0
LINE
  5
2062
  8
AM_BOR
 10
207.68142983501531
 20
17.90943174981297
 30
0.0
 11
207.04670421808169
 21
18.042261412313358
 31
0.0
  0
LINE
  5
2063
  8
AM_BOR
 10
207.04670421808169
 20
18.04226141231344
 30
0.0
 11
206.37194540813729
 21
18.15949834986797
 31
0.0
  0
LINE
  5
2064
  8
AM_BOR
 10
206.37194540813749
 20
18.159498349867881
 30
0.0
 11
205.66228872715681
 21
18.260250318592298
 31
0.0
  0
LINE
  5
2065
  8
AM_BOR
 10
205.66228872715661
 20
18.260250318592369
 30
0.0
 11
205.02242374599979
 21
18.33253416039674
 31
0.0
  0
LINE
  5
2066
  8
AM_BOR
 10
205.02242374599939
 20
18.332534160396779
 30
0.0
 11
204.92313509098369
 21
18.343750535168819
 31
0.0
  0
LINE
  5
2067
  8
AM_BOR
 10
204.92313509098369
 20
18.343750535168748
 30
0.0
 11
204.16010990510409
 21
18.409363512530259
 31
0.0
  0
LINE
  5
2068
  8
AM_BOR
 10
204.1601099051048
 20
18.409363512530259
 30
0.0
 11
203.71314686010501
 21
18.436387872932471
 31
0.0
  0
LINE
  5
2069
  8
AM_BOR
 10
200.43756462039249
 20
18.465334570955569
 30
0.0
 11
200.19401582596791
 21
18.45658989630088
 31
0.0
  0
LINE
  5
206A
  8
AM_BOR
 10
200.19401582596799
 20
18.456589896300901
 30
0.0
 11
199.41292617277259
 21
18.409363512530309
 31
0.0
  0
LINE
  5
206B
  8
AM_BOR
 10
199.41292617277259
 20
18.409363512530248
 30
0.0
 11
198.64990098689299
 21
18.343750535168759
 31
0.0
  0
LINE
  5
206C
  8
AM_BOR
 10
198.5506123731563
 20
18.332534165059979
 30
0.0
 11
197.9107473507209
 21
18.260250318592469
 31
0.0
  0
LINE
  5
206D
  8
AM_BOR
 10
198.64990098689299
 20
18.343750535168791
 30
0.0
 11
198.5506123731563
 21
18.332534165059919
 31
0.0
  0
LINE
  5
206E
  8
AM_BOR
 10
197.91074735072121
 20
18.26025031859243
 30
0.0
 11
197.20109066974049
 21
18.159498349868041
 31
0.0
  0
LINE
  5
206F
  8
AM_BOR
 10
197.20109066974041
 20
18.159498349868091
 30
0.0
 11
196.52633185979579
 21
18.042261412313529
 31
0.0
  0
LINE
  5
2070
  8
AM_BOR
 10
196.5263318597959
 20
18.042261412313589
 30
0.0
 11
195.89160624286239
 21
17.909431749813219
 31
0.0
  0
LINE
  5
2071
  8
AM_BOR
 10
195.89160624286171
 20
17.90943174981302
 30
0.0
 11
195.30174446414119
 21
17.762020276303058
 31
0.0
  0
LINE
  5
2072
  8
AM_BOR
 10
195.301744464141
 20
17.762020276303161
 30
0.0
 11
194.76123572793779
 21
17.60114888210661
 31
0.0
  0
LINE
  5
2073
  8
AM_BOR
 10
194.76123572793779
 20
17.60114888210656
 30
0.0
 11
194.27419363210299
 21
17.428041895670152
 31
0.0
  0
LINE
  5
2074
  8
AM_BOR
 10
194.27419363210339
 20
17.428041895670152
 30
0.0
 11
193.84432486106959
 21
17.244016765685259
 31
0.0
  0
LINE
  5
2075
  8
AM_BOR
 10
193.84432486106959
 20
17.24401676568521
 30
0.0
 11
193.4749009757472
 21
17.05047403450865
 31
0.0
  0
LINE
  5
2076
  8
AM_BOR
 10
193.4749009757472
 20
17.050474034508671
 30
0.0
 11
193.16873351496719
 21
16.848886679188929
 31
0.0
  0
LINE
  5
2077
  8
AM_BOR
 10
193.1687335149673
 20
16.848886679188951
 30
0.0
 11
192.92815259797499
 21
16.640788901221619
 31
0.0
  0
LINE
  5
2078
  8
AM_BOR
 10
192.9281525979753
 20
16.640788901221811
 30
0.0
 11
192.75498919081639
 21
16.42776445035042
 31
0.0
  0
LINE
  5
2079
  8
AM_BOR
 10
192.75498919081639
 20
16.427764450350349
 30
0.0
 11
192.65056117157769
 21
16.211434571273479
 31
0.0
  0
LINE
  5
207A
  8
AM_BOR
 10
192.65056117157789
 20
16.211434571273731
 30
0.0
 11
192.61566330054151
 21
15.993445664994679
 31
0.0
  0
LINE
  5
207B
  8
AM_BOR
 10
192.61566330054069
 20
15.99344566499464
 30
0.0
 11
192.65056117157721
 21
15.775456758715791
 31
0.0
  0
LINE
  5
207C
  8
AM_BOR
 10
192.65056117157769
 20
15.775456758715929
 30
0.0
 11
192.7549891908163
 21
15.55912687963913
 31
0.0
  0
LINE
  5
207D
  8
AM_BOR
 10
192.75498919081639
 20
15.559126879639029
 30
0.0
 11
192.9281525979753
 21
15.34610242876764
 31
0.0
  0
LINE
  5
207E
  8
AM_BOR
 10
192.9281525979751
 20
15.34610242876769
 30
0.0
 11
193.16873351496719
 21
15.1380046508005
 31
0.0
  0
LINE
  5
207F
  8
AM_BOR
 10
193.1687335149669
 20
15.1380046508005
 30
0.0
 11
193.47490097574689
 21
14.93641729548081
 31
0.0
  0
LINE
  5
2080
  8
AM_BOR
 10
193.47490097574729
 20
14.936417295480711
 30
0.0
 11
193.84432486106959
 21
14.742874564304079
 31
0.0
  0
LINE
  5
2081
  8
AM_BOR
 10
193.84432486106951
 20
14.74287456430417
 30
0.0
 11
194.27419363210271
 21
14.558849434319351
 31
0.0
  0
LINE
  5
2082
  8
AM_BOR
 10
194.27419363210319
 20
14.558849434319439
 30
0.0
 11
194.7612357279379
 21
14.38574244788296
 31
0.0
  0
LINE
  5
2083
  8
AM_BOR
 10
194.76123572793779
 20
14.38574244788277
 30
0.0
 11
195.301744464141
 21
14.22487105368617
 31
0.0
  0
LINE
  5
2084
  8
AM_BOR
 10
195.301744464141
 20
14.224871053686311
 30
0.0
 11
195.891606242862
 21
14.077459580176351
 31
0.0
  0
LINE
  5
2085
  8
AM_BOR
 10
195.89160624286191
 20
14.077459580176219
 30
0.0
 11
196.52633185979579
 21
13.94462991767579
 31
0.0
  0
LINE
  5
2086
  8
AM_BOR
 10
196.52633185979539
 20
13.944629917675821
 30
0.0
 11
197.2010906697397
 21
13.827392980121321
 31
0.0
  0
LINE
  5
2087
  8
AM_BOR
 10
197.20109066974049
 20
13.82739298012133
 30
0.0
 11
197.9107473507209
 21
13.726641011397049
 31
0.0
  0
LINE
  5
2088
  8
AM_BOR
 10
197.9107473507205
 20
13.72664101139711
 30
0.0
 11
198.5412166771807
 21
13.655418571666219
 31
0.0
  0
LINE
  5
2089
  8
AM_BOR
 10
198.54121667717999
 20
13.65541857166625
 30
0.0
 11
198.64990098689259
 21
13.643140794820731
 31
0.0
  0
LINE
  5
208A
  8
AM_BOR
 10
198.6499009868929
 20
13.643140794820679
 30
0.0
 11
199.41292617277259
 21
13.57752781745919
 31
0.0
  0
LINE
  5
208B
  8
AM_BOR
 10
199.41292617277259
 20
13.577527817459201
 30
0.0
 11
199.8798563250744
 21
13.54929620220682
 31
0.0
  0
LINE
  5
208C
  8
AM_BOR
 10
203.0271328720325
 20
13.51766683756999
 30
0.0
 11
203.37902025190911
 21
13.530301433688649
 31
0.0
  0
LINE
  5
208D
  8
AM_BOR
 10
203.3790202519092
 20
13.530301433688599
 30
0.0
 11
204.16010990510441
 21
13.57752781745919
 31
0.0
  0
LINE
  5
208E
  8
AM_BOR
 10
204.70451727388399
 20
13.624341722195579
 30
0.0
 11
204.9231350909844
 21
13.64314079482075
 31
0.0
  0
LINE
  5
208F
  8
AM_BOR
 10
204.16010990510441
 20
13.57752781745917
 30
0.0
 11
204.70451727388379
 21
13.62434172219551
 31
0.0
  0
LINE
  5
2090
  8
AM_BOR
 10
204.92313509098409
 20
13.643140794820759
 30
0.0
 11
205.66228872715669
 21
13.726641011397151
 31
0.0
  0
LINE
  5
2091
  8
AM_BOR
 10
205.66228872715661
 20
13.72664101139711
 30
0.0
 11
206.37194540813709
 21
13.827392980121401
 31
0.0
  0
LINE
  5
2092
  8
AM_BOR
 10
206.37194540813749
 20
13.82739298012145
 30
0.0
 11
207.04670421808191
 21
13.94462991767594
 31
0.0
  0
LINE
  5
2093
  8
AM_BOR
 10
207.04670421808169
 20
13.94462991767597
 30
0.0
 11
207.68142983501559
 21
14.07745958017637
 31
0.0
  0
LINE
  5
2094
  8
AM_BOR
 10
207.68142983501551
 20
14.07745958017629
 30
0.0
 11
208.27129161373611
 21
14.22487105368625
 31
0.0
  0
LINE
  5
2095
  8
AM_BOR
 10
208.2712916137362
 20
14.224871053686289
 30
0.0
 11
208.81180034993929
 21
14.38574244788289
 31
0.0
  0
LINE
  5
2096
  8
AM_BOR
 10
208.81180034993929
 20
14.385742447882921
 30
0.0
 11
209.29884244577411
 21
14.558849434319351
 31
0.0
  0
LINE
  5
2097
  8
AM_BOR
 10
209.298842445774
 20
14.55884943431932
 30
0.0
 11
209.72871121680751
 21
14.74287456430422
 31
0.0
  0
LINE
  5
2098
  8
AM_BOR
 10
209.72871121680711
 20
14.742874564304151
 30
0.0
 11
210.0981351021297
 21
14.93641729548083
 31
0.0
  0
LINE
  5
2099
  8
AM_BOR
 10
210.09813510212999
 20
14.93641729548081
 30
0.0
 11
210.40430256290989
 21
15.13800465080036
 31
0.0
  0
LINE
  5
209A
  8
AM_BOR
 10
210.40430256291
 20
15.13800465080055
 30
0.0
 11
210.64488347990201
 21
15.346102428767731
 31
0.0
  0
LINE
  5
209B
  8
AM_BOR
 10
210.64488347990169
 20
15.34610242876783
 30
0.0
 11
210.8180468870608
 21
15.559126879639029
 31
0.0
  0
LINE
  5
209C
  8
AM_BOR
 10
210.81804688706069
 20
15.559126879639059
 30
0.0
 11
210.92247490629899
 21
15.77545675871586
 31
0.0
  0
LINE
  5
209D
  8
AM_BOR
 10
210.92247490629981
 20
15.775456758715791
 30
0.0
 11
210.95737277733619
 21
15.993445664994621
 31
0.0
  0
LINE
  5
209E
  8
AM_BOR
 10
199.10514248704791
 20
18.382897015254191
 30
0.0
 11
203.92474251077411
 21
13.563296991527499
 31
0.0
  0
ARC
  5
209F
  8
AM_BOR
 10
205.2047457141602
 20
14.181128845625549
 30
0.0
 40
0.5002284402762121
 50
180.0
 51
244.5184856857075
  0
LINE
  5
20A0
  8
AM_BOR
 10
199.36521928176651
 20
18.405261169360589
 30
0.0
 11
204.19035209062989
 21
13.58012836049622
 31
0.0
  0
LINE
  5
20A1
  8
AM_BOR
 10
199.630408435547
 20
18.422512964405719
 30
0.0
 11
204.450428885349
 21
13.602492514602771
 31
0.0
  0
LINE
  5
20A2
  8
AM_BOR
 10
199.8967460324557
 20
18.438616316322719
 30
0.0
 11
204.70776895023289
 21
13.62759339854461
 31
0.0
  0
LINE
  5
20A3
  8
AM_BOR
 10
200.16308362936431
 20
18.454719668239761
 30
0.0
 11
204.9488987968831
 21
13.66890450072008
 31
0.0
  0
LINE
  5
20A4
  8
AM_BOR
 10
198.8450656923284
 20
18.36053286114759
 30
0.0
 11
203.6584049138651
 21
13.547193639610409
 31
0.0
  0
LINE
  5
20A5
  8
AM_BOR
 10
198.7943784573331
 20
18.12877914731807
 30
0.0
 11
203.39206731695711
 21
13.53109028769336
 31
0.0
  0
LINE
  5
20A6
  8
AM_BOR
 10
199.01830573664321
 20
18.375429872827009
 30
0.0
 11
199.01830573664321
 21
13.61146145716244
 31
0.0
  0
LINE
  5
20A7
  8
AM_BOR
 10
199.2180216468426
 20
18.39260355953768
 30
0.0
 11
199.2180216468426
 21
13.594287770451791
 31
0.0
  0
LINE
  5
20A8
  8
AM_BOR
 10
204.55473034123381
 20
18.375429872826999
 30
0.0
 11
204.55473034123381
 21
13.61146145716245
 31
0.0
  0
LINE
  5
20A9
  8
AM_BOR
 10
204.35501443103459
 20
18.39260355953764
 30
0.0
 11
204.35501443103459
 21
13.594287770451791
 31
0.0
  0
LINE
  5
20AA
  8
AM_BOR
 62
     4
 10
-0.0000001316067255
 20
15.000000173111291
 30
0.0
 11
190.49999986839319
 21
15.000000173111291
 31
0.0
  0
LINE
  5
20AB
  8
AM_BOR
 62
     4
 10
276.49999986839327
 20
28.000000173111289
 30
0.0
 11
276.49999986839327
 21
0.000000173111296
 31
0.0
  0
LINE
  5
20AC
  8
AM_BOR
 62
     4
 10
-0.0000001316067255
 20
15.000000173111291
 30
0.0
 11
-0.0000001316067255
 21
0.000000173111296
 31
0.0
  0
LINE
  5
20AD
  8
AM_BOR
 62
     4
 10
-0.0000001316067255
 20
28.000000173111289
 30
0.0
 11
276.49999986839327
 21
28.000000173111289
 31
0.0
  0
LINE
  5
20AE
  8
AM_BOR
 62
     4
 10
15.999999868393269
 20
15.000000173111291
 30
0.0
 11
15.999999868393269
 21
0.000000173111296
 31
0.0
  0
TEXT
  5
20AF
  8
AM_BOR
 62
     4
 10
215.17999986839331
 20
10.000000173111291
 30
0.0
 40
1.5
  1
NAKANISHI　INDUSTRIAL CO., LTD.
 41
1.5
  0
TEXT
  5
20B0
  8
AM_BOR
 62
     3
 10
213.19999986839329
 20
13.500000173111291
 30
0.0
 40
5.5
  1
中西産業株式会社
 41
1.1999999999999991
  0
TEXT
  5
20B1
  8
AM_BOR
 62
     4
 10
196.192787937406
 20
10.000000173111291
 30
0.0
 40
1.5
  1
Nakanishi
 41
1.1999999999999991
  0
TEXT
  5
20B2
  8
AM_BOR
 62
     7
 10
98.104999768257457
 20
15.650000185032219
 30
0.0
 40
1.0
  1
FINISH
 41
1.6000000000000001
  0
TEXT
  5
20B3
  8
AM_BOR
 62
     7
 10
96.979999708652798
 20
17.700000220795008
 30
0.0
 40
2.7999999999999989
  1
仕　　上
  0
TEXT
  5
20B4
  8
AM_BOR
 62
     7
 10
3.1549997801784002
 20
15.650000185032219
 30
0.0
 40
1.0
  1
MATERIAL
 41
1.6000000000000001
  0
TEXT
  5
20B5
  8
AM_BOR
 62
     7
 10
1.729999708652826
 20
17.700000220795008
 30
0.0
 40
2.7999999999999989
  1
材　　質
  0
LINE
  5
20B6
  8
AM_BOR
 62
     4
 10
190.49999986839319
 20
28.000000173111289
 30
0.0
 11
190.49999986839319
 21
0.000000173111296
 31
0.0
  0
LINE
  5
20B7
  8
AM_BOR
 62
     4
 10
-0.0000001316067255
 20
28.000000173111289
 30
0.0
 11
-0.0000001316067255
 21
15.000000173111291
 31
0.0
  0
LINE
  5
20B8
  8
AM_BOR
 62
     4
 10
-0.0000001316067255
 20
21.500000173111289
 30
0.0
 11
190.49999986839319
 21
21.500000173111289
 31
0.0
  0
LINE
  5
20B9
  8
AM_BOR
 62
     4
 10
15.999999868393269
 20
28.000000173111289
 30
0.0
 11
15.999999868393269
 21
15.000000173111291
 31
0.0
  0
TEXT
  5
20BA
  8
AM_BOR
 62
     7
 10
98.104999768257457
 20
22.150000185032219
 30
0.0
 40
1.0
  1
ART. NO.
 41
1.6000000000000001
  0
TEXT
  5
20BB
  8
AM_BOR
 62
     7
 10
96.979999708652684
 20
24.200000220795008
 30
0.0
 40
2.7999999999999989
  1
品　　番
  0
TEXT
  5
20BC
  8
AM_BOR
 62
     7
 10
3.1549997801784002
 20
22.150000185032219
 30
0.0
 40
1.0
  1
ARTICLE
 41
1.6000000000000001
  0
TEXT
  5
20BD
  8
AM_BOR
 62
     7
 10
1.7299997086527119
 20
24.200000220795008
 30
0.0
 40
2.7999999999999989
  1
品　　名
  0
LINE
  5
20BE
  8
AM_BOR
 62
     4
 10
-0.0000001316067255
 20
15.000000173111291
 30
0.0
 11
-0.0000001316067255
 21
0.0000001731112924
 31
0.0
  0
LINE
  5
20BF
  8
AM_BOR
 62
     4
 10
95.249999868393246
 20
28.000000173111289
 30
0.0
 11
95.249999868393246
 21
0.000000173111296
 31
0.0
  0
TEXT
  5
20C0
  8
AM_BOR
 62
     7
 10
3.1549997801784002
 20
9.1500001850322192
 30
0.0
 40
1.0
  1
REMARKS
 41
1.6000000000000001
  0
TEXT
  5
20C1
  8
AM_BOR
 62
     7
 10
1.7299997086527119
 20
11.20000022079501
 30
0.0
 40
2.7999999999999989
  1
備　　考
  0
LINE
  5
20C2
  8
AM_BOR
 62
     4
 10
111.2499998683932
 20
28.000000173111289
 30
0.0
 11
111.2499998683932
 21
0.000000173111296
 31
0.0
  0
LINE
  5
20C3
  8
AM_BOR
 62
     4
 10
-0.0000001316067255
 20
0.000000173111296
 30
0.0
 11
276.49999986839327
 21
0.000000173111296
 31
0.0
  0
TEXT
  5
20C4
  8
AM_BOR
 62
     7
 10
98.404999780178386
 20
9.1500001850322157
 30
0.0
 40
1.0
  1
SETS
 41
1.6000000000000001
  0
TEXT
  5
20C5
  8
AM_BOR
 62
     7
 10
96.979999708652684
 20
11.20000022079501
 30
0.0
 40
2.7999999999999989
  1
セット品
  0
ATTDEF
  5
20C6
  8
AM_BOR
 62
     7
 10
114.3107095753831
 20
0.5000001731112853
 30
0.0
 40
3.0
  1

 11
114.3107095753831
 21
2.0000001731112849
 31
0.0
  3
セット
  2
SETS｛20｝
 70
     0
 74
     2
1001
ACADANNOTATIVE
1000
AnnotativeData
1002
{
1070
     1
1070
     0
1002
}
1001
ACDBATTR
1070
     0
1070
     1
  0
ATTDEF
  5
20CA
  8
AM_BOR
 62
     7
 10
19.060709575383161
 20
0.5000001731112889
 30
0.0
 40
3.0
  1

 11
19.060709575383161
 21
2.000000173111288
 31
0.0
  3
備　　考
  2
REMARKS｛20｝
 70
     0
 74
     2
1001
ACADANNOTATIVE
1000
AnnotativeData
1002
{
1070
     1
1070
     0
1002
}
1001
ACDBATTR
1070
     0
1070
     1
  0
ATTDEF
  5
20CE
  8
AM_BOR
 62
     7
 10
114.3107095753831
 20
5.5000001731112853
 30
0.0
 40
3.0
  1

 11
114.3107095753831
 21
7.0000001731112853
 31
0.0
  3
セット
  2
SETS｛20｝
 70
     0
 74
     2
1001
ACADANNOTATIVE
1000
AnnotativeData
1002
{
1070
     1
1070
     0
1002
}
1001
ACDBATTR
1070
     0
1070
     1
  0
ATTDEF
  5
20D2
  8
AM_BOR
 62
     7
 10
19.060709575383161
 20
5.500000173111288
 30
0.0
 40
3.0
  1

 11
19.060709575383161
 21
7.000000173111288
 31
0.0
  3
備　　考
  2
REMARKS｛20｝
 70
     0
 74
     2
1001
ACADANNOTATIVE
1000
AnnotativeData
1002
{
1070
     1
1070
     0
1002
}
1001
ACDBATTR
1070
     0
1070
     1
  0
ATTDEF
  5
20D6
  8
AM_BOR
 62
     7
 10
114.3107095753831
 20
10.50000017311128
 30
0.0
 40
3.0
  1

 11
114.3107095753831
 21
12.00000017311128
 31
0.0
  3
セット
  2
SETS｛20｝
 70
     0
 74
     2
1001
ACADANNOTATIVE
1000
AnnotativeData
1002
{
1070
     1
1070
     0
1002
}
1001
ACDBATTR
1070
     0
1070
     1
  0
ATTDEF
  5
20DA
  8
AM_BOR
 62
     7
 10
19.060709575383161
 20
10.500000173111291
 30
0.0
 40
3.0
  1

 11
19.060709575383161
 21
12.000000173111291
 31
0.0
  3
備　　考
  2
REMARKS｛20｝
 70
     0
 74
     2
1001
ACADANNOTATIVE
1000
AnnotativeData
1002
{
1070
     1
1070
     0
1002
}
1001
ACDBATTR
1070
     0
1070
     1
  0
ATTDEF
  5
20DE
  8
AM_BOR
 62
     7
 10
114.2499998683932
 20
23.500000173111289
 30
0.0
 40
3.0
  1

 11
114.2499998683932
 21
25.000000173111289
 31
0.0
  3
品    番
  2
ART_NO｛20｝
 70
     0
 74
     2
1001
ACADANNOTATIVE
1000
AnnotativeData
1002
{
1070
     1
1070
     0
1002
}
1001
ACDBATTR
1070
     0
1070
     1
  0
ATTDEF
  5
20E2
  8
AM_BOR
 62
     7
 10
18.999999868393271
 20
23.500000173111289
 30
0.0
 40
3.0
  1

 11
18.999999868393271
 21
25.000000173111289
 31
0.0
  3
品    名
  2
ARTICLE｛20｝
 70
     0
 74
     2
1001
ACADANNOTATIVE
1000
AnnotativeData
1002
{
1070
     1
1070
     0
1002
}
1001
ACDBATTR
1070
     0
1070
     1
  0
ATTDEF
  5
20E6
  8
AM_BOR
 62
     7
 10
114.2499998683932
 20
17.000000173111289
 30
0.0
 40
3.0
  1

 11
114.2499998683932
 21
18.500000173111289
 31
0.0
  3
仕上
  2
FINISH｛20｝
 70
     0
 74
     2
1001
ACADANNOTATIVE
1000
AnnotativeData
1002
{
1070
     1
1070
     0
1002
}
1001
ACDBATTR
1070
     0
1070
     1
  0
ATTDEF
  5
20EA
  8
AM_BOR
 62
     7
 10
18.999999868393271
 20
17.000000173111289
 30
0.0
 40
3.0
  1

 11
18.999999868393271
 21
18.500000173111289
 31
0.0
  3
材　　質
  2
MATERIAK｛20｝
 70
     0
 74
     2
1001
ACADANNOTATIVE
1000
AnnotativeData
1002
{
1070
     1
1070
     0
1002
}
1001
ACDBATTR
1070
     0
1070
     1
  0
ENDBLK
  5
20F1
  8
0
  0
BLOCK
  8
0
  2
*D37
 70
     1
 10
0.0
 20
0.0
 30
0.0
  3
*D37
  1

  0
LINE
  5
3730
  8
寸法線
 62
     0
 10
31.69888800822957
 20
62.533964828654348
 30
0.0
 11
18.530347521969681
 21
62.533964828654348
 31
0.0
  0
LINE
  5
3731
  8
寸法線
 62
     0
 10
41.198888008229567
 20
152.53396482865429
 30
0.0
 11
18.530347521969698
 21
152.53396482865429
 31
0.0
  0
LINE
  5
3732
  8
寸法線
 62
     0
 10
19.780347521969681
 20
65.033964828654348
 30
0.0
 11
19.780347521969691
 21
104.78539439127471
 31
0.0
  0
LINE
  5
3733
  8
寸法線
 62
     0
 10
19.780347521969698
 20
150.03396482865429
 30
0.0
 11
19.780347521969691
 21
110.0830134388937
 31
0.0
  0
TEXT
  8
寸法線
  40
2.5
  5
37E2
  62
0
  72
0
  71
0
 10
14.7803
 20
103.009
 30
0.000000
  1
90
  0
SOLID
  5
3735
  8
寸法線
 62
     0
 10
19.363680855303009
 20
65.033964828654348
 30
0.0
 11
20.197014188636349
 21
65.033964828654348
 31
0.0
 12
19.780347521969681
 22
62.533964828654348
 32
0.0
 13
19.780347521969681
 23
62.533964828654348
 33
0.0
  0
SOLID
  5
3736
  8
寸法線
 62
     0
 10
19.363680855303031
 20
150.03396482865429
 30
0.0
 11
20.19701418863637
 21
150.03396482865429
 31
0.0
 12
19.780347521969698
 22
152.53396482865429
 32
0.0
 13
19.780347521969698
 23
152.53396482865429
 33
0.0
  0
POINT
  5
3737
  8
DEFPOINTS
 62
     0
 10
32.323888008229567
 20
62.533964828654348
 30
0.0
  0
POINT
  5
3738
  8
DEFPOINTS
 62
     0
 10
41.823888008229567
 20
152.53396482865429
 30
0.0
  0
POINT
  5
3739
  8
DEFPOINTS
 62
     0
 10
19.780347521969698
 20
152.53396482865429
 30
0.0
  0
ENDBLK
  5
3480
  8
0
  0
BLOCK
  8
0
  2
*D38
 70
     1
 10
0.0
 20
0.0
 30
0.0
  3
*D38
  1

  0
LINE
  5
373A
  8
寸法線
 62
     0
 10
34.948888008229581
 20
118.0339648286547
 30
0.0
 11
26.212665710789331
 21
118.0339648286547
 31
0.0
  0
LINE
  5
373B
  8
寸法線
 62
     0
 10
34.948888008229581
 20
143.0339648286548
 30
0.0
 11
26.212665710789341
 21
143.0339648286548
 31
0.0
  0
LINE
  5
373C
  8
寸法線
 62
     0
 10
27.462665710789341
 20
120.5339648286547
 30
0.0
 11
27.462665710789341
 21
140.5339648286548
 31
0.0
  0
SOLID
  5
373D
  8
寸法線
 62
     0
 10
27.04599904412267
 20
120.5339648286547
 30
0.0
 11
27.879332377455999
 21
120.5339648286547
 31
0.0
 12
27.462665710789331
 22
118.0339648286547
 32
0.0
 13
27.462665710789331
 23
118.0339648286547
 33
0.0
  0
SOLID
  5
373E
  8
寸法線
 62
     0
 10
27.04599904412267
 20
140.5339648286548
 30
0.0
 11
27.879332377456009
 21
140.5339648286548
 31
0.0
 12
27.462665710789341
 22
143.0339648286548
 32
0.0
 13
27.462665710789341
 23
143.0339648286548
 33
0.0
  0
TEXT
  8
寸法線
  40
2.5
  5
37E3
  62
0
  72
0
  71
0
 10
20.5877
 20
126.109
 30
0.000000
  1
25
  0
POINT
  5
3740
  8
DEFPOINTS
 62
     0
 10
35.573888008229581
 20
118.0339648286547
 30
0.0
  0
POINT
  5
3741
  8
DEFPOINTS
 62
     0
 10
35.573888008229581
 20
143.0339648286548
 30
0.0
  0
POINT
  5
3742
  8
DEFPOINTS
 62
     0
 10
27.462665710789341
 20
143.0339648286548
 30
0.0
  0
ENDBLK
  5
348D
  8
0
  0
BLOCK
  8
0
  2
*D39
 70
     1
 10
0.0
 20
0.0
 30
0.0
  3
*D39
  1

  0
LINE
  5
3743
  8
寸法線
 62
     0
 10
31.698888008230028
 20
143.0339648286548
 30
0.0
 11
26.212665710789341
 21
143.0339648286548
 31
0.0
  0
LINE
  5
3744
  8
寸法線
 62
     0
 10
31.69888800822957
 20
152.53396482865429
 30
0.0
 11
26.212665710789341
 21
152.53396482865429
 31
0.0
  0
LINE
  5
3745
  8
寸法線
 62
     0
 10
27.462665710789341
 20
145.5339648286548
 30
0.0
 11
27.462665710789341
 21
150.03396482865429
 31
0.0
  0
SOLID
  5
3746
  8
寸法線
 62
     0
 10
27.04599904412267
 20
145.5339648286548
 30
0.0
 11
27.879332377455999
 21
145.5339648286548
 31
0.0
 12
27.462665710789341
 22
143.0339648286548
 32
0.0
 13
27.462665710789341
 23
143.0339648286548
 33
0.0
  0
SOLID
  5
3747
  8
寸法線
 62
     0
 10
27.04599904412267
 20
150.03396482865429
 30
0.0
 11
27.879332377455999
 21
150.03396482865429
 31
0.0
 12
27.462665710789341
 22
152.53396482865429
 32
0.0
 13
27.462665710789341
 23
152.53396482865429
 33
0.0
  0
TEXT
  8
寸法線
  40
2.5
  5
37E4
  62
0
  72
0
  71
0
 10
20.5877
 20
143.359
 30
0.000000
  1
9.5
  0
POINT
  5
3749
  8
DEFPOINTS
 62
     0
 10
32.323888008230028
 20
143.0339648286548
 30
0.0
  0
POINT
  5
374A
  8
DEFPOINTS
 62
     0
 10
32.323888008229567
 20
152.53396482865429
 30
0.0
  0
POINT
  5
374B
  8
DEFPOINTS
 62
     0
 10
27.462665710789341
 20
152.53396482865429
 30
0.0
  0
ENDBLK
  5
3499
  8
0
  0
BLOCK
  8
0
  2
*D40
 70
     1
 10
0.0
 20
0.0
 30
0.0
  3
*D40
  1

  0
LINE
  5
374C
  8
寸法線
 62
     0
 10
32.323888008229567
 20
143.6589648286548
 30
0.0
 11
32.323888008229567
 21
161.098356962775
 31
0.0
  0
LINE
  5
374D
  8
寸法線
 62
     0
 10
51.323888008229567
 20
143.65896482865469
 30
0.0
 11
51.323888008229567
 21
161.098356962775
 31
0.0
  0
LINE
  5
374E
  8
寸法線
 62
     0
 10
34.823888008229567
 20
159.848356962775
 30
0.0
 11
48.823888008229567
 21
159.848356962775
 31
0.0
  0
SOLID
  5
374F
  8
寸法線
 62
     0
 10
34.823888008229567
 20
160.26502362944171
 30
0.0
 11
34.823888008229567
 21
159.43169029610829
 31
0.0
 12
32.323888008229567
 22
159.848356962775
 32
0.0
 13
32.323888008229567
 23
159.848356962775
 33
0.0
  0
SOLID
  5
3750
  8
寸法線
 62
     0
 10
48.823888008229567
 20
160.26502362944171
 30
0.0
 11
48.823888008229567
 21
159.43169029610829
 31
0.0
 12
51.323888008229567
 22
159.848356962775
 32
0.0
 13
51.323888008229567
 23
159.848356962775
 33
0.0
  0
TEXT
  8
寸法線
  40
2.5
  5
37E5
  62
0
  72
0
  71
0
 10
36.8239
 20
157.298
 30
0.000000
  1
19
  0
POINT
  5
3752
  8
DEFPOINTS
 62
     0
 10
32.323888008229567
 20
143.0339648286548
 30
0.0
  0
POINT
  5
3753
  8
DEFPOINTS
 62
     0
 10
51.323888008229567
 20
143.03396482865469
 30
0.0
  0
POINT
  5
3754
  8
DEFPOINTS
 62
     0
 10
51.323888008229567
 20
159.848356962775
 30
0.0
  0
ENDBLK
  5
34A5
  8
0
  0
BLOCK
  8
0
  2
*D41
 70
     1
 10
0.0
 20
0.0
 30
0.0
  3
*D41
  1

  0
LINE
  5
3755
  8
寸法線
 62
     0
 10
71.883212971879971
 20
107.53396482865431
 30
0.0
 11
65.622519781182632
 21
107.53396482865431
 31
0.0
  0
LINE
  5
3756
  8
寸法線
 62
     0
 10
74.366784271780148
 20
152.53396482865429
 30
0.0
 11
65.622519781182632
 21
152.53396482865429
 31
0.0
  0
LINE
  5
3757
  8
寸法線
 62
     0
 10
66.872519781182632
 20
110.03396482865431
 30
0.0
 11
66.872519781182632
 21
127.60219334397991
 31
0.0
  0
LINE
  5
3758
  8
寸法線
 62
     0
 10
66.872519781182632
 20
150.03396482865429
 30
0.0
 11
66.872519781182632
 21
132.89981239159891
 31
0.0
  0
TEXT
  8
寸法線
  40
2.5
  5
37E6
  62
0
  72
0
  71
0
 10
61.8725
 20
125.826
 30
0.000000
  1
45
  0
SOLID
  5
375A
  8
寸法線
 62
     0
 10
66.455853114515961
 20
110.03396482865431
 30
0.0
 11
67.289186447849303
 21
110.03396482865431
 31
0.0
 12
66.872519781182632
 22
107.53396482865431
 32
0.0
 13
66.872519781182632
 23
107.53396482865431
 33
0.0
  0
SOLID
  5
375B
  8
寸法線
 62
     0
 10
66.455853114515961
 20
150.03396482865429
 30
0.0
 11
67.289186447849303
 21
150.03396482865429
 31
0.0
 12
66.872519781182632
 22
152.53396482865429
 32
0.0
 13
66.872519781182632
 23
152.53396482865429
 33
0.0
  0
POINT
  5
375C
  8
DEFPOINTS
 62
     0
 10
72.508212971879971
 20
107.53396482865431
 30
0.0
  0
POINT
  5
375D
  8
DEFPOINTS
 62
     0
 10
74.991784271780148
 20
152.53396482865429
 30
0.0
  0
POINT
  5
375E
  8
DEFPOINTS
 62
     0
 10
66.872519781182632
 20
152.53396482865429
 30
0.0
  0
ENDBLK
  5
34B1
  8
0
  0
BLOCK
  8
0
  2
*D42
 70
     1
 10
0.0
 20
0.0
 30
0.0
  3
*D42
  1

  0
LINE
  5
375F
  8
寸法線
 62
     0
 10
74.991784271780148
 20
157.9023145794319
 30
0.0
 11
74.991784271780148
 21
169.98583065952471
 31
0.0
  0
LINE
  5
3760
  8
寸法線
 62
     0
 10
224.9917842717802
 20
95.158964828654007
 30
0.0
 11
224.9917842717802
 21
169.98583065952471
 31
0.0
  0
LINE
  5
3761
  8
寸法線
 62
     0
 10
77.491784271780148
 20
168.73583065952471
 30
0.0
 11
222.49178427178009
 21
168.73583065952471
 31
0.0
  0
SOLID
  5
3762
  8
寸法線
 62
     0
 10
77.491784271780148
 20
169.15249732619131
 30
0.0
 11
77.491784271780148
 21
168.31916399285799
 31
0.0
 12
74.991784271780148
 22
168.73583065952471
 32
0.0
 13
74.991784271780148
 23
168.73583065952471
 33
0.0
  0
SOLID
  5
3763
  8
寸法線
 62
     0
 10
222.49178427178009
 20
169.15249732619131
 30
0.0
 11
222.49178427178009
 21
168.31916399285799
 31
0.0
 12
224.9917842717802
 22
168.73583065952471
 32
0.0
 13
224.9917842717802
 23
168.73583065952471
 33
0.0
  0
TEXT
  8
寸法線
  40
2.5
  5
37E7
  62
0
  72
0
  71
0
 10
144.992
 20
166.186
 30
0.000000
  1
150
  0
POINT
  5
3765
  8
DEFPOINTS
 62
     0
 10
74.991784271780148
 20
157.2773145794319
 30
0.0
  0
POINT
  5
3766
  8
DEFPOINTS
 62
     0
 10
224.9917842717802
 20
94.533964828654007
 30
0.0
  0
POINT
  5
3767
  8
DEFPOINTS
 62
     0
 10
224.9917842717802
 20
168.73583065952471
 30
0.0
  0
ENDBLK
  5
34BE
  8
0
  0
BLOCK
  8
0
  2
*D43
 70
     1
 10
0.0
 20
0.0
 30
0.0
  3
*D43
  1

  0
LINE
  5
3768
  8
寸法線
 62
     0
 10
204.99178427177921
 20
104.65896482865421
 30
0.0
 11
204.99178427177921
 21
123.0717328226801
 31
0.0
  0
LINE
  5
3769
  8
寸法線
 62
     0
 10
224.9917842717802
 20
104.65896482865421
 30
0.0
 11
224.9917842717802
 21
123.0717328226801
 31
0.0
  0
LINE
  5
376A
  8
寸法線
 62
     0
 10
207.4917842717793
 20
121.8217328226801
 30
0.0
 11
222.49178427178009
 21
121.8217328226801
 31
0.0
  0
SOLID
  5
376B
  8
寸法線
 62
     0
 10
207.4917842717793
 20
122.2383994893468
 30
0.0
 11
207.4917842717793
 21
121.4050661560134
 31
0.0
 12
204.99178427177921
 22
121.8217328226801
 32
0.0
 13
204.99178427177921
 23
121.8217328226801
 33
0.0
  0
SOLID
  5
376C
  8
寸法線
 62
     0
 10
222.49178427178009
 20
122.2383994893468
 30
0.0
 11
222.49178427178009
 21
121.4050661560134
 31
0.0
 12
224.9917842717802
 22
121.8217328226801
 32
0.0
 13
224.9917842717802
 23
121.8217328226801
 33
0.0
  0
TEXT
  8
寸法線
  40
2.5
  5
37E8
  62
0
  72
0
  71
0
 10
209.992
 20
119.272
 30
0.000000
  1
20
  0
POINT
  5
376E
  8
DEFPOINTS
 62
     0
 10
204.99178427177921
 20
104.03396482865421
 30
0.0
  0
POINT
  5
376F
  8
DEFPOINTS
 62
     0
 10
224.9917842717802
 20
104.03396482865421
 30
0.0
  0
POINT
  5
3770
  8
DEFPOINTS
 62
     0
 10
224.9917842717802
 20
121.8217328226801
 30
0.0
  0
ENDBLK
  5
34CA
  8
0
  0
BLOCK
  8
0
  2
*D44
 70
     1
 10
0.0
 20
0.0
 30
0.0
  3
*D44
  1

  0
LINE
  5
3771
  8
寸法線
 62
     0
 10
146.67388972044691
 20
82.533964828654348
 30
0.0
 11
147.3196940796787
 21
82.533964828654348
 31
0.0
  0
LINE
  5
3772
  8
寸法線
 62
     0
 10
146.67388972044691
 20
107.53396482865431
 30
0.0
 11
147.3196940796787
 21
107.53396482865431
 31
0.0
  0
LINE
  5
3773
  8
寸法線
 62
     0
 10
146.0696940796787
 20
85.033964828654348
 30
0.0
 11
146.0696940796787
 21
92.632970154791323
 31
0.0
  0
LINE
  5
3774
  8
寸法線
 62
     0
 10
146.0696940796787
 20
105.03396482865431
 30
0.0
 11
146.0696940796787
 21
97.930589202410374
 31
0.0
  0
TEXT
  8
寸法線
  40
2.5
  5
37E9
  62
0
  72
0
  71
0
 10
141.070
 20
90.8568
 30
0.000000
  1
25
  0
SOLID
  5
3776
  8
寸法線
 62
     0
 10
145.65302741301201
 20
85.033964828654348
 30
0.0
 11
146.4863607463453
 21
85.033964828654348
 31
0.0
 12
146.0696940796787
 22
82.533964828654348
 32
0.0
 13
146.0696940796787
 23
82.533964828654348
 33
0.0
  0
SOLID
  5
3777
  8
寸法線
 62
     0
 10
145.65302741301201
 20
105.03396482865431
 30
0.0
 11
146.4863607463453
 21
105.03396482865431
 31
0.0
 12
146.0696940796787
 22
107.53396482865431
 32
0.0
 13
146.0696940796787
 23
107.53396482865431
 33
0.0
  0
POINT
  5
3778
  8
DEFPOINTS
 62
     0
 10
146.04888972044691
 20
82.533964828654348
 30
0.0
  0
POINT
  5
3779
  8
DEFPOINTS
 62
     0
 10
146.04888972044691
 20
107.53396482865431
 30
0.0
  0
POINT
  5
377A
  8
DEFPOINTS
 62
     0
 10
146.0696940796787
 20
107.53396482865431
 30
0.0
  0
ENDBLK
  5
34D6
  8
0
  0
BLOCK
  8
0
  2
*D45
 70
     1
 10
0.0
 20
0.0
 30
0.0
  3
*D45
  1

  0
LINE
  5
377B
  8
寸法線
 62
     0
 10
161.36678427178009
 20
62.533964828654348
 30
0.0
 11
65.649641671979552
 21
62.533964828654369
 31
0.0
  0
LINE
  5
377C
  8
寸法線
 62
     0
 10
79.366784271780148
 20
107.53396482865431
 30
0.0
 11
65.649641671979566
 21
107.53396482865431
 31
0.0
  0
LINE
  5
377D
  8
寸法線
 62
     0
 10
66.899641671979552
 20
65.033964828654376
 30
0.0
 11
66.899641671979552
 21
83.121533748272427
 31
0.0
  0
LINE
  5
377E
  8
寸法線
 62
     0
 10
66.899641671979566
 20
105.03396482865431
 30
0.0
 11
66.899641671979552
 21
88.419152795891463
 31
0.0
  0
TEXT
  8
寸法線
  40
2.5
  5
37EA
  62
0
  72
0
  71
0
 10
61.8996
 20
81.3453
 30
0.000000
  1
45
  0
SOLID
  5
3780
  8
寸法線
 62
     0
 10
66.482975005312881
 20
65.033964828654376
 30
0.0
 11
67.316308338646223
 21
65.033964828654376
 31
0.0
 12
66.899641671979552
 22
62.533964828654369
 32
0.0
 13
66.899641671979552
 23
62.533964828654369
 33
0.0
  0
SOLID
  5
3781
  8
寸法線
 62
     0
 10
66.482975005312895
 20
105.03396482865431
 30
0.0
 11
67.316308338646238
 21
105.03396482865431
 31
0.0
 12
66.899641671979566
 22
107.53396482865431
 32
0.0
 13
66.899641671979566
 23
107.53396482865431
 33
0.0
  0
POINT
  5
3782
  8
DEFPOINTS
 62
     0
 10
161.99178427178009
 20
62.533964828654348
 30
0.0
  0
POINT
  5
3783
  8
DEFPOINTS
 62
     0
 10
79.991784271780148
 20
107.53396482865431
 30
0.0
  0
POINT
  5
3784
  8
DEFPOINTS
 62
     0
 10
66.899641671979566
 20
107.53396482865431
 30
0.0
  0
ENDBLK
  5
34E3
  8
0
  0
BLOCK
  8
0
  2
*D46
 70
     1
 10
0.0
 20
0.0
 30
0.0
  3
*D46
  1

  0
LINE
  5
3785
  8
寸法線
 62
     0
 10
183.86678427178009
 20
62.533964828654348
 30
0.0
 11
144.79888972044711
 21
62.533964828654362
 31
0.0
  0
LINE
  5
3786
  8
寸法線
 62
     0
 10
163.99021059795501
 20
82.533964828654348
 30
0.0
 11
144.79888972044711
 21
82.533964828654362
 31
0.0
  0
LINE
  5
3787
  8
寸法線
 62
     0
 10
146.04888972044711
 20
65.033964828654362
 30
0.0
 11
146.04888972044711
 21
70.308991362160882
 31
0.0
  0
LINE
  5
3788
  8
寸法線
 62
     0
 10
146.04888972044711
 20
80.033964828654362
 30
0.0
 11
146.04888972044711
 21
75.606610409779918
 31
0.0
  0
TEXT
  8
寸法線
  40
2.5
  5
37EB
  62
0
  72
0
  71
0
 10
141.049
 20
68.5328
 30
0.000000
  1
20
  0
SOLID
  5
378A
  8
寸法線
 62
     0
 10
145.63222305378051
 20
65.033964828654362
 30
0.0
 11
146.46555638711379
 21
65.033964828654362
 31
0.0
 12
146.04888972044711
 22
62.533964828654362
 32
0.0
 13
146.04888972044711
 23
62.533964828654362
 33
0.0
  0
SOLID
  5
378B
  8
寸法線
 62
     0
 10
145.63222305378051
 20
80.033964828654362
 30
0.0
 11
146.46555638711379
 21
80.033964828654362
 31
0.0
 12
146.04888972044711
 22
82.533964828654362
 32
0.0
 13
146.04888972044711
 23
82.533964828654362
 33
0.0
  0
POINT
  5
378C
  8
DEFPOINTS
 62
     0
 10
184.49178427178009
 20
62.533964828654348
 30
0.0
  0
POINT
  5
378D
  8
DEFPOINTS
 62
     0
 10
164.6152105979551
 20
82.533964828654348
 30
0.0
  0
POINT
  5
378E
  8
DEFPOINTS
 62
     0
 10
146.04888972044711
 20
82.533964828654362
 30
0.0
  0
ENDBLK
  5
34F0
  8
0
  0
BLOCK
  8
0
  2
*D47
 70
     1
 10
0.0
 20
0.0
 30
0.0
  3
*D47
  1

  0
LINE
  5
378F
  8
寸法線
 62
     0
 10
198.8228095315624
 20
69.083276135849516
 30
0.0
 11
200.61418768903499
 21
67.339440049249006
 31
0.0
  0
TEXT
  8
寸法線
  40
2.5
  5
37EC
  62
0
  72
0
  71
0
 10
184.717
 20
73.5228
 30
0.000000
  1
R17.5
  0
LINE
  5
3791
  8
寸法線
 62
     0
 10
184.49178427178131
 20
83.033964828654135
 30
0.0
 11
197.03143137408981
 21
70.827112222450026
 31
0.0
  0
SOLID
  5
3792
  8
寸法線
 62
     0
 10
199.11344887932921
 20
69.381839162094948
 30
0.0
 11
198.5321701837957
 21
68.784713109604112
 31
0.0
 12
197.03143137408981
 22
70.827112222450026
 32
0.0
 13
197.03143137408981
 23
70.827112222450026
 33
0.0
  0
POINT
  5
3793
  8
DEFPOINTS
 62
     0
 10
197.03143137408981
 20
70.827112222450026
 30
0.0
  0
POINT
  5
3794
  8
DEFPOINTS
 62
     0
 10
184.49178427178131
 20
83.033964828654135
 30
0.0
  0
ENDBLK
  5
34FD
  8
0
  0
BLOCK
  8
0
  2
*D48
 70
     1
 10
0.0
 20
0.0
 30
0.0
  3
*D48
  1

  0
LINE
  5
3795
  8
寸法線
 62
     0
 10
161.99178427178009
 20
80.453204695204036
 30
0.0
 11
161.99178427178009
 21
54.314288162318
 31
0.0
  0
LINE
  5
3796
  8
寸法線
 62
     0
 10
204.99178427178009
 20
82.408964828654348
 30
0.0
 11
204.99178427178009
 21
54.314288162318
 31
0.0
  0
LINE
  5
3797
  8
寸法線
 62
     0
 10
164.49178427178009
 20
55.564288162318
 30
0.0
 11
202.4917842717802
 21
55.564288162318
 31
0.0
  0
SOLID
  5
3798
  8
寸法線
 62
     0
 10
164.49178427178009
 20
55.980954828984672
 30
0.0
 11
164.49178427178009
 21
55.147621495651343
 31
0.0
 12
161.99178427178009
 22
55.564288162318
 32
0.0
 13
161.99178427178009
 23
55.564288162318
 33
0.0
  0
SOLID
  5
3799
  8
寸法線
 62
     0
 10
202.4917842717802
 20
55.980954828984672
 30
0.0
 11
202.4917842717802
 21
55.147621495651343
 31
0.0
 12
204.99178427178009
 22
55.564288162318
 32
0.0
 13
204.99178427178009
 23
55.564288162318
 33
0.0
  0
TEXT
  8
寸法線
  40
2.5
  5
37ED
  62
0
  72
0
  71
0
 10
178.492
 20
53.0143
 30
0.000000
  1
43
  0
POINT
  5
379B
  8
DEFPOINTS
 62
     0
 10
161.99178427178009
 20
81.078204695204036
 30
0.0
  0
POINT
  5
379C
  8
DEFPOINTS
 62
     0
 10
204.99178427178009
 20
83.033964828654348
 30
0.0
  0
POINT
  5
379D
  8
DEFPOINTS
 62
     0
 10
204.99178427178009
 20
55.564288162318
 30
0.0
  0
ENDBLK
  5
3506
  8
0
  0
BLOCK
  8
0
  2
*D49
 70
     1
 10
0.0
 20
0.0
 30
0.0
  3
*D49
  1

  0
LINE
  5
379E
  8
寸法線
 62
     0
 10
215.991784271781
 20
94.533964828653865
 30
0.0
 11
220.51910461668459
 21
89.869913961155362
 31
0.0
  0
TEXT
  8
寸法線
  40
2.5
  5
37EE
  62
0
  72
0
  71
0
 10
222.629
 20
78.1200
 30
0.000000
  1
R9
  0
SOLID
  5
37A0
  8
寸法線
 62
     0
 10
220.81808223639601
 20
90.160126803777388
 30
0.0
 11
220.22012699697311
 21
89.579701118533308
 31
0.0
 12
222.26038167241691
 22
88.076048242886515
 32
0.0
 13
222.26038167241691
 23
88.076048242886515
 33
0.0
  0
POINT
  5
37A1
  8
DEFPOINTS
 62
     0
 10
222.26038167241691
 20
88.076048242886515
 30
0.0
  0
POINT
  5
37A2
  8
DEFPOINTS
 62
     0
 10
215.991784271781
 20
94.533964828653865
 30
0.0
  0
ENDBLK
  5
3512
  8
0
  0
BLOCK
  8
0
  2
*D50
 70
     1
 10
0.0
 20
0.0
 30
0.0
  3
*D50
  1

  0
LINE
  5
37A3
  8
寸法線
 62
     0
 10
227.6167842717806
 20
94.533964828654135
 30
0.0
 11
231.76420048835161
 21
94.533964828654135
 31
0.0
  0
LINE
  5
37A4
  8
寸法線
 62
     0
 10
200.61678427178009
 20
110.53396482865431
 30
0.0
 11
231.76420048835161
 21
110.53396482865431
 31
0.0
  0
LINE
  5
37A5
  8
寸法線
 62
     0
 10
230.51420048835149
 20
97.033964828654135
 30
0.0
 11
230.51420048835149
 21
108.03396482865431
 31
0.0
  0
SOLID
  5
37A6
  8
寸法線
 62
     0
 10
230.09753382168489
 20
97.033964828654135
 30
0.0
 11
230.93086715501821
 21
97.033964828654135
 31
0.0
 12
230.51420048835149
 22
94.533964828654135
 32
0.0
 13
230.51420048835149
 23
94.533964828654135
 33
0.0
  0
SOLID
  5
37A7
  8
寸法線
 62
     0
 10
230.09753382168489
 20
108.03396482865431
 30
0.0
 11
230.93086715501821
 21
108.03396482865431
 31
0.0
 12
230.51420048835149
 22
110.53396482865431
 32
0.0
 13
230.51420048835149
 23
110.53396482865431
 33
0.0
  0
TEXT
  8
寸法線
  40
2.5
  5
37EF
  62
0
  72
0
  71
0
 10
223.639
 20
98.1090
 30
0.000000
  1
16
  0
POINT
  5
37A9
  8
DEFPOINTS
 62
     0
 10
226.9917842717806
 20
94.533964828654135
 30
0.0
  0
POINT
  5
37AA
  8
DEFPOINTS
 62
     0
 10
199.99178427178009
 20
110.53396482865431
 30
0.0
  0
POINT
  5
37AB
  8
DEFPOINTS
 62
     0
 10
230.51420048835149
 20
110.53396482865431
 30
0.0
  0
ENDBLK
  5
351A
  8
0
  0
BLOCK
  8
0
  2
*D51
 70
     1
 10
0.0
 20
0.0
 30
0.0
  3
*D51
  1

  0
LINE
  5
37C4
  8
寸法線
 62
     0
 10
245.8135306190361
 20
90.634076546562568
 30
0.0
 11
257.4395138268697
 21
98.433853110744977
 31
0.0
  0
TEXT
  8
寸法線
  40
2.5
  5
37F0
  62
0
  72
0
  71
0
 10
263.150
 20
101.194
 30
0.000000
  1
?19
  0
SOLID
  5
37C6
  8
寸法線
 62
     0
 10
245.5813944117688
 20
90.980087951557607
 30
0.0
 11
246.0456668263034
 21
90.288065141567529
 31
0.0
 12
243.73746218906581
 22
89.241259302958582
 32
0.0
 13
243.73746218906581
 23
89.241259302958582
 33
0.0
  0
SOLID
  5
37C7
  8
寸法線
 62
     0
 10
257.20737761960243
 20
98.779864515740016
 30
0.0
 11
257.67165003413697
 21
98.087841705749923
 31
0.0
 12
259.51558225683999
 22
99.826670354348977
 32
0.0
 13
259.51558225683999
 23
99.826670354348977
 33
0.0
  0
POINT
  5
37C8
  8
DEFPOINTS
 62
     0
 10
259.51558225683999
 20
99.826670354348977
 30
0.0
  0
POINT
  5
37C9
  8
DEFPOINTS
 62
     0
 10
243.73746218906581
 20
89.241259302958582
 30
0.0
  0
ENDBLK
  5
3526
  8
0
  0
BLOCK
  8
0
  2
*D52
 70
     1
 10
0.0
 20
0.0
 30
0.0
  3
*D52
  1

  0
LINE
  5
37CA
  8
寸法線
 62
     0
 10
74.991784271780148
 20
153.15896482865429
 30
0.0
 11
74.991784271780148
 21
161.39566433020951
 31
0.0
  0
LINE
  5
37CB
  8
寸法線
 62
     0
 10
77.991784271780148
 20
153.15896482865429
 30
0.0
 11
77.991784271780148
 21
161.39566433020951
 31
0.0
  0
LINE
  5
37CC
  8
寸法線
 62
     0
 10
72.491784271780148
 20
160.14566433020951
 30
0.0
 11
69.991784271780148
 21
160.14566433020951
 31
0.0
  0
LINE
  5
37CD
  8
寸法線
 62
     0
 10
80.491784271780148
 20
160.14566433020951
 30
0.0
 11
82.991784271780148
 21
160.14566433020951
 31
0.0
  0
TEXT
  8
寸法線
  40
2.5
  5
37F1
  62
0
  72
0
  71
0
 10
71.4918
 20
155.721
 30
0.000000
  1
3
  0
LINE
  5
37CF
  8
寸法線
 62
     0
 10
74.991784271780148
 20
160.14566433020951
 30
0.0
 11
77.991784271780148
 21
160.14566433020951
 31
0.0
  0
SOLID
  5
37D0
  8
寸法線
 62
     0
 10
72.491784271780148
 20
160.5623309968762
 30
0.0
 11
72.491784271780148
 21
159.72899766354291
 31
0.0
 12
74.991784271780148
 22
160.14566433020951
 32
0.0
 13
74.991784271780148
 23
160.14566433020951
 33
0.0
  0
SOLID
  5
37D1
  8
寸法線
 62
     0
 10
80.491784271780148
 20
160.5623309968762
 30
0.0
 11
80.491784271780148
 21
159.72899766354291
 31
0.0
 12
77.991784271780148
 22
160.14566433020951
 32
0.0
 13
77.991784271780148
 23
160.14566433020951
 33
0.0
  0
POINT
  5
37D2
  8
DEFPOINTS
 62
     0
 10
74.991784271780148
 20
152.53396482865429
 30
0.0
  0
POINT
  5
37D3
  8
DEFPOINTS
 62
     0
 10
77.991784271780148
 20
152.53396482865429
 30
0.0
  0
POINT
  5
37D4
  8
DEFPOINTS
 62
     0
 10
77.991784271780148
 20
160.14566433020951
 30
0.0
  0
ENDBLK
  5
352F
  8
0
  0
BLOCK
  8
0
  2
*X54
 70
     1
 10
0.0
 20
0.0
 30
0.0
  3
*X54
  1

  0
LINE
  5
370C
  8
0
 62
     0
 10
238.2674816890337
 20
31.309885865501659
 30
0.0
 11
243.8809659796093
 21
36.923370156077233
 31
0.0
  0
LINE
  5
370D
  8
0
 62
     0
 10
234.9711755361468
 20
31.156669354988711
 30
0.0
 11
244.0341824901229
 21
40.219676308964829
 31
0.0
  0
LINE
  5
370E
  8
0
 62
     0
 10
244.0341824901229
 20
40.219676308964829
 30
0.0
 11
244.46155753937819
 21
40.647051358220089
 31
0.0
  0
LINE
  5
370F
  8
0
 62
     0
 10
234.5438004868908
 20
30.729294305732768
 30
0.0
 11
234.9711755361468
 21
31.156669354988711
 31
0.0
  0
LINE
  5
3710
  8
0
 62
     0
 10
234.9711755361468
 20
34.299758997362687
 30
0.0
 11
240.89109284774901
 21
40.219676308964829
 31
0.0
  0
LINE
  5
3711
  8
0
 62
     0
 10
240.89109284774901
 20
40.219676308964829
 30
0.0
 11
243.96136177935639
 21
43.289945240572237
 31
0.0
  0
LINE
  5
3712
  8
0
 62
     0
 10
231.9009066045387
 20
31.22949006575459
 30
0.0
 11
234.9711755361468
 21
34.299758997362687
 31
0.0
  0
LINE
  5
3713
  8
0
 62
     0
 10
234.9711755361466
 20
37.442848639736887
 30
0.0
 11
237.74800320537469
 21
40.219676308965063
 31
0.0
  0
LINE
  5
3714
  8
0
 62
     0
 10
237.74800320537469
 20
40.219676308965063
 30
0.0
 11
242.93205519599289
 21
45.403728299583229
 31
0.0
  0
LINE
  5
3715
  8
0
 62
     0
 10
229.78712354552769
 20
32.25879664911804
 30
0.0
 11
234.9711755361466
 21
37.442848639736887
 31
0.0
  0
LINE
  5
3716
  8
0
 62
     0
 10
234.60491356300051
 20
40.219676308965283
 30
0.0
 11
234.9711755361464
 21
40.585938282111101
 31
0.0
  0
LINE
  5
3717
  8
0
 62
     0
 10
234.9711755361464
 20
40.585938282111101
 30
0.0
 11
241.50306227417789
 21
47.117825020142611
 31
0.0
  0
LINE
  5
3718
  8
0
 62
     0
 10
228.07302682496831
 20
33.687789570933091
 30
0.0
 11
234.60491356300051
 21
40.219676308965283
 31
0.0
  0
LINE
  5
3719
  8
0
 62
     0
 10
231.4618239206261
 20
40.219676308964829
 30
0.0
 11
234.9711755361464
 21
43.729027924485081
 31
0.0
  0
LINE
  5
371A
  8
0
 62
     0
 10
234.9711755361468
 20
43.729027924485528
 30
0.0
 11
239.70079713131759
 21
48.458649519656319
 31
0.0
  0
LINE
  5
371B
  8
0
 62
     0
 10
226.73220232545461
 20
35.49005471379337
 30
0.0
 11
231.4618239206261
 21
40.219676308964829
 31
0.0
  0
LINE
  5
371C
  8
0
 62
     0
 10
228.31873427825209
 20
40.219676308964829
 30
0.0
 11
234.9711755361468
 21
46.872117566859508
 31
0.0
  0
LINE
  5
371D
  8
0
 62
     0
 10
234.9711755361468
 20
46.872117566859508
 30
0.0
 11
237.48115712504321
 21
49.382099155755903
 31
0.0
  0
LINE
  5
371E
  8
0
 62
     0
 10
225.80875268935509
 20
37.70969472006778
 30
0.0
 11
228.31873427825209
 21
40.219676308964829
 31
0.0
  0
LINE
  5
371F
  8
0
 62
     0
 10
225.47592233774409
 20
40.51995401083127
 30
0.0
 11
234.67089783427971
 21
49.714929507366833
 31
0.0
  0
LINE
  5
3720
  8
0
 62
     0
 10
226.69271501860999
 20
44.879836334071562
 30
0.0
 11
230.31101551103939
 21
48.498136826500968
 31
0.0
  0
ENDBLK
  5
3722
  8
0
  0
BLOCK
  8
0
  2
*U55
 70
     1
 10
0.0
 20
0.0
 30
0.0
  3
*U55
  1

  0
TEXT
  5
3724
  8
寸法線
 10
245.9498622725998
 20
77.606130911142145
 30
0.0
 40
2.5
  1
2-\U+22054.5-\U+22058.5
  0
ENDBLK
  5
3726
  8
0
  0
BLOCK
  8
0
  2
*U56
 70
     1
 10
0.0
 20
0.0
 30
0.0
  3
*U56
  1

  0
SOLID
  5
3728
  8
寸法線
 10
237.1193745288555
 20
67.085551820556546
 30
0.0
 11
234.971175536147
 21
64.284057919077441
 31
0.0
 12
236.0946630476889
 22
67.630832904598265
 32
0.0
 13
236.0946630476889
 23
67.630832904598265
 33
0.0
  0
POLYLINE
  5
3729
  8
寸法線
 66
     1
 10
0.0
 20
0.0
 30
0.0
  0
VERTEX
  5
372A
  8
寸法線
 10
236.6070187882722
 20
67.358192362577384
 30
0.0
  0
VERTEX
  5
372B
  8
寸法線
 10
241.59701016840489
 20
76.735560490303158
 30
0.0
  0
VERTEX
  5
372C
  8
寸法線
 10
245.9498622725998
 20
76.735560490303158
 30
0.0
  0
SEQEND
  5
372D
  8
寸法線
  0
ENDBLK
  5
372F
  8
0
  0
BLOCK
  8
0
  2
*X57
 70
     1
 10
0.0
 20
0.0
 30
0.0
  3
*X57
  1

  0
LINE
  5
37AD
  8
0
 62
     0
 10
254.92282837583929
 20
85.624174385190372
 30
0.0
 11
260.53631266641509
 21
91.23765867576617
 31
0.0
  0
LINE
  5
37AE
  8
0
 62
     0
 10
251.62652222295239
 20
85.470957874677666
 30
0.0
 11
260.68952917692832
 21
94.533964828653566
 31
0.0
  0
LINE
  5
37AF
  8
0
 62
     0
 10
260.68952917692832
 20
94.533964828653566
 30
0.0
 11
261.11690422618381
 21
94.961339877909026
 31
0.0
  0
LINE
  5
37B0
  8
0
 62
     0
 10
251.1991471736967
 20
85.043582825421694
 30
0.0
 11
251.62652222295239
 21
85.470957874677666
 31
0.0
  0
LINE
  5
37B1
  8
0
 62
     0
 10
251.62652222295259
 20
88.614047517051645
 30
0.0
 11
257.54643953455439
 21
94.533964828653566
 31
0.0
  0
LINE
  5
37B2
  8
0
 62
     0
 10
257.54643953455439
 20
94.533964828653566
 30
0.0
 11
260.61670846616198
 21
97.604233760261195
 31
0.0
  0
LINE
  5
37B3
  8
0
 62
     0
 10
248.5562532913446
 20
85.543778585443746
 30
0.0
 11
251.62652222295259
 21
88.614047517051645
 31
0.0
  0
LINE
  5
37B4
  8
0
 62
     0
 10
251.62652222295259
 20
91.757137159426065
 30
0.0
 11
254.4033498921801
 21
94.533964828653566
 31
0.0
  0
LINE
  5
37B5
  8
0
 62
     0
 10
254.4033498921801
 20
94.533964828653566
 30
0.0
 11
259.58740188279882
 21
99.718016819272165
 31
0.0
  0
LINE
  5
37B6
  8
0
 62
     0
 10
246.44247023233311
 20
86.573085168806514
 30
0.0
 11
251.62652222295259
 21
91.757137159426065
 31
0.0
  0
LINE
  5
37B7
  8
0
 62
     0
 10
251.2602602498055
 20
94.533964828653325
 30
0.0
 11
251.62652222295239
 21
94.900226801800272
 31
0.0
  0
LINE
  5
37B8
  8
0
 62
     0
 10
251.62652222295239
 20
94.900226801800272
 30
0.0
 11
258.15840896098348
 21
101.43211353983131
 31
0.0
  0
LINE
  5
37B9
  8
0
 62
     0
 10
244.72837351177421
 20
88.002078090621808
 30
0.0
 11
251.2602602498055
 21
94.533964828653325
 31
0.0
  0
LINE
  5
37BA
  8
0
 62
     0
 10
248.11717060743149
 20
94.533964828653566
 30
0.0
 11
251.62652222295239
 21
98.043316444174479
 31
0.0
  0
LINE
  5
37BB
  8
0
 62
     0
 10
251.62652222295239
 20
98.043316444174479
 30
0.0
 11
256.3561438181232
 21
102.77293803934521
 31
0.0
  0
LINE
  5
37BC
  8
0
 62
     0
 10
243.38754901226019
 20
89.804343233482314
 30
0.0
 11
248.11717060743149
 21
94.533964828653566
 31
0.0
  0
LINE
  5
37BD
  8
0
 62
     0
 10
244.97408096505731
 20
94.533964828653325
 30
0.0
 11
251.62652222295239
 21
101.1864060865484
 31
0.0
  0
LINE
  5
37BE
  8
0
 62
     0
 10
251.62652222295239
 20
101.1864060865484
 30
0.0
 11
254.1365038118488
 21
103.6963876754448
 31
0.0
  0
LINE
  5
37BF
  8
0
 62
     0
 10
242.4640993761607
 20
92.023983239756717
 30
0.0
 11
244.97408096505731
 21
94.533964828653325
 31
0.0
  0
LINE
  5
37C0
  8
0
 62
     0
 10
242.13126902454979
 20
94.834242530519987
 30
0.0
 11
251.3262445210853
 21
104.02921802705551
 31
0.0
  0
LINE
  5
37C1
  8
0
 62
     0
 10
243.3480617054158
 20
99.194124853760513
 30
0.0
 11
246.9663621978448
 21
102.8124253461894
 31
0.0
  0
ENDBLK
  5
37C3
  8
0
  0
BLOCK
  8
0
  2
*U58
 70
     1
 10
0.0
 20
0.0
 30
0.0
  3
*U58
  1

  0
TEXT
  5
37D6
  8
寸法線
 10
262.60520895940562
 20
131.92041943083069
 30
0.0
 40
2.5
  1
2-\U+22054.5-\U+22058.5
  0
ENDBLK
  5
37D8
  8
0
  0
BLOCK
  8
0
  2
*U59
 70
     1
 10
0.0
 20
0.0
 30
0.0
  3
*U59
  1

  0
SOLID
  5
37DA
  8
寸法線
 10
253.77472121566129
 20
121.39984034024511
 30
0.0
 11
251.6265222229527
 21
118.598346438766
 31
0.0
 12
252.7500097344946
 22
121.9451214242868
 32
0.0
 13
252.7500097344946
 23
121.9451214242868
 33
0.0
  0
POLYLINE
  5
37DB
  8
寸法線
 66
     1
 10
0.0
 20
0.0
 30
0.0
  0
VERTEX
  5
37DC
  8
寸法線
 10
253.2623654750779
 20
121.672480882266
 30
0.0
  0
VERTEX
  5
37DD
  8
寸法線
 10
258.25235685521062
 20
131.0498490099917
 30
0.0
  0
VERTEX
  5
37DE
  8
寸法線
 10
262.60520895940562
 20
131.0498490099917
 30
0.0
  0
SEQEND
  5
37DF
  8
寸法線
  0
ENDBLK
  5
37E1
  8
0
  0
ENDSEC
  0
SECTION
  2
ENTITIES
  0
INSERT
  5
1BB5
  8
0
  2
ZUWAKU-A4H
 10
0.0
 20
0.0
 30
0.0
1001
GENIUS_GENOREF_13
1005
1C93
1001
GENIUS_GENOBJ-N-SDF_13
1002
{
1000
OWNER
1000
GEN
1002
}
1001
GENIUS_GENODEF_13
1002
{
1000
HIER
1070
     0
1002
}
1002
{
1000
MANEDIT
1070
     0
1002
}
1002
{
1000
NOSEL
1070
     0
1002
}
1002
{
1000
BEHIND
1070
     0
1002
}
1002
{
1000
OTHER
1070
     0
1002
}
1002
{
1000
REACTOR
1002
}
1001
GENIUS_GENSCREG_13
1040
1.0
1040
1.0
1011
12.95699999999508
1021
0.0
1031
0.0
1021
10.0
1031
0.0
1011
289.45700000038528
1021
0.0
1031
0.0
1021
201.1206999999936
1031
0.0
1070
     3
  0
POINT
  5
1C93
  8
0
 10
0.0
 20
0.0
 30
0.0
1001
GENIUS_GENOLIS_13
1002
{
1000
ENT
1005
1C84
1005
1BB5
1002
}
1001
GENIUS_GENOENT_13
1002
{
1000
MYREF
1005
1C93
1002
}
1002
{
1000
GRP
1005
0
1002
}
1001
GENIUS_GENOBJ-N-TIT_13
1002
{
1000
OWNER
1000
GEN
1002
}
1001
GENIUS_GENTITLE_13
1002
{
1000
BORDER
1000
C:\Program Files\Autodesk\ACADM 2008\Acadm\gen\Dwg\Format\ZUWAKU-A4H
1002
}
1002
{
1000
TITLE
1000
C:\Program Files\Autodesk\ACADM 2008\Acadm\gen\Dwg\Title\N_Title
1002
}
1002
{
1000
ADDITIONAL1
1000

1002
}
1002
{
1000
ADDITIONAL2
1000

1002
}
1002
{
1000
SCALE
1000
1:1
1002
}
1002
{
1000
TITLESTD
1000
JIS
1002
}
1002
{
1000
HRA
1005
1BB5
1002
}
1002
{
1000
HTIT
1005
1C84
1002
}
1002
{
1000
INVTXTID
1005
0
1002
}
1002
{
1000
UNCHG
1002
{
1000
GEN-TITLE-SIZ
1000
GEN-TITLE-SCA
1002
}
1002
}
1002
{
1000
GENIUSID
1005
1C93
1002
}
1001
GENIUS_GENODEF_13
1002
{
1000
HIER
1070
     1
1002
}
1002
{
1000
MANEDIT
1070
     1
1002
}
1002
{
1000
NOSEL
1070
     0
1002
}
1002
{
1000
BEHIND
1070
     0
1002
}
1002
{
1000
OTHER
1070
     0
1002
}
1002
{
1000
REACTOR
1002
}
  0
INSERT
  5
20F2
  8
0
 66
     1
  2
A$C1C06296A
 10
12.95700013162593
 20
9.9999998268887111
 30
0.0
  0
ATTRIB
  5
20F3
  8
AM_BOR
 62
     7
 10
127.267709707009
 20
10.5
 30
0.0
 40
3.0
  1

 11
127.267709707009
 21
12.0
 31
0.0
  2
SETS｛20｝
 70
     0
 74
     2
1001
ACDBATTR
1070
     0
1070
     1
  0
ATTRIB
  5
20F4
  8
AM_BOR
 62
     7
 10
32.017709707009089
 20
10.5
 30
0.0
 40
3.0
  1

 11
32.017709707009089
 21
12.0
 31
0.0
  2
REMARKS｛20｝
 70
     0
 74
     2
1001
ACDBATTR
1070
     0
1070
     1
  0
ATTRIB
  5
20F5
  8
AM_BOR
 62
     7
 10
127.267709707009
 20
15.5
 30
0.0
 40
3.0
  1

 11
127.267709707009
 21
17.0
 31
0.0
  2
SETS｛20｝
 70
     0
 74
     2
1001
ACDBATTR
1070
     0
1070
     1
  0
ATTRIB
  5
20F6
  8
AM_BOR
 62
     7
 10
32.017709707009089
 20
15.5
 30
0.0
 40
3.0
  1

 11
32.017709707009089
 21
17.0
 31
0.0
  2
REMARKS｛20｝
 70
     0
 74
     2
1001
ACDBATTR
1070
     0
1070
     1
  0
ATTRIB
  5
20F7
  8
AM_BOR
 62
     7
 10
127.267709707009
 20
20.5
 30
0.0
 40
3.0
  1
トラスAタッピング4\U+00D725(2本)
 11
127.267709707009
 21
22.0
 31
0.0
  2
SETS｛20｝
 70
     0
 74
     2
1001
ACDBATTR
1070
     0
1070
     1
  0
ATTRIB
  5
20F8
  8
AM_BOR
 62
     7
 10
32.017709707009089
 20
20.5
 30
0.0
 40
3.0
  1

 11
32.017709707009089
 21
22.0
 31
0.0
  2
REMARKS｛20｝
 70
     0
 74
     2
1001
ACDBATTR
1070
     0
1070
     1
  0
ATTRIB
  5
20F9
  8
AM_BOR
 62
     7
 10
127.20700000001921
 20
33.5
 30
0.0
 40
3.0
  1
S3184-150-HN
 11
127.20700000001921
 21
35.0
 31
0.0
  2
ART_NO｛20｝
 70
     0
 74
     2
1001
ACDBATTR
1070
     0
1070
     1
  0
ATTRIB
  5
20FA
  8
AM_BOR
 62
     7
 10
31.95700000001921
 20
33.5
 30
0.0
 40
3.0
  1
LUCKY戸当り
 11
31.95700000001921
 21
35.0
 31
0.0
  2
ARTICLE｛20｝
 70
     0
 74
     2
1001
ACDBATTR
1070
     0
1070
     1
  0
ATTRIB
  5
20FB
  8
AM_BOR
 62
     7
 10
127.20700000001921
 20
27.0
 30
0.0
 40
3.0
  1
ホーニング仕上げ
 11
127.20700000001921
 21
28.5
 31
0.0
  2
FINISH｛20｝
 70
     0
 74
     2
1001
ACDBATTR
1070
     0
1070
     1
  0
ATTRIB
  5
20FC
  8
AM_BOR
 62
     7
 10
31.95700000001921
 20
27.0
 30
0.0
 40
3.0
  1
ステンレス
 11
31.95700000001921
 21
28.5
 31
0.0
  2
MATERIAK｛20｝
 70
     0
 74
     2
1001
ACDBATTR
1070
     0
1070
     1
  0
SEQEND
  5
20FD
  8
0
  0
LINE
  5
33E7
  8
実線
 10
51.323888008229567
 20
143.0339648286548
 30
0.0
 11
51.323888008228657
 21
62.533964828654348
 31
0.0
  0
DIMENSION
  5
33E8
  8
寸法線
  2
*D37
 10
19.780347521969698
 20
152.53396482865429
 30
0.0
 11
19.780347521969471
 21
107.4342039150842
 31
0.0
 70
   128
 13
32.323888008229567
 23
62.533964828654348
 33
0.0
 14
41.823888008229567
 24
152.53396482865429
 34
0.0
 50
90.0
1001
ACAD
1000
DSTYLE
1002
{
1070
   270
1070
     8
1070
   144
1040
1.0
1070
    41
1040
2.5
1070
    42
1040
0.625
1070
    43
1040
3.75
1070
    44
1040
1.25
1070
    73
1070
     0
1070
    74
1070
     0
1070
    77
1070
     1
1070
    78
1070
     8
1070
   140
1040
2.5
1070
   141
1040
2.5
1070
   143
1040
0.0394
1070
   147
1040
0.625
1070
   171
1070
     4
1070
   172
1070
     1
1070
   273
1070
     8
1070
   274
1070
     4
1070
   277
1070
     6
1070
   288
1070
     1
1002
}
  0
LINE
  5
33E9
  8
実線
 10
32.323888008229567
 20
143.0339648286548
 30
0.0
 11
32.323888008229567
 21
62.533964828654348
 31
0.0
  0
LINE
  5
33EA
  8
中心線
 10
41.823888008229567
 20
111.7839648286547
 30
0.0
 11
41.823888008229567
 21
124.2839648286547
 31
0.0
  0
CIRCLE
  5
33EB
  8
実線
 10
41.823888008229567
 20
96.033964828655144
 30
0.0
 40
3.5
  0
LINE
  5
33EC
  8
中心線
 10
36.323888008229567
 20
96.033964828655144
 30
0.0
 11
47.323888008229567
 21
96.033964828655144
 31
0.0
  0
ARC
  5
33ED
  8
実線
 10
43.123888008229748
 20
97.333964828655098
 30
0.0
 40
1.0
 50
180.0
 51
270.0
  0
LINE
  5
33EE
  8
実線
 10
42.123888008229748
 20
97.333964828655098
 30
0.0
 11
42.123888008229748
 21
98.011336821983605
 31
0.0
  0
LINE
  5
33EF
  8
実線
 10
43.801260001558262
 20
96.333964828655098
 30
0.0
 11
43.123888008229748
 21
96.333964828655098
 31
0.0
  0
ARC
  5
33F0
  8
実線
 10
40.523888008229392
 20
97.333964828655098
 30
0.0
 40
1.0
 50
270.0
 51
0.0
  0
LINE
  5
33F1
  8
実線
 10
41.523888008229392
 20
97.333964828655098
 30
0.0
 11
41.523888008229392
 21
98.011336821983605
 31
0.0
  0
LINE
  5
33F2
  8
実線
 10
39.846516014900892
 20
96.333964828655098
 30
0.0
 11
40.523888008229392
 21
96.333964828655098
 31
0.0
  0
ARC
  5
33F3
  8
実線
 10
43.123888008229301
 20
94.733964828655289
 30
0.0
 40
1.0
 50
90.0
 51
180.0
  0
LINE
  5
33F4
  8
実線
 10
43.123888008229301
 20
95.733964828655317
 30
0.0
 11
43.801260001558262
 21
95.733964828655317
 31
0.0
  0
LINE
  5
33F5
  8
実線
 10
42.123888008229301
 20
94.056592835326555
 30
0.0
 11
42.123888008229301
 21
94.733964828655289
 31
0.0
  0
ARC
  5
33F6
  8
実線
 10
40.523888008229392
 20
94.733964828654962
 30
0.0
 40
1.0
 50
0.0
 51
90.0
  0
LINE
  5
33F7
  8
実線
 10
40.523888008229392
 20
95.733964828654948
 30
0.0
 11
39.846516014900892
 21
95.733964828655076
 31
0.0
  0
LINE
  5
33F8
  8
実線
 10
41.523888008229392
 20
94.056592835326697
 30
0.0
 11
41.523888008229392
 21
94.733964828654962
 31
0.0
  0
ARC
  5
33F9
  8
実線
 10
41.823888008229567
 20
96.033964828655144
 30
0.0
 40
2.0
 50
81.373073441303106
 51
98.626926558671144
  0
ARC
  5
33FA
  8
実線
 10
41.823888008229567
 20
96.033964828655144
 30
0.0
 40
2.0
 50
351.37307344132972
 51
8.6269265586764856
  0
ARC
  5
33FB
  8
実線
 10
41.823888008229567
 20
96.033964828655144
 30
0.0
 40
2.0
 50
171.3730734413235
 51
188.62692655867639
  0
ARC
  5
33FC
  8
実線
 10
41.823888008229567
 20
96.033964828655144
 30
0.0
 40
2.0
 50
261.37307344132893
 51
278.62692655867107
  0
LINE
  5
33FD
  8
中心線
 10
41.823888008229567
 20
90.533964828655144
 30
0.0
 11
41.823888008229567
 21
101.5339648286551
 31
0.0
  0
LINE
  5
33FE
  8
実線
 10
32.323888008229567
 20
107.5339648286547
 30
0.0
 11
51.323888008228657
 21
107.5339648286546
 31
0.0
  0
ARC
  5
33FF
  8
実線
 10
41.823888008229119
 20
74.446480778383375
 30
0.0
 40
9.6317239168207855
 50
9.4866774318788671
 51
170.51332256812111
  0
ARC
  5
3400
  8
実線
 10
41.823888008228657
 20
76.033964828654803
 30
0.0
 40
9.4999999999995453
 50
0.0
 51
180.0
  0
LINE
  5
3401
  8
実線
 10
32.323888008229567
 20
62.533964828654462
 30
0.0
 11
51.323888008228657
 21
62.533964828654227
 31
0.0
  0
CIRCLE
  5
3402
  8
実線
 10
41.823888008229567
 20
143.0339648286548
 30
0.0
 40
2.25
  0
LINE
  5
3403
  8
中心線
 10
41.823888008229567
 20
136.7839648286548
 30
0.0
 11
41.823888008229567
 21
149.2839648286548
 31
0.0
  0
LINE
  5
3404
  8
中心線
 10
35.573888008229581
 20
143.0339648286548
 30
0.0
 11
48.073888008229567
 21
143.0339648286548
 31
0.0
  0
LINE
  5
3405
  8
中心線
 10
35.573888008229581
 20
118.0339648286547
 30
0.0
 11
48.073888008229567
 21
118.0339648286547
 31
0.0
  0
DIMENSION
  5
3406
  8
寸法線
  2
*D38
 10
27.462665710789341
 20
143.0339648286548
 30
0.0
 11
25.58766571078932
 21
130.53396482865469
 31
0.0
 70
     0
 13
35.573888008229581
 23
118.0339648286547
 33
0.0
 14
35.573888008229581
 24
143.0339648286548
 34
0.0
 50
90.0
1001
ACAD
1000
DSTYLE
1002
{
1070
   270
1070
     8
1070
   144
1040
1.0
1070
    41
1040
2.5
1070
    42
1040
0.625
1070
    43
1040
3.75
1070
    44
1040
1.25
1070
    73
1070
     0
1070
    74
1070
     0
1070
    77
1070
     1
1070
    78
1070
     8
1070
   140
1040
2.5
1070
   141
1040
2.5
1070
   143
1040
0.0394
1070
   147
1040
0.625
1070
   171
1070
     4
1070
   172
1070
     1
1070
   273
1070
     8
1070
   274
1070
     4
1070
   277
1070
     6
1002
}
  0
CIRCLE
  5
3407
  8
実線
 10
41.823888008229567
 20
118.0339648286547
 30
0.0
 40
2.25
  0
DIMENSION
  5
3408
  8
寸法線
  2
*D39
 10
27.462665710789341
 20
152.53396482865429
 30
0.0
 11
25.58766571078932
 21
147.78396482865449
 31
0.0
 70
     0
 13
32.323888008230028
 23
143.0339648286548
 33
0.0
 14
32.323888008229567
 24
152.53396482865429
 34
0.0
 50
90.0
1001
ACAD
1000
DSTYLE
1002
{
1070
   270
1070
     8
1070
   144
1040
1.0
1070
    41
1040
2.5
1070
    42
1040
0.625
1070
    43
1040
3.75
1070
    44
1040
1.25
1070
    73
1070
     0
1070
    74
1070
     0
1070
    77
1070
     1
1070
    78
1070
     8
1070
   140
1040
2.5
1070
   141
1040
2.5
1070
   143
1040
0.0394
1070
   147
1040
0.625
1070
   171
1070
     4
1070
   172
1070
     1
1070
   273
1070
     8
1070
   274
1070
     4
1070
   277
1070
     6
1002
}
  0
ARC
  5
3409
  8
実線
 10
41.823888008229567
 20
143.0339648286548
 30
0.0
 40
9.4999999999995453
 50
0.0
 51
180.0
  0
DIMENSION
  5
340A
  8
寸法線
  2
*D40
 10
51.323888008229567
 20
159.848356962775
 30
0.0
 11
41.823888008229567
 21
161.723356962775
 31
0.0
 70
     0
 13
32.323888008229567
 23
143.0339648286548
 33
0.0
 14
51.323888008229567
 24
143.03396482865469
 34
0.0
1001
ACAD
1000
DSTYLE
1002
{
1070
   270
1070
     8
1070
   144
1040
1.0
1070
    41
1040
2.5
1070
    42
1040
0.625
1070
    43
1040
3.75
1070
    44
1040
1.25
1070
    73
1070
     0
1070
    74
1070
     0
1070
    77
1070
     1
1070
    78
1070
     8
1070
   140
1040
2.5
1070
   141
1040
2.5
1070
   143
1040
0.0394
1070
   147
1040
0.625
1070
   171
1070
     4
1070
   172
1070
     1
1070
   273
1070
     8
1070
   274
1070
     4
1070
   277
1070
     6
1002
}
  0
LINE
  5
340B
  8
実線
 10
242.12652222295361
 20
143.03396482865489
 30
0.0
 11
242.12652222295279
 21
62.533964828654462
 31
0.0
  0
LINE
  5
340C
  8
実線
 10
261.12652222295281
 20
143.0339648286548
 30
0.0
 11
261.12652222295281
 21
62.533964828654348
 31
0.0
  0
LINE
  5
340D
  8
中心線
 10
251.6265222229527
 20
111.7839648286547
 30
0.0
 11
251.6265222229527
 21
124.2839648286547
 31
0.0
  0
CIRCLE
  5
340E
  8
実線
 10
251.6265222229527
 20
118.0339648286547
 30
0.0
 40
4.25
  0
LINE
  5
340F
  8
隠れ線
 10
77.991784271780148
 20
113.7839648286547
 30
0.0
 11
75.991784271780134
 21
115.7839648286547
 31
0.0
  0
DIMENSION
  5
3410
  8
寸法線
  2
*D41
 10
66.872519781182632
 20
152.53396482865429
 30
0.0
 11
66.872519781182405
 21
130.2510028677894
 31
0.0
 70
   128
 13
72.508212971879971
 23
107.53396482865431
 33
0.0
 14
74.991784271780148
 24
152.53396482865429
 34
0.0
 50
90.0
1001
ACAD
1000
DSTYLE
1002
{
1070
   270
1070
     8
1070
   144
1040
1.0
1070
    41
1040
2.5
1070
    42
1040
0.625
1070
    43
1040
3.75
1070
    44
1040
1.25
1070
    73
1070
     0
1070
    74
1070
     0
1070
    77
1070
     1
1070
    78
1070
     8
1070
   140
1040
2.5
1070
   141
1040
2.5
1070
   143
1040
0.0394
1070
   147
1040
0.625
1070
   171
1070
     4
1070
   172
1070
     1
1070
   273
1070
     8
1070
   274
1070
     4
1070
   277
1070
     6
1070
   288
1070
     1
1002
}
  0
LINE
  5
3411
  8
実線
 10
74.991784271780148
 20
112.53396482865431
 30
0.0
 11
74.991784271780148
 21
152.53396482865429
 31
0.0
  0
LINE
  5
3412
  8
実線
 10
77.991784271780148
 20
112.53396482865431
 30
0.0
 11
77.991784271780148
 21
152.53396482865429
 31
0.0
  0
LINE
  5
3413
  8
実線
 10
74.991784271780148
 20
112.53396482865431
 30
0.0
 11
74.991784271780148
 21
152.53396482865429
 31
0.0
  0
DIMENSION
  5
3414
  8
寸法線
  2
*D42
 10
224.9917842717802
 20
168.73583065952471
 30
0.0
 11
149.99178427178009
 21
170.61083065952471
 31
0.0
 70
     0
 13
74.991784271780148
 23
157.2773145794319
 33
0.0
 14
224.9917842717802
 24
94.533964828654007
 34
0.0
1001
ACAD
1000
DSTYLE
1002
{
1070
   270
1070
     8
1070
   144
1040
1.0
1070
    41
1040
2.5
1070
    42
1040
0.625
1070
    43
1040
3.75
1070
    44
1040
1.25
1070
    73
1070
     0
1070
    74
1070
     0
1070
    77
1070
     1
1070
    78
1070
     8
1070
   140
1040
2.5
1070
   141
1040
2.5
1070
   143
1040
0.0394
1070
   147
1040
0.625
1070
   171
1070
     4
1070
   172
1070
     1
1070
   273
1070
     8
1070
   274
1070
     4
1070
   277
1070
     6
1002
}
  0
DIMENSION
  5
3415
  8
寸法線
  2
*D43
 10
224.9917842717802
 20
121.8217328226801
 30
0.0
 11
214.99178427177969
 21
123.6967328226801
 31
0.0
 70
     0
 13
204.99178427177921
 23
104.03396482865421
 33
0.0
 14
224.9917842717802
 24
104.03396482865421
 34
0.0
1001
ACAD
1000
DSTYLE
1002
{
1070
   270
1070
     8
1070
   144
1040
1.0
1070
    41
1040
2.5
1070
    42
1040
0.625
1070
    43
1040
3.75
1070
    44
1040
1.25
1070
    73
1070
     0
1070
    74
1070
     0
1070
    77
1070
     1
1070
    78
1070
     8
1070
   140
1040
2.5
1070
   141
1040
2.5
1070
   143
1040
0.0394
1070
   147
1040
0.625
1070
   171
1070
     4
1070
   172
1070
     1
1070
   273
1070
     8
1070
   274
1070
     4
1070
   277
1070
     6
1002
}
  0
DIMENSION
  5
3416
  8
寸法線
  2
*D44
 10
146.0696940796787
 20
107.53396482865431
 30
0.0
 11
146.06969407967841
 21
95.281779678600856
 31
0.0
 70
   128
 13
146.04888972044691
 23
82.533964828654348
 33
0.0
 14
146.04888972044691
 24
107.53396482865431
 34
0.0
 50
90.0
1001
ACAD
1000
DSTYLE
1002
{
1070
   270
1070
     8
1070
   144
1040
1.0
1070
    41
1040
2.5
1070
    42
1040
0.625
1070
    43
1040
3.75
1070
    44
1040
1.25
1070
    73
1070
     0
1070
    74
1070
     0
1070
    77
1070
     1
1070
    78
1070
     8
1070
   140
1040
2.5
1070
   141
1040
2.5
1070
   143
1040
0.0394
1070
   147
1040
0.625
1070
   171
1070
     4
1070
   172
1070
     1
1070
   273
1070
     8
1070
   274
1070
     4
1070
   277
1070
     6
1070
   288
1070
     1
1002
}
  0
DIMENSION
  5
3417
  8
寸法線
  2
*D45
 10
66.899641671979566
 20
107.53396482865431
 30
0.0
 11
66.899641671979339
 21
85.770343272081945
 31
0.0
 70
   128
 13
161.99178427178009
 23
62.533964828654348
 33
0.0
 14
79.991784271780148
 24
107.53396482865431
 34
0.0
 50
90.0
1001
ACAD
1000
DSTYLE
1002
{
1070
   270
1070
     8
1070
   144
1040
1.0
1070
    41
1040
2.5
1070
    42
1040
0.625
1070
    43
1040
3.75
1070
    44
1040
1.25
1070
    73
1070
     0
1070
    74
1070
     0
1070
    77
1070
     1
1070
    78
1070
     8
1070
   140
1040
2.5
1070
   141
1040
2.5
1070
   143
1040
0.0394
1070
   147
1040
0.625
1070
   171
1070
     4
1070
   172
1070
     1
1070
   273
1070
     8
1070
   274
1070
     4
1070
   277
1070
     6
1070
   288
1070
     1
1002
}
  0
LINE
  5
3418
  8
実線
 10
79.991784271780148
 20
107.53396482865431
 30
0.0
 11
199.99178427178009
 21
107.53396482865431
 31
0.0
  0
LINE
  5
3419
  8
実線
 10
79.991784271780148
 20
110.53396482865431
 30
0.0
 11
199.99178427178009
 21
110.53396482865431
 31
0.0
  0
DIMENSION
  5
341A
  8
寸法線
  2
*D46
 10
146.04888972044711
 20
82.533964828654362
 30
0.0
 11
146.04888972044691
 21
72.957800885970414
 31
0.0
 70
   128
 13
184.49178427178009
 23
62.533964828654348
 33
0.0
 14
164.6152105979551
 24
82.533964828654348
 34
0.0
 50
90.0
1001
ACAD
1000
DSTYLE
1002
{
1070
   270
1070
     8
1070
   144
1040
1.0
1070
    41
1040
2.5
1070
    42
1040
0.625
1070
    43
1040
3.75
1070
    44
1040
1.25
1070
    73
1070
     0
1070
    74
1070
     0
1070
    77
1070
     1
1070
    78
1070
     8
1070
   140
1040
2.5
1070
   141
1040
2.5
1070
   143
1040
0.0394
1070
   147
1040
0.625
1070
   171
1070
     4
1070
   172
1070
     1
1070
   273
1070
     8
1070
   274
1070
     4
1070
   277
1070
     6
1070
   288
1070
     1
1002
}
  0
ARC
  5
341B
  8
実線
 10
79.991784271780148
 20
112.53396482865431
 30
0.0
 40
5.0
 50
180.0
 51
270.0
  0
ARC
  5
341C
  8
実線
 10
79.991784271780148
 20
112.53396482865431
 30
0.0
 40
2.0
 50
180.0
 51
270.0
  0
LINE
  5
341D
  8
実線
 10
208.9917842717806
 20
92.533964828655016
 30
0.0
 11
208.9917842717806
 21
94.533964828654135
 31
0.0
  0
LINE
  5
341E
  8
実線
 10
208.4917842717806
 20
92.03396482865503
 30
0.0
 11
208.4917842717806
 21
94.533964828654135
 31
0.0
  0
LINE
  5
341F
  8
実線
 10
211.99178427177969
 20
92.03396482865503
 30
0.0
 11
213.99178427177969
 21
94.533964828654135
 31
0.0
  0
LINE
  5
3420
  8
実線
 10
208.49178427177969
 20
92.03396482865503
 30
0.0
 11
208.9917842717806
 21
92.533964828655016
 31
0.0
  0
LINE
  5
3421
  8
実線
 10
204.99178427177969
 20
92.03396482865503
 30
0.0
 11
211.99178427177969
 21
92.03396482865503
 31
0.0
  0
LINE
  5
3422
  8
中心線
 10
204.99178427177969
 20
92.533964828655016
 30
0.0
 11
212.39178427177981
 21
92.533964828655016
 31
0.0
  0
LINE
  5
3423
  8
実線
 10
204.99178427177969
 20
103.5608376130118
 30
0.0
 11
205.4443407389154
 21
104.0133940801478
 31
0.0
  0
LINE
  5
3424
  8
実線
 10
215.99178427178009
 20
103.53396482865401
 30
0.0
 11
204.99178427178009
 21
104.03396482865421
 31
0.0
  0
LINE
  5
3425
  8
実線
 10
224.70173107484351
 20
94.533964828654334
 30
0.0
 11
224.98725405537621
 21
94.819487809187081
 31
0.0
  0
LINE
  5
3426
  8
実線
 10
221.10962862641571
 20
94.533964828654135
 30
0.0
 11
224.3775338268766
 21
97.801870029115094
 31
0.0
  0
LINE
  5
3427
  8
実線
 10
217.5175261779878
 20
94.533964828654135
 30
0.0
 11
223.0727267588974
 21
100.08916540956361
 31
0.0
  0
LINE
  5
3428
  8
実線
 10
204.99178427177969
 20
96.033964828654135
 30
0.0
 11
204.99178427177969
 21
104.53396482865411
 31
0.0
  0
LINE
  5
3429
  8
実線
 10
213.92542372956009
 20
94.533964828654135
 30
0.0
 11
221.23813730557339
 21
101.8466784046674
 31
0.0
  0
LINE
  5
342A
  8
実線
 10
210.3333212811327
 20
94.533964828654135
 30
0.0
 11
218.86303075166791
 21
103.0636742991891
 31
0.0
  0
LINE
  5
342B
  8
実線
 10
206.7412188327049
 20
94.533964828654135
 30
0.0
 11
215.75211298222951
 21
103.54485897817869
 31
0.0
  0
LINE
  5
342C
  8
実線
 10
204.9917842717806
 20
96.376632716157346
 30
0.0
 11
212.31618890112449
 21
103.7010373455019
 31
0.0
  0
LINE
  5
342D
  8
実線
 10
204.9917842717806
 20
99.968735164584913
 30
0.0
 11
208.88026482002039
 21
103.857215712825
 31
0.0
  0
LINE
  5
342E
  8
実線
 10
215.68791901784621
 20
85.520152771657081
 30
0.0
 11
224.70173107484351
 21
94.533964828654135
 31
0.0
  0
ARC
  5
342F
  8
実線
 10
215.99178427178009
 20
94.533964828654007
 30
0.0
 40
5.5
 50
270.0
 51
0.0
  0
LINE
  5
3430
  8
実線
 10
204.99178427177969
 20
89.03396482865503
 30
0.0
 11
204.99178427177969
 21
94.533964828654135
 31
0.0
  0
LINE
  5
3431
  8
実線
 10
215.99178427177969
 20
94.533964828654007
 30
0.0
 11
215.99178427177969
 21
89.033964828654916
 31
0.0
  0
LINE
  5
3432
  8
実線
 10
216.99178427177969
 20
94.533964828654135
 30
0.0
 11
216.99178427177969
 21
90.033964828654675
 31
0.0
  0
LINE
  5
3433
  8
実線
 10
204.9917842717806
 20
85.033964828654234
 30
0.0
 11
204.99178427177969
 21
104.53396482865421
 31
0.0
  0
LINE
  5
3434
  8
実線
 10
204.99178427177969
 20
104.53396482865421
 30
0.0
 11
204.9917842717806
 21
86.533964828654121
 31
0.0
  0
ARC
  5
3435
  8
実線
 10
215.99178427178009
 20
94.533964828654007
 30
0.0
 40
9.0
 50
270.0
 51
90.0
  0
LINE
  5
3436
  8
実線
 10
220.5103579630478
 20
86.750489268431124
 30
0.0
 11
223.7752598320032
 21
90.015391137386715
 31
0.0
  0
LINE
  5
3437
  8
実線
 10
211.92476407187419
 20
85.349100274112857
 30
0.0
 11
215.60962862641611
 21
89.033964828654575
 31
0.0
  0
LINE
  5
3438
  8
実線
 10
208.1616091259022
 20
85.178047776568405
 30
0.0
 11
212.0175261779888
 21
89.033964828654788
 31
0.0
  0
LINE
  5
3439
  8
実線
 10
204.9917842717806
 20
85.600325370874216
 30
0.0
 11
208.04169680880219
 21
88.650237907896212
 31
0.0
  0
LINE
  5
343A
  8
実線
 10
210.9917842717802
 20
89.03396482865503
 30
0.0
 11
215.99178427177921
 21
89.033964828654916
 31
0.0
  0
ARC
  5
343B
  8
実線
 10
209.49178427178009
 20
89.03396482865503
 30
0.0
 40
1.5
 50
180.0
 51
0.0
  0
LINE
  5
343C
  8
実線
 10
207.99178427178009
 20
89.03396482865503
 30
0.0
 11
204.99178427177969
 21
89.03396482865503
 31
0.0
  0
LINE
  5
343D
  8
実線
 10
215.99178427178009
 20
85.533964828654007
 30
0.0
 11
204.99178427178009
 21
85.033964828654234
 31
0.0
  0
POINT
  5
343E
  8
実線
 10
207.99178427178009
 20
89.28396482865503
 30
0.0
  0
POINT
  5
343F
  8
実線
 10
209.74178427178009
 20
87.533964828655016
 30
0.0
  0
LINE
  5
3440
  8
実線
 10
216.9917842717802
 20
90.033964828654916
 30
0.0
 11
215.99178427178009
 21
89.033964828654916
 31
0.0
  0
POINT
  5
3441
  8
実線
 10
209.7417842717806
 20
87.533964828654121
 30
0.0
  0
LINE
  5
3442
  8
実線
 10
207.9917842717806
 20
89.033964828654121
 30
0.0
 11
204.99178427178009
 21
89.033964828654121
 31
0.0
  0
ARC
  5
3443
  8
実線
 10
209.4917842717806
 20
89.033964828654121
 30
0.0
 40
1.5
 50
180.0
 51
0.0
  0
LINE
  5
3444
  8
実線
 10
210.9917842717806
 20
89.033964828654121
 30
0.0
 11
215.99178427177969
 21
89.033964828654007
 31
0.0
  0
LINE
  5
3445
  8
実線
 10
164.6152105979551
 20
82.533964828654348
 30
0.0
 11
161.99178427178009
 21
81.078204695204036
 31
0.0
  0
LINE
  5
3446
  8
実線
 10
161.99178427178009
 20
81.078204695204036
 30
0.0
 11
166.56712585932621
 21
73.086270583410624
 31
0.0
  0
LINE
  5
3447
  8
実線
 10
164.6152105979551
 20
82.533964828654348
 30
0.0
 11
169.1706585247494
 21
74.576779778308364
 31
0.0
  0
LINE
  5
3448
  8
実線
 10
201.9917842717802
 20
83.033964828654348
 30
0.0
 11
201.9917842717802
 21
105.53396482865431
 31
0.0
  0
LINE
  5
3449
  8
実線
 10
204.99178427178009
 20
82.408964828654348
 30
0.0
 11
204.99178427177921
 21
105.5339648286544
 31
0.0
  0
LINE
  5
344A
  8
実線
 10
204.99178427177921
 20
105.5339648286544
 30
0.0
 11
204.99178427178009
 21
87.533964828654348
 31
0.0
  0
LINE
  5
344B
  8
実線
 10
201.9917842717802
 20
90.033964828654234
 30
0.0
 11
203.89178427178069
 21
91.933964828654084
 31
0.0
  0
LINE
  5
344C
  8
実線
 10
201.9917842717802
 20
99.033964828654234
 30
0.0
 11
203.89178427178069
 21
97.133964828654143
 31
0.0
  0
LINE
  5
344D
  8
実線
 10
203.89178427178069
 20
91.933964828654084
 30
0.0
 11
203.89178427178069
 21
97.133964828654143
 31
0.0
  0
LINE
  5
344E
  8
実線
 10
203.89178427178069
 20
97.133964828654143
 30
0.0
 11
204.99178427177921
 21
97.133964828654044
 31
0.0
  0
LINE
  5
344F
  8
実線
 10
203.89178427178069
 20
91.933964828654084
 30
0.0
 11
204.99178427177921
 21
91.933964828653984
 31
0.0
  0
LINE
  5
3450
  8
実線
 10
204.99178427177921
 20
97.033964828654362
 30
0.0
 11
204.99178427177921
 21
105.53396482865431
 31
0.0
  0
ARC
  5
3451
  8
実線
 10
199.99178427178009
 20
105.53396482865431
 30
0.0
 40
2.0
 50
0.0
 51
90.0
  0
ARC
  5
3452
  8
実線
 10
199.99178427178009
 20
105.53396482865431
 30
0.0
 40
5.0
 50
0.0
 51
90.0
  0
LINE
  5
3453
  8
実線
 10
204.99178427177969
 20
97.033964828654135
 30
0.0
 11
204.99178427177969
 21
105.53396482865411
 31
0.0
  0
LINE
  5
3454
  8
実線
 10
204.99178427177969
 20
105.53396482865421
 30
0.0
 11
204.9917842717806
 21
87.533964828654121
 31
0.0
  0
LINE
  5
3455
  8
実線
 10
204.99178427178009
 20
83.033964828654121
 30
0.0
 11
204.99178427177969
 21
105.53396482865421
 31
0.0
  0
POINT
  5
3456
  8
寸法線
 10
204.99178427177969
 20
94.533964828654135
 30
0.0
  0
ARC
  5
3457
  8
実線
 10
184.49178427178009
 20
83.033964828654348
 30
0.0
 40
17.5
 50
209.02907436585019
 51
0.0
  0
DIMENSION
  5
3458
  8
寸法線
  2
*D47
 10
184.49178427178131
 20
83.033964828654135
 30
0.0
 11
189.71663723107631
 21
77.94777624273587
 31
0.0
 70
   132
 15
197.03143137408981
 25
70.827112222450026
 35
0.0
 40
0.0
1001
ACAD
1000
DSTYLE
1002
{
1070
   270
1070
     8
1070
   144
1040
1.0
1070
    41
1040
2.5
1070
    42
1040
0.625
1070
    43
1040
3.75
1070
    44
1040
1.25
1070
    73
1070
     0
1070
    74
1070
     0
1070
    77
1070
     1
1070
    78
1070
     8
1070
   140
1040
2.5
1070
   141
1040
2.5
1070
   143
1040
0.0394
1070
   147
1040
0.625
1070
   171
1070
     4
1070
   172
1070
     1
1070
   273
1070
     8
1070
   274
1070
     4
1070
   277
1070
     6
1070
   288
1070
     1
1002
}
  0
DIMENSION
  5
3459
  8
寸法線
  2
*D48
 10
204.99178427178009
 20
55.564288162318
 30
0.0
 11
183.49178427178009
 21
57.439288162318
 31
0.0
 70
     0
 13
161.99178427178009
 23
81.078204695204036
 33
0.0
 14
204.99178427178009
 24
83.033964828654348
 34
0.0
1001
ACAD
1000
DSTYLE
1002
{
1070
   270
1070
     8
1070
   144
1040
1.0
1070
    41
1040
2.5
1070
    42
1040
0.625
1070
    43
1040
3.75
1070
    44
1040
1.25
1070
    73
1070
     0
1070
    74
1070
     0
1070
    77
1070
     1
1070
    78
1070
     8
1070
   140
1040
2.5
1070
   141
1040
2.5
1070
   143
1040
0.0394
1070
   147
1040
0.625
1070
   171
1070
     4
1070
   172
1070
     1
1070
   273
1070
     8
1070
   274
1070
     4
1070
   277
1070
     6
1002
}
  0
ARC
  5
345A
  8
実線
 10
184.49178427178009
 20
83.033964828654348
 30
0.0
 40
20.5
 50
209.02907436587901
 51
0.0
  0
DIMENSION
  5
345B
  8
寸法線
  2
*D49
 10
215.991784271781
 20
94.533964828653865
 30
0.0
 11
227.6293192609252
 21
82.544962278224276
 31
0.0
 70
   132
 15
222.26038167241691
 25
88.076048242886515
 35
0.0
 40
0.0
1001
ACAD
1000
DSTYLE
1002
{
1070
   270
1070
     8
1070
   144
1040
1.0
1070
    41
1040
2.5
1070
    42
1040
0.625
1070
    43
1040
3.75
1070
    44
1040
1.25
1070
    73
1070
     0
1070
    74
1070
     0
1070
    77
1070
     1
1070
    78
1070
     8
1070
   140
1040
2.5
1070
   141
1040
2.5
1070
   143
1040
0.0394
1070
   147
1040
0.625
1070
   171
1070
     4
1070
   172
1070
     1
1070
   273
1070
     8
1070
   274
1070
     4
1070
   277
1070
     6
1070
   288
1070
     1
1002
}
  0
LINE
  5
345C
  8
中心線
 10
226.9917842717806
 20
94.533964828654135
 30
0.0
 11
199.9917842717806
 21
94.533964828654135
 31
0.0
  0
DIMENSION
  5
345D
  8
寸法線
  2
*D50
 10
230.51420048835149
 20
110.53396482865431
 30
0.0
 11
228.63920048835149
 21
102.53396482865431
 31
0.0
 70
     0
 13
226.9917842717806
 23
94.533964828654135
 33
0.0
 14
199.99178427178009
 24
110.53396482865431
 34
0.0
 50
90.0
1001
ACAD
1000
DSTYLE
1002
{
1070
   270
1070
     8
1070
   144
1040
1.0
1070
    41
1040
2.5
1070
    42
1040
0.625
1070
    43
1040
3.75
1070
    44
1040
1.25
1070
    73
1070
     0
1070
    74
1070
     0
1070
    77
1070
     1
1070
    78
1070
     8
1070
   140
1040
2.5
1070
   141
1040
2.5
1070
   143
1040
0.0394
1070
   147
1040
0.625
1070
   171
1070
     4
1070
   172
1070
     1
1070
   273
1070
     8
1070
   274
1070
     4
1070
   277
1070
     6
1002
}
  0
INSERT
  5
345E
  8
実線
  6
CONTINUOUS
  2
*X57
 10
0.0
 20
0.0
 30
0.0
1001
ACAD
1000
HATCH
1002
{
1070
    19
1000
ANSI31
1040
0.5025440671167907
1040
0.0
1000
ASC_BOUNDS
1070
     4
1070
     1
1070
     3
1005
3462
1005
3466
1005
3463
1070
     1
1070
     3
1005
3462
1005
3463
1005
3466
1070
     1
1070
     3
1005
3463
1005
3462
1005
3466
1070
     1
1070
     3
1005
3463
1005
3466
1005
3462
1000
ASC_SEEDPOINT
1011
246.3224652735791
1021
0.0
1031
0.0
1021
96.887670722845556
1031
0.0
1000
R14_HATCH_DATA
1000
345E
1011
1.0
1021
0.0
1031
0.0
1021
0.0
1031
0.0
1011
0.0
1021
0.0
1031
0.0
1021
1.0
1031
0.0
1011
0.0
1021
0.0
1031
0.0
1021
0.0
1031
1.0
1040
0.0
1010
0.0
1020
0.0
1030
1.0
1000
ANSI31
1070
     0
1070
     1
1071
        4
1071
        7
1070
     1
1070
     1
1071
        3
1040
251.6265222229523
1040
94.533964828653666
1040
0.0
1040
251.6265222229523
1040
104.03396482865359
1040
0.4142135623731091
1040
242.12652222295179
1040
94.533964828653666
1040
0.0
1071
        3
1005
3462
1005
3466
1005
3463
1071
        7
1070
     1
1070
     1
1071
        3
1040
242.12652222295179
1040
94.533964828653666
1040
0.4142135623731091
1040
251.6265222229523
1040
85.033964828653666
1040
0.0
1040
251.6265222229523
1040
94.533964828653666
1040
0.0
1071
        3
1005
3466
1005
3462
1005
3463
1071
        7
1070
     1
1070
     1
1071
        3
1040
261.12652222295191
1040
94.533964828653666
1040
0.0
1040
251.6265222229523
1040
94.533964828653666
1040
0.0
1040
251.6265222229523
1040
85.033964828653666
1040
0.4142135623730811
1071
        3
1005
3466
1005
3463
1005
3462
1071
        7
1070
     1
1070
     1
1071
        3
1040
251.6265222229523
1040
104.03396482865359
1040
0.0
1040
251.6265222229523
1040
94.533964828653666
1040
0.0
1040
261.12652222295191
1040
94.533964828653666
1040
0.4142135623730811
1071
        3
1005
3463
1005
3466
1005
3462
1070
     0
1070
     1
1040
0.0
1040
0.5025440671167907
1070
     0
1070
     1
1040
0.7853981633974483
1040
-2051.215936783808
1040
-633.25432137548501
1040
-1.571544821187101
1040
1.571544821187101
1070
     0
1040
0.2052767822981471
1071
        4
1040
246.3224652735791
1040
96.887670722845556
1040
0.0
1040
246.3224652735791
1040
92.576858420916778
1040
0.0
1040
255.76885035683799
1040
90.318814665111844
1040
0.0
1040
254.7420707069497
1040
100.1720987517124
1040
0.0
1002
}
  0
LINE
  5
345F
  8
実線
 10
242.12652222295279
 20
62.533964828654462
 30
0.0
 11
261.12652222295281
 21
62.533964828654348
 31
0.0
  0
POINT
  5
3460
  8
中心線
 10
251.6265222229527
 20
94.533964828653666
 30
0.0
  0
POINT
  5
3461
  8
中心線
 10
251.6265222229527
 20
95.533964828655698
 30
0.0
  0
CIRCLE
  5
3462
  8
実線
 10
251.62652222295179
 20
94.533964828653666
 30
0.0
 40
9.5
1001
ACAD
1000
ASC_BOUNDS
1002
{
1070
    19
1005
345E
1005
345E
1005
345E
1005
345E
1002
}
  0
LINE
  5
3463
  8
中心線
 10
251.6265222229523
 20
83.533964828653666
 30
0.0
 11
251.6265222229523
 21
106.53396482865359
 31
0.0
1001
ACAD
1000
ASC_BOUNDS
1002
{
1070
    19
1005
345E
1005
345E
1005
345E
1005
345E
1002
}
  0
LINE
  5
3464
  8
実線
 10
242.12652222295361
 20
110.5339648286547
 30
0.0
 11
261.12652222295281
 21
110.5339648286546
 31
0.0
  0
DIMENSION
  5
3465
  8
寸法線
  2
*D51
 10
243.73746218906581
 20
89.241259302958582
 30
0.0
 11
268.14993263946678
 21
105.6193850484466
 31
0.0
 70
   131
 15
259.51558225683999
 25
99.826670354348977
 35
0.0
 40
0.0
1001
ACAD
1000
DSTYLE
1002
{
1070
   270
1070
     8
1070
   144
1040
1.0
1070
    41
1040
2.5
1070
    42
1040
0.625
1070
    43
1040
3.75
1070
    44
1040
1.25
1070
    73
1070
     0
1070
    74
1070
     0
1070
    77
1070
     1
1070
    78
1070
     8
1070
   140
1040
2.5
1070
   141
1040
2.5
1070
   143
1040
0.0394
1070
   147
1040
0.625
1070
   171
1070
     4
1070
   172
1070
     1
1070
   273
1070
     8
1070
   274
1070
     4
1070
   277
1070
     6
1070
   288
1070
     1
1002
}
  0
LINE
  5
3466
  8
中心線
 10
240.1265222229523
 20
94.533964828653666
 30
0.0
 11
263.1265222229523
 21
94.533964828653666
 31
0.0
1001
ACAD
1000
ASC_BOUNDS
1002
{
1070
    19
1005
345E
1005
345E
1005
345E
1005
345E
1002
}
  0
DIMENSION
  5
3467
  8
寸法線
  2
*D52
 10
77.991784271780148
 20
160.14566433020951
 30
0.0
 11
76.491784271780134
 21
160.14566433020951
 31
0.0
 70
   128
 13
74.991784271780148
 23
152.53396482865429
 33
0.0
 14
77.991784271780148
 24
152.53396482865429
 34
0.0
1001
ACAD
1000
DSTYLE
1002
{
1070
   270
1070
     8
1070
   144
1040
1.0
1070
    41
1040
2.5
1070
    42
1040
0.625
1070
    43
1040
3.75
1070
    44
1040
1.25
1070
    73
1070
     0
1070
    74
1070
     0
1070
    77
1070
     1
1070
    78
1070
     8
1070
   140
1040
2.5
1070
   141
1040
2.5
1070
   143
1040
0.0394
1070
   147
1040
0.625
1070
   171
1070
     4
1070
   172
1070
     1
1070
   273
1070
     8
1070
   274
1070
     4
1070
   277
1070
     6
1070
   288
1070
     1
1002
}
  0
LINE
  5
3468
  8
隠れ線
 10
75.991784271780134
 20
145.2839648286548
 30
0.0
 11
74.991784271780148
 21
145.2839648286548
 31
0.0
  0
LINE
  5
3469
  8
隠れ線
 10
77.991784271780148
 20
147.2839648286548
 30
0.0
 11
75.991784271780134
 21
145.2839648286548
 31
0.0
  0
LINE
  5
346A
  8
実線
 10
74.991784271780148
 20
152.53396482865429
 30
0.0
 11
77.991784271780148
 21
152.53396482865429
 31
0.0
  0
LINE
  5
346B
  8
隠れ線
 10
77.991784271780148
 20
138.7839648286548
 30
0.0
 11
75.991784271780134
 21
140.7839648286548
 31
0.0
  0
LINE
  5
346C
  8
中心線
 10
80.991784271780148
 20
118.0339648286547
 30
0.0
 11
71.991784271780148
 21
118.0339648286547
 31
0.0
  0
LINE
  5
346D
  8
隠れ線
 10
75.991784271780134
 20
115.7839648286547
 30
0.0
 11
74.991784271780148
 21
115.7839648286547
 31
0.0
  0
LINE
  5
346E
  8
隠れ線
 10
77.991784271780148
 20
122.2839648286547
 30
0.0
 11
75.991784271780134
 21
120.2839648286547
 31
0.0
  0
LINE
  5
346F
  8
隠れ線
 10
75.991784271780134
 20
120.2839648286547
 30
0.0
 11
74.991784271780148
 21
120.2839648286547
 31
0.0
  0
LINE
  5
3470
  8
隠れ線
 10
75.991784271780134
 20
115.7839648286547
 30
0.0
 11
75.991784271780134
 21
120.2839648286547
 31
0.0
  0
LINE
  5
3471
  8
中心線
 10
80.991784271780148
 20
143.0339648286548
 30
0.0
 11
71.991784271780148
 21
143.0339648286548
 31
0.0
  0
LINE
  5
3472
  8
隠れ線
 10
75.991784271780134
 20
140.7839648286548
 30
0.0
 11
74.991784271780148
 21
140.7839648286548
 31
0.0
  0
LINE
  5
3473
  8
隠れ線
 10
75.991784271780134
 20
140.7839648286548
 30
0.0
 11
75.991784271780134
 21
145.2839648286548
 31
0.0
  0
LINE
  5
3474
  8
実線
 10
223.6147826912962
 20
138.94054854220579
 30
0.0
 11
223.9003056718289
 21
139.22607152273861
 31
0.0
  0
INSERT
  5
3475
  8
0
  2
*U58
 10
0.0
 20
0.0
 30
0.0
  0
INSERT
  5
3476
  8
0
  2
*U59
 10
0.0
 20
0.0
 30
0.0
1001
ACAD
1000
DSTYLE
1002
{
1070
    40
1040
1.3929126733423769
1070
    78
1070
     8
1070
   270
1070
     8
1070
   140
1040
2.5
1070
    74
1070
     0
1070
   172
1070
     1
1070
    73
1070
     0
1070
    77
1070
     1
1070
   147
1040
0.625
1070
    42
1040
0.625
1070
    44
1040
1.25
1070
    43
1040
3.75
1070
   141
1040
2.5
1070
    41
1040
2.5
1070
   273
1070
     8
1070
   274
1070
     4
1070
   143
1040
0.0394
1070
   171
1070
     4
1002
}
  0
ARC
  5
3477
  8
実線
 10
251.6265222229527
 20
143.0339648286548
 30
0.0
 40
9.4999999999995453
 50
0.0
 51
180.0
  0
CIRCLE
  5
3478
  8
実線
 10
251.6265222229527
 20
143.0339648286548
 30
0.0
 40
2.25
  0
CIRCLE
  5
3479
  8
実線
 10
251.6265222229527
 20
143.0339648286548
 30
0.0
 40
4.25
  0
LINE
  5
347A
  8
中心線
 10
251.6265222229527
 20
136.7839648286548
 30
0.0
 11
251.6265222229527
 21
149.2839648286548
 31
0.0
  0
LINE
  5
347B
  8
中心線
 10
245.3765222229527
 20
143.0339648286548
 30
0.0
 11
257.8765222229527
 21
143.0339648286548
 31
0.0
  0
CIRCLE
  5
347C
  8
実線
 10
251.6265222229527
 20
118.0339648286547
 30
0.0
 40
2.25
  0
LINE
  5
347D
  8
中心線
 10
245.3765222229527
 20
118.0339648286547
 30
0.0
 11
257.8765222229527
 21
118.0339648286547
 31
0.0
  0
VIEWPORT
  5
95A
 67
     1
  8
0
  6
CONTINUOUS
 10
128.5
 20
97.5
 30
0.0
 40
386.73855140186919
 41
222.18000000000001
 68
     1
 69
     1
1001
ACAD
1000
MVIEW
1002
{
1070
    16
1010
0.0
1020
0.0
1030
0.0
1010
0.0
1020
0.0
1030
1.0
1040
0.0
1040
222.18000000000001
1040
128.5
1040
97.5
1040
50.0
1040
0.0
1040
0.0
1070
     0
1070
   100
1070
     1
1070
     1
1070
     0
1070
     0
1070
     0
1070
     0
1040
0.0
1040
0.0
1040
0.0
1040
10.0
1040
10.0
1040
10.0
1040
10.0
1070
     0
1002
{
1002
}
1002
}
1001
GENIUS_GENOBJ-N-SDF_13
1002
{
1000
OWNER
1000
GEN
1002
}
1001
GENIUS_GENODEF_13
1002
{
1000
HIER
1070
     0
1002
}
1002
{
1000
MANEDIT
1070
     0
1002
}
1002
{
1000
NOSEL
1070
     0
1002
}
1002
{
1000
BEHIND
1070
     0
1002
}
1002
{
1000
OTHER
1070
     0
1002
}
1002
{
1000
REACTOR
1002
}
1001
GENIUS_GENSCREG_15
1000
PF
1040
1.0
1000
DF
1040
1.0
1000
MIN
1011
-64.869275700934566
1021
0.0
1031
0.0
1021
-13.59
1031
0.0
1000
MAX
1011
321.86927570093462
1021
0.0
1031
0.0
1021
208.59
1031
0.0
1000
FLAGS
1070
     4
  0
ENDSEC
  0
EOF
