  0
SECTION
  2
HEADER
  9
$ACADVER
  1
AC1009
  9
$INSBASE
 10
0.0
 20
0.0
 30
0.0
  9
$EXTMIN
 10
12.944346182339469
 20
9.9912535027558533
 30
-0.0000000000000058
  9
$EXTMAX
 10
289.46965896852947
 20
201.12945005732831
 30
0.0000000000000104
  9
$LIMMIN
 10
12.95699999999508
 20
10.0
  9
$LIMMAX
 10
289.45700000038528
 20
201.1206999999936
  9
$ORTHOMODE
 70
     1
  9
$REGENMODE
 70
     1
  9
$FILLMODE
 70
     1
  9
$QTEXTMODE
 70
     0
  9
$MIRRTEXT
 70
     1
  9
$DRAGMODE
 70
     2
  9
$LTSCALE
 40
7.0
  9
$OSMODE
 70
    39
  9
$ATTMODE
 70
     1
  9
$TEXTSIZE
 40
3.0
  9
$TRACEWID
 40
0.05
  9
$TEXTSTYLE
  7
STANDARD
  9
$CLAYER
  8
0
  9
$CELTYPE
  6
BYLAYER
  9
$CECOLOR
 62
   256
  9
$DIMSCALE
 40
1.0
  9
$DIMASZ
 40
2.5
  9
$DIMEXO
 40
1.0
  9
$DIMDLI
 40
7.0
  9
$DIMRND
 40
0.0
  9
$DIMDLE
 40
0.0
  9
$DIMEXE
 40
1.0
  9
$DIMTP
 40
0.1
  9
$DIMTM
 40
0.1
  9
$DIMTXT
 40
3.0
  9
$DIMCEN
 40
0.0
  9
$DIMTSZ
 40
0.0
  9
$DIMTOL
 70
     0
  9
$DIMLIM
 70
     0
  9
$DIMTIH
 70
     0
  9
$DIMTOH
 70
     0
  9
$DIMSE1
 70
     0
  9
$DIMSE2
 70
     0
  9
$DIMTAD
 70
     3
  9
$DIMZIN
 70
     8
  9
$DIMBLK
  1
OPEN30
  9
$DIMASO
 70
     1
  9
$DIMSHO
 70
     1
  9
$DIMPOST
  1

  9
$DIMAPOST
  1
"
  9
$DIMALT
 70
     0
  9
$DIMALTD
 70
     2
  9
$DIMALTF
 40
0.0393701
  9
$DIMLFAC
 40
1.0
  9
$DIMTOFL
 70
     1
  9
$DIMTVP
 40
0.0
  9
$DIMTIX
 70
     0
  9
$DIMSOXD
 70
     0
  9
$DIMSAH
 70
     0
  9
$DIMBLK1
  1

  9
$DIMBLK2
  1

  9
$DIMSTYLE
  2
AM_JIS
  9
$DIMCLRD
 70
     7
  9
$DIMCLRE
 70
     7
  9
$DIMCLRT
 70
     7
  9
$DIMTFAC
 40
0.71
  9
$DIMGAP
 40
1.0
  9
$LUNITS
 70
     2
  9
$LUPREC
 70
     4
  9
$SKETCHINC
 40
0.1
  9
$FILLETRAD
 40
0.0
  9
$AUNITS
 70
     0
  9
$AUPREC
 70
     0
  9
$MENU
  1
acad
  9
$ELEVATION
 40
0.0
  9
$PELEVATION
 40
0.0
  9
$THICKNESS
 40
0.0
  9
$LIMCHECK
 70
     0
  9
$BLIPMODE
 70
     0
  9
$CHAMFERA
 40
0.0
  9
$CHAMFERB
 40
0.0
  9
$SKPOLY
 70
     0
  9
$TDCREATE
 40
2455755.6568701151
  9
$TDUPDATE
 40
2457596.7247744328
  9
$TDINDWG
 40
0.1748371296
  9
$TDUSRTIMER
 40
0.1748369444
  9
$USRTIMER
 70
     1
  9
$ANGBASE
 50
0.0
  9
$ANGDIR
 70
     0
  9
$PDMODE
 70
     0
  9
$PDSIZE
 40
0.0
  9
$PLINEWID
 40
0.0
  9
$COORDS
 70
     1
  9
$SPLFRAME
 70
     0
  9
$SPLINETYPE
 70
     6
  9
$SPLINESEGS
 70
     8
  9
$ATTDIA
 70
     1
  9
$ATTREQ
 70
     1
  9
$HANDLING
 70
     1
  9
$HANDSEED
  5
3CE1
  9
$SURFTAB1
 70
     6
  9
$SURFTAB2
 70
     6
  9
$SURFTYPE
 70
     6
  9
$SURFU
 70
     6
  9
$SURFV
 70
     6
  9
$UCSNAME
  2

  9
$UCSORG
 10
0.0
 20
0.0
 30
0.0
  9
$UCSXDIR
 10
1.0
 20
0.0
 30
0.0
  9
$UCSYDIR
 10
0.0
 20
1.0
 30
0.0
  9
$PUCSNAME
  2

  9
$PUCSORG
 10
0.0
 20
0.0
 30
0.0
  9
$PUCSXDIR
 10
1.0
 20
0.0
 30
0.0
  9
$PUCSYDIR
 10
0.0
 20
1.0
 30
0.0
  9
$USERI1
 70
     0
  9
$USERI2
 70
     0
  9
$USERI3
 70
     0
  9
$USERI4
 70
     0
  9
$USERI5
 70
     0
  9
$USERR1
 40
0.0
  9
$USERR2
 40
0.0
  9
$USERR3
 40
0.0
  9
$USERR4
 40
0.0
  9
$USERR5
 40
0.0
  9
$WORLDVIEW
 70
     1
  9
$SHADEDGE
 70
     3
  9
$SHADEDIF
 70
    70
  9
$TILEMODE
 70
     1
  9
$MAXACTVP
 70
    16
  9
$PLIMCHECK
 70
     0
  9
$PEXTMIN
 10
1.0000000000000000E+020
 20
1.0000000000000000E+020
 30
1.0000000000000000E+020
  9
$PEXTMAX
 10
-1.0000000000000000E+020
 20
-1.0000000000000000E+020
 30
-1.0000000000000000E+020
  9
$PLIMMIN
 10
-20.0
 20
-7.5
  9
$PLIMMAX
 10
277.0
 20
202.5
  9
$UNITMODE
 70
     0
  9
$VISRETAIN
 70
     0
  9
$PLINEGEN
 70
     1
  9
$PSLTSCALE
 70
     0
  0
ENDSEC
  0
SECTION
  2
TABLES
  0
TABLE
  2
VPORT
 70
     1
  0
VPORT
  2
*ACTIVE
 70
     0
 10
0.0
 20
0.0
 11
1.0
 21
1.0
 12
151.2070025754345
 22
105.560351780042
 13
0.0
 23
0.0
 14
2.5
 24
2.5
 15
10.0
 25
10.0
 16
0.0
 26
0.0
 36
1.0
 17
0.0
 27
0.0
 37
0.0
 40
192.75667841417359
 41
2.0759493670886071
 42
50.0
 43
0.0
 44
0.0
 50
0.0
 51
0.0
 71
    16
 72
   100
 73
     1
 74
     3
 75
     0
 76
     0
 77
     0
 78
     1
  0
ENDTAB
  0
TABLE
  2
LTYPE
 70
    16
  0
LTYPE
  2
CONTINUOUS
 70
     0
  3
Solid line (NEC CAE2D for Win R7.2 : 2008.02.20
 72
    65
 73
     0
 40
0.0
  0
LTYPE
  2
CENTER2
 70
     0
  3
Center (.5x) ___ _ ___ _ ___ _ ___ _ ___ _ ___
 72
    65
 73
     4
 40
1.125
 49
0.75
 49
-0.125
 49
0.125
 49
-0.125
  0
LTYPE
  2
HIDDEN2
 70
     0
  3
Hidden (.5x) _ _ _ _ _ _ _ _ _ _ _ _ _ _ _ _ _
 72
    65
 73
     2
 40
0.1875
 49
0.125
 49
-0.0625
  0
LTYPE
  2
ACISOWELD
 70
     0
  3
_ _ _ _ _
 72
    65
 73
     2
 40
2.0
 49
2.0
 49
-1.0
  0
LTYPE
  2
ACISOTGB
 70
     0
  3
__ . . __ . .
 72
    65
 73
     6
 40
9.0
 49
4.0
 49
-1.0
 49
1.0
 49
-1.0
 49
1.0
 49
-1.0
  0
LTYPE
  2
ACISOTGL
 70
     0
  3
_ _ _ _ _
 72
    65
 73
     2
 40
3.0
 49
2.0
 49
-1.0
  0
LTYPE
  2
AM_ISO02W050
 70
     0
  3
__ __ __ __ __ __ __ __ __ __ __ __ __ __ __
 72
    65
 73
     2
 40
7.5
 49
6.0
 49
-1.5
  0
LTYPE
  2
AM_ISO08W050
 70
     0
  3
____ . ____ . ____ . ____ . ____ . ____ . ____
 72
    65
 73
     4
 40
18.0
 49
12.0
 49
-1.5
 49
3.0
 49
-1.5
  0
LTYPE
  2
AM_ISO09W050
 70
     0
  3
_____ . . _____ . . _____ . . ____ .. ____
 72
    65
 73
     6
 40
22.5
 49
12.0
 49
-1.5
 49
3.0
 49
-1.5
 49
3.0
 49
-1.5
  0
LTYPE
  2
AMCONSTR
 70
     0
  3
_______________________
 72
    65
 73
     2
 40
9999.0
 49
9999.0
 49
0.0
  0
LTYPE
  2
AM_ISO08W050X2
 70
     0
  3
__ . __ . __ . __ . __ . __
 72
    65
 73
     4
 40
9.0
 49
6.0
 49
-0.75
 49
1.5
 49
-0.75
  0
LTYPE
  2
AM_ISO02W050X2
 70
     0
  3
 _ _ _ _ _ _ _ _ _ _ _ _
 72
    65
 73
     2
 40
3.75
 49
3.0
 49
-0.75
  0
LTYPE
  2
AMZIGZAG
 70
     0
  3
/\/-/\/-/\/-/\/-/\/-/\/
 72
    65
 73
     2
 40
11.0001
 49
0.0001
 49
-11.0
  0
ENDTAB
  0
TABLE
  2
LAYER
 70
    10
  0
LAYER
  2
0
 70
     0
 62
     3
  6
CONTINUOUS
  0
LAYER
  2
SYS-BUHIN0
 70
     0
 62
     7
  6
CONTINUOUS
  0
LAYER
  2
DEFPOINTS
 70
     0
 62
     7
  6
CONTINUOUS
  0
LAYER
  2
AM_BOR
 70
     0
 62
     7
  6
CONTINUOUS
  0
LAYER
  2
SYS-TEISEI0
 70
     0
 62
     7
  6
CONTINUOUS
  0
LAYER
  2
実線
 70
     0
 62
     3
  6
CONTINUOUS
  0
LAYER
  2
中心線
 70
     0
 62
     4
  6
CENTER2
  0
LAYER
  2
寸法線
 70
     0
 62
     2
  6
CONTINUOUS
  0
LAYER
  2
隠れ線
 70
     0
 62
     5
  6
HIDDEN2
  0
ENDTAB
  0
TABLE
  2
STYLE
 70
     5
  0
STYLE
  2
STANDARD
 70
     0
 40
0.0
 41
1.0
 50
0.0
 71
     0
 42
3.0
  3
dim.shx
  4
extfont.shx
  0
STYLE
  2
ACISOGDT
 70
     0
 40
0.0
 41
1.0
 50
0.0
 71
     0
 42
2.5
  3
amgdt.shx
  4

  0
STYLE
  2

 70
     1
 40
0.0
 41
1.0
 50
0.0
 71
     0
 42
3.0
  3
genltshp.shx
  4

  0
ENDTAB
  0
TABLE
  2
VIEW
 70
     6
  0
VIEW
  2
AM_VIEW1
 70
     0
 40
95.560349999996788
 10
100.7985233311003
 20
153.34052499999521
 41
175.68304666221039
 11
0.0
 21
0.0
 31
1.0
 12
0.0
 22
0.0
 32
0.0
 42
50.0
 43
0.0
 44
0.0
 50
0.0
 71
    16
  0
VIEW
  2
AM_VIEW2
 70
     0
 40
95.560349999996788
 10
201.6154766692801
 20
153.34052499999521
 41
175.68304666221039
 11
0.0
 21
0.0
 31
1.0
 12
0.0
 22
0.0
 32
0.0
 42
50.0
 43
0.0
 44
0.0
 50
0.0
 71
    16
  0
VIEW
  2
AM_VIEW3
 70
     0
 40
95.560349999996788
 10
100.7985233311003
 20
57.780174999998401
 41
175.68304666221039
 11
0.0
 21
0.0
 31
1.0
 12
0.0
 22
0.0
 32
0.0
 42
50.0
 43
0.0
 44
0.0
 50
0.0
 71
    16
  0
VIEW
  2
AM_VIEW4
 70
     0
 40
95.560349999996788
 10
201.6154766692801
 20
57.780174999998401
 41
175.68304666221039
 11
0.0
 21
0.0
 31
1.0
 12
0.0
 22
0.0
 32
0.0
 42
50.0
 43
0.0
 44
0.0
 50
0.0
 71
    16
  0
VIEW
  2
AM_VIEW5
 70
     0
 40
95.560349999996816
 10
151.20700000019011
 20
105.5603499999968
 41
175.68304666221039
 11
0.0
 21
0.0
 31
1.0
 12
0.0
 22
0.0
 32
0.0
 42
50.0
 43
0.0
 44
0.0
 50
0.0
 71
    16
  0
VIEW
  2
AM_VIEW6
 70
     0
 40
191.1187887929936
 10
151.20700000019019
 20
105.5603499999968
 41
351.36257966348762
 11
0.0
 21
0.0
 31
1.0
 12
0.0
 22
0.0
 32
0.0
 42
50.0
 43
0.0
 44
0.0
 50
0.0
 71
    16
  0
ENDTAB
  0
TABLE
  2
UCS
 70
     0
  0
ENDTAB
  0
TABLE
  2
APPID
 70
    63
  0
APPID
  2
ACAD
 70
     0
  0
APPID
  2
ACADANNOTATIVE
 70
     0
  0
APPID
  2
ACAD_MLEADERVER
 70
     0
  0
APPID
  2
MCAD_NO_VIS
 70
     0
  0
APPID
  2
ACAD_TEMP_GRAPHIC
 70
     0
  0
APPID
  2
AD_DRAW
 70
     0
  0
APPID
  2
ACATTRIBSERVICES
 70
     0
  0
APPID
  2
DESIGNERASSEMBLIES
 70
     0
  0
APPID
  2
ACADM_DIM_EDIT
 70
     0
  0
APPID
  2
AMDT_DM_ADJ
 70
     0
  0
APPID
  2
ACADANNOPO
 70
     0
  0
APPID
  2
ACAECLAYERSTANDARD
 70
     0
  0
APPID
  2
ACDBDYNAMICBLOCKGUID
 70
     0
  0
APPID
  2
ACDBBLOCKREPETAG
 70
     0
  0
APPID
  2
ACAUTHENVIRON
 70
     0
  0
APPID
  2
ACDBDYNAMICBLOCKTRUENAME
 70
     0
  0
APPID
  2
GENIUS_GENREC_14
 70
     0
  0
APPID
  2
GENIUS_GENOBJ-N-REC_13
 70
     0
  0
APPID
  2
GENIUS_GENODEF_13
 70
     0
  0
APPID
  2
ACAD_EXEMPT_FROM_CAD_STANDARDS
 70
     0
  0
APPID
  2
GENIUS_GENOBJ-N-CEN_13
 70
     0
  0
APPID
  2
GENIUS_GENCEN_19
 70
     0
  0
APPID
  2
ACAD_DSTYLE_DIMINSPECT
 70
     0
  0
APPID
  2
DCO15
 70
     0
  0
APPID
  2
ACAD_PSEXT
 70
     0
  0
APPID
  2
GENIUS_GENBH_13
 70
     0
  0
APPID
  2
GENIUS_GENOENT_13
 70
     0
  0
APPID
  2
GENIUS_GENOLIS_13
 70
     0
  0
APPID
  2
GENIUS_GENOBJ-NBEHI-BHF_13
 70
     0
  0
APPID
  2
GENIUS_GENOREF_13
 70
     0
  0
APPID
  2
GENIUS_GENOBJ-NBEHI-BHB_13
 70
     0
  0
APPID
  2
AMG_2DHIDE
 70
     0
  0
APPID
  2
AMG_2DSTRUCT_BTR
 70
     0
  0
APPID
  2
GENIUS_AMGTXT_16
 70
     0
  0
APPID
  2
GENIUS_GENOBJ-N-HTC_13
 70
     0
  0
APPID
  2
GENIUS_GENHATCH_13
 70
     0
  0
APPID
  2
GEVID1208849169
 70
     0
  0
APPID
  2
GEVDC
 70
     0
  0
APPID
  2
ACADM_2DVIEW_IGN_NOTIFY
 70
     0
  0
APPID
  2
GEVID1208849170
 70
     0
  0
APPID
  2
GEVID1208849171
 70
     0
  0
APPID
  2
GEVRADREF
 70
     0
  0
APPID
  2
ACAD_DSTYLE_DIMJAG
 70
     0
  0
APPID
  2
ACAD_DSTYLE_DIMTALN
 70
     0
  0
APPID
  2
GENIUS_GENDTOL_13
 70
     0
  0
APPID
  2
GENIUS_GENTRA_14
 70
     0
  0
APPID
  2
GENIUS_GENOBJ-N-TIT_13
 70
     0
  0
APPID
  2
GENIUS_GENTITLE_13
 70
     0
  0
APPID
  2
GENIUS_GENSCREG_15
 70
     0
  0
APPID
  2
GENIUS_GENOBJ-N-SDF_13
 70
     0
  0
APPID
  2
ACAD_DSTYLE_DIMRADIAL_EXTENSION
 70
     0
  0
APPID
  2
GENIUS_GENOBJ-N-FIL_13
 70
     0
  0
APPID
  2
GENIUS_GENOBJ-N-CRS_13
 70
     0
  0
APPID
  2
GENIUS_GENDIMSH_14
 70
     0
  0
APPID
  2
ACAD_DSTYLE_DIMANGULAR_EXT
 70
     0
  0
APPID
  2
ACAD_NAV_VCDISPLAY
 70
     0
  0
APPID
  2
ACAD_DSTYLE_DIMBREAK
 70
     0
  0
APPID
  2
ACAD_DSTYLE_DIMARC_LENGTH_
 70
     0
  0
APPID
  2
ACAD_DSTYLE_DIM_LINETYPE
 70
     0
  0
APPID
  2
ACAD_DSTYLE_DIM_EXT1_LINETYPE
 70
     0
  0
APPID
  2
ACAD_DSTYLE_DIM_EXT2_LINETYPE
 70
     0
  0
APPID
  2
ACDBATTR
 70
     0
  0
APPID
  2
GENIUS_GENSCREG_13
 70
     0
  0
ENDTAB
  0
TABLE
  2
DIMSTYLE
 70
    10
  0
DIMSTYLE
  2
STANDARD
 70
     0
  3

  4

  5

  6

  7

 40
1.0
 41
1.0
 42
0.8
 43
0.38
 44
1.0
 45
0.0
 46
0.0
 47
0.0
 48
0.0
140
3.1000000000000001
141
0.09
142
0.0
143
25.399999999999999
144
1.0
145
0.5
146
1.0
147
0.09
 71
     0
 72
     0
 73
     0
 74
     0
 75
     0
 76
     0
 77
     1
 78
     0
170
     0
171
     2
172
     0
173
     0
174
     0
175
     0
176
     0
177
     0
178
     0
  0
DIMSTYLE
  2
AM_JIS
 70
     0
  3

  4
"
  5
OPEN30
  6

  7

 40
1.0
 41
2.5
 42
1.0
 43
7.0
 44
1.0
 45
0.0
 46
0.0
 47
0.1
 48
0.1
140
3.0
141
0.0
142
0.0
143
0.0393701
144
1.0
145
0.0
146
0.71
147
1.0
 71
     0
 72
     0
 73
     0
 74
     0
 75
     0
 76
     0
 77
     3
 78
     8
170
     0
171
     2
172
     1
173
     0
174
     0
175
     0
176
     7
177
     7
178
     7
  0
DIMSTYLE
  2
AM_ISO
 70
     0
  3

  4
"
  5

  6

  7

 40
1.0
 41
2.5
 42
1.0
 43
10.0
 44
1.0
 45
0.0
 46
0.0
 47
0.1
 48
0.1
140
3.5
141
0.0
142
0.0
143
0.0393701
144
1.0
145
0.0
146
0.71
147
1.5
 71
     0
 72
     0
 73
     0
 74
     0
 75
     0
 76
     0
 77
     1
 78
     8
170
     0
171
     2
172
     1
173
     0
174
     0
175
     0
176
   256
177
   256
178
     2
  0
DIMSTYLE
  2
AM_ISO$3
 70
     0
  3

  4
"
  5

  6

  7

 40
1.0
 41
2.5
 42
1.0
 43
10.0
 44
1.0
 45
0.0
 46
0.0
 47
0.1
 48
0.1
140
3.5
141
0.0
142
0.0
143
0.0393701
144
1.0
145
0.0
146
0.71
147
1.5
 71
     0
 72
     0
 73
     0
 74
     1
 75
     0
 76
     0
 77
     1
 78
     8
170
     0
171
     2
172
     0
173
     0
174
     0
175
     0
176
   256
177
   256
178
     2
  0
DIMSTYLE
  2
AM_ISO$4
 70
     0
  3

  4
"
  5

  6

  7

 40
1.0
 41
2.5
 42
1.0
 43
10.0
 44
1.0
 45
0.0
 46
0.0
 47
0.1
 48
0.1
140
3.5
141
0.0
142
0.0
143
0.0393701
144
1.0
145
0.0
146
0.71
147
1.5
 71
     0
 72
     0
 73
     0
 74
     1
 75
     0
 76
     0
 77
     1
 78
     8
170
     0
171
     2
172
     0
173
     0
174
     0
175
     0
176
   256
177
   256
178
     2
  0
DIMSTYLE
  2
AM_ISO$6
 70
     0
  3

  4
"
  5

  6

  7

 40
1.0
 41
2.5
 42
1.0
 43
10.0
 44
1.0
 45
0.0
 46
0.0
 47
0.1
 48
0.1
140
3.5
141
0.0
142
0.0
143
0.0393701
144
1.0
145
0.0
146
0.71
147
1.5
 71
     0
 72
     0
 73
     0
 74
     0
 75
     0
 76
     0
 77
     0
 78
     8
170
     0
171
     2
172
     1
173
     0
174
     0
175
     0
176
   256
177
   256
178
     2
  0
DIMSTYLE
  2
AM_ISO$7
 70
     0
  3

  4
"
  5

  6

  7

 40
1.0
 41
2.5
 42
1.0
 43
10.0
 44
1.0
 45
0.0
 46
0.0
 47
0.1
 48
0.1
140
5.0
141
0.0
142
0.0
143
0.0393701
144
1.0
145
0.0
146
0.71
147
1.5
 71
     0
 72
     0
 73
     0
 74
     0
 75
     0
 76
     0
 77
     1
 78
     8
170
     0
171
     2
172
     1
173
     0
174
     0
175
     0
176
   256
177
   256
178
     2
  0
DIMSTYLE
  2
AM_ISO$SF
 70
     0
  3

  4
"
  5

  6

  7

 40
1.0
 41
2.5
 42
1.0
 43
10.0
 44
1.0
 45
0.0
 46
0.0
 47
0.1
 48
0.1
140
3.5
141
0.0
142
0.0
143
0.0393701
144
1.0
145
0.0
146
0.71
147
1.5
 71
     0
 72
     0
 73
     0
 74
     0
 75
     1
 76
     1
 77
     1
 78
     8
170
     0
171
     2
172
     1
173
     0
174
     0
175
     0
176
   256
177
   256
178
     2
  0
DIMSTYLE
  2
AM_ISO$SH
 70
     0
  3

  4
"
  5

  6
GENAXEH
  7

 40
1.0
 41
2.5
 42
1.0
 43
10.0
 44
1.0
 45
0.0
 46
0.0
 47
0.1
 48
0.1
140
3.5
141
0.0
142
0.0
143
0.0393701
144
2.0
145
0.0
146
0.71
147
1.5
 71
     0
 72
     0
 73
     0
 74
     0
 75
     1
 76
     1
 77
     1
 78
     8
170
     0
171
     2
172
     1
173
     1
174
     0
175
     0
176
   256
177
   256
178
     2
  0
ENDTAB
  0
ENDSEC
  0
SECTION
  2
BLOCKS
  0
BLOCK
  8
0
  2
$MODEL_SPACE
 70
     0
 10
0.0
 20
0.0
 30
0.0
  3
$MODEL_SPACE
  1

  0
ENDBLK
  5
1D3
  8
0
  0
BLOCK
 67
     1
  8
0
  2
$PAPER_SPACE
 70
     0
 10
0.0
 20
0.0
 30
0.0
  3
$PAPER_SPACE
  1

  0
ENDBLK
  5
1D1
 67
     1
  8
0
  0
BLOCK
  8
0
  2
GENAXEH
 70
     0
 10
0.0
 20
0.0
 30
0.0
  3
GENAXEH
  1

  0
LINE
  5
264
  8
0
 10
-1.0
 20
0.0
 30
0.0
 11
1.0
 21
0.0
 31
0.0
  0
ENDBLK
  5
266
  8
0
  0
BLOCK
  8
0
  2
_OPEN30
 70
     0
 10
0.0
 20
0.0
 30
0.0
  3
_OPEN30
  1

  0
LINE
  5
2FA
  8
0
  6
BYBLOCK
 62
     0
 10
-1.0
 20
0.26794919
 30
0.0
 11
0.0
 21
0.0
 31
0.0
  0
LINE
  5
2FB
  8
0
  6
BYBLOCK
 62
     0
 10
0.0
 20
0.0
 30
0.0
 11
-1.0
 21
-0.26794919
 31
0.0
  0
LINE
  5
2FC
  8
0
  6
BYBLOCK
 62
     0
 10
0.0
 20
0.0
 30
0.0
 11
-1.0
 21
0.0
 31
0.0
  0
ENDBLK
  5
2FE
  8
0
  0
BLOCK
  8
0
  2
ZUWAKU-A4H
 70
     0
 10
0.0
 20
0.0
 30
0.0
  3
ZUWAKU-A4H
  1

  0
LINE
  5
1B9F
  8
AM_BOR
 62
     3
 10
12.956999999995089
 20
201.1206999999936
 30
0.0
 11
12.956999999999759
 21
10.0
 31
0.0
  0
LINE
  5
1BA0
  8
AM_BOR
 62
     3
 10
289.45700000038528
 20
201.12069999985769
 30
0.0
 11
289.45700000001921
 21
10.0
 31
0.0
  0
LINE
  5
1BA1
  8
AM_BOR
 62
     3
 10
12.95699999999508
 20
201.1206999999936
 30
0.0
 11
289.45700000038528
 21
201.12069999985769
 31
0.0
  0
LINE
  5
1BA2
  8
AM_BOR
 62
     3
 10
12.95699999999974
 20
10.0
 30
0.0
 11
289.45700000001921
 21
10.0
 31
0.0
  0
TEXT
  5
1BA3
  8
SYS-TEISEI0
  6
CONTINUOUS
 62
     3
 10
21.84200001765786
 20
20.950000047683719
 30
0.0
 40
3.099999904632567
  1
 
  0
TEXT
  5
1BA4
  8
SYS-TEISEI0
  6
CONTINUOUS
 62
     3
 10
47.342000044479938
 20
20.950000047683719
 30
0.0
 40
3.099999904632567
  1
 
  0
TEXT
  5
1BA5
  8
SYS-TEISEI0
  6
CONTINUOUS
 62
     3
 10
106.7019999570846
 20
20.950000047683719
 30
0.0
 40
3.099999904632567
  1
 
  0
TEXT
  5
1BA6
  8
SYS-TEISEI0
  6
CONTINUOUS
 62
     3
 10
114.4019999570846
 20
20.950000047683719
 30
0.0
 40
3.099999904632567
  1
 
  0
TEXT
  5
1BA7
  8
SYS-TEISEI0
  6
CONTINUOUS
 62
     3
 10
21.84200001765786
 20
25.950000047683719
 30
0.0
 40
3.099999904632567
  1
 
  0
TEXT
  5
1BA8
  8
SYS-TEISEI0
  6
CONTINUOUS
 62
     3
 10
47.342000044479938
 20
25.950000047683719
 30
0.0
 40
3.099999904632567
  1
 
  0
TEXT
  5
1BA9
  8
SYS-TEISEI0
  6
CONTINUOUS
 62
     3
 10
106.7019999570846
 20
25.950000047683719
 30
0.0
 40
3.099999904632567
  1
 
  0
TEXT
  5
1BAA
  8
SYS-TEISEI0
  6
CONTINUOUS
 62
     3
 10
114.4019999570846
 20
25.950000047683719
 30
0.0
 40
3.099999904632567
  1
 
  0
TEXT
  5
1BAB
  8
SYS-BUHIN0
  6
CONTINUOUS
 62
     3
 10
260.70699999999999
 20
52.450000047683723
 30
0.0
 40
3.099999904632567
  1
 
  0
TEXT
  5
1BAC
  8
SYS-BUHIN0
  6
CONTINUOUS
 62
     3
 10
260.70699999999999
 20
58.45000004768373
 30
0.0
 40
3.099999904632567
  1
 
  0
TEXT
  5
1BAD
  8
SYS-BUHIN0
  6
CONTINUOUS
 62
     3
 10
260.70699999999999
 20
64.450000047683716
 30
0.0
 40
3.099999904632567
  1
 
  0
TEXT
  5
1BAE
  8
AM_BOR
 10
12.956999999999759
 20
10.0
 30
0.0
 40
5.0
  1
!GENTITLE-LL
  0
TEXT
  5
1BAF
  8
AM_BOR
 10
289.45700000001921
 20
10.0
 30
0.0
 40
5.0
  1
!GENTITLE-INSERT
  0
TEXT
  5
1BB0
  8
AM_BOR
 10
289.45700000038528
 20
201.12069999985769
 30
0.0
 40
5.0
  1
!GENTITLE-RU
  0
TEXT
  5
1BB1
  8
AM_BOR
 10
297.0
 20
210.0
 30
0.0
 40
5.0
  1
!GENTITLE-MAX
  0
ENDBLK
  5
1BB3
  8
0
  0
BLOCK
  8
0
  2
A$C1C06296A
 70
     2
 10
0.0
 20
0.0
 30
0.0
  3
A$C1C06296A
  1

  0
LINE
  5
204C
  8
AM_BOR
 10
198.86851880399371
 20
17.886744577931989
 30
0.0
 11
203.2337455721775
 21
13.521517809748619
 31
0.0
  0
LINE
  5
204D
  8
AM_BOR
 10
198.8685188039936
 20
17.866715351316039
 30
0.0
 11
198.86851880399399
 21
14.128964361178911
 31
0.0
  0
LINE
  5
204E
  8
AM_BOR
 10
204.7045172738834
 20
17.866715326469411
 30
0.0
 11
204.70451727388391
 21
14.181128845625549
 31
0.0
  0
LINE
  5
204F
  8
AM_BOR
 10
204.20428883360731
 20
17.793010290175861
 30
0.0
 11
204.204288833607
 21
14.69861035774108
 31
0.0
  0
LINE
  5
2050
  8
AM_BOR
 10
199.3687472442698
 20
17.176052465333349
 30
0.0
 11
199.36874724427059
 21
14.197800355103411
 31
0.0
  0
LINE
  5
2051
  8
AM_BOR
 10
200.43756462039269
 20
18.46533457095553
 30
0.0
 11
204.20428883360731
 21
14.69861035774052
 31
0.0
  0
LINE
  5
2052
  8
AM_BOR
 10
199.36874724426971
 20
17.17605246533255
 30
0.0
 11
203.02713287203409
 21
13.51766683756852
 31
0.0
  0
ARC
  5
2053
  8
AM_BOR
 10
198.36829036868701
 20
17.866715351316049
 30
0.0
 40
0.5002284402762121
 50
0.0
 51
50.265515568291427
  0
ARC
  5
2054
  8
AM_BOR
 10
198.36829034384081
 20
14.12896436117892
 30
0.0
 40
0.5002284402762121
 50
304.69759678405279
 51
0.0
  0
ARC
  5
2055
  8
AM_BOR
 10
205.20474573403669
 20
17.866715326469411
 30
0.0
 40
0.5002284402762121
 50
127.0284887689633
 51
180.00000500895629
  0
ARC
  5
2056
  8
AM_BOR
 10
203.53731756996689
 20
17.793010290175818
 30
0.0
 40
0.6669712537016159
 50
0.0
 51
74.714823568866152
  0
ARC
  5
2057
  8
AM_BOR
 10
200.03571849797169
 20
14.197800355103389
 30
0.0
 40
0.6669712537016159
 50
180.00000500895629
 51
256.4857883914604
  0
LINE
  5
2058
  8
AM_BOR
 10
210.95737277733619
 20
15.993445664994679
 30
0.0
 11
210.9224749062999
 21
16.211434571273589
 31
0.0
  0
LINE
  5
2059
  8
AM_BOR
 10
210.92247490629941
 20
16.211434571273411
 30
0.0
 11
210.8180468870608
 21
16.42776445035037
 31
0.0
  0
LINE
  5
205A
  8
AM_BOR
 10
210.8180468870604
 20
16.42776445035037
 30
0.0
 11
210.64488347990149
 21
16.640788901221669
 31
0.0
  0
LINE
  5
205B
  8
AM_BOR
 10
210.6448834799013
 20
16.640788901221619
 30
0.0
 11
210.40430256290981
 21
16.848886679188759
 31
0.0
  0
LINE
  5
205C
  8
AM_BOR
 10
210.40430256290949
 20
16.848886679189
 30
0.0
 11
210.0981351021297
 21
17.050474034508689
 31
0.0
  0
LINE
  5
205D
  8
AM_BOR
 10
210.09813510212999
 20
17.05047403450855
 30
0.0
 11
209.7287112168076
 21
17.244016765685139
 31
0.0
  0
LINE
  5
205E
  8
AM_BOR
 10
209.72871121680711
 20
17.24401676568521
 30
0.0
 11
209.29884244577369
 21
17.428041895669988
 31
0.0
  0
LINE
  5
205F
  8
AM_BOR
 10
209.29884244577369
 20
17.428041895670081
 30
0.0
 11
208.81180034993889
 21
17.601148882106369
 31
0.0
  0
LINE
  5
2060
  8
AM_BOR
 10
208.81180034993889
 20
17.60114888210644
 30
0.0
 11
208.27129161373591
 21
17.76202027630297
 31
0.0
  0
LINE
  5
2061
  8
AM_BOR
 10
208.27129161373611
 20
17.76202027630309
 30
0.0
 11
207.68142983501551
 21
17.909431749813081
 31
0.0
  0
LINE
  5
2062
  8
AM_BOR
 10
207.68142983501531
 20
17.90943174981297
 30
0.0
 11
207.04670421808169
 21
18.042261412313358
 31
0.0
  0
LINE
  5
2063
  8
AM_BOR
 10
207.04670421808169
 20
18.04226141231344
 30
0.0
 11
206.37194540813729
 21
18.15949834986797
 31
0.0
  0
LINE
  5
2064
  8
AM_BOR
 10
206.37194540813749
 20
18.159498349867881
 30
0.0
 11
205.66228872715681
 21
18.260250318592298
 31
0.0
  0
LINE
  5
2065
  8
AM_BOR
 10
205.66228872715661
 20
18.260250318592369
 30
0.0
 11
205.02242374599979
 21
18.33253416039674
 31
0.0
  0
LINE
  5
2066
  8
AM_BOR
 10
205.02242374599939
 20
18.332534160396779
 30
0.0
 11
204.92313509098369
 21
18.343750535168819
 31
0.0
  0
LINE
  5
2067
  8
AM_BOR
 10
204.92313509098369
 20
18.343750535168748
 30
0.0
 11
204.16010990510409
 21
18.409363512530259
 31
0.0
  0
LINE
  5
2068
  8
AM_BOR
 10
204.1601099051048
 20
18.409363512530259
 30
0.0
 11
203.71314686010501
 21
18.436387872932471
 31
0.0
  0
LINE
  5
2069
  8
AM_BOR
 10
200.43756462039249
 20
18.465334570955569
 30
0.0
 11
200.19401582596791
 21
18.45658989630088
 31
0.0
  0
LINE
  5
206A
  8
AM_BOR
 10
200.19401582596799
 20
18.456589896300901
 30
0.0
 11
199.41292617277259
 21
18.409363512530309
 31
0.0
  0
LINE
  5
206B
  8
AM_BOR
 10
199.41292617277259
 20
18.409363512530248
 30
0.0
 11
198.64990098689299
 21
18.343750535168759
 31
0.0
  0
LINE
  5
206C
  8
AM_BOR
 10
198.5506123731563
 20
18.332534165059979
 30
0.0
 11
197.9107473507209
 21
18.260250318592469
 31
0.0
  0
LINE
  5
206D
  8
AM_BOR
 10
198.64990098689299
 20
18.343750535168791
 30
0.0
 11
198.5506123731563
 21
18.332534165059919
 31
0.0
  0
LINE
  5
206E
  8
AM_BOR
 10
197.91074735072121
 20
18.26025031859243
 30
0.0
 11
197.20109066974049
 21
18.159498349868041
 31
0.0
  0
LINE
  5
206F
  8
AM_BOR
 10
197.20109066974041
 20
18.159498349868091
 30
0.0
 11
196.52633185979579
 21
18.042261412313529
 31
0.0
  0
LINE
  5
2070
  8
AM_BOR
 10
196.5263318597959
 20
18.042261412313589
 30
0.0
 11
195.89160624286239
 21
17.909431749813219
 31
0.0
  0
LINE
  5
2071
  8
AM_BOR
 10
195.89160624286171
 20
17.90943174981302
 30
0.0
 11
195.30174446414119
 21
17.762020276303058
 31
0.0
  0
LINE
  5
2072
  8
AM_BOR
 10
195.301744464141
 20
17.762020276303161
 30
0.0
 11
194.76123572793779
 21
17.60114888210661
 31
0.0
  0
LINE
  5
2073
  8
AM_BOR
 10
194.76123572793779
 20
17.60114888210656
 30
0.0
 11
194.27419363210299
 21
17.428041895670152
 31
0.0
  0
LINE
  5
2074
  8
AM_BOR
 10
194.27419363210339
 20
17.428041895670152
 30
0.0
 11
193.84432486106959
 21
17.244016765685259
 31
0.0
  0
LINE
  5
2075
  8
AM_BOR
 10
193.84432486106959
 20
17.24401676568521
 30
0.0
 11
193.4749009757472
 21
17.05047403450865
 31
0.0
  0
LINE
  5
2076
  8
AM_BOR
 10
193.4749009757472
 20
17.050474034508671
 30
0.0
 11
193.16873351496719
 21
16.848886679188929
 31
0.0
  0
LINE
  5
2077
  8
AM_BOR
 10
193.1687335149673
 20
16.848886679188951
 30
0.0
 11
192.92815259797499
 21
16.640788901221619
 31
0.0
  0
LINE
  5
2078
  8
AM_BOR
 10
192.9281525979753
 20
16.640788901221811
 30
0.0
 11
192.75498919081639
 21
16.42776445035042
 31
0.0
  0
LINE
  5
2079
  8
AM_BOR
 10
192.75498919081639
 20
16.427764450350349
 30
0.0
 11
192.65056117157769
 21
16.211434571273479
 31
0.0
  0
LINE
  5
207A
  8
AM_BOR
 10
192.65056117157789
 20
16.211434571273731
 30
0.0
 11
192.61566330054151
 21
15.993445664994679
 31
0.0
  0
LINE
  5
207B
  8
AM_BOR
 10
192.61566330054069
 20
15.99344566499464
 30
0.0
 11
192.65056117157721
 21
15.775456758715791
 31
0.0
  0
LINE
  5
207C
  8
AM_BOR
 10
192.65056117157769
 20
15.775456758715929
 30
0.0
 11
192.7549891908163
 21
15.55912687963913
 31
0.0
  0
LINE
  5
207D
  8
AM_BOR
 10
192.75498919081639
 20
15.559126879639029
 30
0.0
 11
192.9281525979753
 21
15.34610242876764
 31
0.0
  0
LINE
  5
207E
  8
AM_BOR
 10
192.9281525979751
 20
15.34610242876769
 30
0.0
 11
193.16873351496719
 21
15.1380046508005
 31
0.0
  0
LINE
  5
207F
  8
AM_BOR
 10
193.1687335149669
 20
15.1380046508005
 30
0.0
 11
193.47490097574689
 21
14.93641729548081
 31
0.0
  0
LINE
  5
2080
  8
AM_BOR
 10
193.47490097574729
 20
14.936417295480711
 30
0.0
 11
193.84432486106959
 21
14.742874564304079
 31
0.0
  0
LINE
  5
2081
  8
AM_BOR
 10
193.84432486106951
 20
14.74287456430417
 30
0.0
 11
194.27419363210271
 21
14.558849434319351
 31
0.0
  0
LINE
  5
2082
  8
AM_BOR
 10
194.27419363210319
 20
14.558849434319439
 30
0.0
 11
194.7612357279379
 21
14.38574244788296
 31
0.0
  0
LINE
  5
2083
  8
AM_BOR
 10
194.76123572793779
 20
14.38574244788277
 30
0.0
 11
195.301744464141
 21
14.22487105368617
 31
0.0
  0
LINE
  5
2084
  8
AM_BOR
 10
195.301744464141
 20
14.224871053686311
 30
0.0
 11
195.891606242862
 21
14.077459580176351
 31
0.0
  0
LINE
  5
2085
  8
AM_BOR
 10
195.89160624286191
 20
14.077459580176219
 30
0.0
 11
196.52633185979579
 21
13.94462991767579
 31
0.0
  0
LINE
  5
2086
  8
AM_BOR
 10
196.52633185979539
 20
13.944629917675821
 30
0.0
 11
197.2010906697397
 21
13.827392980121321
 31
0.0
  0
LINE
  5
2087
  8
AM_BOR
 10
197.20109066974049
 20
13.82739298012133
 30
0.0
 11
197.9107473507209
 21
13.726641011397049
 31
0.0
  0
LINE
  5
2088
  8
AM_BOR
 10
197.9107473507205
 20
13.72664101139711
 30
0.0
 11
198.5412166771807
 21
13.655418571666219
 31
0.0
  0
LINE
  5
2089
  8
AM_BOR
 10
198.54121667717999
 20
13.65541857166625
 30
0.0
 11
198.64990098689259
 21
13.643140794820731
 31
0.0
  0
LINE
  5
208A
  8
AM_BOR
 10
198.6499009868929
 20
13.643140794820679
 30
0.0
 11
199.41292617277259
 21
13.57752781745919
 31
0.0
  0
LINE
  5
208B
  8
AM_BOR
 10
199.41292617277259
 20
13.577527817459201
 30
0.0
 11
199.8798563250744
 21
13.54929620220682
 31
0.0
  0
LINE
  5
208C
  8
AM_BOR
 10
203.0271328720325
 20
13.51766683756999
 30
0.0
 11
203.37902025190911
 21
13.530301433688649
 31
0.0
  0
LINE
  5
208D
  8
AM_BOR
 10
203.3790202519092
 20
13.530301433688599
 30
0.0
 11
204.16010990510441
 21
13.57752781745919
 31
0.0
  0
LINE
  5
208E
  8
AM_BOR
 10
204.70451727388399
 20
13.624341722195579
 30
0.0
 11
204.9231350909844
 21
13.64314079482075
 31
0.0
  0
LINE
  5
208F
  8
AM_BOR
 10
204.16010990510441
 20
13.57752781745917
 30
0.0
 11
204.70451727388379
 21
13.62434172219551
 31
0.0
  0
LINE
  5
2090
  8
AM_BOR
 10
204.92313509098409
 20
13.643140794820759
 30
0.0
 11
205.66228872715669
 21
13.726641011397151
 31
0.0
  0
LINE
  5
2091
  8
AM_BOR
 10
205.66228872715661
 20
13.72664101139711
 30
0.0
 11
206.37194540813709
 21
13.827392980121401
 31
0.0
  0
LINE
  5
2092
  8
AM_BOR
 10
206.37194540813749
 20
13.82739298012145
 30
0.0
 11
207.04670421808191
 21
13.94462991767594
 31
0.0
  0
LINE
  5
2093
  8
AM_BOR
 10
207.04670421808169
 20
13.94462991767597
 30
0.0
 11
207.68142983501559
 21
14.07745958017637
 31
0.0
  0
LINE
  5
2094
  8
AM_BOR
 10
207.68142983501551
 20
14.07745958017629
 30
0.0
 11
208.27129161373611
 21
14.22487105368625
 31
0.0
  0
LINE
  5
2095
  8
AM_BOR
 10
208.2712916137362
 20
14.224871053686289
 30
0.0
 11
208.81180034993929
 21
14.38574244788289
 31
0.0
  0
LINE
  5
2096
  8
AM_BOR
 10
208.81180034993929
 20
14.385742447882921
 30
0.0
 11
209.29884244577411
 21
14.558849434319351
 31
0.0
  0
LINE
  5
2097
  8
AM_BOR
 10
209.298842445774
 20
14.55884943431932
 30
0.0
 11
209.72871121680751
 21
14.74287456430422
 31
0.0
  0
LINE
  5
2098
  8
AM_BOR
 10
209.72871121680711
 20
14.742874564304151
 30
0.0
 11
210.0981351021297
 21
14.93641729548083
 31
0.0
  0
LINE
  5
2099
  8
AM_BOR
 10
210.09813510212999
 20
14.93641729548081
 30
0.0
 11
210.40430256290989
 21
15.13800465080036
 31
0.0
  0
LINE
  5
209A
  8
AM_BOR
 10
210.40430256291
 20
15.13800465080055
 30
0.0
 11
210.64488347990201
 21
15.346102428767731
 31
0.0
  0
LINE
  5
209B
  8
AM_BOR
 10
210.64488347990169
 20
15.34610242876783
 30
0.0
 11
210.8180468870608
 21
15.559126879639029
 31
0.0
  0
LINE
  5
209C
  8
AM_BOR
 10
210.81804688706069
 20
15.559126879639059
 30
0.0
 11
210.92247490629899
 21
15.77545675871586
 31
0.0
  0
LINE
  5
209D
  8
AM_BOR
 10
210.92247490629981
 20
15.775456758715791
 30
0.0
 11
210.95737277733619
 21
15.993445664994621
 31
0.0
  0
LINE
  5
209E
  8
AM_BOR
 10
199.10514248704791
 20
18.382897015254191
 30
0.0
 11
203.92474251077411
 21
13.563296991527499
 31
0.0
  0
ARC
  5
209F
  8
AM_BOR
 10
205.2047457141602
 20
14.181128845625549
 30
0.0
 40
0.5002284402762121
 50
180.0
 51
244.5184856857075
  0
LINE
  5
20A0
  8
AM_BOR
 10
199.36521928176651
 20
18.405261169360589
 30
0.0
 11
204.19035209062989
 21
13.58012836049622
 31
0.0
  0
LINE
  5
20A1
  8
AM_BOR
 10
199.630408435547
 20
18.422512964405719
 30
0.0
 11
204.450428885349
 21
13.602492514602771
 31
0.0
  0
LINE
  5
20A2
  8
AM_BOR
 10
199.8967460324557
 20
18.438616316322719
 30
0.0
 11
204.70776895023289
 21
13.62759339854461
 31
0.0
  0
LINE
  5
20A3
  8
AM_BOR
 10
200.16308362936431
 20
18.454719668239761
 30
0.0
 11
204.9488987968831
 21
13.66890450072008
 31
0.0
  0
LINE
  5
20A4
  8
AM_BOR
 10
198.8450656923284
 20
18.36053286114759
 30
0.0
 11
203.6584049138651
 21
13.547193639610409
 31
0.0
  0
LINE
  5
20A5
  8
AM_BOR
 10
198.7943784573331
 20
18.12877914731807
 30
0.0
 11
203.39206731695711
 21
13.53109028769336
 31
0.0
  0
LINE
  5
20A6
  8
AM_BOR
 10
199.01830573664321
 20
18.375429872827009
 30
0.0
 11
199.01830573664321
 21
13.61146145716244
 31
0.0
  0
LINE
  5
20A7
  8
AM_BOR
 10
199.2180216468426
 20
18.39260355953768
 30
0.0
 11
199.2180216468426
 21
13.594287770451791
 31
0.0
  0
LINE
  5
20A8
  8
AM_BOR
 10
204.55473034123381
 20
18.375429872826999
 30
0.0
 11
204.55473034123381
 21
13.61146145716245
 31
0.0
  0
LINE
  5
20A9
  8
AM_BOR
 10
204.35501443103459
 20
18.39260355953764
 30
0.0
 11
204.35501443103459
 21
13.594287770451791
 31
0.0
  0
LINE
  5
20AA
  8
AM_BOR
 62
     4
 10
-0.0000001316067255
 20
15.000000173111291
 30
0.0
 11
190.49999986839319
 21
15.000000173111291
 31
0.0
  0
LINE
  5
20AB
  8
AM_BOR
 62
     4
 10
276.49999986839327
 20
28.000000173111289
 30
0.0
 11
276.49999986839327
 21
0.000000173111296
 31
0.0
  0
LINE
  5
20AC
  8
AM_BOR
 62
     4
 10
-0.0000001316067255
 20
15.000000173111291
 30
0.0
 11
-0.0000001316067255
 21
0.000000173111296
 31
0.0
  0
LINE
  5
20AD
  8
AM_BOR
 62
     4
 10
-0.0000001316067255
 20
28.000000173111289
 30
0.0
 11
276.49999986839327
 21
28.000000173111289
 31
0.0
  0
LINE
  5
20AE
  8
AM_BOR
 62
     4
 10
15.999999868393269
 20
15.000000173111291
 30
0.0
 11
15.999999868393269
 21
0.000000173111296
 31
0.0
  0
TEXT
  5
20AF
  8
AM_BOR
 62
     4
 10
215.17999986839331
 20
10.000000173111291
 30
0.0
 40
1.5
  1
NAKANISHI　INDUSTRIAL CO., LTD.
 41
1.5
  0
TEXT
  5
20B0
  8
AM_BOR
 62
     3
 10
213.19999986839329
 20
13.500000173111291
 30
0.0
 40
5.5
  1
中西産業株式会社
 41
1.1999999999999991
  0
TEXT
  5
20B1
  8
AM_BOR
 62
     4
 10
196.192787937406
 20
10.000000173111291
 30
0.0
 40
1.5
  1
Nakanishi
 41
1.1999999999999991
  0
TEXT
  5
20B2
  8
AM_BOR
 62
     7
 10
98.104999768257457
 20
15.650000185032219
 30
0.0
 40
1.0
  1
FINISH
 41
1.6000000000000001
  0
TEXT
  5
20B3
  8
AM_BOR
 62
     7
 10
96.979999708652798
 20
17.700000220795008
 30
0.0
 40
2.7999999999999989
  1
仕　　上
  0
TEXT
  5
20B4
  8
AM_BOR
 62
     7
 10
3.1549997801784002
 20
15.650000185032219
 30
0.0
 40
1.0
  1
MATERIAL
 41
1.6000000000000001
  0
TEXT
  5
20B5
  8
AM_BOR
 62
     7
 10
1.729999708652826
 20
17.700000220795008
 30
0.0
 40
2.7999999999999989
  1
材　　質
  0
LINE
  5
20B6
  8
AM_BOR
 62
     4
 10
190.49999986839319
 20
28.000000173111289
 30
0.0
 11
190.49999986839319
 21
0.000000173111296
 31
0.0
  0
LINE
  5
20B7
  8
AM_BOR
 62
     4
 10
-0.0000001316067255
 20
28.000000173111289
 30
0.0
 11
-0.0000001316067255
 21
15.000000173111291
 31
0.0
  0
LINE
  5
20B8
  8
AM_BOR
 62
     4
 10
-0.0000001316067255
 20
21.500000173111289
 30
0.0
 11
190.49999986839319
 21
21.500000173111289
 31
0.0
  0
LINE
  5
20B9
  8
AM_BOR
 62
     4
 10
15.999999868393269
 20
28.000000173111289
 30
0.0
 11
15.999999868393269
 21
15.000000173111291
 31
0.0
  0
TEXT
  5
20BA
  8
AM_BOR
 62
     7
 10
98.104999768257457
 20
22.150000185032219
 30
0.0
 40
1.0
  1
ART. NO.
 41
1.6000000000000001
  0
TEXT
  5
20BB
  8
AM_BOR
 62
     7
 10
96.979999708652684
 20
24.200000220795008
 30
0.0
 40
2.7999999999999989
  1
品　　番
  0
TEXT
  5
20BC
  8
AM_BOR
 62
     7
 10
3.1549997801784002
 20
22.150000185032219
 30
0.0
 40
1.0
  1
ARTICLE
 41
1.6000000000000001
  0
TEXT
  5
20BD
  8
AM_BOR
 62
     7
 10
1.7299997086527119
 20
24.200000220795008
 30
0.0
 40
2.7999999999999989
  1
品　　名
  0
LINE
  5
20BE
  8
AM_BOR
 62
     4
 10
-0.0000001316067255
 20
15.000000173111291
 30
0.0
 11
-0.0000001316067255
 21
0.0000001731112924
 31
0.0
  0
LINE
  5
20BF
  8
AM_BOR
 62
     4
 10
95.249999868393246
 20
28.000000173111289
 30
0.0
 11
95.249999868393246
 21
0.000000173111296
 31
0.0
  0
TEXT
  5
20C0
  8
AM_BOR
 62
     7
 10
3.1549997801784002
 20
9.1500001850322192
 30
0.0
 40
1.0
  1
REMARKS
 41
1.6000000000000001
  0
TEXT
  5
20C1
  8
AM_BOR
 62
     7
 10
1.7299997086527119
 20
11.20000022079501
 30
0.0
 40
2.7999999999999989
  1
備　　考
  0
LINE
  5
20C2
  8
AM_BOR
 62
     4
 10
111.2499998683932
 20
28.000000173111289
 30
0.0
 11
111.2499998683932
 21
0.000000173111296
 31
0.0
  0
LINE
  5
20C3
  8
AM_BOR
 62
     4
 10
-0.0000001316067255
 20
0.000000173111296
 30
0.0
 11
276.49999986839327
 21
0.000000173111296
 31
0.0
  0
TEXT
  5
20C4
  8
AM_BOR
 62
     7
 10
98.404999780178386
 20
9.1500001850322157
 30
0.0
 40
1.0
  1
SETS
 41
1.6000000000000001
  0
TEXT
  5
20C5
  8
AM_BOR
 62
     7
 10
96.979999708652684
 20
11.20000022079501
 30
0.0
 40
2.7999999999999989
  1
セット品
  0
ATTDEF
  5
20C6
  8
AM_BOR
 62
     7
 10
114.3107095753831
 20
0.5000001731112853
 30
0.0
 40
3.0
  1

 11
114.3107095753831
 21
2.0000001731112849
 31
0.0
  3
セット
  2
SETS｛20｝
 70
     0
 74
     2
1001
ACADANNOTATIVE
1000
AnnotativeData
1002
{
1070
     1
1070
     0
1002
}
1001
ACDBATTR
1070
     0
1070
     1
  0
ATTDEF
  5
20CA
  8
AM_BOR
 62
     7
 10
19.060709575383161
 20
0.5000001731112889
 30
0.0
 40
3.0
  1

 11
19.060709575383161
 21
2.000000173111288
 31
0.0
  3
備　　考
  2
REMARKS｛20｝
 70
     0
 74
     2
1001
ACADANNOTATIVE
1000
AnnotativeData
1002
{
1070
     1
1070
     0
1002
}
1001
ACDBATTR
1070
     0
1070
     1
  0
ATTDEF
  5
20CE
  8
AM_BOR
 62
     7
 10
114.3107095753831
 20
5.5000001731112853
 30
0.0
 40
3.0
  1

 11
114.3107095753831
 21
7.0000001731112853
 31
0.0
  3
セット
  2
SETS｛20｝
 70
     0
 74
     2
1001
ACADANNOTATIVE
1000
AnnotativeData
1002
{
1070
     1
1070
     0
1002
}
1001
ACDBATTR
1070
     0
1070
     1
  0
ATTDEF
  5
20D2
  8
AM_BOR
 62
     7
 10
19.060709575383161
 20
5.500000173111288
 30
0.0
 40
3.0
  1

 11
19.060709575383161
 21
7.000000173111288
 31
0.0
  3
備　　考
  2
REMARKS｛20｝
 70
     0
 74
     2
1001
ACADANNOTATIVE
1000
AnnotativeData
1002
{
1070
     1
1070
     0
1002
}
1001
ACDBATTR
1070
     0
1070
     1
  0
ATTDEF
  5
20D6
  8
AM_BOR
 62
     7
 10
114.3107095753831
 20
10.50000017311128
 30
0.0
 40
3.0
  1

 11
114.3107095753831
 21
12.00000017311128
 31
0.0
  3
セット
  2
SETS｛20｝
 70
     0
 74
     2
1001
ACADANNOTATIVE
1000
AnnotativeData
1002
{
1070
     1
1070
     0
1002
}
1001
ACDBATTR
1070
     0
1070
     1
  0
ATTDEF
  5
20DA
  8
AM_BOR
 62
     7
 10
19.060709575383161
 20
10.500000173111291
 30
0.0
 40
3.0
  1

 11
19.060709575383161
 21
12.000000173111291
 31
0.0
  3
備　　考
  2
REMARKS｛20｝
 70
     0
 74
     2
1001
ACADANNOTATIVE
1000
AnnotativeData
1002
{
1070
     1
1070
     0
1002
}
1001
ACDBATTR
1070
     0
1070
     1
  0
ATTDEF
  5
20DE
  8
AM_BOR
 62
     7
 10
114.2499998683932
 20
23.500000173111289
 30
0.0
 40
3.0
  1

 11
114.2499998683932
 21
25.000000173111289
 31
0.0
  3
品    番
  2
ART_NO｛20｝
 70
     0
 74
     2
1001
ACADANNOTATIVE
1000
AnnotativeData
1002
{
1070
     1
1070
     0
1002
}
1001
ACDBATTR
1070
     0
1070
     1
  0
ATTDEF
  5
20E2
  8
AM_BOR
 62
     7
 10
18.999999868393271
 20
23.500000173111289
 30
0.0
 40
3.0
  1

 11
18.999999868393271
 21
25.000000173111289
 31
0.0
  3
品    名
  2
ARTICLE｛20｝
 70
     0
 74
     2
1001
ACADANNOTATIVE
1000
AnnotativeData
1002
{
1070
     1
1070
     0
1002
}
1001
ACDBATTR
1070
     0
1070
     1
  0
ATTDEF
  5
20E6
  8
AM_BOR
 62
     7
 10
114.2499998683932
 20
17.000000173111289
 30
0.0
 40
3.0
  1

 11
114.2499998683932
 21
18.500000173111289
 31
0.0
  3
仕上
  2
FINISH｛20｝
 70
     0
 74
     2
1001
ACADANNOTATIVE
1000
AnnotativeData
1002
{
1070
     1
1070
     0
1002
}
1001
ACDBATTR
1070
     0
1070
     1
  0
ATTDEF
  5
20EA
  8
AM_BOR
 62
     7
 10
18.999999868393271
 20
17.000000173111289
 30
0.0
 40
3.0
  1

 11
18.999999868393271
 21
18.500000173111289
 31
0.0
  3
材　　質
  2
MATERIAK｛20｝
 70
     0
 74
     2
1001
ACADANNOTATIVE
1000
AnnotativeData
1002
{
1070
     1
1070
     0
1002
}
1001
ACDBATTR
1070
     0
1070
     1
  0
ENDBLK
  5
20F1
  8
0
  0
BLOCK
  8
0
  2
*D58
 70
     1
 10
0.0
 20
0.0
 30
0.0
  3
*D58
  1

  0
LINE
  5
3C34
  8
寸法線
 62
     0
 10
203.58805048480511
 20
152.76356423370589
 30
0.0
 11
218.2495544101298
 21
152.76356423370589
 31
0.0
  0
LINE
  5
3C35
  8
寸法線
 62
     0
 10
203.58805048480551
 20
175.76356423370561
 30
0.0
 11
218.2495544101298
 21
175.76356423370561
 31
0.0
  0
LINE
  5
3C36
  8
寸法線
 62
     0
 10
216.9995544101298
 20
155.26356423370589
 30
0.0
 11
216.9995544101298
 21
173.26356423370561
 31
0.0
  0
SOLID
  5
3C37
  8
寸法線
 62
     0
 10
216.58288774346309
 20
155.26356423370589
 30
0.0
 11
217.41622107679649
 21
155.26356423370589
 31
0.0
 12
216.9995544101298
 22
152.76356423370589
 32
0.0
 13
216.9995544101298
 23
152.76356423370589
 33
0.0
  0
SOLID
  5
3C38
  8
寸法線
 62
     0
 10
216.58288774346309
 20
173.26356423370561
 30
0.0
 11
217.41622107679649
 21
173.26356423370561
 31
0.0
 12
216.9995544101298
 22
175.76356423370561
 32
0.0
 13
216.9995544101298
 23
175.76356423370561
 33
0.0
  0
TEXT
  8
寸法線
  40
2.5
  5
3CD0
  62
0
  72
0
  71
0
 10
210.125
 20
159.839
 30
0.000000
  1
23
  0
POINT
  5
3C3A
  8
DEFPOINTS
 62
     0
 10
202.96305048480511
 20
152.76356423370589
 30
0.0
  0
POINT
  5
3C3B
  8
DEFPOINTS
 62
     0
 10
202.96305048480551
 20
175.76356423370561
 30
0.0
  0
POINT
  5
3C3C
  8
DEFPOINTS
 62
     0
 10
216.9995544101298
 20
175.76356423370561
 30
0.0
  0
ENDBLK
  5
39AB
  8
0
  0
BLOCK
  8
0
  2
*D59
 70
     1
 10
0.0
 20
0.0
 30
0.0
  3
*D59
  1

  0
LINE
  5
3C3D
  8
寸法線
 62
     0
 10
57.338050484805542
 20
154.76356423370589
 30
0.0
 11
50.478695503061772
 21
154.76356423370589
 31
0.0
  0
LINE
  5
3C3E
  8
寸法線
 62
     0
 10
57.338050484805542
 20
173.76356423370561
 30
0.0
 11
50.478695503061772
 21
173.76356423370561
 31
0.0
  0
LINE
  5
3C3F
  8
寸法線
 62
     0
 10
51.728695503061772
 20
157.26356423370589
 30
0.0
 11
51.728695503061772
 21
171.26356423370569
 31
0.0
  0
SOLID
  5
3C40
  8
寸法線
 62
     0
 10
51.3120288363951
 20
157.26356423370589
 30
0.0
 11
52.145362169728429
 21
157.26356423370589
 31
0.0
 12
51.728695503061772
 22
154.76356423370589
 32
0.0
 13
51.728695503061772
 23
154.76356423370589
 33
0.0
  0
SOLID
  5
3C41
  8
寸法線
 62
     0
 10
51.3120288363951
 20
171.26356423370569
 30
0.0
 11
52.145362169728429
 21
171.26356423370569
 31
0.0
 12
51.728695503061772
 22
173.76356423370561
 32
0.0
 13
51.728695503061772
 23
173.76356423370561
 33
0.0
  0
TEXT
  8
寸法線
  40
2.5
  5
3CD1
  62
0
  72
0
  71
0
 10
44.8537
 20
159.839
 30
0.000000
  1
19
  0
POINT
  5
3C43
  8
DEFPOINTS
 62
     0
 10
57.963050484805542
 20
154.76356423370589
 30
0.0
  0
POINT
  5
3C44
  8
DEFPOINTS
 62
     0
 10
57.963050484805542
 20
173.76356423370561
 30
0.0
  0
POINT
  5
3C45
  8
DEFPOINTS
 62
     0
 10
51.728695503061772
 20
173.76356423370561
 30
0.0
  0
ENDBLK
  5
39B7
  8
0
  0
BLOCK
  8
0
  2
*D60
 70
     1
 10
0.0
 20
0.0
 30
0.0
  3
*D60
  1

  0
LINE
  5
3C46
  8
寸法線
 62
     0
 10
57.963050484805542
 20
133.70304142220189
 30
0.0
 11
57.963050484805542
 21
144.41348390253549
 31
0.0
  0
LINE
  5
3C47
  8
寸法線
 62
     0
 10
207.96305048480599
 20
133.70304142220189
 30
0.0
 11
207.96305048480599
 21
144.41348390253549
 31
0.0
  0
LINE
  5
3C48
  8
寸法線
 62
     0
 10
60.463050484805542
 20
143.16348390253549
 30
0.0
 11
129.361860008615
 21
143.16348390253549
 31
0.0
  0
LINE
  5
3C49
  8
寸法線
 62
     0
 10
205.46305048480599
 20
143.16348390253549
 30
0.0
 11
136.56424096099599
 21
143.16348390253549
 31
0.0
  0
TEXT
  8
寸法線
  40
2.5
  5
3CD2
  62
0
  72
0
  71
0
 10
127.963
 20
138.738
 30
0.000000
  1
150
  0
SOLID
  5
3C4B
  8
寸法線
 62
     0
 10
60.463050484805542
 20
143.58015056920209
 30
0.0
 11
60.463050484805542
 21
142.7468172358688
 31
0.0
 12
57.963050484805542
 22
143.16348390253549
 32
0.0
 13
57.963050484805542
 23
143.16348390253549
 33
0.0
  0
SOLID
  5
3C4C
  8
寸法線
 62
     0
 10
205.46305048480599
 20
143.58015056920209
 30
0.0
 11
205.46305048480599
 21
142.7468172358688
 31
0.0
 12
207.96305048480599
 22
143.16348390253549
 32
0.0
 13
207.96305048480599
 23
143.16348390253549
 33
0.0
  0
POINT
  5
3C4D
  8
DEFPOINTS
 62
     0
 10
57.963050484805542
 20
133.07804142220201
 30
0.0
  0
POINT
  5
3C4E
  8
DEFPOINTS
 62
     0
 10
207.96305048480599
 20
133.07804142220201
 30
0.0
  0
POINT
  5
3C4F
  8
DEFPOINTS
 62
     0
 10
207.96305048480599
 20
143.16348390253549
 30
0.0
  0
ENDBLK
  5
39C3
  8
0
  0
BLOCK
  8
0
  2
*D61
 70
     1
 10
0.0
 20
0.0
 30
0.0
  3
*D61
  1

  0
LINE
  5
3C50
  8
寸法線
 62
     0
 10
120.96305048480509
 20
92.328041422201068
 30
0.0
 11
120.96305048480509
 21
137.49003456038909
 31
0.0
  0
LINE
  5
3C51
  8
寸法線
 62
     0
 10
207.96305048480599
 20
92.328041422201068
 30
0.0
 11
207.96305048480599
 21
137.49003456038909
 31
0.0
  0
LINE
  5
3C52
  8
寸法線
 62
     0
 10
123.46305048480509
 20
136.2400345603892
 30
0.0
 11
164.58495774385449
 21
136.2400345603892
 31
0.0
  0
LINE
  5
3C53
  8
寸法線
 62
     0
 10
205.46305048480599
 20
136.2400345603892
 30
0.0
 11
169.8825767914735
 21
136.2400345603892
 31
0.0
  0
TEXT
  8
寸法線
  40
2.5
  5
3CD3
  62
0
  72
0
  71
0
 10
162.234
 20
131.815
 30
0.000000
  1
87
  0
SOLID
  5
3C55
  8
寸法線
 62
     0
 10
123.46305048480509
 20
136.65670122705581
 30
0.0
 11
123.46305048480509
 21
135.82336789372249
 31
0.0
 12
120.96305048480509
 22
136.2400345603892
 32
0.0
 13
120.96305048480509
 23
136.2400345603892
 33
0.0
  0
SOLID
  5
3C56
  8
寸法線
 62
     0
 10
205.46305048480599
 20
136.65670122705581
 30
0.0
 11
205.46305048480599
 21
135.82336789372249
 31
0.0
 12
207.96305048480599
 22
136.2400345603892
 32
0.0
 13
207.96305048480599
 23
136.2400345603892
 33
0.0
  0
POINT
  5
3C57
  8
DEFPOINTS
 62
     0
 10
120.96305048480509
 20
91.703041422201068
 30
0.0
  0
POINT
  5
3C58
  8
DEFPOINTS
 62
     0
 10
207.96305048480599
 20
91.703041422201068
 30
0.0
  0
POINT
  5
3C59
  8
DEFPOINTS
 62
     0
 10
207.96305048480599
 20
136.2400345603892
 30
0.0
  0
ENDBLK
  5
39D0
  8
0
  0
BLOCK
  8
0
  2
*D62
 70
     1
 10
0.0
 20
0.0
 30
0.0
  3
*D62
  1

  0
LINE
  5
3C5A
  8
寸法線
 62
     0
 10
56.713050484805542
 20
132.07804142220311
 30
0.0
 11
41.743905269166589
 21
132.07804142220311
 31
0.0
  0
LINE
  5
3C5B
  8
寸法線
 62
     0
 10
54.338050484805542
 20
89.578041422201963
 30
0.0
 11
41.743905269166589
 21
89.578041422201963
 31
0.0
  0
LINE
  5
3C5C
  8
寸法線
 62
     0
 10
42.993905269166589
 20
129.57804142220311
 30
0.0
 11
42.993905269166589
 21
92.078041422201963
 31
0.0
  0
SOLID
  5
3C5D
  8
寸法線
 62
     0
 10
42.577238602499932
 20
129.57804142220311
 30
0.0
 11
43.410571935833261
 21
129.57804142220311
 31
0.0
 12
42.993905269166589
 22
132.07804142220311
 32
0.0
 13
42.993905269166589
 23
132.07804142220311
 33
0.0
  0
SOLID
  5
3C5E
  8
寸法線
 62
     0
 10
42.577238602499918
 20
92.078041422201963
 30
0.0
 11
43.410571935833246
 21
92.078041422201963
 31
0.0
 12
42.993905269166589
 22
89.578041422201963
 32
0.0
 13
42.993905269166589
 23
89.578041422201963
 33
0.0
  0
TEXT
  8
寸法線
  40
2.5
  5
3CD4
  62
0
  72
0
  71
0
 10
36.1189
 20
106.403
 30
0.000000
  1
42.5
  0
POINT
  5
3C60
  8
DEFPOINTS
 62
     0
 10
57.338050484805542
 20
132.07804142220311
 30
0.0
  0
POINT
  5
3C61
  8
DEFPOINTS
 62
     0
 10
54.963050484805542
 20
89.578041422201963
 30
0.0
  0
POINT
  5
3C62
  8
DEFPOINTS
 62
     0
 10
42.993905269166589
 20
89.578041422201963
 30
0.0
  0
ENDBLK
  5
39DD
  8
0
  0
BLOCK
  8
0
  2
*D63
 70
     1
 10
0.0
 20
0.0
 30
0.0
  3
*D63
  1

  0
LINE
  5
3C63
  8
寸法線
 62
     0
 10
53.189950052976201
 20
63.078041422201977
 30
0.0
 11
33.013290330655749
 21
63.078041422201991
 31
0.0
  0
LINE
  5
3C64
  8
寸法線
 62
     0
 10
51.103695503061772
 20
132.07804142220311
 30
0.0
 11
33.013290330655757
 21
132.07804142220311
 31
0.0
  0
LINE
  5
3C65
  8
寸法線
 62
     0
 10
34.263290330655749
 20
65.578041422201977
 30
0.0
 11
34.263290330655757
 21
129.57804142220311
 31
0.0
  0
SOLID
  5
3C66
  8
寸法線
 62
     0
 10
33.846623663989092
 20
65.578041422201977
 30
0.0
 11
34.679956997322421
 21
65.578041422201977
 31
0.0
 12
34.263290330655749
 22
63.078041422201991
 32
0.0
 13
34.263290330655749
 23
63.078041422201991
 33
0.0
  0
SOLID
  5
3C67
  8
寸法線
 62
     0
 10
33.846623663989099
 20
129.57804142220311
 30
0.0
 11
34.679956997322428
 21
129.57804142220311
 31
0.0
 12
34.263290330655757
 22
132.07804142220311
 32
0.0
 13
34.263290330655757
 23
132.07804142220311
 33
0.0
  0
TEXT
  8
寸法線
  40
2.5
  5
3CD5
  62
0
  72
0
  71
0
 10
27.3883
 20
93.1530
 30
0.000000
  1
69
  0
POINT
  5
3C69
  8
DEFPOINTS
 62
     0
 10
53.814950052976201
 20
63.078041422201977
 30
0.0
  0
POINT
  5
3C6A
  8
DEFPOINTS
 62
     0
 10
51.728695503061772
 20
132.07804142220311
 30
0.0
  0
POINT
  5
3C6B
  8
DEFPOINTS
 62
     0
 10
34.263290330655757
 20
132.07804142220311
 30
0.0
  0
ENDBLK
  5
39E9
  8
0
  0
BLOCK
  8
0
  2
*D64
 70
     1
 10
0.0
 20
0.0
 30
0.0
  3
*D64
  1

  0
LINE
  5
3C6C
  8
寸法線
 62
     0
 10
54.338050484805542
 20
89.578041422201963
 30
0.0
 11
41.743905269166589
 21
89.578041422201963
 31
0.0
  0
LINE
  5
3C6D
  8
寸法線
 62
     0
 10
82.33805048480599
 20
63.078041422201977
 30
0.0
 11
41.743905269166589
 21
63.078041422201991
 31
0.0
  0
LINE
  5
3C6E
  8
寸法線
 62
     0
 10
42.993905269166589
 20
87.078041422201963
 30
0.0
 11
42.993905269166589
 21
65.578041422201991
 31
0.0
  0
SOLID
  5
3C6F
  8
寸法線
 62
     0
 10
42.577238602499932
 20
87.078041422201963
 30
0.0
 11
43.410571935833261
 21
87.078041422201963
 31
0.0
 12
42.993905269166589
 22
89.578041422201963
 32
0.0
 13
42.993905269166589
 23
89.578041422201963
 33
0.0
  0
SOLID
  5
3C70
  8
寸法線
 62
     0
 10
42.577238602499918
 20
65.578041422201991
 30
0.0
 11
43.410571935833246
 21
65.578041422201991
 31
0.0
 12
42.993905269166589
 22
63.078041422201991
 32
0.0
 13
42.993905269166589
 23
63.078041422201991
 33
0.0
  0
TEXT
  8
寸法線
  40
2.5
  5
3CD6
  62
0
  72
0
  71
0
 10
36.1189
 20
71.9030
 30
0.000000
  1
26.5
  0
POINT
  5
3C72
  8
DEFPOINTS
 62
     0
 10
54.963050484805542
 20
89.578041422201963
 30
0.0
  0
POINT
  5
3C73
  8
DEFPOINTS
 62
     0
 10
82.96305048480599
 20
63.078041422201977
 30
0.0
  0
POINT
  5
3C74
  8
DEFPOINTS
 62
     0
 10
42.993905269166589
 20
63.078041422201991
 30
0.0
  0
ENDBLK
  5
39F5
  8
0
  0
BLOCK
  8
0
  2
*D65
 70
     1
 10
0.0
 20
0.0
 30
0.0
  3
*D65
  1

  0
LINE
  5
3C75
  8
寸法線
 62
     0
 10
82.963050484805308
 20
88.078041422202318
 30
0.0
 11
76.740872794288663
 21
81.379060789125845
 31
0.0
  0
LINE
  5
3C76
  8
寸法線
 62
     0
 10
69.692312129250581
 20
73.790371790719206
 30
0.0
 11
71.434197810840331
 21
75.665737462739102
 31
0.0
  0
TEXT
  8
寸法線
  40
2.5
  5
3CD7
  62
0
  72
0
  71
0
 10
69.0875
 20
74.0974
 30
0.000000
  1
R22
  0
SOLID
  5
3C78
  8
寸法線
 62
     0
 10
69.387020043107754
 20
74.073934576094302
 30
0.0
 11
69.99760421539338
 21
73.50680900534411
 31
0.0
 12
67.99093541699996
 22
71.958619273862382
 32
0.0
 13
67.99093541699996
 23
71.958619273862382
 33
0.0
  0
POINT
  5
3C79
  8
DEFPOINTS
 62
     0
 10
67.99093541699996
 20
71.958619273862382
 30
0.0
  0
POINT
  5
3C7A
  8
DEFPOINTS
 62
     0
 10
82.963050484805308
 20
88.078041422202318
 30
0.0
  0
ENDBLK
  5
3A01
  8
0
  0
BLOCK
  8
0
  2
*D66
 70
     1
 10
0.0
 20
0.0
 30
0.0
  3
*D66
  1

  0
LINE
  5
3C7B
  8
寸法線
 62
     0
 10
57.963050484805542
 20
132.70304142220311
 30
0.0
 11
57.963050484805542
 21
137.8784500629304
 31
0.0
  0
LINE
  5
3C7C
  8
寸法線
 62
     0
 10
60.96305048480508
 20
132.70304142220311
 30
0.0
 11
60.96305048480508
 21
137.8784500629304
 31
0.0
  0
LINE
  5
3C7D
  8
寸法線
 62
     0
 10
55.463050484805542
 20
136.62845006293031
 30
0.0
 11
52.963050484805542
 21
136.62845006293031
 31
0.0
  0
LINE
  5
3C7E
  8
寸法線
 62
     0
 10
63.46305048480508
 20
136.62845006293031
 30
0.0
 11
65.96305048480508
 21
136.62845006293031
 31
0.0
  0
LINE
  5
3C7F
  8
寸法線
 62
     0
 10
57.963050484805542
 20
136.62845006293031
 30
0.0
 11
60.96305048480508
 21
136.62845006293031
 31
0.0
  0
SOLID
  5
3C80
  8
寸法線
 62
     0
 10
55.463050484805542
 20
137.045116729597
 30
0.0
 11
55.463050484805542
 21
136.21178339626371
 31
0.0
 12
57.963050484805542
 22
136.62845006293031
 32
0.0
 13
57.963050484805542
 23
136.62845006293031
 33
0.0
  0
SOLID
  5
3C81
  8
寸法線
 62
     0
 10
63.46305048480508
 20
137.045116729597
 30
0.0
 11
63.46305048480508
 21
136.21178339626371
 31
0.0
 12
60.96305048480508
 22
136.62845006293031
 32
0.0
 13
60.96305048480508
 23
136.62845006293031
 33
0.0
  0
TEXT
  8
寸法線
  40
2.5
  5
3CD8
  62
0
  72
0
  71
0
 10
54.4631
 20
134.078
 30
0.000000
  1
3
  0
POINT
  5
3C83
  8
DEFPOINTS
 62
     0
 10
57.963050484805542
 20
132.07804142220311
 30
0.0
  0
POINT
  5
3C84
  8
DEFPOINTS
 62
     0
 10
60.96305048480508
 20
132.07804142220311
 30
0.0
  0
POINT
  5
3C85
  8
DEFPOINTS
 62
     0
 10
60.96305048480508
 20
136.62845006293031
 30
0.0
  0
ENDBLK
  5
3A0A
  8
0
  0
BLOCK
  8
0
  2
*D67
 70
     1
 10
0.0
 20
0.0
 30
0.0
  3
*D67
  1

  0
LINE
  5
3C86
  8
寸法線
 62
     0
 10
57.338050484805542
 20
132.07804142220311
 30
0.0
 11
50.478695503061772
 21
132.07804142220311
 31
0.0
  0
LINE
  5
3C87
  8
寸法線
 62
     0
 10
54.338050484805542
 20
122.57804142220169
 30
0.0
 11
50.478695503061772
 21
122.57804142220169
 31
0.0
  0
LINE
  5
3C88
  8
寸法線
 62
     0
 10
51.728695503061772
 20
129.57804142220311
 30
0.0
 11
51.728695503061772
 21
125.07804142220169
 31
0.0
  0
SOLID
  5
3C89
  8
寸法線
 62
     0
 10
51.3120288363951
 20
129.57804142220311
 30
0.0
 11
52.145362169728429
 21
129.57804142220311
 31
0.0
 12
51.728695503061772
 22
132.07804142220311
 32
0.0
 13
51.728695503061772
 23
132.07804142220311
 33
0.0
  0
SOLID
  5
3C8A
  8
寸法線
 62
     0
 10
51.3120288363951
 20
125.07804142220169
 30
0.0
 11
52.145362169728429
 21
125.07804142220169
 31
0.0
 12
51.728695503061772
 22
122.57804142220169
 32
0.0
 13
51.728695503061772
 23
122.57804142220169
 33
0.0
  0
TEXT
  8
寸法線
  40
2.5
  5
3CD9
  62
0
  72
0
  71
0
 10
44.8537
 20
122.903
 30
0.000000
  1
9.5
  0
POINT
  5
3C8C
  8
DEFPOINTS
 62
     0
 10
57.963050484805542
 20
132.07804142220311
 30
0.0
  0
POINT
  5
3C8D
  8
DEFPOINTS
 62
     0
 10
54.963050484805542
 20
122.57804142220169
 30
0.0
  0
POINT
  5
3C8E
  8
DEFPOINTS
 62
     0
 10
51.728695503061772
 20
122.57804142220169
 30
0.0
  0
ENDBLK
  5
3A18
  8
0
  0
BLOCK
  8
0
  2
*D68
 70
     1
 10
0.0
 20
0.0
 30
0.0
  3
*D68
  1

  0
LINE
  5
3C8F
  8
寸法線
 62
     0
 10
54.338050484805542
 20
122.57804142220169
 30
0.0
 11
50.478695503061772
 21
122.57804142220169
 31
0.0
  0
LINE
  5
3C90
  8
寸法線
 62
     0
 10
54.338050484805542
 20
99.578041422201963
 30
0.0
 11
50.478695503061772
 21
99.578041422201963
 31
0.0
  0
LINE
  5
3C91
  8
寸法線
 62
     0
 10
51.728695503061772
 20
120.07804142220169
 30
0.0
 11
51.728695503061772
 21
102.07804142220201
 31
0.0
  0
SOLID
  5
3C92
  8
寸法線
 62
     0
 10
51.312028836395108
 20
120.07804142220169
 30
0.0
 11
52.145362169728443
 21
120.07804142220169
 31
0.0
 12
51.728695503061772
 22
122.57804142220169
 32
0.0
 13
51.728695503061772
 23
122.57804142220169
 33
0.0
  0
SOLID
  5
3C93
  8
寸法線
 62
     0
 10
51.3120288363951
 20
102.07804142220201
 30
0.0
 11
52.145362169728429
 21
102.07804142220201
 31
0.0
 12
51.728695503061772
 22
99.578041422201963
 32
0.0
 13
51.728695503061772
 23
99.578041422201963
 33
0.0
  0
TEXT
  8
寸法線
  40
2.5
  5
3CDA
  62
0
  72
0
  71
0
 10
44.8537
 20
106.653
 30
0.000000
  1
23
  0
POINT
  5
3C95
  8
DEFPOINTS
 62
     0
 10
54.963050484805542
 20
122.57804142220169
 30
0.0
  0
POINT
  5
3C96
  8
DEFPOINTS
 62
     0
 10
54.963050484805542
 20
99.578041422201963
 30
0.0
  0
POINT
  5
3C97
  8
DEFPOINTS
 62
     0
 10
51.728695503061772
 20
99.578041422201963
 30
0.0
  0
ENDBLK
  5
3A24
  8
0
  0
BLOCK
  8
0
  2
*D69
 70
     1
 10
0.0
 20
0.0
 30
0.0
  3
*D69
  1

  0
LINE
  5
3C98
  8
寸法線
 62
     0
 10
120.96305048480509
 20
91.703041422201068
 30
0.0
 11
120.96305048480509
 21
137.8244450846459
 31
0.0
  0
LINE
  5
3C99
  8
寸法線
 62
     0
 10
60.96305048480508
 20
133.32804142220311
 30
0.0
 11
60.96305048480508
 21
137.8244450846459
 31
0.0
  0
LINE
  5
3C9A
  8
寸法線
 62
     0
 10
118.463050484805
 20
136.5744450846459
 30
0.0
 11
92.598715732625706
 21
136.5744450846459
 31
0.0
  0
LINE
  5
3C9B
  8
寸法線
 62
     0
 10
63.46305048480508
 20
136.5744450846459
 30
0.0
 11
87.301096685006655
 21
136.5744450846459
 31
0.0
  0
TEXT
  8
寸法線
  40
2.5
  5
3CDB
  62
0
  72
0
  71
0
 10
84.9499
 20
132.149
 30
0.000000
  1
60
  0
SOLID
  5
3C9D
  8
寸法線
 62
     0
 10
118.463050484805
 20
136.99111175131259
 30
0.0
 11
118.463050484805
 21
136.1577784179793
 31
0.0
 12
120.96305048480509
 22
136.5744450846459
 32
0.0
 13
120.96305048480509
 23
136.5744450846459
 33
0.0
  0
SOLID
  5
3C9E
  8
寸法線
 62
     0
 10
63.46305048480508
 20
136.99111175131259
 30
0.0
 11
63.46305048480508
 21
136.1577784179793
 31
0.0
 12
60.96305048480508
 22
136.5744450846459
 32
0.0
 13
60.96305048480508
 23
136.5744450846459
 33
0.0
  0
POINT
  5
3C9F
  8
DEFPOINTS
 62
     0
 10
120.96305048480509
 20
91.078041422201068
 30
0.0
  0
POINT
  5
3CA0
  8
DEFPOINTS
 62
     0
 10
60.96305048480508
 20
132.70304142220311
 30
0.0
  0
POINT
  5
3CA1
  8
DEFPOINTS
 62
     0
 10
60.96305048480508
 20
136.5744450846459
 30
0.0
  0
ENDBLK
  5
3A30
  8
0
  0
BLOCK
  8
0
  2
*D70
 70
     1
 10
0.0
 20
0.0
 30
0.0
  3
*D70
  1

  0
LINE
  5
3CA2
  8
寸法線
 62
     0
 10
207.58805048480599
 20
84.578041422201963
 30
0.0
 11
218.2495544101302
 21
84.578041422201963
 31
0.0
  0
LINE
  5
3CA3
  8
寸法線
 62
     0
 10
207.58805048480599
 20
94.578041422202205
 30
0.0
 11
218.2495544101302
 21
94.578041422202205
 31
0.0
  0
LINE
  5
3CA4
  8
寸法線
 62
     0
 10
216.99955441013029
 20
87.078041422201963
 30
0.0
 11
216.99955441013029
 21
92.078041422202205
 31
0.0
  0
SOLID
  5
3CA5
  8
寸法線
 62
     0
 10
216.5828877434636
 20
87.078041422201963
 30
0.0
 11
217.41622107679689
 21
87.078041422201963
 31
0.0
 12
216.99955441013029
 22
84.578041422201963
 32
0.0
 13
216.99955441013029
 23
84.578041422201963
 33
0.0
  0
SOLID
  5
3CA6
  8
寸法線
 62
     0
 10
216.5828877434636
 20
92.078041422202205
 30
0.0
 11
217.41622107679689
 21
92.078041422202205
 31
0.0
 12
216.99955441013029
 22
94.578041422202205
 32
0.0
 13
216.99955441013029
 23
94.578041422202205
 33
0.0
  0
TEXT
  8
寸法線
  40
2.5
  5
3CDC
  62
0
  72
0
  71
0
 10
210.125
 20
85.1530
 30
0.000000
  1
10
  0
POINT
  5
3CA8
  8
DEFPOINTS
 62
     0
 10
206.96305048480599
 20
84.578041422201963
 30
0.0
  0
POINT
  5
3CA9
  8
DEFPOINTS
 62
     0
 10
206.96305048480599
 20
94.578041422202205
 30
0.0
  0
POINT
  5
3CAA
  8
DEFPOINTS
 62
     0
 10
216.99955441013029
 20
94.578041422202205
 30
0.0
  0
ENDBLK
  5
3A3D
  8
0
  0
BLOCK
  8
0
  2
*D71
 70
     1
 10
0.0
 20
0.0
 30
0.0
  3
*D71
  1

  0
LINE
  5
3CAB
  8
寸法線
 62
     0
 10
227.93047643332849
 20
95.853374620100624
 30
0.0
 11
226.03084450891981
 21
97.478612618600337
 31
0.0
  0
TEXT
  8
寸法線
  40
2.5
  5
3CDD
  62
0
  72
0
  71
0
 10
219.290
 20
94.5434
 30
0.000000
  1
R1
  0
LINE
  5
3CAD
  8
寸法線
 62
     0
 10
230.5899611275004
 20
93.578041422201281
 30
0.0
 11
229.8301083577372
 21
94.228136621600925
 31
0.0
  0
SOLID
  5
3CAE
  8
寸法線
 62
     0
 10
228.20134943307841
 20
96.169979940835418
 30
0.0
 11
227.6596034335785
 21
95.536769299365844
 31
0.0
 12
229.8301083577372
 22
94.228136621600925
 32
0.0
 13
229.8301083577372
 23
94.228136621600925
 33
0.0
  0
POINT
  5
3CAF
  8
DEFPOINTS
 62
     0
 10
229.8301083577372
 20
94.228136621600925
 30
0.0
  0
POINT
  5
3CB0
  8
DEFPOINTS
 62
     0
 10
230.5899611275004
 20
93.578041422201281
 30
0.0
  0
ENDBLK
  5
3A49
  8
0
  0
BLOCK
  8
0
  2
*D72
 70
     1
 10
0.0
 20
0.0
 30
0.0
  3
*D72
  1

  0
LINE
  5
3CB1
  8
寸法線
 62
     0
 10
187.96305048480511
 20
176.01356423370561
 30
0.0
 11
187.96305048480511
 21
188.3846851671878
 31
0.0
  0
LINE
  5
3CB2
  8
寸法線
 62
     0
 10
207.96305048480551
 20
176.38856423370561
 30
0.0
 11
207.96305048480551
 21
188.3846851671878
 31
0.0
  0
LINE
  5
3CB3
  8
寸法線
 62
     0
 10
190.463050484805
 20
187.1346851671878
 30
0.0
 11
195.21264998151091
 21
187.1346851671878
 31
0.0
  0
LINE
  5
3CB4
  8
寸法線
 62
     0
 10
205.46305048480551
 20
187.1346851671878
 30
0.0
 11
200.51026902913
 21
187.1346851671878
 31
0.0
  0
TEXT
  8
寸法線
  40
2.5
  5
3CDE
  62
0
  72
0
  71
0
 10
192.861
 20
182.710
 30
0.000000
  1
20
  0
SOLID
  5
3CB6
  8
寸法線
 62
     0
 10
190.463050484805
 20
187.55135183385451
 30
0.0
 11
190.463050484805
 21
186.7180185005212
 31
0.0
 12
187.96305048480511
 22
187.1346851671878
 32
0.0
 13
187.96305048480511
 23
187.1346851671878
 33
0.0
  0
SOLID
  5
3CB7
  8
寸法線
 62
     0
 10
205.46305048480551
 20
187.55135183385451
 30
0.0
 11
205.46305048480551
 21
186.7180185005212
 31
0.0
 12
207.96305048480551
 22
187.1346851671878
 32
0.0
 13
207.96305048480551
 23
187.1346851671878
 33
0.0
  0
POINT
  5
3CB8
  8
DEFPOINTS
 62
     0
 10
187.96305048480511
 20
175.38856423370561
 30
0.0
  0
POINT
  5
3CB9
  8
DEFPOINTS
 62
     0
 10
207.96305048480551
 20
175.76356423370561
 30
0.0
  0
POINT
  5
3CBA
  8
DEFPOINTS
 62
     0
 10
207.96305048480551
 20
187.1346851671878
 30
0.0
  0
ENDBLK
  5
3A52
  8
0
  0
BLOCK
  8
0
  2
*D73
 70
     1
 10
0.0
 20
0.0
 30
0.0
  3
*D73
  1

  0
LINE
  5
3CBB
  8
寸法線
 62
     0
 10
202.96305048480551
 20
176.38856423370561
 30
0.0
 11
202.96305048480551
 21
181.3761538911844
 31
0.0
  0
LINE
  5
3CBC
  8
寸法線
 62
     0
 10
207.96305048480551
 20
164.88856423370589
 30
0.0
 11
207.96305048480551
 21
181.3761538911844
 31
0.0
  0
LINE
  5
3CBD
  8
寸法線
 62
     0
 10
200.46305048480551
 20
180.1261538911844
 30
0.0
 11
197.96305048480551
 21
180.1261538911844
 31
0.0
  0
LINE
  5
3CBE
  8
寸法線
 62
     0
 10
210.46305048480559
 20
180.1261538911844
 30
0.0
 11
212.96305048480551
 21
180.1261538911844
 31
0.0
  0
TEXT
  8
寸法線
  40
2.5
  5
3CDF
  62
0
  72
0
  71
0
 10
200.463
 20
175.701
 30
0.000000
  1
5
  0
LINE
  5
3CC0
  8
寸法線
 62
     0
 10
202.96305048480551
 20
180.1261538911844
 30
0.0
 11
207.96305048480551
 21
180.1261538911844
 31
0.0
  0
SOLID
  5
3CC1
  8
寸法線
 62
     0
 10
200.46305048480551
 20
180.54282055785109
 30
0.0
 11
200.46305048480551
 21
179.7094872245178
 31
0.0
 12
202.96305048480551
 22
180.1261538911844
 32
0.0
 13
202.96305048480551
 23
180.1261538911844
 33
0.0
  0
SOLID
  5
3CC2
  8
寸法線
 62
     0
 10
210.46305048480559
 20
180.54282055785109
 30
0.0
 11
210.46305048480559
 21
179.7094872245178
 31
0.0
 12
207.96305048480551
 22
180.1261538911844
 32
0.0
 13
207.96305048480551
 23
180.1261538911844
 33
0.0
  0
POINT
  5
3CC3
  8
DEFPOINTS
 62
     0
 10
202.96305048480551
 20
175.76356423370561
 30
0.0
  0
POINT
  5
3CC4
  8
DEFPOINTS
 62
     0
 10
207.96305048480551
 20
164.26356423370589
 30
0.0
  0
POINT
  5
3CC5
  8
DEFPOINTS
 62
     0
 10
207.96305048480551
 20
180.1261538911844
 30
0.0
  0
ENDBLK
  5
3A5F
  8
0
  0
BLOCK
  8
0
  2
*D74
 70
     1
 10
0.0
 20
0.0
 30
0.0
  3
*D74
  1

  0
LINE
  5
3CC6
  8
寸法線
 62
     0
 10
187.96305048480511
 20
175.38856423370561
 30
0.0
 11
187.96305048480511
 21
181.3761538911844
 31
0.0
  0
LINE
  5
3CC7
  8
寸法線
 62
     0
 10
202.96305048480551
 20
176.38856423370561
 30
0.0
 11
202.96305048480551
 21
181.3761538911844
 31
0.0
  0
LINE
  5
3CC8
  8
寸法線
 62
     0
 10
190.463050484805
 20
180.1261538911844
 30
0.0
 11
193.05350885770019
 21
180.1261538911844
 31
0.0
  0
LINE
  5
3CC9
  8
寸法線
 62
     0
 10
200.46305048480551
 20
180.1261538911844
 30
0.0
 11
197.87493742912881
 21
180.1261538911844
 31
0.0
  0
TEXT
  8
寸法線
  40
2.5
  5
3CE0
  62
0
  72
0
  71
0
 10
190.464
 20
175.701
 30
0.000000
  1
15
  0
SOLID
  5
3CCB
  8
寸法線
 62
     0
 10
190.463050484805
 20
180.54282055785109
 30
0.0
 11
190.463050484805
 21
179.7094872245178
 31
0.0
 12
187.96305048480511
 22
180.1261538911844
 32
0.0
 13
187.96305048480511
 23
180.1261538911844
 33
0.0
  0
SOLID
  5
3CCC
  8
寸法線
 62
     0
 10
200.46305048480551
 20
180.54282055785109
 30
0.0
 11
200.46305048480551
 21
179.7094872245178
 31
0.0
 12
202.96305048480551
 22
180.1261538911844
 32
0.0
 13
202.96305048480551
 23
180.1261538911844
 33
0.0
  0
POINT
  5
3CCD
  8
DEFPOINTS
 62
     0
 10
187.96305048480511
 20
174.76356423370561
 30
0.0
  0
POINT
  5
3CCE
  8
DEFPOINTS
 62
     0
 10
202.96305048480551
 20
175.76356423370561
 30
0.0
  0
POINT
  5
3CCF
  8
DEFPOINTS
 62
     0
 10
202.96305048480551
 20
180.1261538911844
 30
0.0
  0
ENDBLK
  5
3A6D
  8
0
  0
BLOCK
  8
0
  2
*U76
 70
     1
 10
0.0
 20
0.0
 30
0.0
  3
*U76
  1

  0
TEXT
  5
3BC9
  8
寸法線
 10
225.58216281736489
 20
78.855987614696687
 30
0.0
 40
2.5
  1
2-\U+22054.5-\U+22058.5
  0
ENDBLK
  5
3BCB
  8
0
  0
BLOCK
  8
0
  2
*U77
 70
     1
 10
0.0
 20
0.0
 30
0.0
  3
*U77
  1

  0
SOLID
  5
3BCD
  8
寸法線
 10
211.7805986894376
 20
63.251192921291242
 30
0.0
 11
209.95167261203369
 21
61.50000093267294
 31
0.0
 12
211.11378366191789
 22
63.749699109172589
 32
0.0
 13
211.11378366191789
 23
63.749699109172589
 33
0.0
  0
POLYLINE
  5
3BCE
  8
寸法線
 66
     1
 10
0.0
 20
0.0
 30
0.0
  0
VERTEX
  5
3BCF
  8
寸法線
 10
211.4471911756778
 20
63.500446015231908
 30
0.0
  0
VERTEX
  5
3BD0
  8
寸法線
 10
222.4600750987515
 20
78.23157007097403
 30
0.0
  0
VERTEX
  5
3BD1
  8
寸法線
 10
225.58216281736489
 20
78.23157007097403
 30
0.0
  0
SEQEND
  5
3BD2
  8
寸法線
  0
ENDBLK
  5
3BD4
  8
0
  0
BLOCK
  8
0
  2
*X78
 70
     1
 10
0.0
 20
0.0
 30
0.0
  3
*X78
  1

  0
LINE
  5
3BD6
  8
0
 62
     0
 10
217.6182447477531
 20
23.500000932671352
 30
0.0
 11
221.45167261203409
 21
27.333428796952379
 31
0.0
  0
LINE
  5
3BD7
  8
0
 62
     0
 10
214.0261422993253
 20
23.500000932671352
 30
0.0
 11
221.45167261203409
 21
30.925531245380171
 31
0.0
  0
LINE
  5
3BD8
  8
0
 62
     0
 10
210.43403985089711
 20
23.500000932670901
 30
0.0
 11
220.43403985089751
 21
33.500000932671362
 31
0.0
  0
LINE
  5
3BD9
  8
0
 62
     0
 10
209.9516726120342
 20
26.60973614223531
 30
0.0
 11
216.84193740247019
 21
33.500000932671362
 31
0.0
  0
LINE
  5
3BDA
  8
0
 62
     0
 10
206.84193740247019
 20
23.500000932671352
 30
0.0
 11
209.9516726120342
 21
26.60973614223531
 31
0.0
  0
LINE
  5
3BDB
  8
0
 62
     0
 10
209.9516726120342
 20
30.20183859066265
 30
0.0
 11
213.2498349540424
 21
33.500000932671362
 31
0.0
  0
LINE
  5
3BDC
  8
0
 62
     0
 10
203.2498349540428
 20
23.500000932671352
 30
0.0
 11
209.9516726120342
 21
30.20183859066265
 31
0.0
  0
LINE
  5
3BDD
  8
0
 62
     0
 10
199.6577325056146
 20
23.50000093267181
 30
0.0
 11
209.65773250561509
 21
33.50000093267181
 31
0.0
  0
LINE
  5
3BDE
  8
0
 62
     0
 10
198.45167261203369
 20
25.886043487517782
 30
0.0
 11
206.06563005718681
 21
33.500000932670901
 31
0.0
  0
LINE
  5
3BDF
  8
0
 62
     0
 10
198.45167261203369
 20
29.47814593594558
 30
0.0
 11
202.47352760875901
 21
33.500000932670901
 31
0.0
  0
LINE
  5
3BE0
  8
0
 62
     0
 10
174.5130153666214
 20
23.500000932671352
 30
0.0
 11
176.8247619693384
 21
25.811747535388349
 31
0.0
  0
LINE
  5
3BE1
  8
0
 62
     0
 10
171.82476196933749
 20
24.403849983815238
 30
0.0
 11
175.92091291819401
 21
28.50000093267181
 31
0.0
  0
LINE
  5
3BE2
  8
0
 62
     0
 10
175.92091291819401
 20
28.50000093267181
 30
0.0
 11
176.82476196933879
 21
29.403849983816599
 31
0.0
  0
LINE
  5
3BE3
  8
0
 62
     0
 10
170.9209129181931
 20
23.500000932670901
 30
0.0
 11
171.824761969337
 21
24.40384998381478
 31
0.0
  0
LINE
  5
3BE4
  8
0
 62
     0
 10
171.82476196933749
 20
27.99595243224303
 30
0.0
 11
172.32881046976581
 21
28.500000932671359
 31
0.0
  0
LINE
  5
3BE5
  8
0
 62
     0
 10
172.32881046976621
 20
28.50000093267181
 30
0.0
 11
176.73745540856001
 21
32.908645871465531
 31
0.0
  0
LINE
  5
3BE6
  8
0
 62
     0
 10
167.32881046976581
 20
23.500000932671352
 30
0.0
 11
171.824761969337
 21
27.995952432242579
 31
0.0
  0
LINE
  5
3BE7
  8
0
 62
     0
 10
168.73670802133839
 20
28.50000093267181
 30
0.0
 11
171.824761969337
 21
31.588054880670828
 31
0.0
  0
LINE
  5
3BE8
  8
0
 62
     0
 10
171.82476196933749
 20
31.588054880670828
 30
0.0
 11
173.73670802133839
 21
33.50000093267181
 31
0.0
  0
LINE
  5
3BE9
  8
0
 62
     0
 10
163.73670802133799
 20
23.50000093267181
 30
0.0
 11
168.73670802133839
 21
28.50000093267181
 31
0.0
  0
LINE
  5
3BEA
  8
0
 62
     0
 10
165.14460557291071
 20
28.50000093267181
 30
0.0
 11
170.14460557291071
 21
33.50000093267181
 31
0.0
  0
LINE
  5
3BEB
  8
0
 62
     0
 10
160.14460557291059
 20
23.500000932672261
 30
0.0
 11
165.14460557291071
 21
28.50000093267181
 31
0.0
  0
LINE
  5
3BEC
  8
0
 62
     0
 10
161.55250312448331
 20
28.50000093267181
 30
0.0
 11
166.55250312448331
 21
33.50000093267181
 31
0.0
  0
LINE
  5
3BED
  8
0
 62
     0
 10
156.9947530326221
 20
23.94225084081063
 30
0.0
 11
161.55250312448331
 21
28.50000093267181
 31
0.0
  0
LINE
  5
3BEE
  8
0
 62
     0
 10
157.960400676056
 20
28.50000093267181
 30
0.0
 11
162.96040067605551
 21
33.500000932671362
 31
0.0
  0
LINE
  5
3BEF
  8
0
 62
     0
 10
156.82476196933791
 20
27.364362225953759
 30
0.0
 11
157.960400676056
 21
28.50000093267181
 31
0.0
  0
LINE
  5
3BF0
  8
0
 62
     0
 10
156.82476196933749
 20
30.95646467438155
 30
0.0
 11
159.36829822762769
 21
33.50000093267181
 31
0.0
  0
LINE
  5
3BF1
  8
0
 62
     0
 10
170.85648920957189
 20
91.685523744175043
 30
0.0
 11
174.99549444811831
 21
95.824528982721844
 31
0.0
  0
LINE
  5
3BF2
  8
0
 62
     0
 10
167.26438676114461
 20
91.685523744175484
 30
0.0
 11
176.68692967391871
 21
101.1080666569496
 31
0.0
  0
LINE
  5
3BF3
  8
0
 62
     0
 10
163.67228431271681
 20
91.685523744175484
 30
0.0
 11
176.74583389526421
 21
104.7590733267229
 31
0.0
  0
LINE
  5
3BF4
  8
0
 62
     0
 10
160.08018186428899
 20
91.685523744175484
 30
0.0
 11
176.14701082804319
 21
107.7523527079297
 31
0.0
  0
LINE
  5
3BF5
  8
0
 62
     0
 10
156.9696447360129
 20
92.167089064326774
 30
0.0
 11
175.11631792260269
 21
110.31376225091709
 31
0.0
  0
LINE
  5
3BF6
  8
0
 62
     0
 10
156.824761969337
 20
95.614308746079587
 30
0.0
 11
173.7443031707989
 21
112.533849947541
 31
0.0
  0
LINE
  5
3BF7
  8
0
 62
     0
 10
156.82476196933749
 20
99.206411194506913
 30
0.0
 11
172.07008812550609
 21
114.4517373506755
 31
0.0
  0
LINE
  5
3BF8
  8
0
 62
     0
 10
156.82476196933749
 20
102.7985136429342
 30
0.0
 11
168.71177207057869
 21
114.6855237441755
 31
0.0
  0
LINE
  5
3BF9
  8
0
 62
     0
 10
156.82476196933791
 20
106.3906160913625
 30
0.0
 11
165.1196696221505
 21
114.685523744175
 31
0.0
  0
LINE
  5
3BFA
  8
0
 62
     0
 10
156.82476196933749
 20
109.9827185397898
 30
0.0
 11
161.5275671737227
 21
114.6855237441755
 31
0.0
  0
LINE
  5
3BFB
  8
0
 62
     0
 10
156.824761969337
 20
113.5748209882176
 30
0.0
 11
157.9354647252953
 21
114.6855237441755
 31
0.0
  0
ENDBLK
  5
3BFD
  8
0
  0
BLOCK
  8
0
  2
*U79
 70
     1
 10
0.0
 20
0.0
 30
0.0
  3
*U79
  1

  0
TEXT
  5
3BFF
  8
寸法線
 10
256.7204513328324
 20
139.9340281042268
 30
0.0
 40
2.5
  1
2-\U+22054.5-\U+22058.5
  0
ENDBLK
  5
3C01
  8
0
  0
BLOCK
  8
0
  2
*U80
 70
     1
 10
0.0
 20
0.0
 30
0.0
  3
*U80
  1

  0
SOLID
  5
3C03
  8
寸法線
 10
242.9188872049051
 20
124.3292334108214
 30
0.0
 11
241.08996112750131
 21
122.5780414222031
 31
0.0
 12
242.25207217738549
 22
124.82773959870271
 32
0.0
 13
242.25207217738549
 23
124.82773959870271
 33
0.0
  0
POLYLINE
  5
3C04
  8
寸法線
 66
     1
 10
0.0
 20
0.0
 30
0.0
  0
VERTEX
  5
3C05
  8
寸法線
 10
242.58547969114531
 20
124.5784865047621
 30
0.0
  0
VERTEX
  5
3C06
  8
寸法線
 10
253.59836361421921
 20
139.30961056050421
 30
0.0
  0
VERTEX
  5
3C07
  8
寸法線
 10
256.7204513328324
 20
139.30961056050421
 30
0.0
  0
SEQEND
  5
3C08
  8
寸法線
  0
ENDBLK
  5
3C0A
  8
0
  0
BLOCK
  8
0
  2
*X81
 70
     1
 10
0.0
 20
0.0
 30
0.0
  3
*X81
  1

  0
LINE
  5
3C0C
  8
0
 62
     0
 10
248.75653326322029
 20
84.578041422201295
 30
0.0
 11
252.58996112750179
 21
88.411469286482316
 31
0.0
  0
LINE
  5
3C0D
  8
0
 62
     0
 10
245.1644308147925
 20
84.578041422201295
 30
0.0
 11
252.58996112750179
 21
92.003571734910565
 31
0.0
  0
LINE
  5
3C0E
  8
0
 62
     0
 10
241.5723283663651
 20
84.57804142220084
 30
0.0
 11
251.57232836636561
 21
94.578041422201295
 31
0.0
  0
LINE
  5
3C0F
  8
0
 62
     0
 10
241.08996112750171
 20
87.687776631765686
 30
0.0
 11
247.9802259179373
 21
94.578041422201295
 31
0.0
  0
LINE
  5
3C10
  8
0
 62
     0
 10
237.9802259179373
 20
84.578041422201295
 30
0.0
 11
241.08996112750131
 21
87.687776631765246
 31
0.0
  0
LINE
  5
3C11
  8
0
 62
     0
 10
241.08996112750171
 20
91.279879080193055
 30
0.0
 11
244.38812346950999
 21
94.578041422201736
 31
0.0
  0
LINE
  5
3C12
  8
0
 62
     0
 10
234.38812346951039
 20
84.578041422201736
 30
0.0
 11
241.08996112750171
 21
91.279879080193055
 31
0.0
  0
LINE
  5
3C13
  8
0
 62
     0
 10
230.7960210210822
 20
84.578041422201736
 30
0.0
 11
240.79602102108271
 21
94.578041422201736
 31
0.0
  0
LINE
  5
3C14
  8
0
 62
     0
 10
229.58996112750179
 20
86.964083977048617
 30
0.0
 11
237.2039185726544
 21
94.578041422201295
 31
0.0
  0
LINE
  5
3C15
  8
0
 62
     0
 10
229.58996112750131
 20
90.556186425475516
 30
0.0
 11
233.61181612422661
 21
94.57804142220084
 31
0.0
  0
LINE
  5
3C16
  8
0
 62
     0
 10
205.651303882089
 20
84.578041422201736
 30
0.0
 11
207.96305048480639
 21
86.889788024919199
 31
0.0
  0
LINE
  5
3C17
  8
0
 62
     0
 10
202.96305048480551
 20
85.481890473346084
 30
0.0
 11
207.05920143366171
 21
89.578041422202205
 31
0.0
  0
LINE
  5
3C18
  8
0
 62
     0
 10
207.05920143366171
 20
89.578041422202205
 30
0.0
 11
207.9630504848069
 21
90.481890473347434
 31
0.0
  0
LINE
  5
3C19
  8
0
 62
     0
 10
202.0592014336608
 20
84.578041422201295
 30
0.0
 11
202.96305048480511
 21
85.481890473345629
 31
0.0
  0
LINE
  5
3C1A
  8
0
 62
     0
 10
202.96305048480511
 20
89.07399292177297
 30
0.0
 11
203.46709898523341
 21
89.578041422201295
 31
0.0
  0
LINE
  5
3C1B
  8
0
 62
     0
 10
203.46709898523341
 20
89.578041422201295
 30
0.0
 11
207.8757439240276
 21
93.986686360995463
 31
0.0
  0
LINE
  5
3C1C
  8
0
 62
     0
 10
198.46709898523341
 20
84.578041422201295
 30
0.0
 11
202.96305048480511
 21
89.07399292177297
 31
0.0
  0
LINE
  5
3C1D
  8
0
 62
     0
 10
199.87499653680601
 20
89.578041422202205
 30
0.0
 11
202.96305048480511
 21
92.666095370201205
 31
0.0
  0
LINE
  5
3C1E
  8
0
 62
     0
 10
202.96305048480511
 20
92.666095370201205
 30
0.0
 11
204.87499653680601
 21
94.578041422202205
 31
0.0
  0
LINE
  5
3C1F
  8
0
 62
     0
 10
194.87499653680561
 20
84.578041422202205
 30
0.0
 11
199.87499653680561
 21
89.578041422201736
 31
0.0
  0
LINE
  5
3C20
  8
0
 62
     0
 10
196.2828940883787
 20
89.578041422201736
 30
0.0
 11
201.2828940883787
 21
94.578041422201736
 31
0.0
  0
LINE
  5
3C21
  8
0
 62
     0
 10
191.28289408837821
 20
84.578041422201295
 30
0.0
 11
196.2828940883787
 21
89.578041422201736
 31
0.0
  0
LINE
  5
3C22
  8
0
 62
     0
 10
192.6907916399505
 20
89.578041422201736
 30
0.0
 11
197.69079163995039
 21
94.578041422201736
 31
0.0
  0
LINE
  5
3C23
  8
0
 62
     0
 10
188.1330415480893
 20
85.020291330340555
 30
0.0
 11
192.6907916399505
 21
89.578041422201736
 31
0.0
  0
LINE
  5
3C24
  8
0
 62
     0
 10
189.09868919152359
 20
89.578041422202205
 30
0.0
 11
194.09868919152311
 21
94.578041422201736
 31
0.0
  0
LINE
  5
3C25
  8
0
 62
     0
 10
187.96305048480551
 20
88.442402715484135
 30
0.0
 11
189.09868919152359
 21
89.578041422202205
 31
0.0
  0
LINE
  5
3C26
  8
0
 62
     0
 10
187.96305048480511
 20
92.034505163911945
 30
0.0
 11
190.50658674309531
 21
94.578041422202205
 31
0.0
  0
LINE
  5
3C27
  8
0
 62
     0
 10
201.99477772503951
 20
152.76356423370541
 30
0.0
 11
206.1337829635859
 21
156.9025694722522
 31
0.0
  0
LINE
  5
3C28
  8
0
 62
     0
 10
198.40267527661169
 20
152.76356423370589
 30
0.0
 11
207.82521818938631
 21
162.18610714648
 31
0.0
  0
LINE
  5
3C29
  8
0
 62
     0
 10
194.81057282818441
 20
152.76356423370589
 30
0.0
 11
207.88412241073181
 21
165.83711381625329
 31
0.0
  0
LINE
  5
3C2A
  8
0
 62
     0
 10
191.21847037975661
 20
152.76356423370541
 30
0.0
 11
207.28529934351079
 21
168.83039319745961
 31
0.0
  0
LINE
  5
3C2B
  8
0
 62
     0
 10
188.10793325148009
 20
153.24512955385671
 30
0.0
 11
206.25460643806991
 21
171.39180274044699
 31
0.0
  0
LINE
  5
3C2C
  8
0
 62
     0
 10
187.96305048480551
 20
156.6923492356095
 30
0.0
 11
204.88259168626701
 21
173.611890437071
 31
0.0
  0
LINE
  5
3C2D
  8
0
 62
     0
 10
187.96305048480551
 20
160.28445168403729
 30
0.0
 11
203.20837664097371
 21
175.5297778402055
 31
0.0
  0
LINE
  5
3C2E
  8
0
 62
     0
 10
187.96305048480551
 20
163.87655413246509
 30
0.0
 11
199.8500605860458
 21
175.76356423370541
 31
0.0
  0
LINE
  5
3C2F
  8
0
 62
     0
 10
187.96305048480551
 20
167.46865658089291
 30
0.0
 11
196.257958137618
 21
175.76356423370541
 31
0.0
  0
LINE
  5
3C30
  8
0
 62
     0
 10
187.96305048480511
 20
171.0607590293202
 30
0.0
 11
192.66585568919029
 21
175.76356423370589
 31
0.0
  0
LINE
  5
3C31
  8
0
 62
     0
 10
187.96305048480511
 20
174.65286147774759
 30
0.0
 11
189.0737532407629
 21
175.76356423370541
 31
0.0
  0
ENDBLK
  5
3C33
  8
0
  0
ENDSEC
  0
SECTION
  2
ENTITIES
  0
INSERT
  5
1BB5
  8
0
  2
ZUWAKU-A4H
 10
0.0
 20
0.0
 30
0.0
1001
GENIUS_GENOREF_13
1005
1C93
1001
GENIUS_GENOBJ-N-SDF_13
1002
{
1000
OWNER
1000
GEN
1002
}
1001
GENIUS_GENODEF_13
1002
{
1000
HIER
1070
     0
1002
}
1002
{
1000
MANEDIT
1070
     0
1002
}
1002
{
1000
NOSEL
1070
     0
1002
}
1002
{
1000
BEHIND
1070
     0
1002
}
1002
{
1000
OTHER
1070
     0
1002
}
1002
{
1000
REACTOR
1002
}
1001
GENIUS_GENSCREG_13
1040
1.0
1040
1.0
1011
12.95699999999508
1021
0.0
1031
0.0
1021
10.0
1031
0.0
1011
289.45700000038528
1021
0.0
1031
0.0
1021
201.1206999999936
1031
0.0
1070
     3
  0
POINT
  5
1C93
  8
0
 10
0.0
 20
0.0
 30
0.0
1001
GENIUS_GENOLIS_13
1002
{
1000
ENT
1005
1C84
1005
1BB5
1002
}
1001
GENIUS_GENOENT_13
1002
{
1000
MYREF
1005
1C93
1002
}
1002
{
1000
GRP
1005
0
1002
}
1001
GENIUS_GENOBJ-N-TIT_13
1002
{
1000
OWNER
1000
GEN
1002
}
1001
GENIUS_GENTITLE_13
1002
{
1000
BORDER
1000
C:\Program Files\Autodesk\ACADM 2008\Acadm\gen\Dwg\Format\ZUWAKU-A4H
1002
}
1002
{
1000
TITLE
1000
C:\Program Files\Autodesk\ACADM 2008\Acadm\gen\Dwg\Title\N_Title
1002
}
1002
{
1000
ADDITIONAL1
1000

1002
}
1002
{
1000
ADDITIONAL2
1000

1002
}
1002
{
1000
SCALE
1000
1:1
1002
}
1002
{
1000
TITLESTD
1000
JIS
1002
}
1002
{
1000
HRA
1005
1BB5
1002
}
1002
{
1000
HTIT
1005
1C84
1002
}
1002
{
1000
INVTXTID
1005
0
1002
}
1002
{
1000
UNCHG
1002
{
1000
GEN-TITLE-SIZ
1000
GEN-TITLE-SCA
1002
}
1002
}
1002
{
1000
GENIUSID
1005
1C93
1002
}
1001
GENIUS_GENODEF_13
1002
{
1000
HIER
1070
     1
1002
}
1002
{
1000
MANEDIT
1070
     1
1002
}
1002
{
1000
NOSEL
1070
     0
1002
}
1002
{
1000
BEHIND
1070
     0
1002
}
1002
{
1000
OTHER
1070
     0
1002
}
1002
{
1000
REACTOR
1002
}
  0
INSERT
  5
20F2
  8
0
 66
     1
  2
A$C1C06296A
 10
12.95700013162593
 20
9.9999998268887111
 30
0.0
  0
ATTRIB
  5
20F3
  8
AM_BOR
 62
     7
 10
127.267709707009
 20
10.5
 30
0.0
 40
3.0
  1

 11
127.267709707009
 21
12.0
 31
0.0
  2
SETS｛20｝
 70
     0
 74
     2
1001
ACDBATTR
1070
     0
1070
     1
  0
ATTRIB
  5
20F4
  8
AM_BOR
 62
     7
 10
32.017709707009089
 20
10.5
 30
0.0
 40
3.0
  1

 11
32.017709707009089
 21
12.0
 31
0.0
  2
REMARKS｛20｝
 70
     0
 74
     2
1001
ACDBATTR
1070
     0
1070
     1
  0
ATTRIB
  5
20F5
  8
AM_BOR
 62
     7
 10
127.267709707009
 20
15.5
 30
0.0
 40
3.0
  1

 11
127.267709707009
 21
17.0
 31
0.0
  2
SETS｛20｝
 70
     0
 74
     2
1001
ACDBATTR
1070
     0
1070
     1
  0
ATTRIB
  5
20F6
  8
AM_BOR
 62
     7
 10
32.017709707009089
 20
15.5
 30
0.0
 40
3.0
  1

 11
32.017709707009089
 21
17.0
 31
0.0
  2
REMARKS｛20｝
 70
     0
 74
     2
1001
ACDBATTR
1070
     0
1070
     1
  0
ATTRIB
  5
20F7
  8
AM_BOR
 62
     7
 10
127.267709707009
 20
20.5
 30
0.0
 40
3.0
  1
トラスAタッピング4\U+00D725(2本)
 11
127.267709707009
 21
22.0
 31
0.0
  2
SETS｛20｝
 70
     0
 74
     2
1001
ACDBATTR
1070
     0
1070
     1
  0
ATTRIB
  5
20F8
  8
AM_BOR
 62
     7
 10
32.017709707009089
 20
20.5
 30
0.0
 40
3.0
  1

 11
32.017709707009089
 21
22.0
 31
0.0
  2
REMARKS｛20｝
 70
     0
 74
     2
1001
ACDBATTR
1070
     0
1070
     1
  0
ATTRIB
  5
20F9
  8
AM_BOR
 62
     7
 10
127.20700000001921
 20
33.5
 30
0.0
 40
3.0
  1
S3183-150-HN
 11
127.20700000001921
 21
35.0
 31
0.0
  2
ART_NO｛20｝
 70
     0
 74
     2
1001
ACDBATTR
1070
     0
1070
     1
  0
ATTRIB
  5
20FA
  8
AM_BOR
 62
     7
 10
31.95700000001921
 20
33.5
 30
0.0
 40
3.0
  1
P型戸当り
 11
31.95700000001921
 21
35.0
 31
0.0
  2
ARTICLE｛20｝
 70
     0
 74
     2
1001
ACDBATTR
1070
     0
1070
     1
  0
ATTRIB
  5
20FB
  8
AM_BOR
 62
     7
 10
127.20700000001921
 20
27.0
 30
0.0
 40
3.0
  1
ヘアライン
 11
127.20700000001921
 21
28.5
 31
0.0
  2
FINISH｛20｝
 70
     0
 74
     2
1001
ACDBATTR
1070
     0
1070
     1
  0
ATTRIB
  5
20FC
  8
AM_BOR
 62
     7
 10
31.95700000001921
 20
27.0
 30
0.0
 40
3.0
  1
ステンレス
 11
31.95700000001921
 21
28.5
 31
0.0
  2
MATERIAK｛20｝
 70
     0
 74
     2
1001
ACDBATTR
1070
     0
1070
     1
  0
SEQEND
  5
20FD
  8
0
  0
INSERT
  5
391E
  8
0
  2
*U79
 10
0.0
 20
0.0
 30
0.0
  0
INSERT
  5
391F
  8
0
  2
*U80
 10
0.0
 20
0.0
 30
0.0
1001
ACAD
1000
DSTYLE
1002
{
1070
    40
1040
0.9990680699562606
1070
    78
1070
     8
1070
   270
1070
     8
1070
   140
1040
2.5
1070
    74
1070
     0
1070
   172
1070
     1
1070
    73
1070
     0
1070
    77
1070
     1
1070
   147
1040
0.625
1070
    42
1040
0.625
1070
    44
1040
1.25
1070
    43
1040
3.75
1070
   141
1040
2.5
1070
    41
1040
2.5
1070
   273
1070
     8
1070
   274
1070
     4
1070
   143
1040
0.0394
1070
   171
1070
     4
1002
}
  0
INSERT
  5
3920
  8
実線
  6
CONTINUOUS
  2
*X81
 10
0.0
 20
0.0
 30
0.0
1001
ACAD
1000
HATCH
1002
{
1070
    19
1000
ANSI31
1040
0.8007462394779809
1040
0.0
1000
ASC_BOUNDS
1070
     7
1070
     1
1070
     6
1005
3922
1005
397B
1005
3984
1005
3921
1005
39A4
1005
39A3
1070
     1
1070
     6
1005
396D
1005
3974
1005
397A
1005
3967
1005
3992
1005
3986
1070
     1
1070
     6
1005
3967
1005
397A
1005
3978
1005
396C
1005
3990
1005
3992
1070
     1
1070
     5
1005
396A
1005
3930
1005
3969
1005
397C
1005
398E
1070
     1
1070
     6
1005
396A
1005
3976
1005
396E
1005
3969
1005
3966
1005
3930
1070
     1
1070
     6
1005
3969
1005
3966
1005
3930
1005
3968
1005
3980
1005
397C
1070
     1
1070
     5
1005
3969
1005
396E
1005
396F
1005
3968
1005
3930
1000
ASC_SEEDPOINT
1011
196.70308143233339
1021
0.0
1031
0.0
1021
89.20930290222168
1031
0.0
1000
R14_HATCH_DATA
1000
3920
1011
1.0
1021
0.0
1031
0.0
1021
0.0
1031
0.0
1011
0.0
1021
0.0
1031
0.0
1021
1.0
1031
0.0
1011
0.0
1021
0.0
1031
0.0
1021
0.0
1031
1.0
1040
0.0
1010
0.0
1020
0.0
1030
1.0
1000
ANSI31
1070
     0
1070
     1
1071
        7
1071
        7
1070
     1
1070
     1
1071
        5
1040
187.96305048480511
1040
89.578041422202205
1040
0.0
1040
187.96305048480551
1040
85.578041422202205
1040
0.4142135623730951
1040
188.96305048480551
1040
84.578041422202205
1040
0.0
1040
202.9630504848046
1040
84.578041422201736
1040
0.0
1040
202.9630504848046
1040
89.578041422202205
1040
0.0
1071
        5
1005
3930
1005
3968
1005
396F
1005
396E
1005
3969
1071
        7
1070
     1
1070
     1
1071
        6
1040
188.96305048480511
1040
94.578041422202205
1040
0.4142135623730951
1040
187.96305048480511
1040
93.578041422202205
1040
0.0
1040
187.96305048480551
1040
89.578041422202205
1040
0.0
1040
202.96305048480511
1040
89.578041422202205
1040
0.0
1040
202.96305048480511
1040
91.078041422202205
1040
0.0
1040
202.96305048480511
1040
94.578041422202205
1040
0.0
1071
        6
1005
397C
1005
3980
1005
3968
1005
3930
1005
3966
1005
3969
1071
        7
1070
     1
1070
     1
1071
        6
1040
207.96305048480599
1040
89.578041422201963
1040
0.0
1040
202.9630504848046
1040
89.578041422201963
1040
0.0
1040
202.96305048480511
1040
88.078041422201963
1040
0.0
1040
202.9630504848046
1040
84.578041422202205
1040
0.0
1040
206.96305048480599
1040
84.578041422201963
1040
0.4142135623730818
1040
207.96305048480599
1040
85.578041422201963
1040
0.0
1071
        6
1005
3930
1005
3966
1005
3969
1005
396E
1005
3976
1005
396A
1071
        7
1070
     1
1070
     1
1071
        5
1040
207.96305048480639
1040
89.578041422202205
1040
0.0
1040
207.96305048480599
1040
93.578041422202205
1040
0.4142135623730934
1040
206.96305048480599
1040
94.578041422202205
1040
0.0
1040
202.9630504848046
1040
94.578041422201963
1040
0.0
1040
202.96305048480551
1040
89.578041422202205
1040
0.0
1071
        5
1005
398E
1005
397C
1005
3969
1005
3930
1005
396A
1071
        7
1070
     1
1070
     1
1071
        6
1040
229.58996112750131
1040
85.578041422201764
1040
0.4142135623730951
1040
230.58996112750131
1040
84.578041422201736
1040
0.0
1040
241.08996112750171
1040
84.578041422201736
1040
0.0
1040
241.08996112750131
1040
94.578041422201736
1040
0.0
1040
230.58996112750131
1040
94.578041422201736
1040
0.4142135623730802
1040
229.58996112750131
1040
93.578041422201736
1040
0.0
1071
        6
1005
3992
1005
3990
1005
396C
1005
3978
1005
397A
1005
3967
1071
        7
1070
     1
1070
     1
1071
        6
1040
251.58996112750171
1040
84.578041422201736
1040
0.4142135623730966
1040
252.58996112750179
1040
85.578041422201764
1040
0.0
1040
252.58996112750179
1040
93.578041422201736
1040
0.4142135623730951
1040
251.58996112750171
1040
94.578041422201736
1040
0.0
1040
241.08996112750171
1040
94.578041422201736
1040
0.0
1040
241.08996112750171
1040
84.578041422201537
1040
0.0
1071
        6
1005
3986
1005
3992
1005
3967
1005
397A
1005
3974
1005
396D
1071
        7
1070
     1
1070
     1
1071
        6
1040
187.96305048480511
1040
153.76356423370589
1040
0.4142135623730905
1040
188.96305048480511
1040
152.76356423370589
1040
0.0
1040
202.96305048480551
1040
152.76356423370589
1040
0.4347826086956736
1040
202.96305048480551
1040
175.76356423370589
1040
0.0
1040
188.96305048480511
1040
175.76356423370561
1040
0.4142135623730951
1040
187.96305048480511
1040
174.76356423370561
1040
0.0
1071
        6
1005
39A3
1005
39A4
1005
3921
1005
3984
1005
397B
1005
3922
1070
     0
1070
     1
1040
0.0
1040
0.8007462394779809
1070
     0
1070
     1
1040
0.7853981633974483
1040
-3321.96091796365
1040
-1460.1936288914669
1040
-1.79605122421383
1040
1.79605122421383
1070
     0
1040
0.2077572791460401
1071
        7
1040
196.70308143233339
1040
89.20930290222168
1040
0.0
1040
196.49520063384711
1040
92.325662965956781
1040
0.0
1040
205.6420470516841
1040
87.131730267385137
1040
0.0
1040
205.6420470516841
1040
90.871361899275144
1040
0.0
1040
232.2510500706139
1040
90.040332400748412
1040
0.0
1040
247.21861100860221
1040
89.001544971849853
1040
0.0
1040
197.11884737618399
1040
162.33986542816319
1040
0.0
1002
}
  0
LINE
  5
3921
  8
実線
 10
187.96305048480511
 20
174.76356423370561
 30
0.0
 11
187.96305048480511
 21
153.76356423370589
 31
0.0
1001
ACAD
1000
ASC_BOUNDS
1002
{
1070
    19
1005
3920
1002
}
  0
ARC
  5
3922
  8
実線
 10
192.23805048480611
 20
164.26356423370589
 30
0.0
 40
15.72499999999946
 50
313.00286864809749
 51
46.997131351902503
1001
ACAD
1000
ASC_BOUNDS
1002
{
1070
    19
1005
3920
1002
}
  0
DIMENSION
  5
3923
  8
寸法線
  2
*D58
 10
216.9995544101298
 20
175.76356423370561
 30
0.0
 11
215.1245544101298
 21
164.26356423370581
 31
0.0
 70
     0
 13
202.96305048480511
 23
152.76356423370589
 33
0.0
 14
202.96305048480551
 24
175.76356423370561
 34
0.0
 50
90.0
1001
ACAD
1000
DSTYLE
1002
{
1070
   270
1070
     8
1070
   144
1040
1.0
1070
    41
1040
2.5
1070
    42
1040
0.625
1070
    43
1040
3.75
1070
    44
1040
1.25
1070
    73
1070
     0
1070
    74
1070
     0
1070
    77
1070
     1
1070
    78
1070
     8
1070
   140
1040
2.5
1070
   141
1040
2.5
1070
   143
1040
0.0394
1070
   147
1040
0.625
1070
   171
1070
     4
1070
   172
1070
     1
1070
   273
1070
     8
1070
   274
1070
     4
1070
   277
1070
     6
1002
}
  0
LINE
  5
3924
  8
実線
 10
114.963050484806
 20
173.76356423370561
 30
0.0
 11
114.963050484806
 21
154.76356423370589
 31
0.0
  0
DIMENSION
  5
3925
  8
寸法線
  2
*D59
 10
51.728695503061772
 20
173.76356423370561
 30
0.0
 11
49.853695503061743
 21
164.26356423370581
 31
0.0
 70
     0
 13
57.963050484805542
 23
154.76356423370589
 33
0.0
 14
57.963050484805542
 24
173.76356423370561
 34
0.0
 50
90.0
1001
ACAD
1000
DSTYLE
1002
{
1070
   270
1070
     8
1070
   144
1040
1.0
1070
    41
1040
2.5
1070
    42
1040
0.625
1070
    43
1040
3.75
1070
    44
1040
1.25
1070
    73
1070
     0
1070
    74
1070
     0
1070
    77
1070
     1
1070
    78
1070
     8
1070
   140
1040
2.5
1070
   141
1040
2.5
1070
   143
1040
0.0394
1070
   147
1040
0.625
1070
   171
1070
     4
1070
   172
1070
     1
1070
   273
1070
     8
1070
   274
1070
     4
1070
   277
1070
     6
1002
}
  0
LINE
  5
3926
  8
実線
 10
60.963050484805528
 20
173.76356423370561
 30
0.0
 11
60.963050484805528
 21
154.76356423370589
 31
0.0
  0
LINE
  5
3927
  8
実線
 10
57.963050484805542
 20
154.76356423370589
 30
0.0
 11
57.963050484805542
 21
173.76356423370561
 31
0.0
  0
DIMENSION
  5
3928
  8
寸法線
  2
*D60
 10
207.96305048480599
 20
143.16348390253549
 30
0.0
 11
132.96305048480551
 21
143.16348390253549
 31
0.0
 70
   128
 13
57.963050484805542
 23
133.07804142220201
 33
0.0
 14
207.96305048480599
 24
133.07804142220201
 34
0.0
1001
ACAD
1000
DSTYLE
1002
{
1070
   270
1070
     8
1070
   144
1040
1.0
1070
    41
1040
2.5
1070
    42
1040
0.625
1070
    43
1040
3.75
1070
    44
1040
1.25
1070
    73
1070
     0
1070
    74
1070
     0
1070
    77
1070
     1
1070
    78
1070
     8
1070
   140
1040
2.5
1070
   141
1040
2.5
1070
   143
1040
0.0394
1070
   147
1040
0.625
1070
   171
1070
     4
1070
   172
1070
     1
1070
   273
1070
     8
1070
   274
1070
     4
1070
   277
1070
     6
1070
   288
1070
     1
1002
}
  0
LINE
  5
3929
  8
実線
 10
57.963050484805542
 20
154.76356423370589
 30
0.0
 11
137.96305048480551
 21
154.76356423370589
 31
0.0
  0
LINE
  5
392A
  8
実線
 10
137.96305048480551
 20
91.078041422201977
 30
0.0
 11
124.0147780874435
 21
91.078041422201736
 31
0.0
  0
LINE
  5
392B
  8
実線
 10
137.96305048480551
 20
91.078041422202205
 30
0.0
 11
124.0147780874435
 21
91.078041422201736
 31
0.0
  0
LINE
  5
392C
  8
実線
 10
137.96305048480511
 20
91.078041422201977
 30
0.0
 11
124.0147780874431
 21
91.078041422201295
 31
0.0
  0
LINE
  5
392D
  8
実線
 10
137.96305048480551
 20
88.078041422201963
 30
0.0
 11
125.15917593843371
 21
88.078041422201963
 31
0.0
  0
LINE
  5
392E
  8
実線
 10
137.96305048480551
 20
88.078041422202205
 30
0.0
 11
125.15917593843371
 21
88.078041422202205
 31
0.0
  0
LINE
  5
392F
  8
実線
 10
137.96305048480551
 20
88.078041422201963
 30
0.0
 11
125.15917593843319
 21
88.078041422201295
 31
0.0
  0
LINE
  5
3930
  8
中心線
 10
54.963050484805542
 20
89.578041422201963
 30
0.0
 11
209.96305048480599
 21
89.578041422202205
 31
0.0
1001
ACAD
1000
ASC_BOUNDS
1002
{
1070
    19
1005
3920
1005
3920
1005
3920
1005
3920
1002
}
  0
DIMENSION
  5
3931
  8
寸法線
  2
*D61
 10
207.96305048480599
 20
136.2400345603892
 30
0.0
 11
167.23376726766401
 21
136.2400345603892
 31
0.0
 70
   128
 13
120.96305048480509
 23
91.703041422201068
 33
0.0
 14
207.96305048480599
 24
91.703041422201068
 34
0.0
1001
ACAD
1000
DSTYLE
1002
{
1070
   270
1070
     8
1070
   144
1040
1.0
1070
    41
1040
2.5
1070
    42
1040
0.625
1070
    43
1040
3.75
1070
    44
1040
1.25
1070
    73
1070
     0
1070
    74
1070
     0
1070
    77
1070
     1
1070
    78
1070
     8
1070
   140
1040
2.5
1070
   141
1040
2.5
1070
   143
1040
0.0394
1070
   147
1040
0.625
1070
   171
1070
     4
1070
   172
1070
     1
1070
   273
1070
     8
1070
   274
1070
     4
1070
   277
1070
     6
1070
   288
1070
     1
1002
}
  0
DIMENSION
  5
3932
  8
寸法線
  2
*D62
 10
42.993905269166589
 20
89.578041422201963
 30
0.0
 11
41.118905269166568
 21
110.8280414222025
 31
0.0
 70
     0
 13
57.338050484805542
 23
132.07804142220311
 33
0.0
 14
54.963050484805542
 24
89.578041422201963
 34
0.0
 50
90.0
1001
ACAD
1000
DSTYLE
1002
{
1070
   270
1070
     8
1070
   144
1040
1.0
1070
    41
1040
2.5
1070
    42
1040
0.625
1070
    43
1040
3.75
1070
    44
1040
1.25
1070
    73
1070
     0
1070
    74
1070
     0
1070
    77
1070
     1
1070
    78
1070
     8
1070
   140
1040
2.5
1070
   141
1040
2.5
1070
   143
1040
0.0394
1070
   147
1040
0.625
1070
   171
1070
     4
1070
   172
1070
     1
1070
   273
1070
     8
1070
   274
1070
     4
1070
   277
1070
     6
1002
}
  0
DIMENSION
  5
3933
  8
寸法線
  2
*D63
 10
34.263290330655757
 20
132.07804142220311
 30
0.0
 11
32.388290330655742
 21
97.578041422202546
 31
0.0
 70
     0
 13
53.814950052976201
 23
63.078041422201977
 33
0.0
 14
51.728695503061772
 24
132.07804142220311
 34
0.0
 50
90.0
1001
ACAD
1000
DSTYLE
1002
{
1070
   270
1070
     8
1070
   144
1040
1.0
1070
    41
1040
2.5
1070
    42
1040
0.625
1070
    43
1040
3.75
1070
    44
1040
1.25
1070
    73
1070
     0
1070
    74
1070
     0
1070
    77
1070
     1
1070
    78
1070
     8
1070
   140
1040
2.5
1070
   141
1040
2.5
1070
   143
1040
0.0394
1070
   147
1040
0.625
1070
   171
1070
     4
1070
   172
1070
     1
1070
   273
1070
     8
1070
   274
1070
     4
1070
   277
1070
     6
1002
}
  0
LINE
  5
3934
  8
実線
 10
60.96305048480508
 20
132.07804142220289
 30
0.0
 11
60.963050484804633
 21
88.078041422202205
 31
0.0
  0
LINE
  5
3935
  8
実線
 10
57.963050484805542
 20
132.07804142220311
 30
0.0
 11
57.963050484805542
 21
88.078041422201963
 31
0.0
  0
ARC
  5
3936
  8
実線
 10
124.0147780874435
 20
83.078041422201295
 30
0.0
 40
8.0
 50
90.0
 51
131.76029970389689
  0
DIMENSION
  5
3937
  8
寸法線
  2
*D64
 10
42.993905269166589
 20
63.078041422201991
 30
0.0
 11
41.118905269166582
 21
76.328041422202006
 31
0.0
 70
     0
 13
54.963050484805542
 23
89.578041422201963
 33
0.0
 14
82.96305048480599
 24
63.078041422201977
 34
0.0
 50
90.0
1001
ACAD
1000
DSTYLE
1002
{
1070
   270
1070
     8
1070
   144
1040
1.0
1070
    41
1040
2.5
1070
    42
1040
0.625
1070
    43
1040
3.75
1070
    44
1040
1.25
1070
    73
1070
     0
1070
    74
1070
     0
1070
    77
1070
     1
1070
    78
1070
     8
1070
   140
1040
2.5
1070
   141
1040
2.5
1070
   143
1040
0.0394
1070
   147
1040
0.625
1070
   171
1070
     4
1070
   172
1070
     1
1070
   273
1070
     8
1070
   274
1070
     4
1070
   277
1070
     6
1002
}
  0
ARC
  5
3938
  8
実線
 10
82.963050484805535
 20
88.078041422201963
 30
0.0
 40
25.0
 50
180.0
 51
270.0
  0
POINT
  5
3939
  8
実線
 10
54.963050484805542
 20
89.578041422201963
 30
0.0
  0
POINT
  5
393A
  8
中心線
 10
114.963050484806
 20
89.578041422201963
 30
0.0
  0
ARC
  5
393B
  8
実線
 10
125.15917593843371
 20
80.078041422201295
 30
0.0
 40
8.0
 50
90.0
 51
131.76029970389689
  0
ARC
  5
393C
  8
実線
 10
82.963050484805535
 20
88.078041422201963
 30
0.0
 40
22.0
 50
180.0
 51
270.0
  0
LINE
  5
393D
  8
実線
 10
82.963050484805535
 20
66.078041422201977
 30
0.0
 11
89.911322882166132
 21
66.078041422201977
 31
0.0
  0
LINE
  5
393E
  8
実線
 10
82.963050484805535
 20
63.078041422201977
 30
0.0
 11
91.055720733156264
 21
63.078041422201977
 31
0.0
  0
ARC
  5
393F
  8
実線
 10
89.911322882166132
 20
74.078041422201963
 30
0.0
 40
8.0
 50
270.0
 51
311.76029970389692
  0
ARC
  5
3940
  8
実線
 10
91.055720733156264
 20
71.078041422201977
 30
0.0
 40
8.0
 50
270.0
 51
311.76029970389692
  0
POINT
  5
3941
  8
寸法線
 10
92.96305048480599
 20
63.078041422202197
 30
0.0
  0
DIMENSION
  5
3942
  8
寸法線
  2
*D65
 10
82.963050484805308
 20
88.078041422202318
 30
0.0
 11
74.087535302564419
 21
78.522399125932537
 31
0.0
 70
   132
 15
67.99093541699996
 25
71.958619273862382
 35
0.0
 40
0.0
1001
ACAD
1000
DSTYLE
1002
{
1070
   270
1070
     8
1070
   144
1040
1.0
1070
    41
1040
2.5
1070
    42
1040
0.625
1070
    43
1040
3.75
1070
    44
1040
1.25
1070
    73
1070
     0
1070
    74
1070
     0
1070
    77
1070
     1
1070
    78
1070
     8
1070
   140
1040
2.5
1070
   141
1040
2.5
1070
   143
1040
0.0394
1070
   147
1040
0.625
1070
   171
1070
     4
1070
   172
1070
     1
1070
   273
1070
     8
1070
   274
1070
     4
1070
   277
1070
     6
1070
   288
1070
     1
1002
}
  0
LINE
  5
3943
  8
実線
 10
95.239449036636884
 20
68.11054012919476
 30
0.0
 11
118.68665193297279
 21
89.045542715208512
 31
0.0
  0
LINE
  5
3944
  8
実線
 10
96.383846887626973
 20
65.11054012919476
 30
0.0
 11
119.8310497839629
 21
86.045542715208725
 31
0.0
  0
DIMENSION
  5
3945
  8
寸法線
  2
*D66
 10
60.96305048480508
 20
136.62845006293031
 30
0.0
 11
59.463050484805308
 21
138.50345006293031
 31
0.0
 70
     0
 13
57.963050484805542
 23
132.07804142220311
 33
0.0
 14
60.96305048480508
 24
132.07804142220311
 34
0.0
1001
ACAD
1000
DSTYLE
1002
{
1070
   270
1070
     8
1070
   144
1040
1.0
1070
    41
1040
2.5
1070
    42
1040
0.625
1070
    43
1040
3.75
1070
    44
1040
1.25
1070
    73
1070
     0
1070
    74
1070
     0
1070
    77
1070
     1
1070
    78
1070
     8
1070
   140
1040
2.5
1070
   141
1040
2.5
1070
   143
1040
0.0394
1070
   147
1040
0.625
1070
   171
1070
     4
1070
   172
1070
     1
1070
   273
1070
     8
1070
   274
1070
     4
1070
   277
1070
     6
1002
}
  0
LINE
  5
3946
  8
中心線
 10
54.963050484805542
 20
99.578041422201963
 30
0.0
 11
64.208051151294512
 21
99.578041422201963
 31
0.0
  0
LINE
  5
3947
  8
中心線
 10
54.963050484805542
 20
122.57804142220169
 30
0.0
 11
63.96305048480508
 21
122.57804142220169
 31
0.0
  0
DIMENSION
  5
3948
  8
寸法線
  2
*D67
 10
51.728695503061772
 20
122.57804142220169
 30
0.0
 11
49.853695503061751
 21
127.3280414222024
 31
0.0
 70
     0
 13
57.963050484805542
 23
132.07804142220311
 33
0.0
 14
54.963050484805542
 24
122.57804142220169
 34
0.0
 50
90.0
1001
ACAD
1000
DSTYLE
1002
{
1070
   270
1070
     8
1070
   144
1040
1.0
1070
    41
1040
2.5
1070
    42
1040
0.625
1070
    43
1040
3.75
1070
    44
1040
1.25
1070
    73
1070
     0
1070
    74
1070
     0
1070
    77
1070
     1
1070
    78
1070
     8
1070
   140
1040
2.5
1070
   141
1040
2.5
1070
   143
1040
0.0394
1070
   147
1040
0.625
1070
   171
1070
     4
1070
   172
1070
     1
1070
   273
1070
     8
1070
   274
1070
     4
1070
   277
1070
     6
1002
}
  0
DIMENSION
  5
3949
  8
寸法線
  2
*D68
 10
51.728695503061772
 20
99.578041422201963
 30
0.0
 11
49.853695503061758
 21
111.07804142220191
 31
0.0
 70
     0
 13
54.963050484805542
 23
122.57804142220169
 33
0.0
 14
54.963050484805542
 24
99.578041422201963
 34
0.0
 50
90.0
1001
ACAD
1000
DSTYLE
1002
{
1070
   270
1070
     8
1070
   144
1040
1.0
1070
    41
1040
2.5
1070
    42
1040
0.625
1070
    43
1040
3.75
1070
    44
1040
1.25
1070
    73
1070
     0
1070
    74
1070
     0
1070
    77
1070
     1
1070
    78
1070
     8
1070
   140
1040
2.5
1070
   141
1040
2.5
1070
   143
1040
0.0394
1070
   147
1040
0.625
1070
   171
1070
     4
1070
   172
1070
     1
1070
   273
1070
     8
1070
   274
1070
     4
1070
   277
1070
     6
1002
}
  0
POINT
  5
394A
  8
隠れ線
 10
60.96305048480508
 20
118.32804142220169
 30
0.0
  0
POINT
  5
394B
  8
隠れ線
 10
60.963050484805528
 20
126.82804142220169
 30
0.0
  0
LINE
  5
394C
  8
隠れ線
 10
58.96305048480508
 20
120.32804142220169
 30
0.0
 11
57.963050484805542
 21
120.32804142220169
 31
0.0
  0
POINT
  5
394D
  8
隠れ線
 10
58.963050484805528
 20
124.82804142220169
 30
0.0
  0
POINT
  5
394E
  8
隠れ線
 10
57.963050484805542
 20
124.82804142220169
 30
0.0
  0
POINT
  5
394F
  8
隠れ線
 10
58.963050484805528
 20
124.82804142220169
 30
0.0
  0
POINT
  5
3950
  8
隠れ線
 10
57.963050484805542
 20
124.82804142220169
 30
0.0
  0
LINE
  5
3951
  8
隠れ線
 10
58.963050484805528
 20
124.82804142220169
 30
0.0
 11
57.963050484805542
 21
124.82804142220169
 31
0.0
  0
LINE
  5
3952
  8
隠れ線
 10
58.96305048480508
 20
120.32804142220169
 30
0.0
 11
58.963050484805528
 21
124.82804142220169
 31
0.0
  0
LINE
  5
3953
  8
隠れ線
 10
60.96305048480508
 20
118.32804142220169
 30
0.0
 11
58.96305048480508
 21
120.32804142220169
 31
0.0
  0
LINE
  5
3954
  8
隠れ線
 10
58.963050484805528
 20
124.82804142220169
 30
0.0
 11
60.963050484805528
 21
126.82804142220169
 31
0.0
  0
LINE
  5
3955
  8
隠れ線
 10
58.963050484805528
 20
101.82804142220201
 30
0.0
 11
60.963050484805528
 21
103.82804142220201
 31
0.0
  0
LINE
  5
3956
  8
隠れ線
 10
60.96305048480508
 20
95.328041422201977
 30
0.0
 11
58.96305048480508
 21
97.328041422201977
 31
0.0
  0
LINE
  5
3957
  8
隠れ線
 10
58.96305048480508
 20
97.328041422201977
 30
0.0
 11
58.963050484805528
 21
101.82804142220201
 31
0.0
  0
LINE
  5
3958
  8
隠れ線
 10
58.963050484805528
 20
101.82804142220201
 30
0.0
 11
57.963050484805542
 21
101.82804142220201
 31
0.0
  0
POINT
  5
3959
  8
隠れ線
 10
57.963050484805542
 20
101.82804142220201
 30
0.0
  0
POINT
  5
395A
  8
隠れ線
 10
58.963050484805528
 20
101.82804142220201
 30
0.0
  0
POINT
  5
395B
  8
隠れ線
 10
57.963050484805542
 20
101.82804142220201
 30
0.0
  0
POINT
  5
395C
  8
隠れ線
 10
58.963050484805528
 20
101.82804142220201
 30
0.0
  0
LINE
  5
395D
  8
隠れ線
 10
58.96305048480508
 20
97.328041422201977
 30
0.0
 11
57.963050484805542
 21
97.328041422201977
 31
0.0
  0
POINT
  5
395E
  8
隠れ線
 10
60.963050484805528
 20
103.82804142220201
 30
0.0
  0
POINT
  5
395F
  8
隠れ線
 10
60.96305048480508
 20
95.328041422201977
 30
0.0
  0
POINT
  5
3960
  8
実線
 10
120.96305048480509
 20
91.078041422201068
 30
0.0
  0
LINE
  5
3961
  8
実線
 10
61.168555767102127
 20
91.078041422201736
 30
0.0
 11
60.963050484804633
 21
91.078041422201736
 31
0.0
  0
LINE
  5
3962
  8
実線
 10
60.96305048480508
 20
132.07804142220311
 30
0.0
 11
57.963050484805542
 21
132.07804142220311
 31
0.0
  0
POINT
  5
3963
  8
実線
 10
60.963050484805528
 20
133.07804142220201
 30
0.0
  0
POINT
  5
3964
  8
実線
 10
57.963050484805542
 20
133.07804142220201
 30
0.0
  0
DIMENSION
  5
3965
  8
寸法線
  2
*D69
 10
60.96305048480508
 20
136.5744450846459
 30
0.0
 11
89.949906208816174
 21
136.5744450846459
 31
0.0
 70
   128
 13
120.96305048480509
 23
91.078041422201068
 33
0.0
 14
60.96305048480508
 24
132.70304142220311
 34
0.0
1001
ACAD
1000
DSTYLE
1002
{
1070
   270
1070
     8
1070
   144
1040
1.0
1070
    41
1040
2.5
1070
    42
1040
0.625
1070
    43
1040
3.75
1070
    44
1040
1.25
1070
    73
1070
     0
1070
    74
1070
     0
1070
    77
1070
     1
1070
    78
1070
     8
1070
   140
1040
2.5
1070
   141
1040
2.5
1070
   143
1040
0.0394
1070
   147
1040
0.625
1070
   171
1070
     4
1070
   172
1070
     1
1070
   273
1070
     8
1070
   274
1070
     4
1070
   277
1070
     6
1070
   288
1070
     1
1002
}
  0
LINE
  5
3966
  8
実線
 10
202.96305048480511
 20
88.078041422201963
 30
0.0
 11
202.96305048480511
 21
91.078041422202205
 31
0.0
1001
ACAD
1000
ASC_BOUNDS
1002
{
1070
    19
1005
3920
1005
3920
1002
}
  0
LINE
  5
3967
  8
中心線
 10
241.08996112750171
 20
61.078041422201743
 30
0.0
 11
241.08996112750131
 21
134.0780414222026
 31
0.0
1001
ACAD
1000
ASC_BOUNDS
1002
{
1070
    19
1005
3920
1005
3920
1002
}
  0
LINE
  5
3968
  8
実線
 10
187.96305048480551
 20
85.578041422202205
 30
0.0
 11
187.96305048480511
 21
93.578041422202205
 31
0.0
1001
ACAD
1000
ASC_BOUNDS
1002
{
1070
    19
1005
3920
1005
3920
1002
}
  0
LINE
  5
3969
  8
実線
 10
202.96305048480511
 20
84.578041422201963
 30
0.0
 11
202.96305048480511
 21
94.578041422202205
 31
0.0
1001
ACAD
1000
ASC_BOUNDS
1002
{
1070
    19
1005
3920
1005
3920
1005
3920
1005
3920
1002
}
  0
LINE
  5
396A
  8
実線
 10
207.96305048480599
 20
93.578041422202205
 30
0.0
 11
207.96305048480599
 21
85.578041422201963
 31
0.0
1001
ACAD
1000
ASC_BOUNDS
1002
{
1070
    19
1005
3920
1005
3920
1002
}
  0
DIMENSION
  5
396B
  8
寸法線
  2
*D70
 10
216.99955441013029
 20
94.578041422202205
 30
0.0
 11
215.1245544101302
 21
89.578041422202105
 31
0.0
 70
     0
 13
206.96305048480599
 23
84.578041422201963
 33
0.0
 14
206.96305048480599
 24
94.578041422202205
 34
0.0
 50
90.0
1001
ACAD
1000
DSTYLE
1002
{
1070
   270
1070
     8
1070
   144
1040
1.0
1070
    41
1040
2.5
1070
    42
1040
0.625
1070
    43
1040
3.75
1070
    44
1040
1.25
1070
    73
1070
     0
1070
    74
1070
     0
1070
    77
1070
     1
1070
    78
1070
     8
1070
   140
1040
2.5
1070
   141
1040
2.5
1070
   143
1040
0.0394
1070
   147
1040
0.625
1070
   171
1070
     4
1070
   172
1070
     1
1070
   273
1070
     8
1070
   274
1070
     4
1070
   277
1070
     6
1002
}
  0
LINE
  5
396C
  8
実線
 10
229.58996112750131
 20
93.578041422201736
 30
0.0
 11
229.58996112750131
 21
85.578041422201764
 31
0.0
1001
ACAD
1000
ASC_BOUNDS
1002
{
1070
    19
1005
3920
1002
}
  0
LINE
  5
396D
  8
実線
 10
252.58996112750179
 20
85.578041422201764
 30
0.0
 11
252.58996112750179
 21
93.578041422201736
 31
0.0
1001
ACAD
1000
ASC_BOUNDS
1002
{
1070
    19
1005
3920
1002
}
  0
LINE
  5
396E
  8
実線
 10
206.96305048480599
 20
84.578041422201963
 30
0.0
 11
188.96305048480551
 21
84.578041422202205
 31
0.0
1001
ACAD
1000
ASC_BOUNDS
1002
{
1070
    19
1005
3920
1005
3920
1002
}
  0
ARC
  5
396F
  8
実線
 10
188.96305048480551
 20
85.578041422202205
 30
0.0
 40
1.0
 50
180.0
 51
270.0
1001
ACAD
1000
ASC_BOUNDS
1002
{
1070
    19
1005
3920
1002
}
  0
LINE
  5
3970
  8
実線
 10
150.96305048480551
 20
88.078041422201963
 30
0.0
 11
152.963050484805
 21
88.078041422201963
 31
0.0
  0
LINE
  5
3971
  8
実線
 10
137.96305048480551
 20
88.078041422202205
 30
0.0
 11
150.96305048480551
 21
88.078041422201963
 31
0.0
  0
LINE
  5
3972
  8
実線
 10
152.963050484805
 20
88.078041422201963
 30
0.0
 11
187.96305048480551
 21
88.078041422201963
 31
0.0
  0
LINE
  5
3973
  8
実線
 10
250.58996112750219
 20
84.578041422201736
 30
0.0
 11
250.58996112750179
 21
63.07804142220175
 31
0.0
  0
ARC
  5
3974
  8
実線
 10
251.58996112750171
 20
85.578041422201764
 30
0.0
 40
1.0
 50
270.0
 51
0.0
1001
ACAD
1000
ASC_BOUNDS
1002
{
1070
    19
1005
3920
1002
}
  0
LINE
  5
3975
  8
実線
 10
231.58996112750219
 20
84.578041422201736
 30
0.0
 11
231.58996112750179
 21
63.07804142220175
 31
0.0
  0
ARC
  5
3976
  8
実線
 10
206.96305048480599
 20
85.578041422201963
 30
0.0
 40
1.0
 50
270.0
 51
0.0
1001
ACAD
1000
ASC_BOUNDS
1002
{
1070
    19
1005
3920
1002
}
  0
POINT
  5
3977
  8
実線
 10
207.96305048480599
 20
89.578041422201963
 30
0.0
  0
ARC
  5
3978
  8
実線
 10
230.58996112750131
 20
85.578041422201764
 30
0.0
 40
1.0
 50
180.0
 51
270.0
1001
ACAD
1000
ASC_BOUNDS
1002
{
1070
    19
1005
3920
1002
}
  0
LINE
  5
3979
  8
実線
 10
231.58996112750179
 20
63.07804142220175
 30
0.0
 11
250.58996112750179
 21
63.07804142220175
 31
0.0
  0
LINE
  5
397A
  8
実線
 10
230.58996112750131
 20
84.578041422201736
 30
0.0
 11
251.58996112750171
 21
84.578041422201736
 31
0.0
1001
ACAD
1000
ASC_BOUNDS
1002
{
1070
    19
1005
3920
1005
3920
1002
}
  0
LINE
  5
397B
  8
実線
 10
188.96305048480511
 20
152.76356423370589
 30
0.0
 11
202.96305048480551
 21
152.76356423370589
 31
0.0
1001
ACAD
1000
ASC_BOUNDS
1002
{
1070
    19
1005
3920
1002
}
  0
LINE
  5
397C
  8
実線
 10
188.96305048480511
 20
94.578041422202205
 30
0.0
 11
206.96305048480599
 21
94.578041422202205
 31
0.0
1001
ACAD
1000
ASC_BOUNDS
1002
{
1070
    19
1005
3920
1005
3920
1002
}
  0
LINE
  5
397D
  8
実線
 10
147.7693335324029
 20
154.76356423370609
 30
0.0
 11
149.76903707804649
 21
154.7645788159227
 31
0.0
  0
LINE
  5
397E
  8
実線
 10
137.96305048480551
 20
154.76356423370589
 30
0.0
 11
147.7693335324029
 21
154.76356423370609
 31
0.0
  0
LINE
  5
397F
  8
実線
 10
149.76903707804649
 20
154.7645788159227
 30
0.0
 11
187.96305048480511
 21
154.7645788159229
 31
0.0
  0
ARC
  5
3980
  8
実線
 10
188.96305048480511
 20
93.578041422202205
 30
0.0
 40
1.0
 50
90.0
 51
180.0
1001
ACAD
1000
ASC_BOUNDS
1002
{
1070
    19
1005
3920
1002
}
  0
LINE
  5
3981
  8
実線
 10
150.96305048480551
 20
91.078041422202205
 30
0.0
 11
152.963050484805
 21
91.078041422202205
 31
0.0
  0
LINE
  5
3982
  8
実線
 10
137.96305048480551
 20
91.078041422202205
 30
0.0
 11
150.96305048480551
 21
91.078041422202205
 31
0.0
  0
LINE
  5
3983
  8
実線
 10
152.963050484805
 20
91.078041422202205
 30
0.0
 11
187.96305048480511
 21
91.078041422201295
 31
0.0
  0
ARC
  5
3984
  8
実線
 10
188.96305048480511
 20
153.76356423370589
 30
0.0
 40
1.0
 50
180.0
 51
270.0
1001
ACAD
1000
ASC_BOUNDS
1002
{
1070
    19
1005
3920
1002
}
  0
LINE
  5
3985
  8
実線
 10
250.58996112750179
 20
122.5780414222029
 30
0.0
 11
250.58996112750219
 21
94.578041422201537
 31
0.0
  0
ARC
  5
3986
  8
実線
 10
251.58996112750171
 20
93.578041422201736
 30
0.0
 40
1.0
 50
0.0
 51
90.0
1001
ACAD
1000
ASC_BOUNDS
1002
{
1070
    19
1005
3920
1002
}
  0
LINE
  5
3987
  8
実線
 10
231.58996112750131
 20
122.5780414222031
 30
0.0
 11
231.58996112750179
 21
94.578041422201736
 31
0.0
  0
CIRCLE
  5
3988
  8
実線
 10
241.08996112750131
 20
99.578041422203114
 30
0.0
 40
2.25
  0
CIRCLE
  5
3989
  8
実線
 10
241.08996112750131
 20
99.578041422203114
 30
0.0
 40
4.25
  0
LINE
  5
398A
  8
中心線
 10
247.33996112750131
 20
99.578041422203114
 30
0.0
 11
234.83996112750131
 21
99.578041422203114
 31
0.0
  0
CIRCLE
  5
398B
  8
実線
 10
241.0899611275004
 20
122.5780414222031
 30
0.0
 40
4.25
  0
CIRCLE
  5
398C
  8
実線
 10
241.0899611275004
 20
122.5780414222031
 30
0.0
 40
2.25
  0
LINE
  5
398D
  8
中心線
 10
247.3399611275004
 20
122.5780414222031
 30
0.0
 11
234.8399611275004
 21
122.5780414222031
 31
0.0
  0
ARC
  5
398E
  8
実線
 10
206.96305048480599
 20
93.578041422202205
 30
0.0
 40
1.0
 50
0.0
 51
90.0
1001
ACAD
1000
ASC_BOUNDS
1002
{
1070
    19
1005
3920
1002
}
  0
DIMENSION
  5
398F
  8
寸法線
  2
*D71
 10
230.5899611275004
 20
93.578041422201281
 30
0.0
 11
224.28951524487769
 21
98.968414117225052
 31
0.0
 70
   132
 15
229.8301083577372
 25
94.228136621600925
 35
0.0
 40
0.0
1001
ACAD
1000
DSTYLE
1002
{
1070
   270
1070
     8
1070
   144
1040
1.0
1070
    41
1040
2.5
1070
    42
1040
0.625
1070
    43
1040
3.75
1070
    44
1040
1.25
1070
    73
1070
     0
1070
    74
1070
     0
1070
    77
1070
     1
1070
    78
1070
     8
1070
   140
1040
2.5
1070
   141
1040
2.5
1070
   143
1040
0.0394
1070
   147
1040
0.625
1070
   171
1070
     4
1070
   172
1070
     1
1070
   273
1070
     8
1070
   274
1070
     4
1070
   277
1070
     6
1070
   288
1070
     1
1002
}
  0
ARC
  5
3990
  8
実線
 10
230.58996112750131
 20
93.578041422201736
 30
0.0
 40
1.0
 50
90.0
 51
180.0
1001
ACAD
1000
ASC_BOUNDS
1002
{
1070
    19
1005
3920
1002
}
  0
ARC
  5
3991
  8
実線
 10
241.08996112750131
 20
122.5780414222031
 30
0.0
 40
9.4999999999995453
 50
0.0
 51
180.0
  0
LINE
  5
3992
  8
実線
 10
251.58996112750171
 20
94.578041422201736
 30
0.0
 11
230.58996112750131
 21
94.578041422201736
 31
0.0
1001
ACAD
1000
ASC_BOUNDS
1002
{
1070
    19
1005
3920
1005
3920
1002
}
  0
LINE
  5
3993
  8
中心線
 10
54.963050484805542
 20
164.26356423370589
 30
0.0
 11
209.96305048480599
 21
164.26356423370609
 31
0.0
  0
LINE
  5
3994
  8
実線
 10
57.963050484805542
 20
173.76356423370561
 30
0.0
 11
137.96305048480551
 21
173.76356423370561
 31
0.0
  0
LINE
  5
3995
  8
隠れ線
 10
58.963050484805528
 20
166.51356423370589
 30
0.0
 11
60.963050484805528
 21
168.51356423370589
 31
0.0
  0
LINE
  5
3996
  8
隠れ線
 10
60.96305048480508
 20
160.01356423370589
 30
0.0
 11
58.96305048480508
 21
162.01356423370589
 31
0.0
  0
LINE
  5
3997
  8
隠れ線
 10
58.96305048480508
 20
162.01356423370589
 30
0.0
 11
58.963050484805528
 21
166.51356423370589
 31
0.0
  0
LINE
  5
3998
  8
隠れ線
 10
58.963050484805528
 20
166.51356423370589
 30
0.0
 11
57.963050484805542
 21
166.51356423370589
 31
0.0
  0
POINT
  5
3999
  8
隠れ線
 10
57.963050484805542
 20
166.51356423370589
 30
0.0
  0
POINT
  5
399A
  8
隠れ線
 10
58.963050484805528
 20
166.51356423370589
 30
0.0
  0
POINT
  5
399B
  8
隠れ線
 10
57.963050484805542
 20
166.51356423370589
 30
0.0
  0
POINT
  5
399C
  8
隠れ線
 10
58.963050484805528
 20
166.51356423370589
 30
0.0
  0
LINE
  5
399D
  8
隠れ線
 10
58.96305048480508
 20
162.01356423370589
 30
0.0
 11
57.963050484805542
 21
162.01356423370589
 31
0.0
  0
POINT
  5
399E
  8
隠れ線
 10
60.963050484805528
 20
168.51356423370589
 30
0.0
  0
POINT
  5
399F
  8
隠れ線
 10
60.96305048480508
 20
160.01356423370589
 30
0.0
  0
DIMENSION
  5
39A0
  8
寸法線
  2
*D72
 10
207.96305048480551
 20
187.1346851671878
 30
0.0
 11
197.8614595053204
 21
187.1346851671878
 31
0.0
 70
   128
 13
187.96305048480511
 23
175.38856423370561
 33
0.0
 14
207.96305048480551
 24
175.76356423370561
 34
0.0
1001
ACAD
1000
DSTYLE
1002
{
1070
   270
1070
     8
1070
   144
1040
1.0
1070
    41
1040
2.5
1070
    42
1040
0.625
1070
    43
1040
3.75
1070
    44
1040
1.25
1070
    73
1070
     0
1070
    74
1070
     0
1070
    77
1070
     1
1070
    78
1070
     8
1070
   140
1040
2.5
1070
   141
1040
2.5
1070
   143
1040
0.0394
1070
   147
1040
0.625
1070
   171
1070
     4
1070
   172
1070
     1
1070
   273
1070
     8
1070
   274
1070
     4
1070
   277
1070
     6
1070
   288
1070
     1
1002
}
  0
DIMENSION
  5
39A1
  8
寸法線
  2
*D73
 10
207.96305048480551
 20
180.1261538911844
 30
0.0
 11
205.46305048480551
 21
180.1261538911844
 31
0.0
 70
   128
 13
202.96305048480551
 23
175.76356423370561
 33
0.0
 14
207.96305048480551
 24
164.26356423370589
 34
0.0
1001
ACAD
1000
DSTYLE
1002
{
1070
   270
1070
     8
1070
   144
1040
1.0
1070
    41
1040
2.5
1070
    42
1040
0.625
1070
    43
1040
3.75
1070
    44
1040
1.25
1070
    73
1070
     0
1070
    74
1070
     0
1070
    77
1070
     1
1070
    78
1070
     8
1070
   140
1040
2.5
1070
   141
1040
2.5
1070
   143
1040
0.0394
1070
   147
1040
0.625
1070
   171
1070
     4
1070
   172
1070
     1
1070
   273
1070
     8
1070
   274
1070
     4
1070
   277
1070
     6
1070
   288
1070
     1
1002
}
  0
DIMENSION
  5
39A2
  8
寸法線
  2
*D74
 10
202.96305048480551
 20
180.1261538911844
 30
0.0
 11
195.4642231434145
 21
180.1261538911844
 31
0.0
 70
   128
 13
187.96305048480511
 23
174.76356423370561
 33
0.0
 14
202.96305048480551
 24
175.76356423370561
 34
0.0
1001
ACAD
1000
DSTYLE
1002
{
1070
   270
1070
     8
1070
   144
1040
1.0
1070
    41
1040
2.5
1070
    42
1040
0.625
1070
    43
1040
3.75
1070
    44
1040
1.25
1070
    73
1070
     0
1070
    74
1070
     0
1070
    77
1070
     1
1070
    78
1070
     8
1070
   140
1040
2.5
1070
   141
1040
2.5
1070
   143
1040
0.0394
1070
   147
1040
0.625
1070
   171
1070
     4
1070
   172
1070
     1
1070
   273
1070
     8
1070
   274
1070
     4
1070
   277
1070
     6
1070
   288
1070
     1
1002
}
  0
LINE
  5
39A3
  8
実線
 10
188.96305048480511
 20
175.76356423370561
 30
0.0
 11
202.96305048480551
 21
175.76356423370589
 31
0.0
1001
ACAD
1000
ASC_BOUNDS
1002
{
1070
    19
1005
3920
1002
}
  0
ARC
  5
39A4
  8
実線
 10
188.96305048480511
 20
174.76356423370561
 30
0.0
 40
1.0
 50
90.0
 51
180.0
1001
ACAD
1000
ASC_BOUNDS
1002
{
1070
    19
1005
3920
1002
}
  0
LINE
  5
39A5
  8
実線
 10
147.77087188391889
 20
173.76356423370561
 30
0.0
 11
149.76903707804689
 21
173.76457881592231
 31
0.0
  0
LINE
  5
39A6
  8
実線
 10
137.96305048480551
 20
173.76356423370561
 30
0.0
 11
147.77087188391889
 21
173.76356423370561
 31
0.0
  0
LINE
  5
39A7
  8
実線
 10
149.76903707804689
 20
173.76457881592231
 30
0.0
 11
187.96305048480511
 21
173.7645788159225
 31
0.0
  0
POINT
  5
39A8
  8
実線
 10
207.96305048480551
 20
164.26356423370561
 30
0.0
  0
VIEWPORT
  5
95A
 67
     1
  8
0
  6
CONTINUOUS
 10
128.5
 20
97.5
 30
0.0
 40
386.73855140186919
 41
222.18000000000001
 68
     1
 69
     1
1001
ACAD
1000
MVIEW
1002
{
1070
    16
1010
0.0
1020
0.0
1030
0.0
1010
0.0
1020
0.0
1030
1.0
1040
0.0
1040
222.18000000000001
1040
128.5
1040
97.5
1040
50.0
1040
0.0
1040
0.0
1070
     0
1070
   100
1070
     1
1070
     1
1070
     0
1070
     0
1070
     0
1070
     0
1040
0.0
1040
0.0
1040
0.0
1040
10.0
1040
10.0
1040
10.0
1040
10.0
1070
     0
1002
{
1002
}
1002
}
1001
GENIUS_GENOBJ-N-SDF_13
1002
{
1000
OWNER
1000
GEN
1002
}
1001
GENIUS_GENODEF_13
1002
{
1000
HIER
1070
     0
1002
}
1002
{
1000
MANEDIT
1070
     0
1002
}
1002
{
1000
NOSEL
1070
     0
1002
}
1002
{
1000
BEHIND
1070
     0
1002
}
1002
{
1000
OTHER
1070
     0
1002
}
1002
{
1000
REACTOR
1002
}
1001
GENIUS_GENSCREG_15
1000
PF
1040
1.0
1000
DF
1040
1.0
1000
MIN
1011
-64.869275700934566
1021
0.0
1031
0.0
1021
-13.59
1031
0.0
1000
MAX
1011
321.86927570093462
1021
0.0
1031
0.0
1021
208.59
1031
0.0
1000
FLAGS
1070
     4
  0
ENDSEC
  0
EOF
