  0
SECTION
  2
HEADER
  9
$ACADVER
  1
AC1009
  9
$INSBASE
 10
0.0
 20
0.0
 30
0.0
  9
$EXTMIN
 10
12.95278390635235
 20
9.9970857766065802
 30
-0.0000000000112498
  9
$EXTMAX
 10
289.46121995692403
 20
201.1236168934752
 30
0.0000000000002956
  9
$LIMMIN
 10
12.95699999999508
 20
10.0
  9
$LIMMAX
 10
289.45700000038528
 20
201.1206999999936
  9
$ORTHOMODE
 70
     1
  9
$REGENMODE
 70
     1
  9
$FILLMODE
 70
     1
  9
$QTEXTMODE
 70
     0
  9
$MIRRTEXT
 70
     1
  9
$DRAGMODE
 70
     2
  9
$LTSCALE
 40
7.0
  9
$OSMODE
 70
    39
  9
$ATTMODE
 70
     1
  9
$TEXTSIZE
 40
3.0
  9
$TRACEWID
 40
0.05
  9
$TEXTSTYLE
  7
STANDARD
  9
$CLAYER
  8
0
  9
$CELTYPE
  6
BYLAYER
  9
$CECOLOR
 62
   256
  9
$DIMSCALE
 40
1.0
  9
$DIMASZ
 40
2.5
  9
$DIMEXO
 40
1.0
  9
$DIMDLI
 40
7.0
  9
$DIMRND
 40
0.0
  9
$DIMDLE
 40
0.0
  9
$DIMEXE
 40
1.0
  9
$DIMTP
 40
0.1
  9
$DIMTM
 40
0.1
  9
$DIMTXT
 40
3.0
  9
$DIMCEN
 40
0.0
  9
$DIMTSZ
 40
0.0
  9
$DIMTOL
 70
     0
  9
$DIMLIM
 70
     0
  9
$DIMTIH
 70
     0
  9
$DIMTOH
 70
     0
  9
$DIMSE1
 70
     0
  9
$DIMSE2
 70
     0
  9
$DIMTAD
 70
     3
  9
$DIMZIN
 70
     8
  9
$DIMBLK
  1
OPEN30
  9
$DIMASO
 70
     1
  9
$DIMSHO
 70
     1
  9
$DIMPOST
  1

  9
$DIMAPOST
  1
"
  9
$DIMALT
 70
     0
  9
$DIMALTD
 70
     2
  9
$DIMALTF
 40
0.0393701
  9
$DIMLFAC
 40
1.0
  9
$DIMTOFL
 70
     1
  9
$DIMTVP
 40
0.0
  9
$DIMTIX
 70
     0
  9
$DIMSOXD
 70
     0
  9
$DIMSAH
 70
     0
  9
$DIMBLK1
  1

  9
$DIMBLK2
  1

  9
$DIMSTYLE
  2
AM_JIS
  9
$DIMCLRD
 70
     7
  9
$DIMCLRE
 70
     7
  9
$DIMCLRT
 70
     7
  9
$DIMTFAC
 40
0.71
  9
$DIMGAP
 40
1.0
  9
$LUNITS
 70
     2
  9
$LUPREC
 70
     4
  9
$SKETCHINC
 40
0.1
  9
$FILLETRAD
 40
0.0
  9
$AUNITS
 70
     0
  9
$AUPREC
 70
     0
  9
$MENU
  1
acad
  9
$ELEVATION
 40
0.0
  9
$PELEVATION
 40
0.0
  9
$THICKNESS
 40
0.0
  9
$LIMCHECK
 70
     0
  9
$BLIPMODE
 70
     0
  9
$CHAMFERA
 40
0.0
  9
$CHAMFERB
 40
0.0
  9
$SKPOLY
 70
     0
  9
$TDCREATE
 40
2455755.6568701151
  9
$TDUPDATE
 40
2457596.7232733802
  9
$TDINDWG
 40
0.1735366204
  9
$TDUSRTIMER
 40
0.1735364352
  9
$USRTIMER
 70
     1
  9
$ANGBASE
 50
0.0
  9
$ANGDIR
 70
     0
  9
$PDMODE
 70
     0
  9
$PDSIZE
 40
0.0
  9
$PLINEWID
 40
0.0
  9
$COORDS
 70
     1
  9
$SPLFRAME
 70
     0
  9
$SPLINETYPE
 70
     6
  9
$SPLINESEGS
 70
     8
  9
$ATTDIA
 70
     1
  9
$ATTREQ
 70
     1
  9
$HANDLING
 70
     1
  9
$HANDSEED
  5
3778
  9
$SURFTAB1
 70
     6
  9
$SURFTAB2
 70
     6
  9
$SURFTYPE
 70
     6
  9
$SURFU
 70
     6
  9
$SURFV
 70
     6
  9
$UCSNAME
  2

  9
$UCSORG
 10
0.0
 20
0.0
 30
0.0
  9
$UCSXDIR
 10
1.0
 20
0.0
 30
0.0
  9
$UCSYDIR
 10
0.0
 20
1.0
 30
0.0
  9
$PUCSNAME
  2

  9
$PUCSORG
 10
0.0
 20
0.0
 30
0.0
  9
$PUCSXDIR
 10
1.0
 20
0.0
 30
0.0
  9
$PUCSYDIR
 10
0.0
 20
1.0
 30
0.0
  9
$USERI1
 70
     0
  9
$USERI2
 70
     0
  9
$USERI3
 70
     0
  9
$USERI4
 70
     0
  9
$USERI5
 70
     0
  9
$USERR1
 40
0.0
  9
$USERR2
 40
0.0
  9
$USERR3
 40
0.0
  9
$USERR4
 40
0.0
  9
$USERR5
 40
0.0
  9
$WORLDVIEW
 70
     1
  9
$SHADEDGE
 70
     3
  9
$SHADEDIF
 70
    70
  9
$TILEMODE
 70
     1
  9
$MAXACTVP
 70
    16
  9
$PLIMCHECK
 70
     0
  9
$PEXTMIN
 10
1.0000000000000000E+020
 20
1.0000000000000000E+020
 30
1.0000000000000000E+020
  9
$PEXTMAX
 10
-1.0000000000000000E+020
 20
-1.0000000000000000E+020
 30
-1.0000000000000000E+020
  9
$PLIMMIN
 10
-20.0
 20
-7.5
  9
$PLIMMAX
 10
277.0
 20
202.5
  9
$UNITMODE
 70
     0
  9
$VISRETAIN
 70
     0
  9
$PLINEGEN
 70
     1
  9
$PSLTSCALE
 70
     0
  0
ENDSEC
  0
SECTION
  2
TABLES
  0
TABLE
  2
VPORT
 70
     1
  0
VPORT
  2
*ACTIVE
 70
     0
 10
0.0
 20
0.0
 11
1.0
 21
1.0
 12
151.2070019316381
 22
105.56035133504081
 13
0.0
 23
0.0
 14
2.5
 24
2.5
 15
10.0
 25
10.0
 16
0.0
 26
0.0
 36
1.0
 17
0.0
 27
0.0
 37
0.0
 40
192.74491419820541
 41
2.0759493670886071
 42
50.0
 43
0.0
 44
0.0
 50
0.0
 51
0.0
 71
    16
 72
   100
 73
     1
 74
     3
 75
     0
 76
     0
 77
     0
 78
     1
  0
ENDTAB
  0
TABLE
  2
LTYPE
 70
    16
  0
LTYPE
  2
CONTINUOUS
 70
     0
  3
Solid line (NEC CAE2D for Win R7.2 : 2008.02.20
 72
    65
 73
     0
 40
0.0
  0
LTYPE
  2
CENTER2
 70
     0
  3
Center (.5x) ___ _ ___ _ ___ _ ___ _ ___ _ ___
 72
    65
 73
     4
 40
1.125
 49
0.75
 49
-0.125
 49
0.125
 49
-0.125
  0
LTYPE
  2
HIDDEN2
 70
     0
  3
Hidden (.5x) _ _ _ _ _ _ _ _ _ _ _ _ _ _ _ _ _
 72
    65
 73
     2
 40
0.1875
 49
0.125
 49
-0.0625
  0
LTYPE
  2
ACISOWELD
 70
     0
  3
_ _ _ _ _
 72
    65
 73
     2
 40
2.0
 49
2.0
 49
-1.0
  0
LTYPE
  2
ACISOTGB
 70
     0
  3
__ . . __ . .
 72
    65
 73
     6
 40
9.0
 49
4.0
 49
-1.0
 49
1.0
 49
-1.0
 49
1.0
 49
-1.0
  0
LTYPE
  2
ACISOTGL
 70
     0
  3
_ _ _ _ _
 72
    65
 73
     2
 40
3.0
 49
2.0
 49
-1.0
  0
LTYPE
  2
AM_ISO02W050
 70
     0
  3
__ __ __ __ __ __ __ __ __ __ __ __ __ __ __
 72
    65
 73
     2
 40
7.5
 49
6.0
 49
-1.5
  0
LTYPE
  2
AM_ISO08W050
 70
     0
  3
____ . ____ . ____ . ____ . ____ . ____ . ____
 72
    65
 73
     4
 40
18.0
 49
12.0
 49
-1.5
 49
3.0
 49
-1.5
  0
LTYPE
  2
AM_ISO09W050
 70
     0
  3
_____ . . _____ . . _____ . . ____ .. ____
 72
    65
 73
     6
 40
22.5
 49
12.0
 49
-1.5
 49
3.0
 49
-1.5
 49
3.0
 49
-1.5
  0
LTYPE
  2
AMCONSTR
 70
     0
  3
_______________________
 72
    65
 73
     2
 40
9999.0
 49
9999.0
 49
0.0
  0
LTYPE
  2
AM_ISO08W050X2
 70
     0
  3
__ . __ . __ . __ . __ . __
 72
    65
 73
     4
 40
9.0
 49
6.0
 49
-0.75
 49
1.5
 49
-0.75
  0
LTYPE
  2
AM_ISO02W050X2
 70
     0
  3
 _ _ _ _ _ _ _ _ _ _ _ _
 72
    65
 73
     2
 40
3.75
 49
3.0
 49
-0.75
  0
LTYPE
  2
AMZIGZAG
 70
     0
  3
/\/-/\/-/\/-/\/-/\/-/\/
 72
    65
 73
     2
 40
11.0001
 49
0.0001
 49
-11.0
  0
ENDTAB
  0
TABLE
  2
LAYER
 70
    10
  0
LAYER
  2
0
 70
     0
 62
     3
  6
CONTINUOUS
  0
LAYER
  2
SYS-BUHIN0
 70
     0
 62
     7
  6
CONTINUOUS
  0
LAYER
  2
DEFPOINTS
 70
     0
 62
     7
  6
CONTINUOUS
  0
LAYER
  2
AM_BOR
 70
     0
 62
     7
  6
CONTINUOUS
  0
LAYER
  2
SYS-TEISEI0
 70
     0
 62
     7
  6
CONTINUOUS
  0
LAYER
  2
実線
 70
     0
 62
     3
  6
CONTINUOUS
  0
LAYER
  2
中心線
 70
     0
 62
     4
  6
CENTER2
  0
LAYER
  2
寸法線
 70
     0
 62
     2
  6
CONTINUOUS
  0
LAYER
  2
隠れ線
 70
     0
 62
     5
  6
HIDDEN2
  0
ENDTAB
  0
TABLE
  2
STYLE
 70
     5
  0
STYLE
  2
STANDARD
 70
     0
 40
0.0
 41
1.0
 50
0.0
 71
     0
 42
3.0
  3
dim.shx
  4
extfont.shx
  0
STYLE
  2
ACISOGDT
 70
     0
 40
0.0
 41
1.0
 50
0.0
 71
     0
 42
2.5
  3
amgdt.shx
  4

  0
STYLE
  2

 70
     1
 40
0.0
 41
1.0
 50
0.0
 71
     0
 42
3.0
  3
genltshp.shx
  4

  0
ENDTAB
  0
TABLE
  2
VIEW
 70
     6
  0
VIEW
  2
AM_VIEW1
 70
     0
 40
95.560349999996788
 10
100.7985233311003
 20
153.34052499999521
 41
175.68304666221039
 11
0.0
 21
0.0
 31
1.0
 12
0.0
 22
0.0
 32
0.0
 42
50.0
 43
0.0
 44
0.0
 50
0.0
 71
    16
  0
VIEW
  2
AM_VIEW2
 70
     0
 40
95.560349999996788
 10
201.6154766692801
 20
153.34052499999521
 41
175.68304666221039
 11
0.0
 21
0.0
 31
1.0
 12
0.0
 22
0.0
 32
0.0
 42
50.0
 43
0.0
 44
0.0
 50
0.0
 71
    16
  0
VIEW
  2
AM_VIEW3
 70
     0
 40
95.560349999996788
 10
100.7985233311003
 20
57.780174999998401
 41
175.68304666221039
 11
0.0
 21
0.0
 31
1.0
 12
0.0
 22
0.0
 32
0.0
 42
50.0
 43
0.0
 44
0.0
 50
0.0
 71
    16
  0
VIEW
  2
AM_VIEW4
 70
     0
 40
95.560349999996788
 10
201.6154766692801
 20
57.780174999998401
 41
175.68304666221039
 11
0.0
 21
0.0
 31
1.0
 12
0.0
 22
0.0
 32
0.0
 42
50.0
 43
0.0
 44
0.0
 50
0.0
 71
    16
  0
VIEW
  2
AM_VIEW5
 70
     0
 40
95.560349999996816
 10
151.20700000019011
 20
105.5603499999968
 41
175.68304666221039
 11
0.0
 21
0.0
 31
1.0
 12
0.0
 22
0.0
 32
0.0
 42
50.0
 43
0.0
 44
0.0
 50
0.0
 71
    16
  0
VIEW
  2
AM_VIEW6
 70
     0
 40
191.1187887929936
 10
151.20700000019019
 20
105.5603499999968
 41
351.36257966348762
 11
0.0
 21
0.0
 31
1.0
 12
0.0
 22
0.0
 32
0.0
 42
50.0
 43
0.0
 44
0.0
 50
0.0
 71
    16
  0
ENDTAB
  0
TABLE
  2
UCS
 70
     0
  0
ENDTAB
  0
TABLE
  2
APPID
 70
    63
  0
APPID
  2
ACAD
 70
     0
  0
APPID
  2
ACADANNOTATIVE
 70
     0
  0
APPID
  2
ACAD_MLEADERVER
 70
     0
  0
APPID
  2
MCAD_NO_VIS
 70
     0
  0
APPID
  2
ACAD_TEMP_GRAPHIC
 70
     0
  0
APPID
  2
AD_DRAW
 70
     0
  0
APPID
  2
ACATTRIBSERVICES
 70
     0
  0
APPID
  2
DESIGNERASSEMBLIES
 70
     0
  0
APPID
  2
ACADM_DIM_EDIT
 70
     0
  0
APPID
  2
AMDT_DM_ADJ
 70
     0
  0
APPID
  2
ACADANNOPO
 70
     0
  0
APPID
  2
ACAECLAYERSTANDARD
 70
     0
  0
APPID
  2
ACDBDYNAMICBLOCKGUID
 70
     0
  0
APPID
  2
ACDBBLOCKREPETAG
 70
     0
  0
APPID
  2
ACAUTHENVIRON
 70
     0
  0
APPID
  2
ACDBDYNAMICBLOCKTRUENAME
 70
     0
  0
APPID
  2
GENIUS_GENREC_14
 70
     0
  0
APPID
  2
GENIUS_GENOBJ-N-REC_13
 70
     0
  0
APPID
  2
GENIUS_GENODEF_13
 70
     0
  0
APPID
  2
ACAD_EXEMPT_FROM_CAD_STANDARDS
 70
     0
  0
APPID
  2
GENIUS_GENOBJ-N-CEN_13
 70
     0
  0
APPID
  2
GENIUS_GENCEN_19
 70
     0
  0
APPID
  2
ACAD_DSTYLE_DIMINSPECT
 70
     0
  0
APPID
  2
DCO15
 70
     0
  0
APPID
  2
ACAD_PSEXT
 70
     0
  0
APPID
  2
GENIUS_GENBH_13
 70
     0
  0
APPID
  2
GENIUS_GENOENT_13
 70
     0
  0
APPID
  2
GENIUS_GENOLIS_13
 70
     0
  0
APPID
  2
GENIUS_GENOBJ-NBEHI-BHF_13
 70
     0
  0
APPID
  2
GENIUS_GENOREF_13
 70
     0
  0
APPID
  2
GENIUS_GENOBJ-NBEHI-BHB_13
 70
     0
  0
APPID
  2
AMG_2DHIDE
 70
     0
  0
APPID
  2
AMG_2DSTRUCT_BTR
 70
     0
  0
APPID
  2
GENIUS_AMGTXT_16
 70
     0
  0
APPID
  2
GENIUS_GENOBJ-N-HTC_13
 70
     0
  0
APPID
  2
GENIUS_GENHATCH_13
 70
     0
  0
APPID
  2
GEVID1208849169
 70
     0
  0
APPID
  2
GEVDC
 70
     0
  0
APPID
  2
ACADM_2DVIEW_IGN_NOTIFY
 70
     0
  0
APPID
  2
GEVID1208849170
 70
     0
  0
APPID
  2
GEVID1208849171
 70
     0
  0
APPID
  2
GEVRADREF
 70
     0
  0
APPID
  2
ACAD_DSTYLE_DIMJAG
 70
     0
  0
APPID
  2
ACAD_DSTYLE_DIMTALN
 70
     0
  0
APPID
  2
GENIUS_GENDTOL_13
 70
     0
  0
APPID
  2
GENIUS_GENTRA_14
 70
     0
  0
APPID
  2
GENIUS_GENOBJ-N-TIT_13
 70
     0
  0
APPID
  2
GENIUS_GENTITLE_13
 70
     0
  0
APPID
  2
GENIUS_GENSCREG_15
 70
     0
  0
APPID
  2
GENIUS_GENOBJ-N-SDF_13
 70
     0
  0
APPID
  2
ACAD_DSTYLE_DIMRADIAL_EXTENSION
 70
     0
  0
APPID
  2
GENIUS_GENOBJ-N-FIL_13
 70
     0
  0
APPID
  2
GENIUS_GENOBJ-N-CRS_13
 70
     0
  0
APPID
  2
GENIUS_GENDIMSH_14
 70
     0
  0
APPID
  2
ACAD_DSTYLE_DIMANGULAR_EXT
 70
     0
  0
APPID
  2
ACAD_NAV_VCDISPLAY
 70
     0
  0
APPID
  2
ACAD_DSTYLE_DIMBREAK
 70
     0
  0
APPID
  2
ACAD_DSTYLE_DIMARC_LENGTH_
 70
     0
  0
APPID
  2
ACAD_DSTYLE_DIM_LINETYPE
 70
     0
  0
APPID
  2
ACAD_DSTYLE_DIM_EXT1_LINETYPE
 70
     0
  0
APPID
  2
ACAD_DSTYLE_DIM_EXT2_LINETYPE
 70
     0
  0
APPID
  2
ACDBATTR
 70
     0
  0
APPID
  2
GENIUS_GENSCREG_13
 70
     0
  0
ENDTAB
  0
TABLE
  2
DIMSTYLE
 70
    10
  0
DIMSTYLE
  2
STANDARD
 70
     0
  3

  4

  5

  6

  7

 40
1.0
 41
1.0
 42
0.8
 43
0.38
 44
1.0
 45
0.0
 46
0.0
 47
0.0
 48
0.0
140
3.1000000000000001
141
0.09
142
0.0
143
25.399999999999999
144
1.0
145
0.5
146
1.0
147
0.09
 71
     0
 72
     0
 73
     0
 74
     0
 75
     0
 76
     0
 77
     1
 78
     0
170
     0
171
     2
172
     0
173
     0
174
     0
175
     0
176
     0
177
     0
178
     0
  0
DIMSTYLE
  2
AM_JIS
 70
     0
  3

  4
"
  5
OPEN30
  6

  7

 40
1.0
 41
2.5
 42
1.0
 43
7.0
 44
1.0
 45
0.0
 46
0.0
 47
0.1
 48
0.1
140
3.0
141
0.0
142
0.0
143
0.0393701
144
1.0
145
0.0
146
0.71
147
1.0
 71
     0
 72
     0
 73
     0
 74
     0
 75
     0
 76
     0
 77
     3
 78
     8
170
     0
171
     2
172
     1
173
     0
174
     0
175
     0
176
     7
177
     7
178
     7
  0
DIMSTYLE
  2
AM_ISO
 70
     0
  3

  4
"
  5

  6

  7

 40
1.0
 41
2.5
 42
1.0
 43
10.0
 44
1.0
 45
0.0
 46
0.0
 47
0.1
 48
0.1
140
3.5
141
0.0
142
0.0
143
0.0393701
144
1.0
145
0.0
146
0.71
147
1.5
 71
     0
 72
     0
 73
     0
 74
     0
 75
     0
 76
     0
 77
     1
 78
     8
170
     0
171
     2
172
     1
173
     0
174
     0
175
     0
176
   256
177
   256
178
     2
  0
DIMSTYLE
  2
AM_ISO$3
 70
     0
  3

  4
"
  5

  6

  7

 40
1.0
 41
2.5
 42
1.0
 43
10.0
 44
1.0
 45
0.0
 46
0.0
 47
0.1
 48
0.1
140
3.5
141
0.0
142
0.0
143
0.0393701
144
1.0
145
0.0
146
0.71
147
1.5
 71
     0
 72
     0
 73
     0
 74
     1
 75
     0
 76
     0
 77
     1
 78
     8
170
     0
171
     2
172
     0
173
     0
174
     0
175
     0
176
   256
177
   256
178
     2
  0
DIMSTYLE
  2
AM_ISO$4
 70
     0
  3

  4
"
  5

  6

  7

 40
1.0
 41
2.5
 42
1.0
 43
10.0
 44
1.0
 45
0.0
 46
0.0
 47
0.1
 48
0.1
140
3.5
141
0.0
142
0.0
143
0.0393701
144
1.0
145
0.0
146
0.71
147
1.5
 71
     0
 72
     0
 73
     0
 74
     1
 75
     0
 76
     0
 77
     1
 78
     8
170
     0
171
     2
172
     0
173
     0
174
     0
175
     0
176
   256
177
   256
178
     2
  0
DIMSTYLE
  2
AM_ISO$6
 70
     0
  3

  4
"
  5

  6

  7

 40
1.0
 41
2.5
 42
1.0
 43
10.0
 44
1.0
 45
0.0
 46
0.0
 47
0.1
 48
0.1
140
3.5
141
0.0
142
0.0
143
0.0393701
144
1.0
145
0.0
146
0.71
147
1.5
 71
     0
 72
     0
 73
     0
 74
     0
 75
     0
 76
     0
 77
     0
 78
     8
170
     0
171
     2
172
     1
173
     0
174
     0
175
     0
176
   256
177
   256
178
     2
  0
DIMSTYLE
  2
AM_ISO$7
 70
     0
  3

  4
"
  5

  6

  7

 40
1.0
 41
2.5
 42
1.0
 43
10.0
 44
1.0
 45
0.0
 46
0.0
 47
0.1
 48
0.1
140
5.0
141
0.0
142
0.0
143
0.0393701
144
1.0
145
0.0
146
0.71
147
1.5
 71
     0
 72
     0
 73
     0
 74
     0
 75
     0
 76
     0
 77
     1
 78
     8
170
     0
171
     2
172
     1
173
     0
174
     0
175
     0
176
   256
177
   256
178
     2
  0
DIMSTYLE
  2
AM_ISO$SF
 70
     0
  3

  4
"
  5

  6

  7

 40
1.0
 41
2.5
 42
1.0
 43
10.0
 44
1.0
 45
0.0
 46
0.0
 47
0.1
 48
0.1
140
3.5
141
0.0
142
0.0
143
0.0393701
144
1.0
145
0.0
146
0.71
147
1.5
 71
     0
 72
     0
 73
     0
 74
     0
 75
     1
 76
     1
 77
     1
 78
     8
170
     0
171
     2
172
     1
173
     0
174
     0
175
     0
176
   256
177
   256
178
     2
  0
DIMSTYLE
  2
AM_ISO$SH
 70
     0
  3

  4
"
  5

  6
GENAXEH
  7

 40
1.0
 41
2.5
 42
1.0
 43
10.0
 44
1.0
 45
0.0
 46
0.0
 47
0.1
 48
0.1
140
3.5
141
0.0
142
0.0
143
0.0393701
144
2.0
145
0.0
146
0.71
147
1.5
 71
     0
 72
     0
 73
     0
 74
     0
 75
     1
 76
     1
 77
     1
 78
     8
170
     0
171
     2
172
     1
173
     1
174
     0
175
     0
176
   256
177
   256
178
     2
  0
ENDTAB
  0
ENDSEC
  0
SECTION
  2
BLOCKS
  0
BLOCK
  8
0
  2
$MODEL_SPACE
 70
     0
 10
0.0
 20
0.0
 30
0.0
  3
$MODEL_SPACE
  1

  0
ENDBLK
  5
1D3
  8
0
  0
BLOCK
 67
     1
  8
0
  2
$PAPER_SPACE
 70
     0
 10
0.0
 20
0.0
 30
0.0
  3
$PAPER_SPACE
  1

  0
ENDBLK
  5
1D1
 67
     1
  8
0
  0
BLOCK
  8
0
  2
GENAXEH
 70
     0
 10
0.0
 20
0.0
 30
0.0
  3
GENAXEH
  1

  0
LINE
  5
264
  8
0
 10
-1.0
 20
0.0
 30
0.0
 11
1.0
 21
0.0
 31
0.0
  0
ENDBLK
  5
266
  8
0
  0
BLOCK
  8
0
  2
_OPEN30
 70
     0
 10
0.0
 20
0.0
 30
0.0
  3
_OPEN30
  1

  0
LINE
  5
2FA
  8
0
  6
BYBLOCK
 62
     0
 10
-1.0
 20
0.26794919
 30
0.0
 11
0.0
 21
0.0
 31
0.0
  0
LINE
  5
2FB
  8
0
  6
BYBLOCK
 62
     0
 10
0.0
 20
0.0
 30
0.0
 11
-1.0
 21
-0.26794919
 31
0.0
  0
LINE
  5
2FC
  8
0
  6
BYBLOCK
 62
     0
 10
0.0
 20
0.0
 30
0.0
 11
-1.0
 21
0.0
 31
0.0
  0
ENDBLK
  5
2FE
  8
0
  0
BLOCK
  8
0
  2
ZUWAKU-A4H
 70
     0
 10
0.0
 20
0.0
 30
0.0
  3
ZUWAKU-A4H
  1

  0
LINE
  5
1B9F
  8
AM_BOR
 62
     3
 10
12.956999999995089
 20
201.1206999999936
 30
0.0
 11
12.956999999999759
 21
10.0
 31
0.0
  0
LINE
  5
1BA0
  8
AM_BOR
 62
     3
 10
289.45700000038528
 20
201.12069999985769
 30
0.0
 11
289.45700000001921
 21
10.0
 31
0.0
  0
LINE
  5
1BA1
  8
AM_BOR
 62
     3
 10
12.95699999999508
 20
201.1206999999936
 30
0.0
 11
289.45700000038528
 21
201.12069999985769
 31
0.0
  0
LINE
  5
1BA2
  8
AM_BOR
 62
     3
 10
12.95699999999974
 20
10.0
 30
0.0
 11
289.45700000001921
 21
10.0
 31
0.0
  0
TEXT
  5
1BA3
  8
SYS-TEISEI0
  6
CONTINUOUS
 62
     3
 10
21.84200001765786
 20
20.950000047683719
 30
0.0
 40
3.099999904632567
  1
 
  0
TEXT
  5
1BA4
  8
SYS-TEISEI0
  6
CONTINUOUS
 62
     3
 10
47.342000044479938
 20
20.950000047683719
 30
0.0
 40
3.099999904632567
  1
 
  0
TEXT
  5
1BA5
  8
SYS-TEISEI0
  6
CONTINUOUS
 62
     3
 10
106.7019999570846
 20
20.950000047683719
 30
0.0
 40
3.099999904632567
  1
 
  0
TEXT
  5
1BA6
  8
SYS-TEISEI0
  6
CONTINUOUS
 62
     3
 10
114.4019999570846
 20
20.950000047683719
 30
0.0
 40
3.099999904632567
  1
 
  0
TEXT
  5
1BA7
  8
SYS-TEISEI0
  6
CONTINUOUS
 62
     3
 10
21.84200001765786
 20
25.950000047683719
 30
0.0
 40
3.099999904632567
  1
 
  0
TEXT
  5
1BA8
  8
SYS-TEISEI0
  6
CONTINUOUS
 62
     3
 10
47.342000044479938
 20
25.950000047683719
 30
0.0
 40
3.099999904632567
  1
 
  0
TEXT
  5
1BA9
  8
SYS-TEISEI0
  6
CONTINUOUS
 62
     3
 10
106.7019999570846
 20
25.950000047683719
 30
0.0
 40
3.099999904632567
  1
 
  0
TEXT
  5
1BAA
  8
SYS-TEISEI0
  6
CONTINUOUS
 62
     3
 10
114.4019999570846
 20
25.950000047683719
 30
0.0
 40
3.099999904632567
  1
 
  0
TEXT
  5
1BAB
  8
SYS-BUHIN0
  6
CONTINUOUS
 62
     3
 10
260.70699999999999
 20
52.450000047683723
 30
0.0
 40
3.099999904632567
  1
 
  0
TEXT
  5
1BAC
  8
SYS-BUHIN0
  6
CONTINUOUS
 62
     3
 10
260.70699999999999
 20
58.45000004768373
 30
0.0
 40
3.099999904632567
  1
 
  0
TEXT
  5
1BAD
  8
SYS-BUHIN0
  6
CONTINUOUS
 62
     3
 10
260.70699999999999
 20
64.450000047683716
 30
0.0
 40
3.099999904632567
  1
 
  0
TEXT
  5
1BAE
  8
AM_BOR
 10
12.956999999999759
 20
10.0
 30
0.0
 40
5.0
  1
!GENTITLE-LL
  0
TEXT
  5
1BAF
  8
AM_BOR
 10
289.45700000001921
 20
10.0
 30
0.0
 40
5.0
  1
!GENTITLE-INSERT
  0
TEXT
  5
1BB0
  8
AM_BOR
 10
289.45700000038528
 20
201.12069999985769
 30
0.0
 40
5.0
  1
!GENTITLE-RU
  0
TEXT
  5
1BB1
  8
AM_BOR
 10
297.0
 20
210.0
 30
0.0
 40
5.0
  1
!GENTITLE-MAX
  0
ENDBLK
  5
1BB3
  8
0
  0
BLOCK
  8
0
  2
A$C1C06296A
 70
     2
 10
0.0
 20
0.0
 30
0.0
  3
A$C1C06296A
  1

  0
LINE
  5
204C
  8
AM_BOR
 10
198.86851880399371
 20
17.886744577931989
 30
0.0
 11
203.2337455721775
 21
13.521517809748619
 31
0.0
  0
LINE
  5
204D
  8
AM_BOR
 10
198.8685188039936
 20
17.866715351316039
 30
0.0
 11
198.86851880399399
 21
14.128964361178911
 31
0.0
  0
LINE
  5
204E
  8
AM_BOR
 10
204.7045172738834
 20
17.866715326469411
 30
0.0
 11
204.70451727388391
 21
14.181128845625549
 31
0.0
  0
LINE
  5
204F
  8
AM_BOR
 10
204.20428883360731
 20
17.793010290175861
 30
0.0
 11
204.204288833607
 21
14.69861035774108
 31
0.0
  0
LINE
  5
2050
  8
AM_BOR
 10
199.3687472442698
 20
17.176052465333349
 30
0.0
 11
199.36874724427059
 21
14.197800355103411
 31
0.0
  0
LINE
  5
2051
  8
AM_BOR
 10
200.43756462039269
 20
18.46533457095553
 30
0.0
 11
204.20428883360731
 21
14.69861035774052
 31
0.0
  0
LINE
  5
2052
  8
AM_BOR
 10
199.36874724426971
 20
17.17605246533255
 30
0.0
 11
203.02713287203409
 21
13.51766683756852
 31
0.0
  0
ARC
  5
2053
  8
AM_BOR
 10
198.36829036868701
 20
17.866715351316049
 30
0.0
 40
0.5002284402762121
 50
0.0
 51
50.265515568291427
  0
ARC
  5
2054
  8
AM_BOR
 10
198.36829034384081
 20
14.12896436117892
 30
0.0
 40
0.5002284402762121
 50
304.69759678405279
 51
0.0
  0
ARC
  5
2055
  8
AM_BOR
 10
205.20474573403669
 20
17.866715326469411
 30
0.0
 40
0.5002284402762121
 50
127.0284887689633
 51
180.00000500895629
  0
ARC
  5
2056
  8
AM_BOR
 10
203.53731756996689
 20
17.793010290175818
 30
0.0
 40
0.6669712537016159
 50
0.0
 51
74.714823568866152
  0
ARC
  5
2057
  8
AM_BOR
 10
200.03571849797169
 20
14.197800355103389
 30
0.0
 40
0.6669712537016159
 50
180.00000500895629
 51
256.4857883914604
  0
LINE
  5
2058
  8
AM_BOR
 10
210.95737277733619
 20
15.993445664994679
 30
0.0
 11
210.9224749062999
 21
16.211434571273589
 31
0.0
  0
LINE
  5
2059
  8
AM_BOR
 10
210.92247490629941
 20
16.211434571273411
 30
0.0
 11
210.8180468870608
 21
16.42776445035037
 31
0.0
  0
LINE
  5
205A
  8
AM_BOR
 10
210.8180468870604
 20
16.42776445035037
 30
0.0
 11
210.64488347990149
 21
16.640788901221669
 31
0.0
  0
LINE
  5
205B
  8
AM_BOR
 10
210.6448834799013
 20
16.640788901221619
 30
0.0
 11
210.40430256290981
 21
16.848886679188759
 31
0.0
  0
LINE
  5
205C
  8
AM_BOR
 10
210.40430256290949
 20
16.848886679189
 30
0.0
 11
210.0981351021297
 21
17.050474034508689
 31
0.0
  0
LINE
  5
205D
  8
AM_BOR
 10
210.09813510212999
 20
17.05047403450855
 30
0.0
 11
209.7287112168076
 21
17.244016765685139
 31
0.0
  0
LINE
  5
205E
  8
AM_BOR
 10
209.72871121680711
 20
17.24401676568521
 30
0.0
 11
209.29884244577369
 21
17.428041895669988
 31
0.0
  0
LINE
  5
205F
  8
AM_BOR
 10
209.29884244577369
 20
17.428041895670081
 30
0.0
 11
208.81180034993889
 21
17.601148882106369
 31
0.0
  0
LINE
  5
2060
  8
AM_BOR
 10
208.81180034993889
 20
17.60114888210644
 30
0.0
 11
208.27129161373591
 21
17.76202027630297
 31
0.0
  0
LINE
  5
2061
  8
AM_BOR
 10
208.27129161373611
 20
17.76202027630309
 30
0.0
 11
207.68142983501551
 21
17.909431749813081
 31
0.0
  0
LINE
  5
2062
  8
AM_BOR
 10
207.68142983501531
 20
17.90943174981297
 30
0.0
 11
207.04670421808169
 21
18.042261412313358
 31
0.0
  0
LINE
  5
2063
  8
AM_BOR
 10
207.04670421808169
 20
18.04226141231344
 30
0.0
 11
206.37194540813729
 21
18.15949834986797
 31
0.0
  0
LINE
  5
2064
  8
AM_BOR
 10
206.37194540813749
 20
18.159498349867881
 30
0.0
 11
205.66228872715681
 21
18.260250318592298
 31
0.0
  0
LINE
  5
2065
  8
AM_BOR
 10
205.66228872715661
 20
18.260250318592369
 30
0.0
 11
205.02242374599979
 21
18.33253416039674
 31
0.0
  0
LINE
  5
2066
  8
AM_BOR
 10
205.02242374599939
 20
18.332534160396779
 30
0.0
 11
204.92313509098369
 21
18.343750535168819
 31
0.0
  0
LINE
  5
2067
  8
AM_BOR
 10
204.92313509098369
 20
18.343750535168748
 30
0.0
 11
204.16010990510409
 21
18.409363512530259
 31
0.0
  0
LINE
  5
2068
  8
AM_BOR
 10
204.1601099051048
 20
18.409363512530259
 30
0.0
 11
203.71314686010501
 21
18.436387872932471
 31
0.0
  0
LINE
  5
2069
  8
AM_BOR
 10
200.43756462039249
 20
18.465334570955569
 30
0.0
 11
200.19401582596791
 21
18.45658989630088
 31
0.0
  0
LINE
  5
206A
  8
AM_BOR
 10
200.19401582596799
 20
18.456589896300901
 30
0.0
 11
199.41292617277259
 21
18.409363512530309
 31
0.0
  0
LINE
  5
206B
  8
AM_BOR
 10
199.41292617277259
 20
18.409363512530248
 30
0.0
 11
198.64990098689299
 21
18.343750535168759
 31
0.0
  0
LINE
  5
206C
  8
AM_BOR
 10
198.5506123731563
 20
18.332534165059979
 30
0.0
 11
197.9107473507209
 21
18.260250318592469
 31
0.0
  0
LINE
  5
206D
  8
AM_BOR
 10
198.64990098689299
 20
18.343750535168791
 30
0.0
 11
198.5506123731563
 21
18.332534165059919
 31
0.0
  0
LINE
  5
206E
  8
AM_BOR
 10
197.91074735072121
 20
18.26025031859243
 30
0.0
 11
197.20109066974049
 21
18.159498349868041
 31
0.0
  0
LINE
  5
206F
  8
AM_BOR
 10
197.20109066974041
 20
18.159498349868091
 30
0.0
 11
196.52633185979579
 21
18.042261412313529
 31
0.0
  0
LINE
  5
2070
  8
AM_BOR
 10
196.5263318597959
 20
18.042261412313589
 30
0.0
 11
195.89160624286239
 21
17.909431749813219
 31
0.0
  0
LINE
  5
2071
  8
AM_BOR
 10
195.89160624286171
 20
17.90943174981302
 30
0.0
 11
195.30174446414119
 21
17.762020276303058
 31
0.0
  0
LINE
  5
2072
  8
AM_BOR
 10
195.301744464141
 20
17.762020276303161
 30
0.0
 11
194.76123572793779
 21
17.60114888210661
 31
0.0
  0
LINE
  5
2073
  8
AM_BOR
 10
194.76123572793779
 20
17.60114888210656
 30
0.0
 11
194.27419363210299
 21
17.428041895670152
 31
0.0
  0
LINE
  5
2074
  8
AM_BOR
 10
194.27419363210339
 20
17.428041895670152
 30
0.0
 11
193.84432486106959
 21
17.244016765685259
 31
0.0
  0
LINE
  5
2075
  8
AM_BOR
 10
193.84432486106959
 20
17.24401676568521
 30
0.0
 11
193.4749009757472
 21
17.05047403450865
 31
0.0
  0
LINE
  5
2076
  8
AM_BOR
 10
193.4749009757472
 20
17.050474034508671
 30
0.0
 11
193.16873351496719
 21
16.848886679188929
 31
0.0
  0
LINE
  5
2077
  8
AM_BOR
 10
193.1687335149673
 20
16.848886679188951
 30
0.0
 11
192.92815259797499
 21
16.640788901221619
 31
0.0
  0
LINE
  5
2078
  8
AM_BOR
 10
192.9281525979753
 20
16.640788901221811
 30
0.0
 11
192.75498919081639
 21
16.42776445035042
 31
0.0
  0
LINE
  5
2079
  8
AM_BOR
 10
192.75498919081639
 20
16.427764450350349
 30
0.0
 11
192.65056117157769
 21
16.211434571273479
 31
0.0
  0
LINE
  5
207A
  8
AM_BOR
 10
192.65056117157789
 20
16.211434571273731
 30
0.0
 11
192.61566330054151
 21
15.993445664994679
 31
0.0
  0
LINE
  5
207B
  8
AM_BOR
 10
192.61566330054069
 20
15.99344566499464
 30
0.0
 11
192.65056117157721
 21
15.775456758715791
 31
0.0
  0
LINE
  5
207C
  8
AM_BOR
 10
192.65056117157769
 20
15.775456758715929
 30
0.0
 11
192.7549891908163
 21
15.55912687963913
 31
0.0
  0
LINE
  5
207D
  8
AM_BOR
 10
192.75498919081639
 20
15.559126879639029
 30
0.0
 11
192.9281525979753
 21
15.34610242876764
 31
0.0
  0
LINE
  5
207E
  8
AM_BOR
 10
192.9281525979751
 20
15.34610242876769
 30
0.0
 11
193.16873351496719
 21
15.1380046508005
 31
0.0
  0
LINE
  5
207F
  8
AM_BOR
 10
193.1687335149669
 20
15.1380046508005
 30
0.0
 11
193.47490097574689
 21
14.93641729548081
 31
0.0
  0
LINE
  5
2080
  8
AM_BOR
 10
193.47490097574729
 20
14.936417295480711
 30
0.0
 11
193.84432486106959
 21
14.742874564304079
 31
0.0
  0
LINE
  5
2081
  8
AM_BOR
 10
193.84432486106951
 20
14.74287456430417
 30
0.0
 11
194.27419363210271
 21
14.558849434319351
 31
0.0
  0
LINE
  5
2082
  8
AM_BOR
 10
194.27419363210319
 20
14.558849434319439
 30
0.0
 11
194.7612357279379
 21
14.38574244788296
 31
0.0
  0
LINE
  5
2083
  8
AM_BOR
 10
194.76123572793779
 20
14.38574244788277
 30
0.0
 11
195.301744464141
 21
14.22487105368617
 31
0.0
  0
LINE
  5
2084
  8
AM_BOR
 10
195.301744464141
 20
14.224871053686311
 30
0.0
 11
195.891606242862
 21
14.077459580176351
 31
0.0
  0
LINE
  5
2085
  8
AM_BOR
 10
195.89160624286191
 20
14.077459580176219
 30
0.0
 11
196.52633185979579
 21
13.94462991767579
 31
0.0
  0
LINE
  5
2086
  8
AM_BOR
 10
196.52633185979539
 20
13.944629917675821
 30
0.0
 11
197.2010906697397
 21
13.827392980121321
 31
0.0
  0
LINE
  5
2087
  8
AM_BOR
 10
197.20109066974049
 20
13.82739298012133
 30
0.0
 11
197.9107473507209
 21
13.726641011397049
 31
0.0
  0
LINE
  5
2088
  8
AM_BOR
 10
197.9107473507205
 20
13.72664101139711
 30
0.0
 11
198.5412166771807
 21
13.655418571666219
 31
0.0
  0
LINE
  5
2089
  8
AM_BOR
 10
198.54121667717999
 20
13.65541857166625
 30
0.0
 11
198.64990098689259
 21
13.643140794820731
 31
0.0
  0
LINE
  5
208A
  8
AM_BOR
 10
198.6499009868929
 20
13.643140794820679
 30
0.0
 11
199.41292617277259
 21
13.57752781745919
 31
0.0
  0
LINE
  5
208B
  8
AM_BOR
 10
199.41292617277259
 20
13.577527817459201
 30
0.0
 11
199.8798563250744
 21
13.54929620220682
 31
0.0
  0
LINE
  5
208C
  8
AM_BOR
 10
203.0271328720325
 20
13.51766683756999
 30
0.0
 11
203.37902025190911
 21
13.530301433688649
 31
0.0
  0
LINE
  5
208D
  8
AM_BOR
 10
203.3790202519092
 20
13.530301433688599
 30
0.0
 11
204.16010990510441
 21
13.57752781745919
 31
0.0
  0
LINE
  5
208E
  8
AM_BOR
 10
204.70451727388399
 20
13.624341722195579
 30
0.0
 11
204.9231350909844
 21
13.64314079482075
 31
0.0
  0
LINE
  5
208F
  8
AM_BOR
 10
204.16010990510441
 20
13.57752781745917
 30
0.0
 11
204.70451727388379
 21
13.62434172219551
 31
0.0
  0
LINE
  5
2090
  8
AM_BOR
 10
204.92313509098409
 20
13.643140794820759
 30
0.0
 11
205.66228872715669
 21
13.726641011397151
 31
0.0
  0
LINE
  5
2091
  8
AM_BOR
 10
205.66228872715661
 20
13.72664101139711
 30
0.0
 11
206.37194540813709
 21
13.827392980121401
 31
0.0
  0
LINE
  5
2092
  8
AM_BOR
 10
206.37194540813749
 20
13.82739298012145
 30
0.0
 11
207.04670421808191
 21
13.94462991767594
 31
0.0
  0
LINE
  5
2093
  8
AM_BOR
 10
207.04670421808169
 20
13.94462991767597
 30
0.0
 11
207.68142983501559
 21
14.07745958017637
 31
0.0
  0
LINE
  5
2094
  8
AM_BOR
 10
207.68142983501551
 20
14.07745958017629
 30
0.0
 11
208.27129161373611
 21
14.22487105368625
 31
0.0
  0
LINE
  5
2095
  8
AM_BOR
 10
208.2712916137362
 20
14.224871053686289
 30
0.0
 11
208.81180034993929
 21
14.38574244788289
 31
0.0
  0
LINE
  5
2096
  8
AM_BOR
 10
208.81180034993929
 20
14.385742447882921
 30
0.0
 11
209.29884244577411
 21
14.558849434319351
 31
0.0
  0
LINE
  5
2097
  8
AM_BOR
 10
209.298842445774
 20
14.55884943431932
 30
0.0
 11
209.72871121680751
 21
14.74287456430422
 31
0.0
  0
LINE
  5
2098
  8
AM_BOR
 10
209.72871121680711
 20
14.742874564304151
 30
0.0
 11
210.0981351021297
 21
14.93641729548083
 31
0.0
  0
LINE
  5
2099
  8
AM_BOR
 10
210.09813510212999
 20
14.93641729548081
 30
0.0
 11
210.40430256290989
 21
15.13800465080036
 31
0.0
  0
LINE
  5
209A
  8
AM_BOR
 10
210.40430256291
 20
15.13800465080055
 30
0.0
 11
210.64488347990201
 21
15.346102428767731
 31
0.0
  0
LINE
  5
209B
  8
AM_BOR
 10
210.64488347990169
 20
15.34610242876783
 30
0.0
 11
210.8180468870608
 21
15.559126879639029
 31
0.0
  0
LINE
  5
209C
  8
AM_BOR
 10
210.81804688706069
 20
15.559126879639059
 30
0.0
 11
210.92247490629899
 21
15.77545675871586
 31
0.0
  0
LINE
  5
209D
  8
AM_BOR
 10
210.92247490629981
 20
15.775456758715791
 30
0.0
 11
210.95737277733619
 21
15.993445664994621
 31
0.0
  0
LINE
  5
209E
  8
AM_BOR
 10
199.10514248704791
 20
18.382897015254191
 30
0.0
 11
203.92474251077411
 21
13.563296991527499
 31
0.0
  0
ARC
  5
209F
  8
AM_BOR
 10
205.2047457141602
 20
14.181128845625549
 30
0.0
 40
0.5002284402762121
 50
180.0
 51
244.5184856857075
  0
LINE
  5
20A0
  8
AM_BOR
 10
199.36521928176651
 20
18.405261169360589
 30
0.0
 11
204.19035209062989
 21
13.58012836049622
 31
0.0
  0
LINE
  5
20A1
  8
AM_BOR
 10
199.630408435547
 20
18.422512964405719
 30
0.0
 11
204.450428885349
 21
13.602492514602771
 31
0.0
  0
LINE
  5
20A2
  8
AM_BOR
 10
199.8967460324557
 20
18.438616316322719
 30
0.0
 11
204.70776895023289
 21
13.62759339854461
 31
0.0
  0
LINE
  5
20A3
  8
AM_BOR
 10
200.16308362936431
 20
18.454719668239761
 30
0.0
 11
204.9488987968831
 21
13.66890450072008
 31
0.0
  0
LINE
  5
20A4
  8
AM_BOR
 10
198.8450656923284
 20
18.36053286114759
 30
0.0
 11
203.6584049138651
 21
13.547193639610409
 31
0.0
  0
LINE
  5
20A5
  8
AM_BOR
 10
198.7943784573331
 20
18.12877914731807
 30
0.0
 11
203.39206731695711
 21
13.53109028769336
 31
0.0
  0
LINE
  5
20A6
  8
AM_BOR
 10
199.01830573664321
 20
18.375429872827009
 30
0.0
 11
199.01830573664321
 21
13.61146145716244
 31
0.0
  0
LINE
  5
20A7
  8
AM_BOR
 10
199.2180216468426
 20
18.39260355953768
 30
0.0
 11
199.2180216468426
 21
13.594287770451791
 31
0.0
  0
LINE
  5
20A8
  8
AM_BOR
 10
204.55473034123381
 20
18.375429872826999
 30
0.0
 11
204.55473034123381
 21
13.61146145716245
 31
0.0
  0
LINE
  5
20A9
  8
AM_BOR
 10
204.35501443103459
 20
18.39260355953764
 30
0.0
 11
204.35501443103459
 21
13.594287770451791
 31
0.0
  0
LINE
  5
20AA
  8
AM_BOR
 62
     4
 10
-0.0000001316067255
 20
15.000000173111291
 30
0.0
 11
190.49999986839319
 21
15.000000173111291
 31
0.0
  0
LINE
  5
20AB
  8
AM_BOR
 62
     4
 10
276.49999986839327
 20
28.000000173111289
 30
0.0
 11
276.49999986839327
 21
0.000000173111296
 31
0.0
  0
LINE
  5
20AC
  8
AM_BOR
 62
     4
 10
-0.0000001316067255
 20
15.000000173111291
 30
0.0
 11
-0.0000001316067255
 21
0.000000173111296
 31
0.0
  0
LINE
  5
20AD
  8
AM_BOR
 62
     4
 10
-0.0000001316067255
 20
28.000000173111289
 30
0.0
 11
276.49999986839327
 21
28.000000173111289
 31
0.0
  0
LINE
  5
20AE
  8
AM_BOR
 62
     4
 10
15.999999868393269
 20
15.000000173111291
 30
0.0
 11
15.999999868393269
 21
0.000000173111296
 31
0.0
  0
TEXT
  5
20AF
  8
AM_BOR
 62
     4
 10
215.17999986839331
 20
10.000000173111291
 30
0.0
 40
1.5
  1
NAKANISHI　INDUSTRIAL CO., LTD.
 41
1.5
  0
TEXT
  5
20B0
  8
AM_BOR
 62
     3
 10
213.19999986839329
 20
13.500000173111291
 30
0.0
 40
5.5
  1
中西産業株式会社
 41
1.1999999999999991
  0
TEXT
  5
20B1
  8
AM_BOR
 62
     4
 10
196.192787937406
 20
10.000000173111291
 30
0.0
 40
1.5
  1
Nakanishi
 41
1.1999999999999991
  0
TEXT
  5
20B2
  8
AM_BOR
 62
     7
 10
98.104999768257457
 20
15.650000185032219
 30
0.0
 40
1.0
  1
FINISH
 41
1.6000000000000001
  0
TEXT
  5
20B3
  8
AM_BOR
 62
     7
 10
96.979999708652798
 20
17.700000220795008
 30
0.0
 40
2.7999999999999989
  1
仕　　上
  0
TEXT
  5
20B4
  8
AM_BOR
 62
     7
 10
3.1549997801784002
 20
15.650000185032219
 30
0.0
 40
1.0
  1
MATERIAL
 41
1.6000000000000001
  0
TEXT
  5
20B5
  8
AM_BOR
 62
     7
 10
1.729999708652826
 20
17.700000220795008
 30
0.0
 40
2.7999999999999989
  1
材　　質
  0
LINE
  5
20B6
  8
AM_BOR
 62
     4
 10
190.49999986839319
 20
28.000000173111289
 30
0.0
 11
190.49999986839319
 21
0.000000173111296
 31
0.0
  0
LINE
  5
20B7
  8
AM_BOR
 62
     4
 10
-0.0000001316067255
 20
28.000000173111289
 30
0.0
 11
-0.0000001316067255
 21
15.000000173111291
 31
0.0
  0
LINE
  5
20B8
  8
AM_BOR
 62
     4
 10
-0.0000001316067255
 20
21.500000173111289
 30
0.0
 11
190.49999986839319
 21
21.500000173111289
 31
0.0
  0
LINE
  5
20B9
  8
AM_BOR
 62
     4
 10
15.999999868393269
 20
28.000000173111289
 30
0.0
 11
15.999999868393269
 21
15.000000173111291
 31
0.0
  0
TEXT
  5
20BA
  8
AM_BOR
 62
     7
 10
98.104999768257457
 20
22.150000185032219
 30
0.0
 40
1.0
  1
ART. NO.
 41
1.6000000000000001
  0
TEXT
  5
20BB
  8
AM_BOR
 62
     7
 10
96.979999708652684
 20
24.200000220795008
 30
0.0
 40
2.7999999999999989
  1
品　　番
  0
TEXT
  5
20BC
  8
AM_BOR
 62
     7
 10
3.1549997801784002
 20
22.150000185032219
 30
0.0
 40
1.0
  1
ARTICLE
 41
1.6000000000000001
  0
TEXT
  5
20BD
  8
AM_BOR
 62
     7
 10
1.7299997086527119
 20
24.200000220795008
 30
0.0
 40
2.7999999999999989
  1
品　　名
  0
LINE
  5
20BE
  8
AM_BOR
 62
     4
 10
-0.0000001316067255
 20
15.000000173111291
 30
0.0
 11
-0.0000001316067255
 21
0.0000001731112924
 31
0.0
  0
LINE
  5
20BF
  8
AM_BOR
 62
     4
 10
95.249999868393246
 20
28.000000173111289
 30
0.0
 11
95.249999868393246
 21
0.000000173111296
 31
0.0
  0
TEXT
  5
20C0
  8
AM_BOR
 62
     7
 10
3.1549997801784002
 20
9.1500001850322192
 30
0.0
 40
1.0
  1
REMARKS
 41
1.6000000000000001
  0
TEXT
  5
20C1
  8
AM_BOR
 62
     7
 10
1.7299997086527119
 20
11.20000022079501
 30
0.0
 40
2.7999999999999989
  1
備　　考
  0
LINE
  5
20C2
  8
AM_BOR
 62
     4
 10
111.2499998683932
 20
28.000000173111289
 30
0.0
 11
111.2499998683932
 21
0.000000173111296
 31
0.0
  0
LINE
  5
20C3
  8
AM_BOR
 62
     4
 10
-0.0000001316067255
 20
0.000000173111296
 30
0.0
 11
276.49999986839327
 21
0.000000173111296
 31
0.0
  0
TEXT
  5
20C4
  8
AM_BOR
 62
     7
 10
98.404999780178386
 20
9.1500001850322157
 30
0.0
 40
1.0
  1
SETS
 41
1.6000000000000001
  0
TEXT
  5
20C5
  8
AM_BOR
 62
     7
 10
96.979999708652684
 20
11.20000022079501
 30
0.0
 40
2.7999999999999989
  1
セット品
  0
ATTDEF
  5
20C6
  8
AM_BOR
 62
     7
 10
114.3107095753831
 20
0.5000001731112853
 30
0.0
 40
3.0
  1

 11
114.3107095753831
 21
2.0000001731112849
 31
0.0
  3
セット
  2
SETS｛20｝
 70
     0
 74
     2
1001
ACADANNOTATIVE
1000
AnnotativeData
1002
{
1070
     1
1070
     0
1002
}
1001
ACDBATTR
1070
     0
1070
     1
  0
ATTDEF
  5
20CA
  8
AM_BOR
 62
     7
 10
19.060709575383161
 20
0.5000001731112889
 30
0.0
 40
3.0
  1

 11
19.060709575383161
 21
2.000000173111288
 31
0.0
  3
備　　考
  2
REMARKS｛20｝
 70
     0
 74
     2
1001
ACADANNOTATIVE
1000
AnnotativeData
1002
{
1070
     1
1070
     0
1002
}
1001
ACDBATTR
1070
     0
1070
     1
  0
ATTDEF
  5
20CE
  8
AM_BOR
 62
     7
 10
114.3107095753831
 20
5.5000001731112853
 30
0.0
 40
3.0
  1

 11
114.3107095753831
 21
7.0000001731112853
 31
0.0
  3
セット
  2
SETS｛20｝
 70
     0
 74
     2
1001
ACADANNOTATIVE
1000
AnnotativeData
1002
{
1070
     1
1070
     0
1002
}
1001
ACDBATTR
1070
     0
1070
     1
  0
ATTDEF
  5
20D2
  8
AM_BOR
 62
     7
 10
19.060709575383161
 20
5.500000173111288
 30
0.0
 40
3.0
  1

 11
19.060709575383161
 21
7.000000173111288
 31
0.0
  3
備　　考
  2
REMARKS｛20｝
 70
     0
 74
     2
1001
ACADANNOTATIVE
1000
AnnotativeData
1002
{
1070
     1
1070
     0
1002
}
1001
ACDBATTR
1070
     0
1070
     1
  0
ATTDEF
  5
20D6
  8
AM_BOR
 62
     7
 10
114.3107095753831
 20
10.50000017311128
 30
0.0
 40
3.0
  1

 11
114.3107095753831
 21
12.00000017311128
 31
0.0
  3
セット
  2
SETS｛20｝
 70
     0
 74
     2
1001
ACADANNOTATIVE
1000
AnnotativeData
1002
{
1070
     1
1070
     0
1002
}
1001
ACDBATTR
1070
     0
1070
     1
  0
ATTDEF
  5
20DA
  8
AM_BOR
 62
     7
 10
19.060709575383161
 20
10.500000173111291
 30
0.0
 40
3.0
  1

 11
19.060709575383161
 21
12.000000173111291
 31
0.0
  3
備　　考
  2
REMARKS｛20｝
 70
     0
 74
     2
1001
ACADANNOTATIVE
1000
AnnotativeData
1002
{
1070
     1
1070
     0
1002
}
1001
ACDBATTR
1070
     0
1070
     1
  0
ATTDEF
  5
20DE
  8
AM_BOR
 62
     7
 10
114.2499998683932
 20
23.500000173111289
 30
0.0
 40
3.0
  1

 11
114.2499998683932
 21
25.000000173111289
 31
0.0
  3
品    番
  2
ART_NO｛20｝
 70
     0
 74
     2
1001
ACADANNOTATIVE
1000
AnnotativeData
1002
{
1070
     1
1070
     0
1002
}
1001
ACDBATTR
1070
     0
1070
     1
  0
ATTDEF
  5
20E2
  8
AM_BOR
 62
     7
 10
18.999999868393271
 20
23.500000173111289
 30
0.0
 40
3.0
  1

 11
18.999999868393271
 21
25.000000173111289
 31
0.0
  3
品    名
  2
ARTICLE｛20｝
 70
     0
 74
     2
1001
ACADANNOTATIVE
1000
AnnotativeData
1002
{
1070
     1
1070
     0
1002
}
1001
ACDBATTR
1070
     0
1070
     1
  0
ATTDEF
  5
20E6
  8
AM_BOR
 62
     7
 10
114.2499998683932
 20
17.000000173111289
 30
0.0
 40
3.0
  1

 11
114.2499998683932
 21
18.500000173111289
 31
0.0
  3
仕上
  2
FINISH｛20｝
 70
     0
 74
     2
1001
ACADANNOTATIVE
1000
AnnotativeData
1002
{
1070
     1
1070
     0
1002
}
1001
ACDBATTR
1070
     0
1070
     1
  0
ATTDEF
  5
20EA
  8
AM_BOR
 62
     7
 10
18.999999868393271
 20
17.000000173111289
 30
0.0
 40
3.0
  1

 11
18.999999868393271
 21
18.500000173111289
 31
0.0
  3
材　　質
  2
MATERIAK｛20｝
 70
     0
 74
     2
1001
ACADANNOTATIVE
1000
AnnotativeData
1002
{
1070
     1
1070
     0
1002
}
1001
ACDBATTR
1070
     0
1070
     1
  0
ENDBLK
  5
20F1
  8
0
  0
BLOCK
  8
0
  2
*D38
 70
     1
 10
0.0
 20
0.0
 30
0.0
  3
*D38
  1

  0
LINE
  5
36C2
  8
寸法線
 62
     0
 10
84.428632730599702
 20
137.74397504645759
 30
0.0
 11
84.428632730599702
 21
146.71088976239409
 31
0.0
  0
LINE
  5
36C3
  8
寸法線
 62
     0
 10
184.4286327306001
 20
95.693566405729428
 30
0.0
 11
184.4286327306001
 21
146.71088976239409
 31
0.0
  0
LINE
  5
36C4
  8
寸法線
 62
     0
 10
86.928632730599702
 20
145.46088976239409
 30
0.0
 11
181.9286327306001
 21
145.46088976239409
 31
0.0
  0
SOLID
  5
36C5
  8
寸法線
 62
     0
 10
86.928632730599702
 20
145.8775564290608
 30
0.0
 11
86.928632730599702
 21
145.04422309572749
 31
0.0
 12
84.428632730599702
 22
145.46088976239409
 32
0.0
 13
84.428632730599702
 23
145.46088976239409
 33
0.0
  0
SOLID
  5
36C6
  8
寸法線
 62
     0
 10
181.9286327306001
 20
145.8775564290608
 30
0.0
 11
181.9286327306001
 21
145.04422309572749
 31
0.0
 12
184.4286327306001
 22
145.46088976239409
 32
0.0
 13
184.4286327306001
 23
145.46088976239409
 33
0.0
  0
TEXT
  8
寸法線
  40
2.5
  5
3767
  62
0
  72
0
  71
0
 10
129.429
 20
142.911
 30
0.000000
  1
100
  0
POINT
  5
36C8
  8
DEFPOINTS
 62
     0
 10
84.428632730599702
 20
137.11897504645759
 30
0.0
  0
POINT
  5
36C9
  8
DEFPOINTS
 62
     0
 10
184.4286327306001
 20
95.068566405729428
 30
0.0
  0
POINT
  5
36CA
  8
DEFPOINTS
 62
     0
 10
184.4286327306001
 20
145.46088976239409
 30
0.0
  0
ENDBLK
  5
3442
  8
0
  0
BLOCK
  8
0
  2
*D39
 70
     1
 10
0.0
 20
0.0
 30
0.0
  3
*D39
  1

  0
LINE
  5
36CB
  8
寸法線
 62
     0
 10
79.655532298770368
 20
63.568566405729207
 30
0.0
 11
59.478872576449923
 21
63.568566405729207
 31
0.0
  0
LINE
  5
36CC
  8
寸法線
 62
     0
 10
77.569277748855939
 20
132.56856640573031
 30
0.0
 11
59.47887257644993
 21
132.56856640573031
 31
0.0
  0
LINE
  5
36CD
  8
寸法線
 62
     0
 10
60.728872576449923
 20
66.068566405729214
 30
0.0
 11
60.72887257644993
 21
130.06856640573031
 31
0.0
  0
SOLID
  5
36CE
  8
寸法線
 62
     0
 10
60.312205909783252
 20
66.068566405729214
 30
0.0
 11
61.145539243116581
 21
66.068566405729214
 31
0.0
 12
60.728872576449923
 22
63.568566405729207
 32
0.0
 13
60.728872576449923
 23
63.568566405729207
 33
0.0
  0
SOLID
  5
36CF
  8
寸法線
 62
     0
 10
60.312205909783259
 20
130.06856640573031
 30
0.0
 11
61.145539243116602
 21
130.06856640573031
 31
0.0
 12
60.72887257644993
 22
132.56856640573031
 32
0.0
 13
60.72887257644993
 23
132.56856640573031
 33
0.0
  0
TEXT
  8
寸法線
  40
2.5
  5
3768
  62
0
  72
0
  71
0
 10
53.8539
 20
93.6436
 30
0.000000
  1
69
  0
POINT
  5
36D1
  8
DEFPOINTS
 62
     0
 10
80.280532298770353
 20
63.5685664057292
 30
0.0
  0
POINT
  5
36D2
  8
DEFPOINTS
 62
     0
 10
78.194277748855939
 20
132.56856640573031
 30
0.0
  0
POINT
  5
36D3
  8
DEFPOINTS
 62
     0
 10
60.72887257644993
 20
132.56856640573031
 30
0.0
  0
ENDBLK
  5
344E
  8
0
  0
BLOCK
  8
0
  2
*D40
 70
     1
 10
0.0
 20
0.0
 30
0.0
  3
*D40
  1

  0
LINE
  5
36D4
  8
寸法線
 62
     0
 10
83.178632730599702
 20
132.56856640573031
 30
0.0
 11
68.20948751496077
 21
132.56856640573031
 31
0.0
  0
LINE
  5
36D5
  8
寸法線
 62
     0
 10
80.803632730599716
 20
90.0685664057292
 30
0.0
 11
68.209487514960756
 21
90.0685664057292
 31
0.0
  0
LINE
  5
36D6
  8
寸法線
 62
     0
 10
69.45948751496077
 20
130.06856640573031
 30
0.0
 11
69.459487514960756
 21
92.5685664057292
 31
0.0
  0
SOLID
  5
36D7
  8
寸法線
 62
     0
 10
69.042820848294099
 20
130.06856640573031
 30
0.0
 11
69.876154181627442
 21
130.06856640573031
 31
0.0
 12
69.45948751496077
 22
132.56856640573031
 32
0.0
 13
69.45948751496077
 23
132.56856640573031
 33
0.0
  0
SOLID
  5
36D8
  8
寸法線
 62
     0
 10
69.042820848294085
 20
92.5685664057292
 30
0.0
 11
69.876154181627427
 21
92.5685664057292
 31
0.0
 12
69.459487514960756
 22
90.0685664057292
 32
0.0
 13
69.459487514960756
 23
90.0685664057292
 33
0.0
  0
TEXT
  8
寸法線
  40
2.5
  5
3769
  62
0
  72
0
  71
0
 10
62.5845
 20
106.894
 30
0.000000
  1
42.5
  0
POINT
  5
36DA
  8
DEFPOINTS
 62
     0
 10
83.803632730599702
 20
132.56856640573031
 30
0.0
  0
POINT
  5
36DB
  8
DEFPOINTS
 62
     0
 10
81.428632730599716
 20
90.0685664057292
 30
0.0
  0
POINT
  5
36DC
  8
DEFPOINTS
 62
     0
 10
69.459487514960756
 20
90.0685664057292
 30
0.0
  0
ENDBLK
  5
345A
  8
0
  0
BLOCK
  8
0
  2
*D41
 70
     1
 10
0.0
 20
0.0
 30
0.0
  3
*D41
  1

  0
LINE
  5
36DD
  8
寸法線
 62
     0
 10
80.803632730599716
 20
123.068566405729
 30
0.0
 11
76.944277748855939
 21
123.068566405729
 31
0.0
  0
LINE
  5
36DE
  8
寸法線
 62
     0
 10
80.803632730599716
 20
100.0685664057292
 30
0.0
 11
76.944277748855939
 21
100.0685664057292
 31
0.0
  0
LINE
  5
36DF
  8
寸法線
 62
     0
 10
78.194277748855939
 20
120.5685664057289
 30
0.0
 11
78.194277748855939
 21
102.5685664057292
 31
0.0
  0
SOLID
  5
36E0
  8
寸法線
 62
     0
 10
77.777611082189267
 20
120.5685664057289
 30
0.0
 11
78.61094441552261
 21
120.5685664057289
 31
0.0
 12
78.194277748855939
 22
123.068566405729
 32
0.0
 13
78.194277748855939
 23
123.068566405729
 33
0.0
  0
SOLID
  5
36E1
  8
寸法線
 62
     0
 10
77.777611082189267
 20
102.5685664057292
 30
0.0
 11
78.61094441552261
 21
102.5685664057292
 31
0.0
 12
78.194277748855939
 22
100.0685664057292
 32
0.0
 13
78.194277748855939
 23
100.0685664057292
 33
0.0
  0
TEXT
  8
寸法線
  40
2.5
  5
376A
  62
0
  72
0
  71
0
 10
71.3193
 20
107.144
 30
0.000000
  1
23
  0
POINT
  5
36E3
  8
DEFPOINTS
 62
     0
 10
81.428632730599716
 20
123.068566405729
 30
0.0
  0
POINT
  5
36E4
  8
DEFPOINTS
 62
     0
 10
81.428632730599716
 20
100.0685664057292
 30
0.0
  0
POINT
  5
36E5
  8
DEFPOINTS
 62
     0
 10
78.194277748855939
 20
100.0685664057292
 30
0.0
  0
ENDBLK
  5
3466
  8
0
  0
BLOCK
  8
0
  2
*D42
 70
     1
 10
0.0
 20
0.0
 30
0.0
  3
*D42
  1

  0
LINE
  5
36E6
  8
寸法線
 62
     0
 10
87.428632730599702
 20
134.1935664057292
 30
0.0
 11
87.428632730599702
 21
138.36897504645759
 31
0.0
  0
LINE
  5
36E7
  8
寸法線
 62
     0
 10
147.42863273059919
 20
92.193566405728291
 30
0.0
 11
147.42863273059919
 21
138.36897504645759
 31
0.0
  0
LINE
  5
36E8
  8
寸法線
 62
     0
 10
89.928632730599702
 20
137.11897504645759
 30
0.0
 11
144.92863273059919
 21
137.11897504645759
 31
0.0
  0
SOLID
  5
36E9
  8
寸法線
 62
     0
 10
89.928632730599702
 20
137.53564171312419
 30
0.0
 11
89.928632730599702
 21
136.70230837979091
 31
0.0
 12
87.428632730599702
 22
137.11897504645759
 32
0.0
 13
87.428632730599702
 23
137.11897504645759
 33
0.0
  0
SOLID
  5
36EA
  8
寸法線
 62
     0
 10
144.92863273059919
 20
137.53564171312419
 30
0.0
 11
144.92863273059919
 21
136.70230837979091
 31
0.0
 12
147.42863273059919
 22
137.11897504645759
 32
0.0
 13
147.42863273059919
 23
137.11897504645759
 33
0.0
  0
TEXT
  8
寸法線
  40
2.5
  5
376B
  62
0
  72
0
  71
0
 10
112.429
 20
134.569
 30
0.000000
  1
60
  0
POINT
  5
36EC
  8
DEFPOINTS
 62
     0
 10
87.428632730599702
 20
133.5685664057292
 30
0.0
  0
POINT
  5
36ED
  8
DEFPOINTS
 62
     0
 10
147.42863273059919
 20
91.568566405728291
 30
0.0
  0
POINT
  5
36EE
  8
DEFPOINTS
 62
     0
 10
147.42863273059919
 20
137.11897504645759
 30
0.0
  0
ENDBLK
  5
3472
  8
0
  0
BLOCK
  8
0
  2
*D43
 70
     1
 10
0.0
 20
0.0
 30
0.0
  3
*D43
  1

  0
LINE
  5
36EF
  8
寸法線
 62
     0
 10
147.42863273059919
 20
115.906270726093
 30
0.0
 11
147.42863273059919
 21
138.3038116899227
 31
0.0
  0
LINE
  5
36F0
  8
寸法線
 62
     0
 10
184.4286327306001
 20
115.906270726093
 30
0.0
 11
184.4286327306001
 21
138.3038116899227
 31
0.0
  0
LINE
  5
36F1
  8
寸法線
 62
     0
 10
149.92863273059919
 20
137.0538116899227
 30
0.0
 11
163.48519315097141
 21
137.0538116899227
 31
0.0
  0
LINE
  5
36F2
  8
寸法線
 62
     0
 10
181.9286327306001
 20
137.0538116899227
 30
0.0
 11
168.78281219859051
 21
137.0538116899227
 31
0.0
  0
TEXT
  8
寸法線
  40
2.5
  5
376C
  62
0
  72
0
  71
0
 10
161.134
 20
132.629
 30
0.000000
  1
37
  0
SOLID
  5
36F4
  8
寸法線
 62
     0
 10
149.92863273059919
 20
137.47047835658941
 30
0.0
 11
149.92863273059919
 21
136.6371450232561
 31
0.0
 12
147.42863273059919
 22
137.0538116899227
 32
0.0
 13
147.42863273059919
 23
137.0538116899227
 33
0.0
  0
SOLID
  5
36F5
  8
寸法線
 62
     0
 10
181.9286327306001
 20
137.47047835658941
 30
0.0
 11
181.9286327306001
 21
136.6371450232561
 31
0.0
 12
184.4286327306001
 22
137.0538116899227
 32
0.0
 13
184.4286327306001
 23
137.0538116899227
 33
0.0
  0
POINT
  5
36F6
  8
DEFPOINTS
 62
     0
 10
147.42863273059919
 20
115.281270726093
 30
0.0
  0
POINT
  5
36F7
  8
DEFPOINTS
 62
     0
 10
184.4286327306001
 20
115.281270726093
 30
0.0
  0
POINT
  5
36F8
  8
DEFPOINTS
 62
     0
 10
184.4286327306001
 20
137.0538116899227
 30
0.0
  0
ENDBLK
  5
347E
  8
0
  0
BLOCK
  8
0
  2
*D44
 70
     1
 10
0.0
 20
0.0
 30
0.0
  3
*D44
  1

  0
LINE
  5
36F9
  8
寸法線
 62
     0
 10
80.803632730599716
 20
90.0685664057292
 30
0.0
 11
68.209487514960756
 21
90.0685664057292
 31
0.0
  0
LINE
  5
36FA
  8
寸法線
 62
     0
 10
108.8036327306001
 20
63.5685664057292
 30
0.0
 11
68.209487514960756
 21
63.568566405729207
 31
0.0
  0
LINE
  5
36FB
  8
寸法線
 62
     0
 10
69.459487514960756
 20
87.5685664057292
 30
0.0
 11
69.459487514960756
 21
66.068566405729214
 31
0.0
  0
SOLID
  5
36FC
  8
寸法線
 62
     0
 10
69.042820848294085
 20
87.5685664057292
 30
0.0
 11
69.876154181627427
 21
87.5685664057292
 31
0.0
 12
69.459487514960756
 22
90.0685664057292
 32
0.0
 13
69.459487514960756
 23
90.0685664057292
 33
0.0
  0
SOLID
  5
36FD
  8
寸法線
 62
     0
 10
69.042820848294085
 20
66.068566405729214
 30
0.0
 11
69.876154181627427
 21
66.068566405729214
 31
0.0
 12
69.459487514960756
 22
63.568566405729207
 32
0.0
 13
69.459487514960756
 23
63.568566405729207
 33
0.0
  0
TEXT
  8
寸法線
  40
2.5
  5
376D
  62
0
  72
0
  71
0
 10
62.5845
 20
72.3936
 30
0.000000
  1
26.5
  0
POINT
  5
36FF
  8
DEFPOINTS
 62
     0
 10
81.428632730599716
 20
90.0685664057292
 30
0.0
  0
POINT
  5
3700
  8
DEFPOINTS
 62
     0
 10
109.4286327306001
 20
63.5685664057292
 30
0.0
  0
POINT
  5
3701
  8
DEFPOINTS
 62
     0
 10
69.459487514960756
 20
63.568566405729207
 30
0.0
  0
ENDBLK
  5
348B
  8
0
  0
BLOCK
  8
0
  2
*D45
 70
     1
 10
0.0
 20
0.0
 30
0.0
  3
*D45
  1

  0
LINE
  5
3702
  8
寸法線
 62
     0
 10
109.4286327305992
 20
88.568566405728987
 30
0.0
 11
103.2064550400828
 21
81.869585772652627
 31
0.0
  0
LINE
  5
3703
  8
寸法線
 62
     0
 10
96.157894375044691
 20
74.280896774245846
 30
0.0
 11
97.899780056634512
 21
76.156262446265842
 31
0.0
  0
TEXT
  8
寸法線
  40
2.5
  5
376E
  62
0
  72
0
  71
0
 10
95.5531
 20
74.5879
 30
0.000000
  1
R22
  0
SOLID
  5
3705
  8
寸法線
 62
     0
 10
95.852602288901906
 20
74.564459559620943
 30
0.0
 11
96.463186461187505
 21
73.997333988870736
 31
0.0
 12
94.456517662794084
 22
72.449144257389008
 32
0.0
 13
94.456517662794084
 23
72.449144257389008
 33
0.0
  0
POINT
  5
3706
  8
DEFPOINTS
 62
     0
 10
94.456517662794084
 20
72.449144257389008
 30
0.0
  0
POINT
  5
3707
  8
DEFPOINTS
 62
     0
 10
109.4286327305992
 20
88.568566405728987
 30
0.0
  0
ENDBLK
  5
3497
  8
0
  0
BLOCK
  8
0
  2
*D46
 70
     1
 10
0.0
 20
0.0
 30
0.0
  3
*D46
  1

  0
LINE
  5
3708
  8
寸法線
 62
     0
 10
184.0536327306001
 20
85.0685664057292
 30
0.0
 11
194.7151366559244
 21
85.0685664057292
 31
0.0
  0
LINE
  5
3709
  8
寸法線
 62
     0
 10
184.0536327306001
 20
95.068566405729428
 30
0.0
 11
194.7151366559244
 21
95.068566405729428
 31
0.0
  0
LINE
  5
370A
  8
寸法線
 62
     0
 10
193.4651366559244
 20
87.5685664057292
 30
0.0
 11
193.4651366559244
 21
92.568566405729428
 31
0.0
  0
SOLID
  5
370B
  8
寸法線
 62
     0
 10
193.04846998925771
 20
87.5685664057292
 30
0.0
 11
193.88180332259111
 21
87.5685664057292
 31
0.0
 12
193.4651366559244
 22
85.0685664057292
 32
0.0
 13
193.4651366559244
 23
85.0685664057292
 33
0.0
  0
SOLID
  5
370C
  8
寸法線
 62
     0
 10
193.04846998925771
 20
92.568566405729428
 30
0.0
 11
193.88180332259111
 21
92.568566405729428
 31
0.0
 12
193.4651366559244
 22
95.068566405729428
 32
0.0
 13
193.4651366559244
 23
95.068566405729428
 33
0.0
  0
TEXT
  8
寸法線
  40
2.5
  5
376F
  62
0
  72
0
  71
0
 10
186.590
 20
85.6436
 30
0.000000
  1
10
  0
POINT
  5
370E
  8
DEFPOINTS
 62
     0
 10
183.4286327306001
 20
85.0685664057292
 30
0.0
  0
POINT
  5
370F
  8
DEFPOINTS
 62
     0
 10
183.4286327306001
 20
95.068566405729428
 30
0.0
  0
POINT
  5
3710
  8
DEFPOINTS
 62
     0
 10
193.4651366559244
 20
95.068566405729428
 30
0.0
  0
ENDBLK
  5
34A0
  8
0
  0
BLOCK
  8
0
  2
*D47
 70
     1
 10
0.0
 20
0.0
 30
0.0
  3
*D47
  1

  0
LINE
  5
3711
  8
寸法線
 62
     0
 10
204.4464300470743
 20
96.343899603628856
 30
0.0
 11
202.54679812266579
 21
97.969137602128754
 31
0.0
  0
TEXT
  8
寸法線
  40
2.5
  5
3770
  62
0
  72
0
  71
0
 10
195.805
 20
95.0339
 30
0.000000
  1
R1
  0
LINE
  5
3713
  8
寸法線
 62
     0
 10
207.1059147412459
 20
94.068566405729314
 30
0.0
 11
206.3460619714829
 21
94.718661605128972
 31
0.0
  0
SOLID
  5
3714
  8
寸法線
 62
     0
 10
204.7173030468243
 20
96.660504924363593
 30
0.0
 11
204.1755570473243
 21
96.02729428289409
 31
0.0
 12
206.3460619714829
 22
94.718661605128972
 32
0.0
 13
206.3460619714829
 23
94.718661605128972
 33
0.0
  0
POINT
  5
3715
  8
DEFPOINTS
 62
     0
 10
206.3460619714829
 20
94.718661605128972
 30
0.0
  0
POINT
  5
3716
  8
DEFPOINTS
 62
     0
 10
207.1059147412459
 20
94.068566405729314
 30
0.0
  0
ENDBLK
  5
34AC
  8
0
  0
BLOCK
  8
0
  2
*D48
 70
     1
 10
0.0
 20
0.0
 30
0.0
  3
*D48
  1

  0
LINE
  5
3717
  8
寸法線
 62
     0
 10
83.803632730599702
 20
132.56856640573031
 30
0.0
 11
76.944277748855939
 21
132.56856640573031
 31
0.0
  0
LINE
  5
3718
  8
寸法線
 62
     0
 10
80.803632730599716
 20
123.068566405729
 30
0.0
 11
76.944277748855939
 21
123.068566405729
 31
0.0
  0
LINE
  5
3719
  8
寸法線
 62
     0
 10
78.194277748855939
 20
130.06856640573031
 30
0.0
 11
78.194277748855939
 21
125.5685664057289
 31
0.0
  0
SOLID
  5
371A
  8
寸法線
 62
     0
 10
77.777611082189267
 20
130.06856640573031
 30
0.0
 11
78.61094441552261
 21
130.06856640573031
 31
0.0
 12
78.194277748855939
 22
132.56856640573031
 32
0.0
 13
78.194277748855939
 23
132.56856640573031
 33
0.0
  0
SOLID
  5
371B
  8
寸法線
 62
     0
 10
77.777611082189267
 20
125.5685664057289
 30
0.0
 11
78.61094441552261
 21
125.5685664057289
 31
0.0
 12
78.194277748855939
 22
123.068566405729
 32
0.0
 13
78.194277748855939
 23
123.068566405729
 33
0.0
  0
TEXT
  8
寸法線
  40
2.5
  5
3771
  62
0
  72
0
  71
0
 10
71.3193
 20
123.394
 30
0.000000
  1
9.5
  0
POINT
  5
371D
  8
DEFPOINTS
 62
     0
 10
84.428632730599702
 20
132.56856640573031
 30
0.0
  0
POINT
  5
371E
  8
DEFPOINTS
 62
     0
 10
81.428632730599716
 20
123.068566405729
 30
0.0
  0
POINT
  5
371F
  8
DEFPOINTS
 62
     0
 10
78.194277748855939
 20
123.068566405729
 30
0.0
  0
ENDBLK
  5
34B5
  8
0
  0
BLOCK
  8
0
  2
*D49
 70
     1
 10
0.0
 20
0.0
 30
0.0
  3
*D49
  1

  0
LINE
  5
3720
  8
寸法線
 62
     0
 10
84.428632730599702
 20
133.19356640573031
 30
0.0
 11
84.428632730599702
 21
138.36897504645759
 31
0.0
  0
LINE
  5
3721
  8
寸法線
 62
     0
 10
87.428632730599233
 20
133.19356640573031
 30
0.0
 11
87.428632730599233
 21
138.36897504645759
 31
0.0
  0
LINE
  5
3722
  8
寸法線
 62
     0
 10
81.928632730599702
 20
137.11897504645759
 30
0.0
 11
79.428632730599702
 21
137.11897504645759
 31
0.0
  0
LINE
  5
3723
  8
寸法線
 62
     0
 10
89.928632730599233
 20
137.11897504645759
 30
0.0
 11
92.428632730599233
 21
137.11897504645759
 31
0.0
  0
LINE
  5
3724
  8
寸法線
 62
     0
 10
84.428632730599702
 20
137.11897504645759
 30
0.0
 11
87.428632730599233
 21
137.11897504645759
 31
0.0
  0
SOLID
  5
3725
  8
寸法線
 62
     0
 10
81.928632730599702
 20
137.53564171312419
 30
0.0
 11
81.928632730599702
 21
136.70230837979091
 31
0.0
 12
84.428632730599702
 22
137.11897504645759
 32
0.0
 13
84.428632730599702
 23
137.11897504645759
 33
0.0
  0
SOLID
  5
3726
  8
寸法線
 62
     0
 10
89.928632730599233
 20
137.53564171312419
 30
0.0
 11
89.928632730599233
 21
136.70230837979091
 31
0.0
 12
87.428632730599233
 22
137.11897504645759
 32
0.0
 13
87.428632730599233
 23
137.11897504645759
 33
0.0
  0
TEXT
  8
寸法線
  40
2.5
  5
3772
  62
0
  72
0
  71
0
 10
80.9286
 20
134.569
 30
0.000000
  1
3
  0
POINT
  5
3728
  8
DEFPOINTS
 62
     0
 10
84.428632730599702
 20
132.56856640573031
 30
0.0
  0
POINT
  5
3729
  8
DEFPOINTS
 62
     0
 10
87.428632730599233
 20
132.56856640573031
 30
0.0
  0
POINT
  5
372A
  8
DEFPOINTS
 62
     0
 10
87.428632730599233
 20
137.11897504645759
 30
0.0
  0
ENDBLK
  5
34C1
  8
0
  0
BLOCK
  8
0
  2
*D50
 70
     1
 10
0.0
 20
0.0
 30
0.0
  3
*D50
  1

  0
LINE
  5
372B
  8
寸法線
 62
     0
 10
83.803632730599702
 20
153.66172004595711
 30
0.0
 11
76.944277748855924
 21
153.66172004595711
 31
0.0
  0
LINE
  5
372C
  8
寸法線
 62
     0
 10
83.803632730599702
 20
172.66172004595691
 30
0.0
 11
76.944277748855939
 21
172.66172004595691
 31
0.0
  0
LINE
  5
372D
  8
寸法線
 62
     0
 10
78.194277748855924
 20
156.16172004595711
 30
0.0
 11
78.194277748855939
 21
170.16172004595691
 31
0.0
  0
SOLID
  5
372E
  8
寸法線
 62
     0
 10
77.777611082189253
 20
156.16172004595711
 30
0.0
 11
78.610944415522596
 21
156.16172004595711
 31
0.0
 12
78.194277748855924
 22
153.66172004595711
 32
0.0
 13
78.194277748855924
 23
153.66172004595711
 33
0.0
  0
SOLID
  5
372F
  8
寸法線
 62
     0
 10
77.777611082189267
 20
170.16172004595691
 30
0.0
 11
78.61094441552261
 21
170.16172004595691
 31
0.0
 12
78.194277748855939
 22
172.66172004595691
 32
0.0
 13
78.194277748855939
 23
172.66172004595691
 33
0.0
  0
TEXT
  8
寸法線
  40
2.5
  5
3773
  62
0
  72
0
  71
0
 10
71.3193
 20
158.737
 30
0.000000
  1
19
  0
POINT
  5
3731
  8
DEFPOINTS
 62
     0
 10
84.428632730599702
 20
153.66172004595711
 30
0.0
  0
POINT
  5
3732
  8
DEFPOINTS
 62
     0
 10
84.428632730599702
 20
172.66172004595691
 30
0.0
  0
POINT
  5
3733
  8
DEFPOINTS
 62
     0
 10
78.194277748855939
 20
172.66172004595691
 30
0.0
  0
ENDBLK
  5
34CF
  8
0
  0
BLOCK
  8
0
  2
*D51
 70
     1
 10
0.0
 20
0.0
 30
0.0
  3
*D51
  1

  0
LINE
  5
3734
  8
寸法線
 62
     0
 10
164.4286327305997
 20
178.7044076658799
 30
0.0
 11
164.4286327305997
 21
188.96430758016919
 31
0.0
  0
LINE
  5
3735
  8
寸法線
 62
     0
 10
184.4286327306001
 20
178.7044076658799
 30
0.0
 11
184.4286327306001
 21
188.96430758016919
 31
0.0
  0
LINE
  5
3736
  8
寸法線
 62
     0
 10
166.9286327305997
 20
187.71430758016919
 30
0.0
 11
181.9286327306001
 21
187.71430758016919
 31
0.0
  0
SOLID
  5
3737
  8
寸法線
 62
     0
 10
166.9286327305997
 20
188.13097424683579
 30
0.0
 11
166.9286327305997
 21
187.29764091350251
 31
0.0
 12
164.4286327305997
 22
187.71430758016919
 32
0.0
 13
164.4286327305997
 23
187.71430758016919
 33
0.0
  0
SOLID
  5
3738
  8
寸法線
 62
     0
 10
181.9286327306001
 20
188.13097424683579
 30
0.0
 11
181.9286327306001
 21
187.29764091350251
 31
0.0
 12
184.4286327306001
 22
187.71430758016919
 32
0.0
 13
184.4286327306001
 23
187.71430758016919
 33
0.0
  0
TEXT
  8
寸法線
  40
2.5
  5
3774
  62
0
  72
0
  71
0
 10
169.429
 20
185.164
 30
0.000000
  1
20
  0
POINT
  5
373A
  8
DEFPOINTS
 62
     0
 10
164.4286327305997
 20
178.0794076658799
 30
0.0
  0
POINT
  5
373B
  8
DEFPOINTS
 62
     0
 10
184.4286327306001
 20
178.0794076658799
 30
0.0
  0
POINT
  5
373C
  8
DEFPOINTS
 62
     0
 10
184.4286327306001
 20
187.71430758016919
 30
0.0
  0
ENDBLK
  5
34DB
  8
0
  0
BLOCK
  8
0
  2
*D52
 70
     1
 10
0.0
 20
0.0
 30
0.0
  3
*D52
  1

  0
LINE
  5
373D
  8
寸法線
 62
     0
 10
180.0536327305997
 20
151.66172004595711
 30
0.0
 11
194.7151366559244
 21
151.66172004595711
 31
0.0
  0
LINE
  5
373E
  8
寸法線
 62
     0
 10
180.0536327306001
 20
174.66172004595691
 30
0.0
 11
194.7151366559244
 21
174.6617200459568
 31
0.0
  0
LINE
  5
373F
  8
寸法線
 62
     0
 10
193.4651366559244
 20
154.16172004595711
 30
0.0
 11
193.4651366559244
 21
172.1617200459568
 31
0.0
  0
SOLID
  5
3740
  8
寸法線
 62
     0
 10
193.04846998925771
 20
154.16172004595711
 30
0.0
 11
193.88180332259111
 21
154.16172004595711
 31
0.0
 12
193.4651366559244
 22
151.66172004595711
 32
0.0
 13
193.4651366559244
 23
151.66172004595711
 33
0.0
  0
SOLID
  5
3741
  8
寸法線
 62
     0
 10
193.04846998925771
 20
172.1617200459568
 30
0.0
 11
193.88180332259111
 21
172.1617200459568
 31
0.0
 12
193.4651366559244
 22
174.6617200459568
 32
0.0
 13
193.4651366559244
 23
174.6617200459568
 33
0.0
  0
TEXT
  8
寸法線
  40
2.5
  5
3775
  62
0
  72
0
  71
0
 10
186.590
 20
158.737
 30
0.000000
  1
23
  0
POINT
  5
3743
  8
DEFPOINTS
 62
     0
 10
179.4286327305997
 20
151.66172004595711
 30
0.0
  0
POINT
  5
3744
  8
DEFPOINTS
 62
     0
 10
179.4286327306001
 20
174.66172004595691
 30
0.0
  0
POINT
  5
3745
  8
DEFPOINTS
 62
     0
 10
193.4651366559244
 20
174.6617200459568
 30
0.0
  0
ENDBLK
  5
34E7
  8
0
  0
BLOCK
  8
0
  2
*D53
 70
     1
 10
0.0
 20
0.0
 30
0.0
  3
*D53
  1

  0
LINE
  5
3746
  8
寸法線
 62
     0
 10
164.4286327305997
 20
174.28672004595691
 30
0.0
 11
164.4286327305997
 21
181.872095285803
 31
0.0
  0
LINE
  5
3747
  8
寸法線
 62
     0
 10
179.4286327306001
 20
175.9117200459568
 30
0.0
 11
179.4286327306001
 21
181.872095285803
 31
0.0
  0
LINE
  5
3748
  8
寸法線
 62
     0
 10
166.9286327305997
 20
180.622095285803
 30
0.0
 11
176.9286327306001
 21
180.622095285803
 31
0.0
  0
SOLID
  5
3749
  8
寸法線
 62
     0
 10
166.9286327305997
 20
181.03876195246971
 30
0.0
 11
166.9286327305997
 21
180.20542861913631
 31
0.0
 12
164.4286327305997
 22
180.622095285803
 32
0.0
 13
164.4286327305997
 23
180.622095285803
 33
0.0
  0
SOLID
  5
374A
  8
寸法線
 62
     0
 10
176.9286327306001
 20
181.03876195246971
 30
0.0
 11
176.9286327306001
 21
180.20542861913631
 31
0.0
 12
179.4286327306001
 22
180.622095285803
 32
0.0
 13
179.4286327306001
 23
180.622095285803
 33
0.0
  0
TEXT
  8
寸法線
  40
2.5
  5
3776
  62
0
  72
0
  71
0
 10
166.929
 20
178.072
 30
0.000000
  1
15
  0
POINT
  5
374C
  8
DEFPOINTS
 62
     0
 10
164.4286327305997
 20
173.6617200459568
 30
0.0
  0
POINT
  5
374D
  8
DEFPOINTS
 62
     0
 10
179.4286327306001
 20
175.28672004595691
 30
0.0
  0
POINT
  5
374E
  8
DEFPOINTS
 62
     0
 10
179.4286327306001
 20
180.622095285803
 30
0.0
  0
ENDBLK
  5
34F3
  8
0
  0
BLOCK
  8
0
  2
*D54
 70
     1
 10
0.0
 20
0.0
 30
0.0
  3
*D54
  1

  0
LINE
  5
374F
  8
寸法線
 62
     0
 10
184.4286327306001
 20
163.78672004595711
 30
0.0
 11
184.4286327306001
 21
181.872095285803
 31
0.0
  0
LINE
  5
3750
  8
寸法線
 62
     0
 10
179.4286327306001
 20
175.28672004595691
 30
0.0
 11
179.4286327306001
 21
181.872095285803
 31
0.0
  0
LINE
  5
3751
  8
寸法線
 62
     0
 10
186.9286327306001
 20
180.622095285803
 30
0.0
 11
189.4286327306001
 21
180.622095285803
 31
0.0
  0
LINE
  5
3752
  8
寸法線
 62
     0
 10
176.9286327306001
 20
180.622095285803
 30
0.0
 11
174.4286327306001
 21
180.622095285803
 31
0.0
  0
LINE
  5
3753
  8
寸法線
 62
     0
 10
184.4286327306001
 20
180.622095285803
 30
0.0
 11
179.4286327306001
 21
180.622095285803
 31
0.0
  0
SOLID
  5
3754
  8
寸法線
 62
     0
 10
186.9286327306001
 20
181.03876195246971
 30
0.0
 11
186.9286327306001
 21
180.20542861913631
 31
0.0
 12
184.4286327306001
 22
180.622095285803
 32
0.0
 13
184.4286327306001
 23
180.622095285803
 33
0.0
  0
SOLID
  5
3755
  8
寸法線
 62
     0
 10
176.9286327306001
 20
181.03876195246971
 30
0.0
 11
176.9286327306001
 21
180.20542861913631
 31
0.0
 12
179.4286327306001
 22
180.622095285803
 32
0.0
 13
179.4286327306001
 23
180.622095285803
 33
0.0
  0
TEXT
  8
寸法線
  40
2.5
  5
3777
  62
0
  72
0
  71
0
 10
176.929
 20
178.072
 30
0.000000
  1
5
  0
POINT
  5
3757
  8
DEFPOINTS
 62
     0
 10
184.4286327306001
 20
163.16172004595711
 30
0.0
  0
POINT
  5
3758
  8
DEFPOINTS
 62
     0
 10
179.4286327306001
 20
174.66172004595691
 30
0.0
  0
POINT
  5
3759
  8
DEFPOINTS
 62
     0
 10
179.4286327306001
 20
180.622095285803
 30
0.0
  0
ENDBLK
  5
34FF
  8
0
  0
BLOCK
  8
0
  2
*X56
 70
     1
 10
0.0
 20
0.0
 30
0.0
  3
*X56
  1

  0
LINE
  5
3658
  8
0
 62
     0
 10
169.2365204981738
 20
23.500000806007389
 30
0.0
 11
171.5020410138913
 21
25.765521321724918
 31
0.0
  0
LINE
  5
3659
  8
0
 62
     0
 10
165.64441804974561
 20
23.500000806007389
 30
0.0
 11
171.5020410138909
 21
29.357623770153172
 31
0.0
  0
LINE
  5
365A
  8
0
 62
     0
 10
162.05231560131821
 20
23.500000806006941
 30
0.0
 11
171.42856104425621
 21
32.876246248944881
 31
0.0
  0
LINE
  5
365B
  8
0
 62
     0
 10
160.00204101389039
 20
25.041828667007849
 30
0.0
 11
168.46021315288999
 21
33.500000806007847
 31
0.0
  0
LINE
  5
365C
  8
0
 62
     0
 10
158.46021315288999
 20
23.500000806007389
 30
0.0
 11
160.00204101389039
 21
25.041828667007849
 31
0.0
  0
LINE
  5
365D
  8
0
 62
     0
 10
160.0020410138909
 20
28.633931115435189
 30
0.0
 11
164.86811070446259
 21
33.500000806006938
 31
0.0
  0
LINE
  5
365E
  8
0
 62
     0
 10
154.8681107044622
 20
23.500000806006479
 30
0.0
 11
160.0020410138909
 21
28.633931115435189
 31
0.0
  0
LINE
  5
365F
  8
0
 62
     0
 10
160.0020410138909
 20
32.226033563862991
 30
0.0
 11
161.27600825603531
 21
33.500000806007392
 31
0.0
  0
LINE
  5
3660
  8
0
 62
     0
 10
151.27600825603531
 20
23.500000806007389
 30
0.0
 11
160.0020410138909
 21
32.226033563862991
 31
0.0
  0
LINE
  5
3661
  8
0
 62
     0
 10
148.5162033559954
 20
24.332298354395331
 30
0.0
 11
157.68390580760749
 21
33.500000806007392
 31
0.0
  0
LINE
  5
3662
  8
0
 62
     0
 10
148.5020410138909
 20
27.910238460718119
 30
0.0
 11
154.09180335918009
 21
33.500000806007392
 31
0.0
  0
LINE
  5
3663
  8
0
 62
     0
 10
148.50204101389039
 20
31.502340909145921
 30
0.0
 11
150.4997009107519
 21
33.500000806007392
 31
0.0
  0
LINE
  5
3664
  8
0
 62
     0
 10
126.20738977252449
 20
23.57609946149023
 30
0.0
 11
126.74866034776051
 21
24.117370036726239
 31
0.0
  0
LINE
  5
3665
  8
0
 62
     0
 10
122.53918866861341
 20
23.500000806006941
 30
0.0
 11
126.8247590032438
 21
27.78557114063733
 31
0.0
  0
LINE
  5
3666
  8
0
 62
     0
 10
121.8247590032438
 20
26.377673589064671
 30
0.0
 11
123.94708622018599
 21
28.500000806006941
 31
0.0
  0
LINE
  5
3667
  8
0
 62
     0
 10
123.94708622018599
 20
28.500000806006941
 30
0.0
 11
126.8247590032442
 21
31.37767358906558
 31
0.0
  0
LINE
  5
3668
  8
0
 62
     0
 10
118.94708622018599
 20
23.500000806006941
 30
0.0
 11
121.8247590032433
 21
26.377673589064219
 31
0.0
  0
LINE
  5
3669
  8
0
 62
     0
 10
120.3549837717578
 20
28.500000806006941
 30
0.0
 11
121.8247590032429
 21
29.969776037492011
 31
0.0
  0
LINE
  5
366A
  8
0
 62
     0
 10
121.8247590032433
 20
29.969776037492469
 30
0.0
 11
125.3549837717582
 21
33.500000806007392
 31
0.0
  0
LINE
  5
366B
  8
0
 62
     0
 10
115.3549837717578
 20
23.500000806007389
 30
0.0
 11
120.3549837717578
 21
28.500000806006941
 31
0.0
  0
LINE
  5
366C
  8
0
 62
     0
 10
116.7628813233305
 20
28.500000806006479
 30
0.0
 11
121.7628813233309
 21
33.500000806006938
 31
0.0
  0
LINE
  5
366D
  8
0
 62
     0
 10
111.7628813233309
 20
23.500000806006941
 30
0.0
 11
116.7628813233305
 21
28.500000806006479
 31
0.0
  0
LINE
  5
366E
  8
0
 62
     0
 10
113.1707788749026
 20
28.500000806007389
 30
0.0
 11
118.17077887490311
 21
33.500000806007392
 31
0.0
  0
LINE
  5
366F
  8
0
 62
     0
 10
108.17077887490311
 20
23.500000806007389
 30
0.0
 11
113.1707788749026
 21
28.500000806007389
 31
0.0
  0
LINE
  5
3670
  8
0
 62
     0
 10
109.5786764264753
 20
28.500000806007389
 30
0.0
 11
114.5786764264753
 21
33.500000806006938
 31
0.0
  0
LINE
  5
3671
  8
0
 62
     0
 10
106.8247590032433
 20
25.746083382774941
 30
0.0
 11
109.5786764264753
 21
28.500000806006941
 31
0.0
  0
LINE
  5
3672
  8
0
 62
     0
 10
106.8247590032433
 20
29.33818583120274
 30
0.0
 11
110.9865739780475
 21
33.500000806006938
 31
0.0
  0
LINE
  5
3673
  8
0
 62
     0
 10
120.8823957887162
 20
90.093154446235076
 30
0.0
 11
124.9660045834403
 21
94.176763240959204
 31
0.0
  0
LINE
  5
3674
  8
0
 62
     0
 10
117.2902933402879
 20
90.093154446234621
 30
0.0
 11
126.6829087187884
 21
99.485769824735144
 31
0.0
  0
LINE
  5
3675
  8
0
 62
     0
 10
125.3822764044789
 20
101.7772399588534
 30
0.0
 11
126.7481822988438
 21
103.1431458532183
 31
0.0
  0
LINE
  5
3676
  8
0
 62
     0
 10
113.69819089186051
 20
90.093154446235076
 30
0.0
 11
125.3822764044789
 21
101.7772399588534
 31
0.0
  0
LINE
  5
3677
  8
0
 62
     0
 10
121.7901739560516
 20
101.7772399588534
 30
0.0
 11
126.1530294841741
 21
106.14009548697589
 31
0.0
  0
LINE
  5
3678
  8
0
 62
     0
 10
110.1060884434328
 20
90.093154446234621
 30
0.0
 11
121.7901739560516
 21
101.7772399588534
 31
0.0
  0
LINE
  5
3679
  8
0
 62
     0
 10
118.1980715076233
 20
101.7772399588534
 30
0.0
 11
125.1250406836584
 21
108.7042091348885
 31
0.0
  0
LINE
  5
367A
  8
0
 62
     0
 10
106.97955003331251
 20
90.558718484542624
 30
0.0
 11
118.1980715076233
 21
101.7772399588534
 31
0.0
  0
LINE
  5
367B
  8
0
 62
     0
 10
114.605969059196
 20
101.777239958853
 30
0.0
 11
123.7553055570247
 21
110.9265764566817
 31
0.0
  0
LINE
  5
367C
  8
0
 62
     0
 10
106.8247590032433
 20
93.996029902900318
 30
0.0
 11
114.605969059196
 21
101.777239958853
 31
0.0
  0
LINE
  5
367D
  8
0
 62
     0
 10
111.0138666107682
 20
101.7772399588539
 30
0.0
 11
122.0832047643916
 21
112.84657811247691
 31
0.0
  0
LINE
  5
367E
  8
0
 62
     0
 10
106.8247590032433
 20
97.588132351328568
 30
0.0
 11
111.0138666107682
 21
101.7772399588539
 31
0.0
  0
LINE
  5
367F
  8
0
 62
     0
 10
107.42176416234091
 20
101.7772399588534
 30
0.0
 11
118.737678649722
 21
113.09315444623461
 31
0.0
  0
LINE
  5
3680
  8
0
 62
     0
 10
106.8247590032429
 20
101.1802347997554
 30
0.0
 11
107.42176416234091
 21
101.7772399588534
 31
0.0
  0
LINE
  5
3681
  8
0
 62
     0
 10
106.8247590032433
 20
104.7723372481837
 30
0.0
 11
115.1455762012942
 21
113.09315444623461
 31
0.0
  0
LINE
  5
3682
  8
0
 62
     0
 10
106.8247590032433
 20
108.3644396966115
 30
0.0
 11
111.5534737528664
 21
113.09315444623461
 31
0.0
  0
LINE
  5
3683
  8
0
 62
     0
 10
106.8247590032433
 20
111.95654214503929
 30
0.0
 11
107.9613713044391
 21
113.09315444623461
 31
0.0
  0
ENDBLK
  5
3685
  8
0
  0
BLOCK
  8
0
  2
*U57
 70
     1
 10
0.0
 20
0.0
 30
0.0
  3
*U57
  1

  0
TEXT
  5
3687
  8
寸法線
 10
175.63253121922159
 20
78.855987488032497
 30
0.0
 40
2.5
  1
2-\U+22054.5-\U+22058.5
  0
ENDBLK
  5
3689
  8
0
  0
BLOCK
  8
0
  2
*U58
 70
     1
 10
0.0
 20
0.0
 30
0.0
  3
*U58
  1

  0
SOLID
  5
368B
  8
寸法線
 10
161.8309670912943
 20
63.251192794627052
 30
0.0
 11
160.00204101389039
 21
61.50000080600875
 31
0.0
 12
161.16415206377459
 22
63.749698982508399
 32
0.0
 13
161.16415206377459
 23
63.749698982508399
 33
0.0
  0
POLYLINE
  5
368C
  8
寸法線
 66
     1
 10
0.0
 20
0.0
 30
0.0
  0
VERTEX
  5
368D
  8
寸法線
 10
161.4975595775345
 20
63.500445888567718
 30
0.0
  0
VERTEX
  5
368E
  8
寸法線
 10
172.51044350060829
 20
78.23156994430984
 30
0.0
  0
VERTEX
  5
368F
  8
寸法線
 10
175.63253121922159
 20
78.23156994430984
 30
0.0
  0
SEQEND
  5
3690
  8
寸法線
  0
ENDBLK
  5
3692
  8
0
  0
BLOCK
  8
0
  2
*X59
 70
     1
 10
0.0
 20
0.0
 30
0.0
  3
*X59
  1

  0
LINE
  5
3694
  8
0
 62
     0
 10
226.84039422552951
 20
85.068566405729143
 30
0.0
 11
229.10591474124749
 21
87.334086921447124
 31
0.0
  0
LINE
  5
3695
  8
0
 62
     0
 10
223.2482917771022
 20
85.068566405729598
 30
0.0
 11
229.10591474124749
 21
90.926189369875374
 31
0.0
  0
LINE
  5
3696
  8
0
 62
     0
 10
219.65618932867389
 20
85.068566405729143
 30
0.0
 11
229.03243477161189
 21
94.444811848667086
 31
0.0
  0
LINE
  5
3697
  8
0
 62
     0
 10
217.60591474124749
 20
86.610394266730054
 30
0.0
 11
226.06408688024661
 21
95.068566405729598
 31
0.0
  0
LINE
  5
3698
  8
0
 62
     0
 10
216.06408688024661
 20
85.068566405729143
 30
0.0
 11
217.60591474124749
 21
86.610394266730054
 31
0.0
  0
LINE
  5
3699
  8
0
 62
     0
 10
217.60591474124749
 20
90.202496715157835
 30
0.0
 11
222.47198443181881
 21
95.068566405729143
 31
0.0
  0
LINE
  5
369A
  8
0
 62
     0
 10
212.47198443181921
 20
85.068566405729598
 30
0.0
 11
217.60591474124749
 21
90.202496715157835
 31
0.0
  0
LINE
  5
369B
  8
0
 62
     0
 10
217.60591474124749
 20
93.794599163585175
 30
0.0
 11
218.87988198339099
 21
95.068566405728674
 31
0.0
  0
LINE
  5
369C
  8
0
 62
     0
 10
208.87988198339141
 20
85.068566405729143
 30
0.0
 11
217.60591474124749
 21
93.794599163585175
 31
0.0
  0
LINE
  5
369D
  8
0
 62
     0
 10
206.12007708335199
 20
85.900863954117995
 30
0.0
 11
215.28777953496319
 21
95.068566405729598
 31
0.0
  0
LINE
  5
369E
  8
0
 62
     0
 10
206.10591474124661
 20
89.478804060440325
 30
0.0
 11
211.69567708653591
 21
95.068566405729143
 31
0.0
  0
LINE
  5
369F
  8
0
 62
     0
 10
206.10591474124749
 20
93.070906508868106
 30
0.0
 11
208.10357463810851
 21
95.068566405729143
 31
0.0
  0
LINE
  5
36A0
  8
0
 62
     0
 10
183.8112634998806
 20
85.144665061211981
 30
0.0
 11
184.35253407511661
 21
85.685935636447994
 31
0.0
  0
LINE
  5
36A1
  8
0
 62
     0
 10
180.14306239596951
 20
85.068566405729143
 30
0.0
 11
184.4286327305999
 21
89.354136740359536
 31
0.0
  0
LINE
  5
36A2
  8
0
 62
     0
 10
179.4286327305995
 20
87.946239188786421
 30
0.0
 11
181.55095994754171
 21
90.068566405728674
 31
0.0
  0
LINE
  5
36A3
  8
0
 62
     0
 10
181.55095994754171
 20
90.068566405728674
 30
0.0
 11
184.42863273060041
 21
92.946239188787317
 31
0.0
  0
LINE
  5
36A4
  8
0
 62
     0
 10
176.55095994754171
 20
85.068566405728674
 30
0.0
 11
179.4286327305995
 21
87.946239188786421
 31
0.0
  0
LINE
  5
36A5
  8
0
 62
     0
 10
177.9588574991148
 20
90.068566405729143
 30
0.0
 11
179.4286327305999
 21
91.538341637214216
 31
0.0
  0
LINE
  5
36A6
  8
0
 62
     0
 10
179.4286327305999
 20
91.538341637214216
 30
0.0
 11
182.9588574991148
 21
95.068566405729143
 31
0.0
  0
LINE
  5
36A7
  8
0
 62
     0
 10
172.9588574991144
 20
85.068566405729143
 30
0.0
 11
177.9588574991148
 21
90.068566405729143
 31
0.0
  0
LINE
  5
36A8
  8
0
 62
     0
 10
174.36675505068609
 20
90.068566405728674
 30
0.0
 11
179.36675505068661
 21
95.068566405729598
 31
0.0
  0
LINE
  5
36A9
  8
0
 62
     0
 10
169.36675505068661
 20
85.068566405729143
 30
0.0
 11
174.36675505068609
 21
90.068566405728674
 31
0.0
  0
LINE
  5
36AA
  8
0
 62
     0
 10
170.77465260225881
 20
90.068566405729143
 30
0.0
 11
175.77465260225969
 21
95.068566405729598
 31
0.0
  0
LINE
  5
36AB
  8
0
 62
     0
 10
165.77465260225921
 20
85.068566405729143
 30
0.0
 11
170.77465260225881
 21
90.068566405729143
 31
0.0
  0
LINE
  5
36AC
  8
0
 62
     0
 10
167.18255015383139
 20
90.068566405729598
 30
0.0
 11
172.18255015383139
 21
95.068566405729143
 31
0.0
  0
LINE
  5
36AD
  8
0
 62
     0
 10
164.4286327305995
 20
87.314648982497147
 30
0.0
 11
167.18255015383139
 21
90.068566405729143
 31
0.0
  0
LINE
  5
36AE
  8
0
 62
     0
 10
164.4286327305995
 20
90.906751430924956
 30
0.0
 11
168.5904477054037
 21
95.068566405728674
 31
0.0
  0
LINE
  5
36AF
  8
0
 62
     0
 10
178.4862695160723
 20
151.66172004595731
 30
0.0
 11
182.56987831079641
 21
155.7453288406814
 31
0.0
  0
LINE
  5
36B0
  8
0
 62
     0
 10
174.8941670676445
 20
151.6617200459568
 30
0.0
 11
184.28678244614451
 21
161.05433542445689
 31
0.0
  0
LINE
  5
36B1
  8
0
 62
     0
 10
182.9861501318355
 20
163.3458055585761
 30
0.0
 11
184.35205602620039
 21
164.71171145294051
 31
0.0
  0
LINE
  5
36B2
  8
0
 62
     0
 10
171.30206461921711
 20
151.66172004595731
 30
0.0
 11
182.9861501318355
 21
163.3458055585761
 31
0.0
  0
LINE
  5
36B3
  8
0
 62
     0
 10
179.39404768340771
 20
163.34580555857559
 30
0.0
 11
183.75690321152979
 21
167.7086610866977
 31
0.0
  0
LINE
  5
36B4
  8
0
 62
     0
 10
167.7099621707884
 20
151.66172004595629
 30
0.0
 11
179.39404768340771
 21
163.34580555857559
 31
0.0
  0
LINE
  5
36B5
  8
0
 62
     0
 10
175.80194523497991
 20
163.34580555857519
 30
0.0
 11
182.72891441101501
 21
170.27277473461021
 31
0.0
  0
LINE
  5
36B6
  8
0
 62
     0
 10
164.58342376067
 20
152.12728408426531
 30
0.0
 11
175.80194523497991
 21
163.34580555857519
 31
0.0
  0
LINE
  5
36B7
  8
0
 62
     0
 10
172.20984278655169
 20
163.34580555857519
 30
0.0
 11
181.35917928438039
 21
172.49514205640389
 31
0.0
  0
LINE
  5
36B8
  8
0
 62
     0
 10
164.4286327305995
 20
155.56459550262289
 30
0.0
 11
172.20984278655169
 21
163.34580555857519
 31
0.0
  0
LINE
  5
36B9
  8
0
 62
     0
 10
168.61774033812429
 20
163.34580555857559
 30
0.0
 11
179.6870784917478
 21
174.41514371219861
 31
0.0
  0
LINE
  5
36BA
  8
0
 62
     0
 10
164.4286327305999
 20
159.1566979510508
 30
0.0
 11
168.61774033812429
 21
163.34580555857559
 31
0.0
  0
LINE
  5
36BB
  8
0
 62
     0
 10
165.02563788969701
 20
163.34580555857559
 30
0.0
 11
176.3415523770777
 21
174.66172004595629
 31
0.0
  0
LINE
  5
36BC
  8
0
 62
     0
 10
164.4286327305999
 20
162.74880039947851
 30
0.0
 11
165.02563788969701
 21
163.34580555857559
 31
0.0
  0
LINE
  5
36BD
  8
0
 62
     0
 10
164.4286327305999
 20
166.34090284790591
 30
0.0
 11
172.74944992865039
 21
174.66172004595629
 31
0.0
  0
LINE
  5
36BE
  8
0
 62
     0
 10
164.4286327305999
 20
169.9330052963337
 30
0.0
 11
169.157347480223
 21
174.6617200459568
 31
0.0
  0
LINE
  5
36BF
  8
0
 62
     0
 10
164.4286327305995
 20
173.52510774476099
 30
0.0
 11
165.5652450317952
 21
174.6617200459568
 31
0.0
  0
ENDBLK
  5
36C1
  8
0
  0
BLOCK
  8
0
  2
*U60
 70
     1
 10
0.0
 20
0.0
 30
0.0
  3
*U60
  1

  0
TEXT
  5
375B
  8
寸法線
 10
233.23640494657801
 20
140.4245530877545
 30
0.0
 40
2.5
  1
2-\U+22054.5-\U+22058.5
  0
ENDBLK
  5
375D
  8
0
  0
BLOCK
  8
0
  2
*U61
 70
     1
 10
0.0
 20
0.0
 30
0.0
  3
*U61
  1

  0
SOLID
  5
375F
  8
寸法線
 10
219.43484081865071
 20
124.81975839434909
 30
0.0
 11
217.60591474124681
 21
123.06856640573081
 31
0.0
 12
218.76802579113101
 22
125.3182645822304
 32
0.0
 13
218.76802579113101
 23
125.3182645822304
 33
0.0
  0
POLYLINE
  5
3760
  8
寸法線
 66
     1
 10
0.0
 20
0.0
 30
0.0
  0
VERTEX
  5
3761
  8
寸法線
 10
219.1014333048908
 20
125.0690114882897
 30
0.0
  0
VERTEX
  5
3762
  8
寸法線
 10
230.1143172279647
 20
139.8001355440318
 30
0.0
  0
VERTEX
  5
3763
  8
寸法線
 10
233.23640494657801
 20
139.8001355440318
 30
0.0
  0
SEQEND
  5
3764
  8
寸法線
  0
ENDBLK
  5
3766
  8
0
  0
ENDSEC
  0
SECTION
  2
ENTITIES
  0
INSERT
  5
1BB5
  8
0
  2
ZUWAKU-A4H
 10
0.0
 20
0.0
 30
0.0
1001
GENIUS_GENOREF_13
1005
1C93
1001
GENIUS_GENOBJ-N-SDF_13
1002
{
1000
OWNER
1000
GEN
1002
}
1001
GENIUS_GENODEF_13
1002
{
1000
HIER
1070
     0
1002
}
1002
{
1000
MANEDIT
1070
     0
1002
}
1002
{
1000
NOSEL
1070
     0
1002
}
1002
{
1000
BEHIND
1070
     0
1002
}
1002
{
1000
OTHER
1070
     0
1002
}
1002
{
1000
REACTOR
1002
}
1001
GENIUS_GENSCREG_13
1040
1.0
1040
1.0
1011
12.95699999999508
1021
0.0
1031
0.0
1021
10.0
1031
0.0
1011
289.45700000038528
1021
0.0
1031
0.0
1021
201.1206999999936
1031
0.0
1070
     3
  0
POINT
  5
1C93
  8
0
 10
0.0
 20
0.0
 30
0.0
1001
GENIUS_GENOLIS_13
1002
{
1000
ENT
1005
1C84
1005
1BB5
1002
}
1001
GENIUS_GENOENT_13
1002
{
1000
MYREF
1005
1C93
1002
}
1002
{
1000
GRP
1005
0
1002
}
1001
GENIUS_GENOBJ-N-TIT_13
1002
{
1000
OWNER
1000
GEN
1002
}
1001
GENIUS_GENTITLE_13
1002
{
1000
BORDER
1000
C:\Program Files\Autodesk\ACADM 2008\Acadm\gen\Dwg\Format\ZUWAKU-A4H
1002
}
1002
{
1000
TITLE
1000
C:\Program Files\Autodesk\ACADM 2008\Acadm\gen\Dwg\Title\N_Title
1002
}
1002
{
1000
ADDITIONAL1
1000

1002
}
1002
{
1000
ADDITIONAL2
1000

1002
}
1002
{
1000
SCALE
1000
1:1
1002
}
1002
{
1000
TITLESTD
1000
JIS
1002
}
1002
{
1000
HRA
1005
1BB5
1002
}
1002
{
1000
HTIT
1005
1C84
1002
}
1002
{
1000
INVTXTID
1005
0
1002
}
1002
{
1000
UNCHG
1002
{
1000
GEN-TITLE-SIZ
1000
GEN-TITLE-SCA
1002
}
1002
}
1002
{
1000
GENIUSID
1005
1C93
1002
}
1001
GENIUS_GENODEF_13
1002
{
1000
HIER
1070
     1
1002
}
1002
{
1000
MANEDIT
1070
     1
1002
}
1002
{
1000
NOSEL
1070
     0
1002
}
1002
{
1000
BEHIND
1070
     0
1002
}
1002
{
1000
OTHER
1070
     0
1002
}
1002
{
1000
REACTOR
1002
}
  0
INSERT
  5
20F2
  8
0
 66
     1
  2
A$C1C06296A
 10
12.95700013162593
 20
9.9999998268887111
 30
0.0
  0
ATTRIB
  5
20F3
  8
AM_BOR
 62
     7
 10
127.267709707009
 20
10.5
 30
0.0
 40
3.0
  1

 11
127.267709707009
 21
12.0
 31
0.0
  2
SETS｛20｝
 70
     0
 74
     2
1001
ACDBATTR
1070
     0
1070
     1
  0
ATTRIB
  5
20F4
  8
AM_BOR
 62
     7
 10
32.017709707009089
 20
10.5
 30
0.0
 40
3.0
  1

 11
32.017709707009089
 21
12.0
 31
0.0
  2
REMARKS｛20｝
 70
     0
 74
     2
1001
ACDBATTR
1070
     0
1070
     1
  0
ATTRIB
  5
20F5
  8
AM_BOR
 62
     7
 10
127.267709707009
 20
15.5
 30
0.0
 40
3.0
  1

 11
127.267709707009
 21
17.0
 31
0.0
  2
SETS｛20｝
 70
     0
 74
     2
1001
ACDBATTR
1070
     0
1070
     1
  0
ATTRIB
  5
20F6
  8
AM_BOR
 62
     7
 10
32.017709707009089
 20
15.5
 30
0.0
 40
3.0
  1

 11
32.017709707009089
 21
17.0
 31
0.0
  2
REMARKS｛20｝
 70
     0
 74
     2
1001
ACDBATTR
1070
     0
1070
     1
  0
ATTRIB
  5
20F7
  8
AM_BOR
 62
     7
 10
127.267709707009
 20
20.5
 30
0.0
 40
3.0
  1
トラスAタッピング4\U+00D725(2本)
 11
127.267709707009
 21
22.0
 31
0.0
  2
SETS｛20｝
 70
     0
 74
     2
1001
ACDBATTR
1070
     0
1070
     1
  0
ATTRIB
  5
20F8
  8
AM_BOR
 62
     7
 10
32.017709707009089
 20
20.5
 30
0.0
 40
3.0
  1

 11
32.017709707009089
 21
22.0
 31
0.0
  2
REMARKS｛20｝
 70
     0
 74
     2
1001
ACDBATTR
1070
     0
1070
     1
  0
ATTRIB
  5
20F9
  8
AM_BOR
 62
     7
 10
127.20700000001921
 20
33.5
 30
0.0
 40
3.0
  1
S3183-100-HN
 11
127.20700000001921
 21
35.0
 31
0.0
  2
ART_NO｛20｝
 70
     0
 74
     2
1001
ACDBATTR
1070
     0
1070
     1
  0
ATTRIB
  5
20FA
  8
AM_BOR
 62
     7
 10
31.95700000001921
 20
33.5
 30
0.0
 40
3.0
  1
P型戸当り
 11
31.95700000001921
 21
35.0
 31
0.0
  2
ARTICLE｛20｝
 70
     0
 74
     2
1001
ACDBATTR
1070
     0
1070
     1
  0
ATTRIB
  5
20FB
  8
AM_BOR
 62
     7
 10
127.20700000001921
 20
27.0
 30
0.0
 40
3.0
  1
ヘアライン
 11
127.20700000001921
 21
28.5
 31
0.0
  2
FINISH｛20｝
 70
     0
 74
     2
1001
ACDBATTR
1070
     0
1070
     1
  0
ATTRIB
  5
20FC
  8
AM_BOR
 62
     7
 10
31.95700000001921
 20
27.0
 30
0.0
 40
3.0
  1
ステンレス
 11
31.95700000001921
 21
28.5
 31
0.0
  2
MATERIAK｛20｝
 70
     0
 74
     2
1001
ACDBATTR
1070
     0
1070
     1
  0
SEQEND
  5
20FD
  8
0
  0
INSERT
  5
33CF
  8
実線
  6
CONTINUOUS
  2
*X59
 10
0.0
 20
0.0
 30
0.0
1001
ACAD
1000
HATCH
1002
{
1070
    19
1000
ANSI31
1040
0.8007462394779809
1040
0.0
1000
ASC_BOUNDS
1070
     8
1070
     1
1070
     5
1005
343B
1005
341B
1005
3436
1005
3438
1005
3433
1070
     1
1070
     5
1005
343B
1005
3434
1005
3437
1005
3436
1005
341B
1070
     1
1070
     6
1005
3418
1005
3417
1005
3411
1005
33D5
1005
3412
1005
3419
1070
     1
1070
     6
1005
33D5
1005
3411
1005
3414
1005
3415
1005
3416
1005
3412
1070
     1
1070
     5
1005
33F5
1005
33E0
1005
33FF
1005
340A
1005
33F6
1070
     1
1070
     5
1005
33F5
1005
33F4
1005
3409
1005
33FF
1005
33E0
1070
     1
1070
     6
1005
33FF
1005
33E0
1005
33F9
1005
33F3
1005
33F8
1005
340A
1070
     1
1070
     6
1005
33FF
1005
3409
1005
33FA
1005
33F9
1005
33F2
1005
33E0
1000
ASC_SEEDPOINT
1011
174.66324590108999
1021
0.0
1031
0.0
1021
89.512611390688164
1031
0.0
1000
R14_HATCH_DATA
1000
33CF
1011
1.0
1021
0.0
1031
0.0
1021
0.0
1031
0.0
1011
0.0
1021
0.0
1031
0.0
1021
1.0
1031
0.0
1011
0.0
1021
0.0
1031
0.0
1021
0.0
1031
1.0
1040
0.0
1010
0.0
1020
0.0
1030
1.0
1000
ANSI31
1070
     0
1070
     1
1071
        8
1071
        7
1070
     1
1070
     1
1071
        6
1040
179.4286327305997
1040
90.0685664057292
1040
0.0
1040
164.5179631651815
1040
90.0685664057292
1040
0.0
1040
164.42863273059919
1040
89.979235971146466
1040
0.0
1040
164.4286327305997
1040
86.068566405729186
1040
0.4142135623730284
1040
165.4286327305997
1040
85.068566405729428
1040
0.0
1040
179.4286327305997
1040
85.068566405729428
1040
0.0
1071
        6
1005
33E0
1005
33F2
1005
33F9
1005
33FA
1005
3409
1005
33FF
1071
        7
1070
     1
1070
     1
1071
        7
1040
179.4286327305997
1040
95.068566405729428
1040
0.0
1040
165.42863273059919
1040
95.068566405729428
1040
0.1633158188865724
1040
164.8254013132975
1040
94.866132614379524
1040
0.0
1040
164.63106652194909
1040
94.671797823030886
1040
0.163315818886514
1040
164.42863273059919
1040
94.068566405729428
1040
0.0
1040
164.4286327305997
1040
90.0685664057292
1040
0.0
1040
179.4286327305997
1040
90.0685664057292
1040
0.0
1071
        6
1005
340A
1005
33F8
1005
33F3
1005
33F9
1005
33E0
1005
33FF
1071
        7
1070
     1
1070
     1
1071
        5
1040
184.4286327306001
1040
90.0685664057292
1040
0.0
1040
179.4286327305997
1040
90.0685664057292
1040
0.0
1040
179.42863273059879
1040
85.068566405729428
1040
0.0
1040
183.4286327306001
1040
85.0685664057292
1040
0.4142135623730818
1040
184.4286327306001
1040
86.068566405729186
1040
0.0
1071
        5
1005
33E0
1005
33FF
1005
3409
1005
33F4
1005
33F5
1071
        7
1070
     1
1070
     1
1071
        5
1040
184.4286327306001
1040
94.068566405729655
1040
0.4142135623730268
1040
183.4286327306001
1040
95.068566405729428
1040
0.0
1040
179.4286327305997
1040
95.068566405729428
1040
0.0
1040
179.42863273059919
1040
90.0685664057292
1040
0.0
1040
184.42863273060061
1040
90.0685664057292
1040
0.0
1071
        5
1005
33F6
1005
340A
1005
33FF
1005
33E0
1005
33F5
1071
        7
1070
     1
1070
     1
1071
        6
1040
217.60591474124729
1040
95.068566405729428
1040
0.0
1040
207.10591474124681
1040
95.068566405729428
1040
0.4142135623730802
1040
206.10591474124681
1040
94.068566405729428
1040
0.0
1040
206.10591474124681
1040
86.068566405729413
1040
0.4142135623730951
1040
207.10591474124681
1040
85.068566405729428
1040
0.0
1040
217.60591474124729
1040
85.068566405729428
1040
0.0
1071
        6
1005
3412
1005
3416
1005
3415
1005
3414
1005
3411
1005
33D5
1071
        7
1070
     1
1070
     1
1071
        6
1040
229.10591474124729
1040
94.068566405729428
1040
0.4142135623730951
1040
228.10591474124729
1040
95.068566405729428
1040
0.0
1040
217.60591474124729
1040
95.068566405729428
1040
0.0
1040
217.60591474124729
1040
85.068566405729428
1040
0.0
1040
228.10591474124729
1040
85.068566405729428
1040
0.4142135623730966
1040
229.10591474124729
1040
86.068566405729413
1040
0.0
1071
        6
1005
3419
1005
3412
1005
33D5
1005
3411
1005
3417
1005
3418
1071
        7
1070
     1
1070
     1
1071
        5
1040
184.42755519047131
1040
163.34580555857571
1040
0.0
1040
164.4286327305997
1040
163.34580555857571
1040
0.0
1040
164.4286327305997
1040
152.66172004595711
1040
0.4142135623730905
1040
165.4286327305997
1040
151.66172004595711
1040
0.0
1040
179.4286327306001
1040
151.66172004595711
1040
0.2110424192429578
1071
        5
1005
341B
1005
3436
1005
3437
1005
3434
1005
343B
1071
        7
1070
     1
1070
     1
1071
        5
1040
179.4286327306001
1040
174.66172004595691
1040
0.0
1040
165.4286327305997
1040
174.66172004595691
1040
0.4142135623730951
1040
164.4286327305997
1040
173.6617200459568
1040
0.0
1040
164.4286327305997
1040
163.34580555857571
1040
0.0
1040
184.42755519047131
1040
163.34580555857571
1040
0.204935779578096
1071
        5
1005
3433
1005
3438
1005
3436
1005
341B
1005
343B
1070
     0
1070
     1
1040
0.0
1040
0.8007462394779809
1070
     0
1070
     1
1040
0.7853981633974483
1040
-3332.6088483547101
1040
-1232.9087483556491
1040
-1.79605122421383
1040
1.79605122421383
1070
     0
1040
0.1474929451853397
1071
        8
1040
174.66324590108999
1040
89.512611390688164
1040
0.0
1040
173.4825900727912
1040
92.904949833384805
1040
0.0
1040
180.41894849764611
1040
87.890187787370493
1040
0.0
1040
181.74718521776251
1040
91.430019689089079
1040
0.0
1040
212.59184372662301
1040
89.512611390688164
1040
0.0
1040
221.44676678574271
1040
89.807596085770967
1040
0.0
1040
174.5156650092724
1040
156.47440837568641
1040
0.0
1040
173.03984305045941
1040
170.04375992351251
1040
0.0
1002
}
  0
LINE
  5
33D0
  8
隠れ線
 10
85.428632730599247
 20
120.8185664057289
 30
0.0
 11
85.428632730599247
 21
125.318566405729
 31
0.0
  0
DIMENSION
  5
33D1
  8
寸法線
  2
*D38
 10
184.4286327306001
 20
145.46088976239409
 30
0.0
 11
134.4286327305999
 21
147.3358897623942
 31
0.0
 70
     0
 13
84.428632730599702
 23
137.11897504645759
 33
0.0
 14
184.4286327306001
 24
95.068566405729428
 34
0.0
1001
ACAD
1000
DSTYLE
1002
{
1070
   270
1070
     8
1070
   144
1040
1.0
1070
    41
1040
2.5
1070
    42
1040
0.625
1070
    43
1040
3.75
1070
    44
1040
1.25
1070
    73
1070
     0
1070
    74
1070
     0
1070
    77
1070
     1
1070
    78
1070
     8
1070
   140
1040
2.5
1070
   141
1040
2.5
1070
   143
1040
0.0394
1070
   147
1040
0.625
1070
   171
1070
     4
1070
   172
1070
     1
1070
   273
1070
     8
1070
   274
1070
     4
1070
   277
1070
     6
1002
}
  0
DIMENSION
  5
33D2
  8
寸法線
  2
*D39
 10
60.72887257644993
 20
132.56856640573031
 30
0.0
 11
58.853872576449909
 21
98.068566405729811
 31
0.0
 70
     0
 13
80.280532298770353
 23
63.5685664057292
 33
0.0
 14
78.194277748855939
 24
132.56856640573031
 34
0.0
 50
90.0
1001
ACAD
1000
DSTYLE
1002
{
1070
   270
1070
     8
1070
   144
1040
1.0
1070
    41
1040
2.5
1070
    42
1040
0.625
1070
    43
1040
3.75
1070
    44
1040
1.25
1070
    73
1070
     0
1070
    74
1070
     0
1070
    77
1070
     1
1070
    78
1070
     8
1070
   140
1040
2.5
1070
   141
1040
2.5
1070
   143
1040
0.0394
1070
   147
1040
0.625
1070
   171
1070
     4
1070
   172
1070
     1
1070
   273
1070
     8
1070
   274
1070
     4
1070
   277
1070
     6
1002
}
  0
DIMENSION
  5
33D3
  8
寸法線
  2
*D40
 10
69.459487514960756
 20
90.0685664057292
 30
0.0
 11
67.584487514960742
 21
111.3185664057298
 31
0.0
 70
     0
 13
83.803632730599702
 23
132.56856640573031
 33
0.0
 14
81.428632730599716
 24
90.0685664057292
 34
0.0
 50
90.0
1001
ACAD
1000
DSTYLE
1002
{
1070
   270
1070
     8
1070
   144
1040
1.0
1070
    41
1040
2.5
1070
    42
1040
0.625
1070
    43
1040
3.75
1070
    44
1040
1.25
1070
    73
1070
     0
1070
    74
1070
     0
1070
    77
1070
     1
1070
    78
1070
     8
1070
   140
1040
2.5
1070
   141
1040
2.5
1070
   143
1040
0.0394
1070
   147
1040
0.625
1070
   171
1070
     4
1070
   172
1070
     1
1070
   273
1070
     8
1070
   274
1070
     4
1070
   277
1070
     6
1002
}
  0
DIMENSION
  5
33D4
  8
寸法線
  2
*D41
 10
78.194277748855939
 20
100.0685664057292
 30
0.0
 11
76.31927774885591
 21
111.5685664057291
 31
0.0
 70
     0
 13
81.428632730599716
 23
123.068566405729
 33
0.0
 14
81.428632730599716
 24
100.0685664057292
 34
0.0
 50
90.0
1001
ACAD
1000
DSTYLE
1002
{
1070
   270
1070
     8
1070
   144
1040
1.0
1070
    41
1040
2.5
1070
    42
1040
0.625
1070
    43
1040
3.75
1070
    44
1040
1.25
1070
    73
1070
     0
1070
    74
1070
     0
1070
    77
1070
     1
1070
    78
1070
     8
1070
   140
1040
2.5
1070
   141
1040
2.5
1070
   143
1040
0.0394
1070
   147
1040
0.625
1070
   171
1070
     4
1070
   172
1070
     1
1070
   273
1070
     8
1070
   274
1070
     4
1070
   277
1070
     6
1002
}
  0
LINE
  5
33D5
  8
中心線
 10
217.60591474124729
 20
61.568566405729428
 30
0.0
 11
217.60591474124681
 21
134.56856640573031
 31
0.0
1001
ACAD
1000
ASC_BOUNDS
1002
{
1070
    19
1005
33CF
1005
33CF
1002
}
  0
LINE
  5
33D6
  8
実線
 10
87.428632730599233
 20
132.56856640573011
 30
0.0
 11
87.428632730598807
 21
88.568566405729413
 31
0.0
  0
LINE
  5
33D7
  8
実線
 10
84.428632730599702
 20
132.56856640573031
 30
0.0
 11
84.428632730599702
 21
88.568566405729186
 31
0.0
  0
LINE
  5
33D8
  8
実線
 10
227.10591474124729
 20
123.06856640573049
 30
0.0
 11
227.10591474124769
 21
95.0685664057292
 31
0.0
  0
LINE
  5
33D9
  8
実線
 10
208.10591474124681
 20
123.06856640573081
 30
0.0
 11
208.10591474124729
 21
95.068566405729428
 31
0.0
  0
CIRCLE
  5
33DA
  8
実線
 10
217.6059147412459
 20
123.06856640573081
 30
0.0
 40
2.25
  0
CIRCLE
  5
33DB
  8
実線
 10
217.6059147412459
 20
123.06856640573081
 30
0.0
 40
4.25
  0
DIMENSION
  5
33DC
  8
寸法線
  2
*D42
 10
147.42863273059919
 20
137.11897504645759
 30
0.0
 11
117.4286327305994
 21
138.99397504645759
 31
0.0
 70
     0
 13
87.428632730599702
 23
133.5685664057292
 33
0.0
 14
147.42863273059919
 24
91.568566405728291
 34
0.0
1001
ACAD
1000
DSTYLE
1002
{
1070
   270
1070
     8
1070
   144
1040
1.0
1070
    41
1040
2.5
1070
    42
1040
0.625
1070
    43
1040
3.75
1070
    44
1040
1.25
1070
    73
1070
     0
1070
    74
1070
     0
1070
    77
1070
     1
1070
    78
1070
     8
1070
   140
1040
2.5
1070
   141
1040
2.5
1070
   143
1040
0.0394
1070
   147
1040
0.625
1070
   171
1070
     4
1070
   172
1070
     1
1070
   273
1070
     8
1070
   274
1070
     4
1070
   277
1070
     6
1002
}
  0
DIMENSION
  5
33DD
  8
寸法線
  2
*D43
 10
184.4286327306001
 20
137.0538116899227
 30
0.0
 11
166.1340026747809
 21
137.0538116899227
 31
0.0
 70
   128
 13
147.42863273059919
 23
115.281270726093
 33
0.0
 14
184.4286327306001
 24
115.281270726093
 34
0.0
1001
ACAD
1000
DSTYLE
1002
{
1070
   270
1070
     8
1070
   144
1040
1.0
1070
    41
1040
2.5
1070
    42
1040
0.625
1070
    43
1040
3.75
1070
    44
1040
1.25
1070
    73
1070
     0
1070
    74
1070
     0
1070
    77
1070
     1
1070
    78
1070
     8
1070
   140
1040
2.5
1070
   141
1040
2.5
1070
   143
1040
0.0394
1070
   147
1040
0.625
1070
   171
1070
     4
1070
   172
1070
     1
1070
   273
1070
     8
1070
   274
1070
     4
1070
   277
1070
     6
1070
   288
1070
     1
1002
}
  0
LINE
  5
33DE
  8
実線
 10
109.4286327305997
 20
63.5685664057292
 30
0.0
 11
117.5213029789504
 21
63.5685664057292
 31
0.0
  0
ARC
  5
33DF
  8
実線
 10
116.3769051279603
 20
74.5685664057292
 30
0.0
 40
8.0
 50
270.0
 51
311.76029970389709
  0
LINE
  5
33E0
  8
中心線
 10
81.428632730599716
 20
90.0685664057292
 30
0.0
 11
187.4286327305997
 21
90.0685664057292
 31
0.0
1001
ACAD
1000
ASC_BOUNDS
1002
{
1070
    19
1005
33CF
1005
33CF
1005
33CF
1005
33CF
1002
}
  0
LINE
  5
33E1
  8
隠れ線
 10
85.428632730599247
 20
120.8185664057289
 30
0.0
 11
84.428632730599702
 21
120.8185664057289
 31
0.0
  0
POINT
  5
33E2
  8
隠れ線
 10
87.428632730599233
 20
118.8185664057289
 30
0.0
  0
LINE
  5
33E3
  8
隠れ線
 10
87.428632730599233
 20
118.8185664057289
 30
0.0
 11
85.428632730599247
 21
120.8185664057289
 31
0.0
  0
LINE
  5
33E4
  8
隠れ線
 10
85.428632730599247
 20
102.3185664057292
 30
0.0
 11
87.428632730598807
 21
104.3185664057285
 31
0.0
  0
LINE
  5
33E5
  8
隠れ線
 10
87.428632730599233
 20
95.818566405729214
 30
0.0
 11
85.428632730599247
 21
97.8185664057292
 31
0.0
  0
POINT
  5
33E6
  8
隠れ線
 10
87.428632730598807
 20
104.3185664057285
 30
0.0
  0
POINT
  5
33E7
  8
隠れ線
 10
87.428632730599233
 20
95.818566405729214
 30
0.0
  0
LINE
  5
33E8
  8
隠れ線
 10
85.428632730599247
 20
97.8185664057292
 30
0.0
 11
85.428632730599247
 21
102.3185664057292
 31
0.0
  0
LINE
  5
33E9
  8
隠れ線
 10
85.428632730599688
 20
102.3185664057292
 30
0.0
 11
84.428632730599702
 21
102.3185664057292
 31
0.0
  0
LINE
  5
33EA
  8
隠れ線
 10
85.428632730599247
 20
97.8185664057292
 30
0.0
 11
84.428632730599702
 21
97.8185664057292
 31
0.0
  0
LINE
  5
33EB
  8
実線
 10
109.4286327305997
 20
66.5685664057292
 30
0.0
 11
116.3769051279603
 21
66.5685664057292
 31
0.0
  0
LINE
  5
33EC
  8
中心線
 10
81.428632730599716
 20
100.0685664057292
 30
0.0
 11
90.673633397088665
 21
100.0685664057292
 31
0.0
  0
DIMENSION
  5
33ED
  8
寸法線
  2
*D44
 10
69.459487514960756
 20
63.568566405729207
 30
0.0
 11
67.584487514960742
 21
76.818566405729229
 31
0.0
 70
     0
 13
81.428632730599716
 23
90.0685664057292
 33
0.0
 14
109.4286327306001
 24
63.5685664057292
 34
0.0
 50
90.0
1001
ACAD
1000
DSTYLE
1002
{
1070
   270
1070
     8
1070
   144
1040
1.0
1070
    41
1040
2.5
1070
    42
1040
0.625
1070
    43
1040
3.75
1070
    44
1040
1.25
1070
    73
1070
     0
1070
    74
1070
     0
1070
    77
1070
     1
1070
    78
1070
     8
1070
   140
1040
2.5
1070
   141
1040
2.5
1070
   143
1040
0.0394
1070
   147
1040
0.625
1070
   171
1070
     4
1070
   172
1070
     1
1070
   273
1070
     8
1070
   274
1070
     4
1070
   277
1070
     6
1002
}
  0
ARC
  5
33EE
  8
実線
 10
109.4286327305997
 20
88.568566405729186
 30
0.0
 40
22.0
 50
180.0
 51
270.0
  0
ARC
  5
33EF
  8
実線
 10
109.4286327305997
 20
88.568566405729186
 30
0.0
 40
25.0
 50
180.0
 51
270.0
  0
DIMENSION
  5
33F0
  8
寸法線
  2
*D45
 10
109.4286327305992
 20
88.568566405728987
 30
0.0
 11
100.5531175483586
 21
79.01292410945932
 31
0.0
 70
   132
 15
94.456517662794084
 25
72.449144257389008
 35
0.0
 40
0.0
1001
ACAD
1000
DSTYLE
1002
{
1070
   270
1070
     8
1070
   144
1040
1.0
1070
    41
1040
2.5
1070
    42
1040
0.625
1070
    43
1040
3.75
1070
    44
1040
1.25
1070
    73
1070
     0
1070
    74
1070
     0
1070
    77
1070
     1
1070
    78
1070
     8
1070
   140
1040
2.5
1070
   141
1040
2.5
1070
   143
1040
0.0394
1070
   147
1040
0.625
1070
   171
1070
     4
1070
   172
1070
     1
1070
   273
1070
     8
1070
   274
1070
     4
1070
   277
1070
     6
1070
   288
1070
     1
1002
}
  0
DIMENSION
  5
33F1
  8
寸法線
  2
*D46
 10
193.4651366559244
 20
95.068566405729428
 30
0.0
 11
191.5901366559244
 21
90.068566405729342
 31
0.0
 70
     0
 13
183.4286327306001
 23
85.0685664057292
 33
0.0
 14
183.4286327306001
 24
95.068566405729428
 34
0.0
 50
90.0
1001
ACAD
1000
DSTYLE
1002
{
1070
   270
1070
     8
1070
   144
1040
1.0
1070
    41
1040
2.5
1070
    42
1040
0.625
1070
    43
1040
3.75
1070
    44
1040
1.25
1070
    73
1070
     0
1070
    74
1070
     0
1070
    77
1070
     1
1070
    78
1070
     8
1070
   140
1040
2.5
1070
   141
1040
2.5
1070
   143
1040
0.0394
1070
   147
1040
0.625
1070
   171
1070
     4
1070
   172
1070
     1
1070
   273
1070
     8
1070
   274
1070
     4
1070
   277
1070
     6
1002
}
  0
LINE
  5
33F2
  8
実線
 10
164.42863273059919
 20
89.979235971146238
 30
0.0
 11
164.51796316518201
 21
90.068566405729428
 31
0.0
1001
ACAD
1000
ASC_BOUNDS
1002
{
1070
    19
1005
33CF
1002
}
  0
LINE
  5
33F3
  8
実線
 10
164.63106652195
 20
94.671797823031795
 30
0.0
 11
164.8254013132975
 21
94.866132614379296
 31
0.0
1001
ACAD
1000
ASC_BOUNDS
1002
{
1070
    19
1005
33CF
1002
}
  0
ARC
  5
33F4
  8
実線
 10
183.4286327306001
 20
86.068566405729186
 30
0.0
 40
1.0
 50
270.0
 51
359.99999999999682
1001
ACAD
1000
ASC_BOUNDS
1002
{
1070
    19
1005
33CF
1002
}
  0
LINE
  5
33F5
  8
実線
 10
184.4286327306001
 20
94.068566405729428
 30
0.0
 11
184.4286327306001
 21
86.068566405729186
 31
0.0
1001
ACAD
1000
ASC_BOUNDS
1002
{
1070
    19
1005
33CF
1005
33CF
1002
}
  0
ARC
  5
33F6
  8
実線
 10
183.4286327306001
 20
94.068566405729428
 30
0.0
 40
1.0
 50
0.0
 51
90.0
1001
ACAD
1000
ASC_BOUNDS
1002
{
1070
    19
1005
33CF
1002
}
  0
POINT
  5
33F7
  8
中心線
 10
141.4286327306001
 20
90.0685664057292
 30
0.0
  0
ARC
  5
33F8
  8
実線
 10
165.42863273059919
 20
94.068566405729428
 30
0.0
 40
1.0
 50
90.0
 51
180.0
1001
ACAD
1000
ASC_BOUNDS
1002
{
1070
    19
1005
33CF
1002
}
  0
LINE
  5
33F9
  8
実線
 10
164.4286327305997
 20
86.068566405729413
 30
0.0
 11
164.42863273059919
 21
94.068566405729428
 31
0.0
1001
ACAD
1000
ASC_BOUNDS
1002
{
1070
    19
1005
33CF
1005
33CF
1002
}
  0
ARC
  5
33FA
  8
実線
 10
165.4286327305997
 20
86.068566405729413
 30
0.0
 40
1.0
 50
180.0
 51
270.0
1001
ACAD
1000
ASC_BOUNDS
1002
{
1070
    19
1005
33CF
1002
}
  0
LINE
  5
33FB
  8
実線
 10
164.4286327305997
 20
91.5685664057292
 30
0.0
 11
150.48036033323771
 21
91.568566405728973
 31
0.0
  0
LINE
  5
33FC
  8
実線
 10
164.4286327305997
 20
88.568566405729186
 30
0.0
 11
151.6247581842278
 21
88.568566405729186
 31
0.0
  0
LINE
  5
33FD
  8
実線
 10
164.4286327305997
 20
91.568566405729428
 30
0.0
 11
150.48036033323771
 21
91.568566405728973
 31
0.0
  0
LINE
  5
33FE
  8
実線
 10
164.4286327305997
 20
88.568566405729413
 30
0.0
 11
151.6247581842278
 21
88.568566405729413
 31
0.0
  0
LINE
  5
33FF
  8
実線
 10
179.42863273059919
 20
85.0685664057292
 30
0.0
 11
179.42863273059919
 21
95.068566405729428
 31
0.0
1001
ACAD
1000
ASC_BOUNDS
1002
{
1070
    19
1005
33CF
1005
33CF
1005
33CF
1005
33CF
1002
}
  0
LINE
  5
3400
  8
実線
 10
164.42863273059919
 20
91.5685664057292
 30
0.0
 11
150.48036033323729
 21
91.568566405728518
 31
0.0
  0
LINE
  5
3401
  8
実線
 10
164.4286327305997
 20
88.568566405729186
 30
0.0
 11
151.6247581842274
 21
88.568566405728518
 31
0.0
  0
LINE
  5
3402
  8
実線
 10
121.70503128243099
 20
68.601065112721983
 30
0.0
 11
145.152234178767
 21
89.536067698735735
 31
0.0
  0
ARC
  5
3403
  8
実線
 10
150.48036033323771
 20
83.568566405728518
 30
0.0
 40
8.0
 50
90.0
 51
131.76029970389709
  0
LINE
  5
3404
  8
実線
 10
122.8494291334211
 20
65.601065112721983
 30
0.0
 11
146.29663202975709
 21
86.536067698735948
 31
0.0
  0
ARC
  5
3405
  8
実線
 10
117.5213029789504
 20
71.5685664057292
 30
0.0
 40
8.0
 50
270.0
 51
311.76029970389709
  0
ARC
  5
3406
  8
実線
 10
151.6247581842278
 20
80.568566405728504
 30
0.0
 40
8.0
 50
90.0
 51
131.76029970389709
  0
POINT
  5
3407
  8
実線
 10
147.42863273059919
 20
91.568566405728291
 30
0.0
  0
POINT
  5
3408
  8
寸法線
 10
119.4286327306001
 20
63.56856640572942
 30
0.0
  0
LINE
  5
3409
  8
実線
 10
183.4286327306001
 20
85.0685664057292
 30
0.0
 11
165.4286327305997
 21
85.068566405729428
 31
0.0
1001
ACAD
1000
ASC_BOUNDS
1002
{
1070
    19
1005
33CF
1005
33CF
1002
}
  0
LINE
  5
340A
  8
実線
 10
165.42863273059919
 20
95.068566405729428
 30
0.0
 11
183.4286327306001
 21
95.068566405729428
 31
0.0
1001
ACAD
1000
ASC_BOUNDS
1002
{
1070
    19
1005
33CF
1005
33CF
1002
}
  0
LINE
  5
340B
  8
実線
 10
208.10591474124769
 20
85.068566405729428
 30
0.0
 11
208.10591474124729
 21
63.56856640572942
 31
0.0
  0
LINE
  5
340C
  8
実線
 10
227.10591474124769
 20
85.068566405729428
 30
0.0
 11
227.10591474124729
 21
63.56856640572942
 31
0.0
  0
LINE
  5
340D
  8
実線
 10
208.10591474124729
 20
63.56856640572942
 30
0.0
 11
227.10591474124729
 21
63.56856640572942
 31
0.0
  0
LINE
  5
340E
  8
中心線
 10
223.85591474124681
 20
100.06856640573081
 30
0.0
 11
211.35591474124681
 21
100.06856640573081
 31
0.0
  0
CIRCLE
  5
340F
  8
実線
 10
217.60591474124681
 20
100.06856640573081
 30
0.0
 40
4.25
  0
CIRCLE
  5
3410
  8
実線
 10
217.60591474124681
 20
100.06856640573081
 30
0.0
 40
2.25
  0
LINE
  5
3411
  8
実線
 10
207.10591474124681
 20
85.068566405729428
 30
0.0
 11
228.10591474124729
 21
85.068566405729428
 31
0.0
1001
ACAD
1000
ASC_BOUNDS
1002
{
1070
    19
1005
33CF
1005
33CF
1002
}
  0
LINE
  5
3412
  8
実線
 10
228.10591474124729
 20
95.068566405729428
 30
0.0
 11
207.10591474124681
 21
95.068566405729428
 31
0.0
1001
ACAD
1000
ASC_BOUNDS
1002
{
1070
    19
1005
33CF
1005
33CF
1002
}
  0
DIMENSION
  5
3413
  8
寸法線
  2
*D47
 10
207.1059147412459
 20
94.068566405729314
 30
0.0
 11
200.8054688586237
 21
99.458939100753767
 31
0.0
 70
   132
 15
206.3460619714829
 25
94.718661605128972
 35
0.0
 40
0.0
1001
ACAD
1000
DSTYLE
1002
{
1070
   270
1070
     8
1070
   144
1040
1.0
1070
    41
1040
2.5
1070
    42
1040
0.625
1070
    43
1040
3.75
1070
    44
1040
1.25
1070
    73
1070
     0
1070
    74
1070
     0
1070
    77
1070
     1
1070
    78
1070
     8
1070
   140
1040
2.5
1070
   141
1040
2.5
1070
   143
1040
0.0394
1070
   147
1040
0.625
1070
   171
1070
     4
1070
   172
1070
     1
1070
   273
1070
     8
1070
   274
1070
     4
1070
   277
1070
     6
1070
   288
1070
     1
1002
}
  0
ARC
  5
3414
  8
実線
 10
207.10591474124681
 20
86.068566405729413
 30
0.0
 40
1.0
 50
180.0
 51
270.0
1001
ACAD
1000
ASC_BOUNDS
1002
{
1070
    19
1005
33CF
1002
}
  0
LINE
  5
3415
  8
実線
 10
206.10591474124681
 20
94.068566405729428
 30
0.0
 11
206.10591474124681
 21
86.068566405729413
 31
0.0
1001
ACAD
1000
ASC_BOUNDS
1002
{
1070
    19
1005
33CF
1002
}
  0
ARC
  5
3416
  8
実線
 10
207.10591474124681
 20
94.068566405729428
 30
0.0
 40
1.0
 50
90.0
 51
179.9999999999967
1001
ACAD
1000
ASC_BOUNDS
1002
{
1070
    19
1005
33CF
1002
}
  0
ARC
  5
3417
  8
実線
 10
228.10591474124729
 20
86.068566405729413
 30
0.0
 40
1.0
 50
270.0
 51
0.0
1001
ACAD
1000
ASC_BOUNDS
1002
{
1070
    19
1005
33CF
1002
}
  0
LINE
  5
3418
  8
実線
 10
229.10591474124729
 20
86.068566405729413
 30
0.0
 11
229.10591474124729
 21
94.068566405729428
 31
0.0
1001
ACAD
1000
ASC_BOUNDS
1002
{
1070
    19
1005
33CF
1002
}
  0
ARC
  5
3419
  8
実線
 10
228.10591474124729
 20
94.068566405729428
 30
0.0
 40
1.0
 50
0.0
 51
90.0
1001
ACAD
1000
ASC_BOUNDS
1002
{
1070
    19
1005
33CF
1002
}
  0
POINT
  5
341A
  8
実線
 10
217.60591474124681
 20
100.06856640573081
 30
0.0
  0
LINE
  5
341B
  8
中心線
 10
81.428632730599716
 20
163.34580555857571
 30
0.0
 11
187.4286327305997
 21
163.34580555857571
 31
0.0
1001
ACAD
1000
ASC_BOUNDS
1002
{
1070
    19
1005
33CF
1005
33CF
1002
}
  0
LINE
  5
341C
  8
実線
 10
84.428632730599702
 20
153.66172004595711
 30
0.0
 11
164.4286327305997
 21
153.66172004595711
 31
0.0
  0
LINE
  5
341D
  8
実線
 10
84.428632730599702
 20
172.66172004595691
 30
0.0
 11
164.4286327305997
 21
172.66172004595691
 31
0.0
  0
LINE
  5
341E
  8
隠れ線
 10
85.428632730599247
 20
165.59580555857571
 30
0.0
 11
87.428632730598807
 21
167.59580555857499
 31
0.0
  0
POINT
  5
341F
  8
隠れ線
 10
87.428632730598807
 20
167.59580555857499
 30
0.0
  0
LINE
  5
3420
  8
隠れ線
 10
85.428632730599688
 20
165.59580555857571
 30
0.0
 11
84.428632730599702
 21
165.59580555857571
 31
0.0
  0
LINE
  5
3421
  8
隠れ線
 10
87.428632730599233
 20
159.09580555857571
 30
0.0
 11
85.428632730599247
 21
161.09580555857571
 31
0.0
  0
POINT
  5
3422
  8
隠れ線
 10
87.428632730599233
 20
159.09580555857571
 30
0.0
  0
LINE
  5
3423
  8
隠れ線
 10
85.428632730599247
 20
161.09580555857571
 30
0.0
 11
84.428632730599702
 21
161.09580555857571
 31
0.0
  0
LINE
  5
3424
  8
隠れ線
 10
85.428632730599247
 20
161.09580555857571
 30
0.0
 11
85.428632730599247
 21
165.59580555857571
 31
0.0
  0
LINE
  5
3425
  8
隠れ線
 10
85.428632730599688
 20
125.318566405729
 30
0.0
 11
84.428632730599702
 21
125.318566405729
 31
0.0
  0
POINT
  5
3426
  8
隠れ線
 10
87.428632730598807
 20
127.3185664057283
 30
0.0
  0
LINE
  5
3427
  8
隠れ線
 10
85.428632730599247
 20
125.318566405729
 30
0.0
 11
87.428632730598807
 21
127.3185664057283
 31
0.0
  0
DIMENSION
  5
3428
  8
寸法線
  2
*D48
 10
78.194277748855939
 20
123.068566405729
 30
0.0
 11
76.319277748855924
 21
127.8185664057297
 31
0.0
 70
     0
 13
84.428632730599702
 23
132.56856640573031
 33
0.0
 14
81.428632730599716
 24
123.068566405729
 34
0.0
 50
90.0
1001
ACAD
1000
DSTYLE
1002
{
1070
   270
1070
     8
1070
   144
1040
1.0
1070
    41
1040
2.5
1070
    42
1040
0.625
1070
    43
1040
3.75
1070
    44
1040
1.25
1070
    73
1070
     0
1070
    74
1070
     0
1070
    77
1070
     1
1070
    78
1070
     8
1070
   140
1040
2.5
1070
   141
1040
2.5
1070
   143
1040
0.0394
1070
   147
1040
0.625
1070
   171
1070
     4
1070
   172
1070
     1
1070
   273
1070
     8
1070
   274
1070
     4
1070
   277
1070
     6
1002
}
  0
DIMENSION
  5
3429
  8
寸法線
  2
*D49
 10
87.428632730599233
 20
137.11897504645759
 30
0.0
 11
85.928632730599475
 21
138.99397504645759
 31
0.0
 70
     0
 13
84.428632730599702
 23
132.56856640573031
 33
0.0
 14
87.428632730599233
 24
132.56856640573031
 34
0.0
1001
ACAD
1000
DSTYLE
1002
{
1070
   270
1070
     8
1070
   144
1040
1.0
1070
    41
1040
2.5
1070
    42
1040
0.625
1070
    43
1040
3.75
1070
    44
1040
1.25
1070
    73
1070
     0
1070
    74
1070
     0
1070
    77
1070
     1
1070
    78
1070
     8
1070
   140
1040
2.5
1070
   141
1040
2.5
1070
   143
1040
0.0394
1070
   147
1040
0.625
1070
   171
1070
     4
1070
   172
1070
     1
1070
   273
1070
     8
1070
   274
1070
     4
1070
   277
1070
     6
1002
}
  0
LINE
  5
342A
  8
実線
 10
87.428632730599233
 20
132.56856640573031
 30
0.0
 11
84.428632730599702
 21
132.56856640573031
 31
0.0
  0
LINE
  5
342B
  8
中心線
 10
81.428632730599716
 20
123.068566405729
 30
0.0
 11
90.428632730599247
 21
123.068566405729
 31
0.0
  0
POINT
  5
342C
  8
実線
 10
87.428632730599702
 20
133.5685664057292
 30
0.0
  0
POINT
  5
342D
  8
実線
 10
84.428632730599702
 20
133.5685664057292
 30
0.0
  0
DIMENSION
  5
342E
  8
寸法線
  2
*D50
 10
78.194277748855939
 20
172.66172004595691
 30
0.0
 11
76.31927774885591
 21
163.161720045957
 31
0.0
 70
     0
 13
84.428632730599702
 23
153.66172004595711
 33
0.0
 14
84.428632730599702
 24
172.66172004595691
 34
0.0
 50
90.0
1001
ACAD
1000
DSTYLE
1002
{
1070
   270
1070
     8
1070
   144
1040
1.0
1070
    41
1040
2.5
1070
    42
1040
0.625
1070
    43
1040
3.75
1070
    44
1040
1.25
1070
    73
1070
     0
1070
    74
1070
     0
1070
    77
1070
     1
1070
    78
1070
     8
1070
   140
1040
2.5
1070
   141
1040
2.5
1070
   143
1040
0.0394
1070
   147
1040
0.625
1070
   171
1070
     4
1070
   172
1070
     1
1070
   273
1070
     8
1070
   274
1070
     4
1070
   277
1070
     6
1002
}
  0
LINE
  5
342F
  8
実線
 10
87.428632730599702
 20
172.66172004595691
 30
0.0
 11
87.428632730599702
 21
153.66172004595711
 31
0.0
  0
LINE
  5
3430
  8
実線
 10
84.428632730599702
 20
153.8458055585759
 30
0.0
 11
84.428632730599702
 21
172.84580555857571
 31
0.0
  0
DIMENSION
  5
3431
  8
寸法線
  2
*D51
 10
184.4286327306001
 20
187.71430758016919
 30
0.0
 11
174.4286327305999
 21
189.58930758016919
 31
0.0
 70
     0
 13
164.4286327305997
 23
178.0794076658799
 33
0.0
 14
184.4286327306001
 24
178.0794076658799
 34
0.0
1001
ACAD
1000
DSTYLE
1002
{
1070
   270
1070
     8
1070
   144
1040
1.0
1070
    41
1040
2.5
1070
    42
1040
0.625
1070
    43
1040
3.75
1070
    44
1040
1.25
1070
    73
1070
     0
1070
    74
1070
     0
1070
    77
1070
     1
1070
    78
1070
     8
1070
   140
1040
2.5
1070
   141
1040
2.5
1070
   143
1040
0.0394
1070
   147
1040
0.625
1070
   171
1070
     4
1070
   172
1070
     1
1070
   273
1070
     8
1070
   274
1070
     4
1070
   277
1070
     6
1002
}
  0
DIMENSION
  5
3432
  8
寸法線
  2
*D52
 10
193.4651366559244
 20
174.6617200459568
 30
0.0
 11
191.5901366559244
 21
163.161720045957
 31
0.0
 70
     0
 13
179.4286327305997
 23
151.66172004595711
 33
0.0
 14
179.4286327306001
 24
174.66172004595691
 34
0.0
 50
90.0
1001
ACAD
1000
DSTYLE
1002
{
1070
   270
1070
     8
1070
   144
1040
1.0
1070
    41
1040
2.5
1070
    42
1040
0.625
1070
    43
1040
3.75
1070
    44
1040
1.25
1070
    73
1070
     0
1070
    74
1070
     0
1070
    77
1070
     1
1070
    78
1070
     8
1070
   140
1040
2.5
1070
   141
1040
2.5
1070
   143
1040
0.0394
1070
   147
1040
0.625
1070
   171
1070
     4
1070
   172
1070
     1
1070
   273
1070
     8
1070
   274
1070
     4
1070
   277
1070
     6
1002
}
  0
LINE
  5
3433
  8
実線
 10
165.4286327305997
 20
174.66172004595691
 30
0.0
 11
179.4286327306001
 21
174.66172004595691
 31
0.0
1001
ACAD
1000
ASC_BOUNDS
1002
{
1070
    19
1005
33CF
1002
}
  0
LINE
  5
3434
  8
実線
 10
165.4286327305997
 20
151.66172004595711
 30
0.0
 11
179.4286327306001
 21
151.66172004595711
 31
0.0
1001
ACAD
1000
ASC_BOUNDS
1002
{
1070
    19
1005
33CF
1002
}
  0
LINE
  5
3435
  8
実線
 10
141.4286327306001
 20
172.66172004595691
 30
0.0
 11
141.4286327306001
 21
153.66172004595711
 31
0.0
  0
LINE
  5
3436
  8
実線
 10
164.4286327305997
 20
173.6617200459568
 30
0.0
 11
164.4286327305997
 21
152.66172004595711
 31
0.0
1001
ACAD
1000
ASC_BOUNDS
1002
{
1070
    19
1005
33CF
1005
33CF
1002
}
  0
ARC
  5
3437
  8
実線
 10
165.4286327305997
 20
152.66172004595711
 30
0.0
 40
1.0
 50
180.0
 51
270.0
1001
ACAD
1000
ASC_BOUNDS
1002
{
1070
    19
1005
33CF
1002
}
  0
ARC
  5
3438
  8
実線
 10
165.4286327305997
 20
173.6617200459568
 30
0.0
 40
1.0
 50
90.0
 51
180.0
1001
ACAD
1000
ASC_BOUNDS
1002
{
1070
    19
1005
33CF
1002
}
  0
DIMENSION
  5
3439
  8
寸法線
  2
*D53
 10
179.4286327306001
 20
180.622095285803
 30
0.0
 11
171.9286327305999
 21
182.497095285803
 31
0.0
 70
     0
 13
164.4286327305997
 23
173.6617200459568
 33
0.0
 14
179.4286327306001
 24
175.28672004595691
 34
0.0
1001
ACAD
1000
DSTYLE
1002
{
1070
   270
1070
     8
1070
   144
1040
1.0
1070
    41
1040
2.5
1070
    42
1040
0.625
1070
    43
1040
3.75
1070
    44
1040
1.25
1070
    73
1070
     0
1070
    74
1070
     0
1070
    77
1070
     1
1070
    78
1070
     8
1070
   140
1040
2.5
1070
   141
1040
2.5
1070
   143
1040
0.0394
1070
   147
1040
0.625
1070
   171
1070
     4
1070
   172
1070
     1
1070
   273
1070
     8
1070
   274
1070
     4
1070
   277
1070
     6
1002
}
  0
DIMENSION
  5
343A
  8
寸法線
  2
*D54
 10
179.4286327306001
 20
180.622095285803
 30
0.0
 11
181.9286327306001
 21
182.497095285803
 31
0.0
 70
     0
 13
184.4286327306001
 23
163.16172004595711
 33
0.0
 14
179.4286327306001
 24
174.66172004595691
 34
0.0
1001
ACAD
1000
DSTYLE
1002
{
1070
   270
1070
     8
1070
   144
1040
1.0
1070
    41
1040
2.5
1070
    42
1040
0.625
1070
    43
1040
3.75
1070
    44
1040
1.25
1070
    73
1070
     0
1070
    74
1070
     0
1070
    77
1070
     1
1070
    78
1070
     8
1070
   140
1040
2.5
1070
   141
1040
2.5
1070
   143
1040
0.0394
1070
   147
1040
0.625
1070
   171
1070
     4
1070
   172
1070
     1
1070
   273
1070
     8
1070
   274
1070
     4
1070
   277
1070
     6
1002
}
  0
ARC
  5
343B
  8
実線
 10
168.7036327306007
 20
163.16172004595711
 30
0.0
 40
15.72499999999946
 50
313.0028686480951
 51
46.997131351904812
1001
ACAD
1000
ASC_BOUNDS
1002
{
1070
    19
1005
33CF
1005
33CF
1002
}
  0
LINE
  5
343C
  8
中心線
 10
223.8559147412459
 20
123.06856640573081
 30
0.0
 11
211.3559147412459
 21
123.06856640573081
 31
0.0
  0
ARC
  5
343D
  8
実線
 10
217.60591474124681
 20
123.06856640573081
 30
0.0
 40
9.4999999999995453
 50
0.0
 51
180.0
  0
INSERT
  5
343E
  8
0
  2
*U60
 10
0.0
 20
0.0
 30
0.0
  0
INSERT
  5
343F
  8
0
  2
*U61
 10
0.0
 20
0.0
 30
0.0
1001
ACAD
1000
DSTYLE
1002
{
1070
    40
1040
0.9990680699562606
1070
    78
1070
     8
1070
   270
1070
     8
1070
   140
1040
2.5
1070
    74
1070
     0
1070
   172
1070
     1
1070
    73
1070
     0
1070
    77
1070
     1
1070
   147
1040
0.625
1070
    42
1040
0.625
1070
    44
1040
1.25
1070
    43
1040
3.75
1070
   141
1040
2.5
1070
    41
1040
2.5
1070
   273
1070
     8
1070
   274
1070
     4
1070
   143
1040
0.0394
1070
   171
1070
     4
1002
}
  0
VIEWPORT
  5
95A
 67
     1
  8
0
  6
CONTINUOUS
 10
128.5
 20
97.5
 30
0.0
 40
386.73855140186919
 41
222.18000000000001
 68
     1
 69
     1
1001
ACAD
1000
MVIEW
1002
{
1070
    16
1010
0.0
1020
0.0
1030
0.0
1010
0.0
1020
0.0
1030
1.0
1040
0.0
1040
222.18000000000001
1040
128.5
1040
97.5
1040
50.0
1040
0.0
1040
0.0
1070
     0
1070
   100
1070
     1
1070
     1
1070
     0
1070
     0
1070
     0
1070
     0
1040
0.0
1040
0.0
1040
0.0
1040
10.0
1040
10.0
1040
10.0
1040
10.0
1070
     0
1002
{
1002
}
1002
}
1001
GENIUS_GENOBJ-N-SDF_13
1002
{
1000
OWNER
1000
GEN
1002
}
1001
GENIUS_GENODEF_13
1002
{
1000
HIER
1070
     0
1002
}
1002
{
1000
MANEDIT
1070
     0
1002
}
1002
{
1000
NOSEL
1070
     0
1002
}
1002
{
1000
BEHIND
1070
     0
1002
}
1002
{
1000
OTHER
1070
     0
1002
}
1002
{
1000
REACTOR
1002
}
1001
GENIUS_GENSCREG_15
1000
PF
1040
1.0
1000
DF
1040
1.0
1000
MIN
1011
-64.869275700934566
1021
0.0
1031
0.0
1021
-13.59
1031
0.0
1000
MAX
1011
321.86927570093462
1021
0.0
1031
0.0
1021
208.59
1031
0.0
1000
FLAGS
1070
     4
  0
ENDSEC
  0
EOF
