  0
SECTION
  2
HEADER
  9
$ACADVER
  1
AC1009
  9
$INSBASE
 10
0.0
 20
0.0
 30
0.0
  9
$EXTMIN
 10
24.98819059830657
 20
8.9915777910402994
 30
-0.0015258207003583
  9
$EXTMAX
 10
412.01181120380261
 20
285.0084234941848
 30
0.0000000349246037
  9
$LIMMIN
 10
24.999999999999979
 20
8.9999999999999964
  9
$LIMMAX
 10
411.99999999999989
 20
284.99999999999989
  9
$ORTHOMODE
 70
     1
  9
$REGENMODE
 70
     1
  9
$FILLMODE
 70
     1
  9
$QTEXTMODE
 70
     0
  9
$MIRRTEXT
 70
     1
  9
$DRAGMODE
 70
     2
  9
$LTSCALE
 40
5.0
  9
$OSMODE
 70
    39
  9
$ATTMODE
 70
     1
  9
$TEXTSIZE
 40
3.0
  9
$TRACEWID
 40
0.05
  9
$TEXTSTYLE
  7
STANDARD
  9
$CLAYER
  8
0
  9
$CELTYPE
  6
BYLAYER
  9
$CECOLOR
 62
   256
  9
$DIMSCALE
 40
1.0
  9
$DIMASZ
 40
2.5
  9
$DIMEXO
 40
1.0
  9
$DIMDLI
 40
7.0
  9
$DIMRND
 40
0.0
  9
$DIMDLE
 40
0.0
  9
$DIMEXE
 40
1.0
  9
$DIMTP
 40
0.1
  9
$DIMTM
 40
0.1
  9
$DIMTXT
 40
3.0
  9
$DIMCEN
 40
0.0
  9
$DIMTSZ
 40
0.0
  9
$DIMTOL
 70
     0
  9
$DIMLIM
 70
     0
  9
$DIMTIH
 70
     0
  9
$DIMTOH
 70
     0
  9
$DIMSE1
 70
     0
  9
$DIMSE2
 70
     0
  9
$DIMTAD
 70
     3
  9
$DIMZIN
 70
     8
  9
$DIMBLK
  1
OPEN30
  9
$DIMASO
 70
     1
  9
$DIMSHO
 70
     1
  9
$DIMPOST
  1

  9
$DIMAPOST
  1
"
  9
$DIMALT
 70
     0
  9
$DIMALTD
 70
     2
  9
$DIMALTF
 40
0.0393701
  9
$DIMLFAC
 40
1.0
  9
$DIMTOFL
 70
     1
  9
$DIMTVP
 40
0.0
  9
$DIMTIX
 70
     0
  9
$DIMSOXD
 70
     0
  9
$DIMSAH
 70
     0
  9
$DIMBLK1
  1

  9
$DIMBLK2
  1

  9
$DIMSTYLE
  2
AM_JIS
  9
$DIMCLRD
 70
     7
  9
$DIMCLRE
 70
     7
  9
$DIMCLRT
 70
     7
  9
$DIMTFAC
 40
0.71
  9
$DIMGAP
 40
1.0
  9
$LUNITS
 70
     2
  9
$LUPREC
 70
     4
  9
$SKETCHINC
 40
0.1
  9
$FILLETRAD
 40
0.0
  9
$AUNITS
 70
     0
  9
$AUPREC
 70
     0
  9
$MENU
  1
acad
  9
$ELEVATION
 40
0.0
  9
$PELEVATION
 40
0.0
  9
$THICKNESS
 40
0.0
  9
$LIMCHECK
 70
     0
  9
$BLIPMODE
 70
     0
  9
$CHAMFERA
 40
0.0
  9
$CHAMFERB
 40
0.0
  9
$SKPOLY
 70
     0
  9
$TDCREATE
 40
2455755.6568701151
  9
$TDUPDATE
 40
2457465.4351823269
  9
$TDINDWG
 40
0.1652215741
  9
$TDUSRTIMER
 40
0.1652213889
  9
$USRTIMER
 70
     1
  9
$ANGBASE
 50
0.0
  9
$ANGDIR
 70
     0
  9
$PDMODE
 70
     0
  9
$PDSIZE
 40
0.0
  9
$PLINEWID
 40
0.0
  9
$COORDS
 70
     1
  9
$SPLFRAME
 70
     0
  9
$SPLINETYPE
 70
     6
  9
$SPLINESEGS
 70
     8
  9
$ATTDIA
 70
     1
  9
$ATTREQ
 70
     1
  9
$HANDLING
 70
     1
  9
$HANDSEED
  5
37AA
  9
$SURFTAB1
 70
     6
  9
$SURFTAB2
 70
     6
  9
$SURFTYPE
 70
     6
  9
$SURFU
 70
     6
  9
$SURFV
 70
     6
  9
$UCSNAME
  2

  9
$UCSORG
 10
0.0
 20
0.0
 30
0.0
  9
$UCSXDIR
 10
1.0
 20
0.0
 30
0.0
  9
$UCSYDIR
 10
0.0
 20
1.0
 30
0.0
  9
$PUCSNAME
  2

  9
$PUCSORG
 10
0.0
 20
0.0
 30
0.0
  9
$PUCSXDIR
 10
1.0
 20
0.0
 30
0.0
  9
$PUCSYDIR
 10
0.0
 20
1.0
 30
0.0
  9
$USERI1
 70
     0
  9
$USERI2
 70
     0
  9
$USERI3
 70
     0
  9
$USERI4
 70
     0
  9
$USERI5
 70
     0
  9
$USERR1
 40
0.0
  9
$USERR2
 40
0.0
  9
$USERR3
 40
0.0
  9
$USERR4
 40
0.0
  9
$USERR5
 40
0.0
  9
$WORLDVIEW
 70
     1
  9
$SHADEDGE
 70
     3
  9
$SHADEDIF
 70
    70
  9
$TILEMODE
 70
     1
  9
$MAXACTVP
 70
    16
  9
$PLIMCHECK
 70
     0
  9
$PEXTMIN
 10
1.0000000000000000E+020
 20
1.0000000000000000E+020
 30
1.0000000000000000E+020
  9
$PEXTMAX
 10
-1.0000000000000000E+020
 20
-1.0000000000000000E+020
 30
-1.0000000000000000E+020
  9
$PLIMMIN
 10
-20.0
 20
-7.5
  9
$PLIMMAX
 10
277.0
 20
202.5
  9
$UNITMODE
 70
     0
  9
$VISRETAIN
 70
     0
  9
$PLINEGEN
 70
     1
  9
$PSLTSCALE
 70
     0
  0
ENDSEC
  0
SECTION
  2
TABLES
  0
TABLE
  2
VPORT
 70
     1
  0
VPORT
  2
*ACTIVE
 70
     0
 10
0.0
 20
0.0
 11
1.0
 21
1.0
 12
218.50000090105459
 22
147.0000006426126
 13
0.0
 23
0.0
 14
2.5
 24
2.5
 15
10.0
 25
10.0
 16
0.0
 26
0.0
 36
1.0
 17
0.0
 27
0.0
 37
0.0
 40
278.36592524104373
 41
2.1803977272727271
 42
50.0
 43
0.0
 44
0.0
 50
0.0
 51
0.0
 71
     0
 72
   100
 73
     1
 74
     3
 75
     0
 76
     0
 77
     0
 78
     1
  0
ENDTAB
  0
TABLE
  2
LTYPE
 70
    23
  0
LTYPE
  2
CONTINUOUS
 70
     0
  3
Solid line (NEC CAE2D for Win R7.2 : 2008.02.20
 72
    65
 73
     0
 40
0.0
  0
LTYPE
  2
HIDDEN
 70
     0
  3
Hidden __ __ __ __ __ __ __ __ __ __ __ __ __ _
 72
    65
 73
     2
 40
0.375
 49
0.25
 49
-0.125
  0
LTYPE
  2
PHANTOM2
 70
     0
  3
Phantom (.5x) ___ _ _ ___ _ _ ___ _ _ ___ _ _
 72
    65
 73
     6
 40
1.25
 49
0.625
 49
-0.125
 49
0.125
 49
-0.125
 49
0.125
 49
-0.125
  0
LTYPE
  2
CENTER
 70
     0
  3
Center ____ _ ____ _ ____ _ ____ _ ____ _ ____
 72
    65
 73
     4
 40
2.0
 49
1.25
 49
-0.25
 49
0.25
 49
-0.25
  0
LTYPE
  2
CENTER2
 70
     0
  3
Center (.5x) ___ _ ___ _ ___ _ ___ _ ___ _ ___
 72
    65
 73
     4
 40
1.125
 49
0.75
 49
-0.125
 49
0.125
 49
-0.125
  0
LTYPE
  2
HIDDEN2
 70
     0
  3
Hidden (.5x) _ _ _ _ _ _ _ _ _ _ _ _ _ _ _ _ _
 72
    65
 73
     2
 40
0.1875
 49
0.125
 49
-0.0625
  0
LTYPE
  2
ACANSTGB
 70
     0
  3
__ . . __ . .
 72
    65
 73
     6
 40
0.35433070866
 49
0.15748031496
 49
-0.03937007874
 49
0.03937007874
 49
-0.03937007874
 49
0.03937007874
 49
-0.03937007874
  0
LTYPE
  2
ACANSTGL
 70
     0
  3
_ _ _ _ _
 72
    65
 73
     2
 40
0.11811023622
 49
0.07874015748
 49
-0.03937007874
  0
LTYPE
  2
ACJISWELD
 70
     0
  3
_ _ _ _ _
 72
    65
 73
     2
 40
2.0
 49
2.0
 49
-1.0
  0
LTYPE
  2
ACJISTGB
 70
     0
  3
__ . . __ . .
 72
    65
 73
     6
 40
9.0
 49
4.0
 49
-1.0
 49
1.0
 49
-1.0
 49
1.0
 49
-1.0
  0
LTYPE
  2
ACJISTGL
 70
     0
  3
_ _ _ _ _
 72
    65
 73
     2
 40
3.0
 49
2.0
 49
-1.0
  0
LTYPE
  2
ACISOWELD
 70
     0
  3
_ _ _ _ _
 72
    65
 73
     2
 40
2.0
 49
2.0
 49
-1.0
  0
LTYPE
  2
ACISOTGB
 70
     0
  3
__ . . __ . .
 72
    65
 73
     6
 40
9.0
 49
4.0
 49
-1.0
 49
1.0
 49
-1.0
 49
1.0
 49
-1.0
  0
LTYPE
  2
ACISOTGL
 70
     0
  3
_ _ _ _ _
 72
    65
 73
     2
 40
3.0
 49
2.0
 49
-1.0
  0
LTYPE
  2
DASHED
 70
     0
  3
Dashed
 72
    65
 73
     2
 40
15.0
 49
7.0
 49
-8.0
  0
LTYPE
  2
DOT_CENTER
 70
     0
  3
Dot_Center
 72
    65
 73
     4
 40
14.0
 49
12.0
 49
-1.0
 49
0.0
 49
-1.0
  0
LTYPE
  2
AM_ISO02W050
 70
     0
  3
__ __ __ __ __ __ __ __ __ __ __ __ __ __ __
 72
    65
 73
     2
 40
7.5
 49
6.0
 49
-1.5
  0
LTYPE
  2
AM_ISO08W050
 70
     0
  3
____ . ____ . ____ . ____ . ____ . ____ . ____
 72
    65
 73
     4
 40
18.0
 49
12.0
 49
-1.5
 49
3.0
 49
-1.5
  0
LTYPE
  2
AM_ISO09W050
 70
     0
  3
_____ . . _____ . . _____ . . ____ .. ____
 72
    65
 73
     6
 40
22.5
 49
12.0
 49
-1.5
 49
3.0
 49
-1.5
 49
3.0
 49
-1.5
  0
LTYPE
  2
AMCONSTR
 70
     0
  3
_______________________
 72
    65
 73
     2
 40
9999.0
 49
9999.0
 49
0.0
  0
LTYPE
  2
AM_ISO08W050X2
 70
     0
  3
__ . __ . __ . __ . __ . __
 72
    65
 73
     4
 40
9.0
 49
6.0
 49
-0.75
 49
1.5
 49
-0.75
  0
LTYPE
  2
AM_ISO02W050X2
 70
     0
  3
 _ _ _ _ _ _ _ _ _ _ _ _
 72
    65
 73
     2
 40
3.75
 49
3.0
 49
-0.75
  0
LTYPE
  2
AMZIGZAG
 70
     0
  3
/\/-/\/-/\/-/\/-/\/-/\/
 72
    65
 73
     2
 40
11.0001
 49
0.0001
 49
-11.0
  0
ENDTAB
  0
TABLE
  2
LAYER
 70
    23
  0
LAYER
  2
0
 70
     0
 62
     3
  6
CONTINUOUS
  0
LAYER
  2
SYS-BUHIN0
 70
     0
 62
     7
  6
CONTINUOUS
  0
LAYER
  2
AM_0
 70
     0
 62
     3
  6
CONTINUOUS
  0
LAYER
  2
DEFPOINTS
 70
     0
 62
     7
  6
CONTINUOUS
  0
LAYER
  2
AM_5
 70
     0
 62
     7
  6
CONTINUOUS
  0
LAYER
  2
AM_BOR
 70
     0
 62
     7
  6
CONTINUOUS
  0
LAYER
  2
SYS-BUHINCODE
 70
     0
 62
     7
  6
CONTINUOUS
  0
LAYER
  2
AM_7
 70
     0
 62
     4
  6
CENTER
  0
LAYER
  2
AM_3
 70
     0
 62
     7
  6
HIDDEN
  0
LAYER
  2
AM_12
 70
     0
 62
   253
  6
CONTINUOUS
  0
LAYER
  2
AM_PAREF
 70
     0
 62
     4
  6
CONTINUOUS
  0
LAYER
  2
AM_6
 70
     0
 62
     7
  6
CONTINUOUS
  0
LAYER
  2
AM_8
 70
     0
 62
   253
  6
CONTINUOUS
  0
LAYER
  2
AM_4
 70
     0
 62
     6
  6
CONTINUOUS
  0
LAYER
  2
AM_10
 70
     0
 62
     7
  6
CONTINUOUS
  0
LAYER
  2
AM_CL
 70
     0
 62
     1
  6
CONTINUOUS
  0
LAYER
  2
AM_2
 70
     0
 62
     5
  6
PHANTOM2
  0
LAYER
  2
AM_1N
 70
     0
 62
    14
  6
CONTINUOUS
  0
LAYER
  2
AM_1
 70
     0
 62
    14
  6
PHANTOM2
  0
LAYER
  2
AM_9
 70
     0
 62
    -7
  6
CONTINUOUS
  0
LAYER
  2
SYS-TEISEI0
 70
     0
 62
     7
  6
CONTINUOUS
  0
LAYER
  2
1
 70
     0
 62
     7
  6
CONTINUOUS
  0
ENDTAB
  0
TABLE
  2
STYLE
 70
    17
  0
STYLE
  2
STANDARD
 70
     0
 40
0.0
 41
1.0
 50
0.0
 71
     0
 42
3.0
  3
dim.shx
  4
extfont.shx
  0
STYLE
  2
KNJYOKO
 70
     0
 40
0.0
 41
1.0
 50
0.0
 71
     0
 42
3.099999904632567
  3
TXT.shx
  4
extfont.shx
  0
STYLE
  2
ACANSTS
 70
     0
 40
1.0
 41
1.0
 50
0.0
 71
     0
 42
0.2
  3
romans.shx
  4
extfont.shx
  0
STYLE
  2
ACANSGDT
 70
     0
 40
0.0
 41
1.0
 50
0.0
 71
     0
 42
0.2
  3
amgdt.shx
  4

  0
STYLE
  2
ACJISTS
 70
     0
 40
1.0
 41
1.0
 50
0.0
 71
     0
 42
0.2
  3
isocp.shx
  4
extfont.shx
  0
STYLE
  2
ACJISGDT
 70
     0
 40
0.0
 41
1.0
 50
0.0
 71
     0
 42
0.2
  3
amgdt.shx
  4

  0
STYLE
  2
MINNTYOU
 70
     0
 40
0.0
 41
1.0
 50
0.0
 71
     0
 42
3.0
  3
txt
  4

  0
STYLE
  2
R寸法
 70
     0
 40
2.0
 41
1.0
 50
0.0
 71
     0
 42
3.0
  3
dim.shx
  4
extfont.shx
  0
STYLE
  2
ANKTATE
 70
     4
 40
0.0
 41
1.0
 50
0.0
 71
     0
 42
3.099999904632567
  3
TXT
  4

  0
STYLE
  2
KNJTATE
 70
     4
 40
0.0
 41
1.0
 50
0.0
 71
     0
 42
3.099999904632567
  3
TXT
  4
BIGFONT
  0
STYLE
  2
ACISOTS
 70
     0
 40
1.0
 41
1.0
 50
0.0
 71
     0
 42
2.5
  3
isocp.shx
  4
extfont.shx
  0
STYLE
  2
ACISOGDT
 70
     0
 40
0.0
 41
1.0
 50
0.0
 71
     0
 42
2.5
  3
amgdt.shx
  4

  0
STYLE
  2
CONVERTER_1
 70
     0
 40
0.0
 41
0.6230000000000001
 50
0.0
 71
     0
 42
0.0
  3
txt
  4

  0
STYLE
  2
CONVERTER_2
 70
     0
 40
0.0
 41
0.9
 50
0.0
 71
     0
 42
0.0
  3
txt.shx
  4

  0
STYLE
  2
CONVERTER_3
 70
     0
 40
0.0
 41
0.63
 50
0.0
 71
     0
 42
0.0
  3
txt.shx
  4

  0
STYLE
  2
CONVERTER_8
 70
     0
 40
0.0
 41
0.534
 50
0.0
 71
     0
 42
0.0
  3
txt
  4

  0
STYLE
  2

 70
     1
 40
0.0
 41
1.0
 50
0.0
 71
     0
 42
0.2
  3
genltshp.shx
  4

  0
ENDTAB
  0
TABLE
  2
VIEW
 70
     6
  0
VIEW
  2
AM_VIEW1
 70
     0
 40
137.99999999999989
 10
151.8531375166888
 20
215.99999999999989
 41
253.70627503337769
 11
0.0
 21
0.0
 31
1.0
 12
0.0
 22
0.0
 32
0.0
 42
50.0
 43
0.0
 44
0.0
 50
0.0
 71
     0
  0
VIEW
  2
AM_VIEW2
 70
     0
 40
137.99999999999989
 10
285.146862483311
 20
215.99999999999989
 41
253.70627503337769
 11
0.0
 21
0.0
 31
1.0
 12
0.0
 22
0.0
 32
0.0
 42
50.0
 43
0.0
 44
0.0
 50
0.0
 71
     0
  0
VIEW
  2
AM_VIEW3
 70
     0
 40
137.99999999999989
 10
151.8531375166888
 20
77.999999999999972
 41
253.70627503337769
 11
0.0
 21
0.0
 31
1.0
 12
0.0
 22
0.0
 32
0.0
 42
50.0
 43
0.0
 44
0.0
 50
0.0
 71
     0
  0
VIEW
  2
AM_VIEW4
 70
     0
 40
137.99999999999989
 10
285.146862483311
 20
77.999999999999972
 41
253.70627503337769
 11
0.0
 21
0.0
 31
1.0
 12
0.0
 22
0.0
 32
0.0
 42
50.0
 43
0.0
 44
0.0
 50
0.0
 71
     0
  0
VIEW
  2
AM_VIEW5
 70
     0
 40
137.99999999999989
 10
218.49999999999989
 20
146.99999999999989
 41
253.70627503337769
 11
0.0
 21
0.0
 31
1.0
 12
0.0
 22
0.0
 32
0.0
 42
50.0
 43
0.0
 44
0.0
 50
0.0
 71
     0
  0
VIEW
  2
AM_VIEW6
 70
     0
 40
275.99723999999992
 10
218.49999999999989
 20
146.99999999999989
 41
507.4074759412548
 11
0.0
 21
0.0
 31
1.0
 12
0.0
 22
0.0
 32
0.0
 42
50.0
 43
0.0
 44
0.0
 50
0.0
 71
     0
  0
ENDTAB
  0
TABLE
  2
UCS
 70
     0
  0
ENDTAB
  0
TABLE
  2
APPID
 70
    60
  0
APPID
  2
ACAD
 70
     0
  0
APPID
  2
ACADANNOTATIVE
 70
     0
  0
APPID
  2
ACAD_MLEADERVER
 70
     0
  0
APPID
  2
MCAD_NO_VIS
 70
     0
  0
APPID
  2
ACAD_TEMP_GRAPHIC
 70
     0
  0
APPID
  2
AD_DRAW
 70
     0
  0
APPID
  2
ACATTRIBSERVICES
 70
     0
  0
APPID
  2
DESIGNERASSEMBLIES
 70
     0
  0
APPID
  2
ACADM_DIM_EDIT
 70
     0
  0
APPID
  2
AMDT_DM_ADJ
 70
     0
  0
APPID
  2
ACADANNOPO
 70
     0
  0
APPID
  2
ACAECLAYERSTANDARD
 70
     0
  0
APPID
  2
ACDBDYNAMICBLOCKGUID
 70
     0
  0
APPID
  2
ACDBBLOCKREPETAG
 70
     0
  0
APPID
  2
ACAUTHENVIRON
 70
     0
  0
APPID
  2
ACDBDYNAMICBLOCKTRUENAME
 70
     0
  0
APPID
  2
GENIUS_GENREC_14
 70
     0
  0
APPID
  2
GENIUS_GENOBJ-N-REC_13
 70
     0
  0
APPID
  2
GENIUS_GENODEF_13
 70
     0
  0
APPID
  2
ACAD_EXEMPT_FROM_CAD_STANDARDS
 70
     0
  0
APPID
  2
GENIUS_GENOBJ-N-CEN_13
 70
     0
  0
APPID
  2
GENIUS_GENCEN_19
 70
     0
  0
APPID
  2
ACAD_DSTYLE_DIMINSPECT
 70
     0
  0
APPID
  2
DCO15
 70
     0
  0
APPID
  2
ACAD_PSEXT
 70
     0
  0
APPID
  2
GENIUS_GENBH_13
 70
     0
  0
APPID
  2
GENIUS_GENOENT_13
 70
     0
  0
APPID
  2
GENIUS_GENOLIS_13
 70
     0
  0
APPID
  2
GENIUS_GENOBJ-NBEHI-BHF_13
 70
     0
  0
APPID
  2
GENIUS_GENOREF_13
 70
     0
  0
APPID
  2
GENIUS_GENOBJ-NBEHI-BHB_13
 70
     0
  0
APPID
  2
AMG_2DHIDE
 70
     0
  0
APPID
  2
AMG_2DSTRUCT_BTR
 70
     0
  0
APPID
  2
GENIUS_AMGTXT_16
 70
     0
  0
APPID
  2
GENIUS_GENOBJ-N-HTC_13
 70
     0
  0
APPID
  2
GENIUS_GENHATCH_13
 70
     0
  0
APPID
  2
GEVID1208849169
 70
     0
  0
APPID
  2
GEVDC
 70
     0
  0
APPID
  2
ACADM_2DVIEW_IGN_NOTIFY
 70
     0
  0
APPID
  2
GEVID1208849170
 70
     0
  0
APPID
  2
GEVID1208849171
 70
     0
  0
APPID
  2
GEVRADREF
 70
     0
  0
APPID
  2
ACAD_DSTYLE_DIMJAG
 70
     0
  0
APPID
  2
ACAD_DSTYLE_DIMTALN
 70
     0
  0
APPID
  2
GENIUS_GENDTOL_13
 70
     0
  0
APPID
  2
GENIUS_GENTRA_14
 70
     0
  0
APPID
  2
GENIUS_GENOBJ-N-TIT_13
 70
     0
  0
APPID
  2
GENIUS_GENTITLE_13
 70
     0
  0
APPID
  2
GENIUS_GENSCREG_15
 70
     0
  0
APPID
  2
GENIUS_GENOBJ-N-SDF_13
 70
     0
  0
APPID
  2
ACAD_DSTYLE_DIMRADIAL_EXTENSION
 70
     0
  0
APPID
  2
GENIUS_GENOBJ-N-FIL_13
 70
     0
  0
APPID
  2
GENIUS_GENOBJ-N-CRS_13
 70
     0
  0
APPID
  2
GENIUS_GENDIMSH_14
 70
     0
  0
APPID
  2
ACAD_DSTYLE_DIMANGULAR_EXT
 70
     0
  0
APPID
  2
ACAD_NAV_VCDISPLAY
 70
     0
  0
APPID
  2
ACAD_DSTYLE_DIMBREAK
 70
     0
  0
APPID
  2
GENIUS_GENSCREG_13
 70
     0
  0
APPID
  2
CONTENTBLOCKICON
 70
     0
  0
APPID
  2
AcDbAttr
 70
     0
  0
ENDTAB
  0
TABLE
  2
DIMSTYLE
 70
    32
  0
DIMSTYLE
  2
STANDARD
 70
     0
  3

  4

  5

  6

  7

 40
1.0
 41
1.0
 42
0.8
 43
0.38
 44
1.0
 45
0.0
 46
0.0
 47
0.0
 48
0.0
140
3.1000000000000001
141
0.09
142
0.0
143
25.399999999999999
144
1.0
145
0.5
146
1.0
147
0.09
 71
     0
 72
     0
 73
     0
 74
     0
 75
     0
 76
     0
 77
     1
 78
     0
170
     0
171
     2
172
     0
173
     0
174
     0
175
     0
176
     0
177
     0
178
     0
  0
DIMSTYLE
  2
AM_ANSI
 70
     0
  3

  4
mm
  5

  6

  7

 40
1.0
 41
0.1
 42
0.05
 43
0.5
 44
0.1
 45
0.0
 46
0.0
 47
0.1
 48
0.1
140
0.12
141
0.0
142
0.0
143
25.399999999999999
144
1.0
145
0.0
146
0.71
147
0.06
 71
     0
 72
     0
 73
     1
 74
     1
 75
     0
 76
     0
 77
     0
 78
     7
170
     0
171
     2
172
     0
173
     0
174
     0
175
     0
176
   256
177
   256
178
     2
  0
DIMSTYLE
  2
AM_ANSI$3
 70
     0
  3

  4
mm
  5

  6

  7

 40
1.0
 41
0.1
 42
0.05
 43
0.5
 44
0.1
 45
0.0
 46
0.0
 47
0.1
 48
0.1
140
0.12
141
0.0
142
0.0
143
25.399999999999999
144
1.0
145
0.0
146
0.71
147
0.06
 71
     0
 72
     0
 73
     1
 74
     1
 75
     0
 76
     0
 77
     0
 78
     7
170
     0
171
     2
172
     0
173
     0
174
     0
175
     0
176
   256
177
   256
178
     2
  0
DIMSTYLE
  2
AM_ANSI$4
 70
     0
  3

  4
mm
  5

  6

  7

 40
1.0
 41
0.1
 42
0.05
 43
0.5
 44
0.1
 45
0.0
 46
0.0
 47
0.1
 48
0.1
140
0.12
141
0.0
142
0.0
143
25.399999999999999
144
1.0
145
0.0
146
0.71
147
0.06
 71
     0
 72
     0
 73
     1
 74
     1
 75
     0
 76
     0
 77
     0
 78
     7
170
     0
171
     2
172
     0
173
     0
174
     0
175
     0
176
   256
177
   256
178
     2
  0
DIMSTYLE
  2
AM_ANSI$7
 70
     0
  3

  4
mm
  5

  6

  7

 40
1.0
 41
0.1
 42
0.05
 43
0.5
 44
0.1
 45
0.0
 46
0.0
 47
0.1
 48
0.1
140
0.24
141
0.0
142
0.0
143
25.399999999999999
144
1.0
145
0.0
146
0.71
147
0.06
 71
     0
 72
     0
 73
     1
 74
     1
 75
     0
 76
     0
 77
     0
 78
     7
170
     0
171
     2
172
     0
173
     0
174
     0
175
     0
176
   256
177
   256
178
     2
  0
DIMSTYLE
  2
AM_ANSI$SF
 70
     0
  3

  4
mm
  5

  6

  7

 40
1.0
 41
0.1
 42
0.05
 43
0.5
 44
0.1
 45
0.0
 46
0.0
 47
0.1
 48
0.1
140
0.12
141
0.0
142
0.0
143
25.399999999999999
144
1.0
145
0.0
146
0.71
147
0.06
 71
     0
 72
     0
 73
     1
 74
     1
 75
     1
 76
     1
 77
     0
 78
     7
170
     0
171
     2
172
     0
173
     0
174
     0
175
     0
176
   256
177
   256
178
     2
  0
DIMSTYLE
  2
AM_ANSI$SH
 70
     0
  3

  4
mm
  5

  6
GENAXEH
  7

 40
1.0
 41
0.1
 42
0.05
 43
0.5
 44
0.1
 45
0.0
 46
0.0
 47
0.1
 48
0.1
140
0.12
141
0.0
142
0.0
143
25.399999999999999
144
1.0
145
0.0
146
0.71
147
0.06
 71
     0
 72
     0
 73
     1
 74
     1
 75
     1
 76
     1
 77
     0
 78
     7
170
     0
171
     2
172
     0
173
     1
174
     0
175
     0
176
   256
177
   256
178
     2
  0
DIMSTYLE
  2
AM_JIS
 70
     0
  3

  4
"
  5
OPEN30
  6

  7

 40
1.0
 41
2.5
 42
1.0
 43
7.0
 44
1.0
 45
0.0
 46
0.0
 47
0.1
 48
0.1
140
3.0
141
0.0
142
0.0
143
0.0393701
144
1.0
145
0.0
146
0.71
147
1.0
 71
     0
 72
     0
 73
     0
 74
     0
 75
     0
 76
     0
 77
     3
 78
     8
170
     0
171
     2
172
     1
173
     0
174
     0
175
     0
176
     7
177
     7
178
     7
  0
DIMSTYLE
  2
AM_JIS$3
 70
     0
  3

  4
"
  5
OPEN30
  6

  7

 40
1.0
 41
2.5
 42
1.0
 43
10.0
 44
1.0
 45
0.0
 46
0.0
 47
0.1
 48
0.1
140
3.0
141
0.0
142
0.0
143
0.0393701
144
1.0
145
0.0
146
0.71
147
1.0
 71
     0
 72
     0
 73
     0
 74
     1
 75
     0
 76
     0
 77
     3
 78
     8
170
     0
171
     2
172
     0
173
     0
174
     0
175
     0
176
     7
177
     7
178
     7
  0
DIMSTYLE
  2
AM_JIS$4
 70
     0
  3

  4
"
  5
OPEN30
  6

  7

 40
1.0
 41
2.5
 42
1.0
 43
10.0
 44
1.0
 45
0.0
 46
0.0
 47
0.1
 48
0.1
140
2.0
141
0.0
142
0.0
143
0.0393701
144
1.0
145
0.0
146
0.71
147
1.0
 71
     0
 72
     0
 73
     0
 74
     0
 75
     0
 76
     0
 77
     3
 78
     8
170
     0
171
     2
172
     0
173
     0
174
     0
175
     0
176
     7
177
     7
178
     7
  0
DIMSTYLE
  2
AM_JIS$6
 70
     0
  3

  4
"
  5
OPEN30
  6

  7

 40
1.0
 41
2.5
 42
1.0
 43
10.0
 44
1.0
 45
0.0
 46
0.0
 47
0.1
 48
0.1
140
3.0
141
0.0
142
0.0
143
0.0393701
144
1.0
145
0.0
146
0.71
147
1.0
 71
     0
 72
     0
 73
     0
 74
     0
 75
     0
 76
     0
 77
     0
 78
     8
170
     0
171
     2
172
     1
173
     0
174
     0
175
     0
176
   256
177
     7
178
     7
  0
DIMSTYLE
  2
AM_JIS$7
 70
     0
  3

  4
"
  5
OPEN30
  6

  7

 40
1.0
 41
2.5
 42
1.0
 43
10.0
 44
1.0
 45
0.0
 46
0.0
 47
0.1
 48
0.1
140
3.0
141
0.0
142
0.0
143
0.0393701
144
1.0
145
0.0
146
0.71
147
1.0
 71
     0
 72
     0
 73
     0
 74
     0
 75
     0
 76
     0
 77
     3
 78
     8
170
     0
171
     2
172
     1
173
     0
174
     0
175
     0
176
     7
177
   256
178
     7
  0
DIMSTYLE
  2
AM_JIS$SF
 70
     0
  3

  4
"
  5
OPEN30
  6

  7

 40
1.0
 41
2.5
 42
1.0
 43
7.0
 44
1.0
 45
0.0
 46
0.0
 47
0.1
 48
0.1
140
3.0
141
0.0
142
0.0
143
0.0393701
144
1.0
145
0.0
146
0.71
147
1.0
 71
     0
 72
     0
 73
     0
 74
     0
 75
     1
 76
     1
 77
     3
 78
     8
170
     0
171
     2
172
     1
173
     0
174
     0
175
     0
176
     7
177
   256
178
     7
  0
DIMSTYLE
  2
AM_JIS$SH
 70
     0
  3

  4
"
  5

  6
GENAXEH
  7
OPEN30
 40
1.0
 41
2.5
 42
1.0
 43
7.0
 44
1.0
 45
0.0
 46
0.0
 47
0.1
 48
0.1
140
3.0
141
0.0
142
0.0
143
0.0393701
144
2.0
145
0.0
146
0.71
147
1.0
 71
     0
 72
     0
 73
     0
 74
     0
 75
     1
 76
     1
 77
     3
 78
     8
170
     0
171
     2
172
     1
173
     1
174
     0
175
     0
176
     7
177
   256
178
     7
  0
DIMSTYLE
  2
AM_JIS$2
 70
     0
  3

  4
"
  5
OPEN30
  6

  7

 40
1.0
 41
2.5
 42
1.0
 43
7.0
 44
1.0
 45
0.0
 46
0.0
 47
0.1
 48
0.1
140
3.0
141
0.0
142
0.0
143
0.0393701
144
1.0
145
0.0
146
0.71
147
1.0
 71
     0
 72
     0
 73
     0
 74
     0
 75
     0
 76
     0
 77
     3
 78
     8
170
     0
171
     2
172
     1
173
     0
174
     0
175
     0
176
     7
177
     7
178
     7
  0
DIMSTYLE
  2
AM_JIS$0
 70
     0
  3

  4
"
  5
OPEN30
  6

  7

 40
1.0
 41
2.5
 42
1.0
 43
7.0
 44
1.0
 45
0.0
 46
0.0
 47
0.1
 48
0.1
140
3.0
141
0.0
142
0.0
143
0.0393701
144
1.0
145
0.0
146
0.71
147
1.0
 71
     0
 72
     0
 73
     0
 74
     0
 75
     0
 76
     0
 77
     3
 78
     8
170
     0
171
     2
172
     1
173
     0
174
     0
175
     0
176
     7
177
     7
178
     7
  0
DIMSTYLE
  2
STANDARD$0
 70
     0
  3

  4

  5

  6

  7

 40
1.0
 41
1.0
 42
0.8
 43
0.38
 44
1.0
 45
0.0
 46
0.0
 47
0.0
 48
0.0
140
3.1000000000000001
141
0.09
142
0.0
143
25.399999999999999
144
1.0
145
0.5
146
1.0
147
0.09
 71
     0
 72
     0
 73
     0
 74
     0
 75
     0
 76
     0
 77
     1
 78
     0
170
     0
171
     2
172
     0
173
     0
174
     0
175
     0
176
     0
177
     0
178
     0
  0
DIMSTYLE
  2
ANNOTATIVE
 70
     0
  3

  4

  5

  6

  7

 40
1.0
 41
0.18
 42
0.0625
 43
0.38
 44
0.18
 45
0.0
 46
0.0
 47
0.0
 48
0.0
140
0.18
141
0.09
142
0.0
143
25.399999999999999
144
1.0
145
0.0
146
1.0
147
0.09
 71
     0
 72
     0
 73
     1
 74
     1
 75
     0
 76
     0
 77
     0
 78
     0
170
     0
171
     2
172
     0
173
     0
174
     0
175
     0
176
     0
177
     0
178
     0
  0
DIMSTYLE
  2
AM_ISO
 70
     0
  3

  4
"
  5

  6

  7

 40
1.0
 41
2.5
 42
1.0
 43
10.0
 44
1.0
 45
0.0
 46
0.0
 47
0.1
 48
0.1
140
3.5
141
0.0
142
0.0
143
0.0393701
144
1.0
145
0.0
146
0.71
147
1.5
 71
     0
 72
     0
 73
     0
 74
     0
 75
     0
 76
     0
 77
     1
 78
     8
170
     0
171
     2
172
     1
173
     0
174
     0
175
     0
176
   256
177
   256
178
     2
  0
DIMSTYLE
  2
AM_ISO$3
 70
     0
  3

  4
"
  5

  6

  7

 40
1.0
 41
2.5
 42
1.0
 43
10.0
 44
1.0
 45
0.0
 46
0.0
 47
0.1
 48
0.1
140
3.5
141
0.0
142
0.0
143
0.0393701
144
1.0
145
0.0
146
0.71
147
1.5
 71
     0
 72
     0
 73
     0
 74
     1
 75
     0
 76
     0
 77
     1
 78
     8
170
     0
171
     2
172
     0
173
     0
174
     0
175
     0
176
   256
177
   256
178
     2
  0
DIMSTYLE
  2
AM_ISO$4
 70
     0
  3

  4
"
  5

  6

  7

 40
1.0
 41
2.5
 42
1.0
 43
10.0
 44
1.0
 45
0.0
 46
0.0
 47
0.1
 48
0.1
140
3.5
141
0.0
142
0.0
143
0.0393701
144
1.0
145
0.0
146
0.71
147
1.5
 71
     0
 72
     0
 73
     0
 74
     1
 75
     0
 76
     0
 77
     1
 78
     8
170
     0
171
     2
172
     0
173
     0
174
     0
175
     0
176
   256
177
   256
178
     2
  0
DIMSTYLE
  2
AM_ISO$6
 70
     0
  3

  4
"
  5

  6

  7

 40
1.0
 41
2.5
 42
1.0
 43
10.0
 44
1.0
 45
0.0
 46
0.0
 47
0.1
 48
0.1
140
3.5
141
0.0
142
0.0
143
0.0393701
144
1.0
145
0.0
146
0.71
147
1.5
 71
     0
 72
     0
 73
     0
 74
     0
 75
     0
 76
     0
 77
     0
 78
     8
170
     0
171
     2
172
     1
173
     0
174
     0
175
     0
176
   256
177
   256
178
     2
  0
DIMSTYLE
  2
AM_ISO$7
 70
     0
  3

  4
"
  5

  6

  7

 40
1.0
 41
2.5
 42
1.0
 43
10.0
 44
1.0
 45
0.0
 46
0.0
 47
0.1
 48
0.1
140
5.0
141
0.0
142
0.0
143
0.0393701
144
1.0
145
0.0
146
0.71
147
1.5
 71
     0
 72
     0
 73
     0
 74
     0
 75
     0
 76
     0
 77
     1
 78
     8
170
     0
171
     2
172
     1
173
     0
174
     0
175
     0
176
   256
177
   256
178
     2
  0
DIMSTYLE
  2
AM_ISO$SF
 70
     0
  3

  4
"
  5

  6

  7

 40
1.0
 41
2.5
 42
1.0
 43
10.0
 44
1.0
 45
0.0
 46
0.0
 47
0.1
 48
0.1
140
3.5
141
0.0
142
0.0
143
0.0393701
144
1.0
145
0.0
146
0.71
147
1.5
 71
     0
 72
     0
 73
     0
 74
     0
 75
     1
 76
     1
 77
     1
 78
     8
170
     0
171
     2
172
     1
173
     0
174
     0
175
     0
176
   256
177
   256
178
     2
  0
DIMSTYLE
  2
AM_ISO$SH
 70
     0
  3

  4
"
  5

  6
GENAXEH
  7

 40
1.0
 41
2.5
 42
1.0
 43
10.0
 44
1.0
 45
0.0
 46
0.0
 47
0.1
 48
0.1
140
3.5
141
0.0
142
0.0
143
0.0393701
144
2.0
145
0.0
146
0.71
147
1.5
 71
     0
 72
     0
 73
     0
 74
     0
 75
     1
 76
     1
 77
     1
 78
     8
170
     0
171
     2
172
     1
173
     1
174
     0
175
     0
176
   256
177
   256
178
     2
  0
DIMSTYLE
  2
ME10_DIM_0
 70
     0
  3
({\Fgdt;n}<>)
  4

  5

  6
OPEN30
  7
OPEN30
 40
1.0
 41
2.2400000000000002
 42
1.0
 43
0.38
 44
1.0
 45
0.0
 46
0.0
 47
0.0
 48
0.0
140
3.2000000000000002
141
0.09
142
0.0
143
25.399999999999999
144
1.0
145
0.0
146
1.0
147
0.625
 71
     0
 72
     0
 73
     0
 74
     0
 75
     0
 76
     0
 77
     1
 78
     8
170
     0
171
     2
172
     1
173
     1
174
     0
175
     0
176
     2
177
     2
178
     3
  0
DIMSTYLE
  2
ME10_DIM_1
 70
     0
  3

  4

  5

  6
OPEN30
  7
OPEN30
 40
1.0
 41
2.2400000000000002
 42
1.0
 43
0.38
 44
1.0
 45
0.0
 46
0.0
 47
0.0
 48
0.0
140
3.2000000000000002
141
0.09
142
0.0
143
25.399999999999999
144
1.0
145
0.0
146
1.0
147
0.625
 71
     0
 72
     0
 73
     0
 74
     0
 75
     0
 76
     0
 77
     1
 78
     8
170
     0
171
     2
172
     1
173
     1
174
     0
175
     0
176
     2
177
     2
178
     3
  0
DIMSTYLE
  2
ME10_DIM_2
 70
     0
  3

  4

  5

  6
OPEN30
  7
OPEN30
 40
1.0
 41
2.2400000000000002
 42
1.0
 43
0.38
 44
1.0
 45
0.0
 46
0.0
 47
0.0
 48
0.0
140
3.2000000000000002
141
0.09
142
0.0
143
25.399999999999999
144
1.0
145
0.0
146
1.0
147
0.625
 71
     0
 72
     0
 73
     0
 74
     0
 75
     0
 76
     0
 77
     1
 78
     8
170
     0
171
     2
172
     1
173
     1
174
     0
175
     0
176
     2
177
     2
178
     3
  0
DIMSTYLE
  2
ME10_DIM_3
 70
     0
  3
{\Fgdt;n}<>
  4

  5

  6
OPEN30
  7
OPEN30
 40
1.0
 41
2.2400000000000002
 42
1.0
 43
0.38
 44
1.0
 45
0.0
 46
0.0
 47
0.0
 48
0.0
140
3.2000000000000002
141
0.09
142
0.0
143
25.399999999999999
144
1.0
145
0.0
146
1.0
147
0.625
 71
     0
 72
     0
 73
     0
 74
     0
 75
     0
 76
     0
 77
     1
 78
     8
170
     0
171
     2
172
     1
173
     1
174
     0
175
     0
176
     2
177
     2
178
     3
  0
DIMSTYLE
  2
ME10_DIM_4
 70
     0
  3
{\Fgdt;n}<>
  4

  5

  6
OPEN30
  7
OPEN30
 40
1.0
 41
2.2400000000000002
 42
1.0
 43
0.38
 44
1.0
 45
0.0
 46
0.0
 47
0.0
 48
0.0
140
3.2000000000000002
141
0.09
142
0.0
143
25.399999999999999
144
1.0
145
0.0
146
1.0
147
0.625
 71
     0
 72
     0
 73
     0
 74
     0
 75
     0
 76
     0
 77
     1
 78
     8
170
     0
171
     2
172
     1
173
     1
174
     0
175
     0
176
     2
177
     2
178
     3
  0
DIMSTYLE
  2
ME10_DIM_5
 70
     0
  3

  4

  5

  6
OPEN30
  7
OPEN30
 40
1.0
 41
2.2400000000000002
 42
1.0
 43
0.38
 44
1.0
 45
0.0
 46
0.0
 47
0.0
 48
0.0
140
3.2000000000000002
141
0.09
142
0.0
143
25.399999999999999
144
1.0
145
0.0
146
1.0
147
0.625
 71
     0
 72
     0
 73
     0
 74
     0
 75
     0
 76
     0
 77
     1
 78
     8
170
     0
171
     2
172
     1
173
     1
174
     0
175
     0
176
     2
177
     2
178
     3
  0
DIMSTYLE
  2
ME10_DIM_6
 70
     0
  3
{\Fgdt;n}<>
  4

  5

  6
OPEN30
  7
OPEN30
 40
1.0
 41
2.2400000000000002
 42
1.0
 43
0.38
 44
1.0
 45
0.0
 46
0.0
 47
0.0
 48
0.0
140
3.2000000000000002
141
0.09
142
0.0
143
25.399999999999999
144
1.0
145
0.0
146
1.0
147
0.625
 71
     0
 72
     0
 73
     0
 74
     0
 75
     0
 76
     0
 77
     1
 78
     8
170
     0
171
     2
172
     1
173
     1
174
     0
175
     0
176
     2
177
     2
178
     3
  0
ENDTAB
  0
ENDSEC
  0
SECTION
  2
BLOCKS
  0
BLOCK
  8
0
  2
$MODEL_SPACE
 70
     0
 10
0.0
 20
0.0
 30
0.0
  3
$MODEL_SPACE
  1

  0
ENDBLK
  5
1D3
  8
0
  0
BLOCK
 67
     1
  8
0
  2
$PAPER_SPACE
 70
     0
 10
0.0
 20
0.0
 30
0.0
  3
$PAPER_SPACE
  1

  0
ENDBLK
  5
1D1
 67
     1
  8
0
  0
BLOCK
  8
0
  2
GENAXEH
 70
     0
 10
0.0
 20
0.0
 30
0.0
  3
GENAXEH
  1

  0
LINE
  5
264
  8
0
 10
-1.0
 20
0.0
 30
0.0
 11
1.0
 21
0.0
 31
0.0
  0
ENDBLK
  5
266
  8
0
  0
BLOCK
  8
0
  2
_OPEN30
 70
     0
 10
0.0
 20
0.0
 30
0.0
  3
_OPEN30
  1

  0
LINE
  5
2FA
  8
0
  6
BYBLOCK
 62
     0
 10
-1.0
 20
0.26794919
 30
0.0
 11
0.0
 21
0.0
 31
0.0
  0
LINE
  5
2FB
  8
0
  6
BYBLOCK
 62
     0
 10
0.0
 20
0.0
 30
0.0
 11
-1.0
 21
-0.26794919
 31
0.0
  0
LINE
  5
2FC
  8
0
  6
BYBLOCK
 62
     0
 10
0.0
 20
0.0
 30
0.0
 11
-1.0
 21
0.0
 31
0.0
  0
ENDBLK
  5
2FE
  8
0
  0
BLOCK
  8
0
  2
MYPLIST0
 70
     2
 10
0.0
 20
0.0
 30
0.0
  3
MYPLIST0
  1

  0
LINE
  5
346
  8
SYS-BUHIN0
  6
CONTINUOUS
 62
     4
 10
-170.0
 20
7.0
 30
0.0
 11
0.0
 21
7.0
 31
0.0
  0
LINE
  5
347
  8
SYS-BUHIN0
  6
CONTINUOUS
 62
     4
 10
-170.0
 20
-0.0000000000030695
 30
0.0
 11
0.0
 21
-0.0000000000001137
 31
0.0
  0
LINE
  5
348
  8
SYS-BUHIN0
  6
CONTINUOUS
 62
     4
 10
-170.0
 20
7.0
 30
0.0
 11
-170.0
 21
0.0
 31
0.0
  0
LINE
  5
349
  8
SYS-BUHIN0
  6
CONTINUOUS
 62
     4
 10
0.0
 20
7.0
 30
0.0
 11
0.0
 21
0.0
 31
0.0
  0
LINE
  5
34A
  8
SYS-BUHIN0
  6
CONTINUOUS
 62
     4
 10
-161.0
 20
7.0
 30
0.0
 11
-161.0
 21
0.0
 31
0.0
  0
LINE
  5
34B
  8
SYS-BUHIN0
  6
CONTINUOUS
 62
     4
 10
-99.0
 20
7.0
 30
0.0
 11
-99.0
 21
0.0
 31
0.0
  0
LINE
  5
34C
  8
SYS-BUHIN0
  6
CONTINUOUS
 62
     4
 10
-72.0
 20
7.0
 30
0.0
 11
-72.0
 21
0.0
 31
0.0
  0
LINE
  5
34D
  8
SYS-BUHIN0
  6
CONTINUOUS
 62
     4
 10
-63.0
 20
7.0
 30
0.0
 11
-63.0
 21
0.0
 31
0.0
  0
LINE
  5
34E
  8
SYS-BUHIN0
  6
CONTINUOUS
 62
     4
 10
-16.0
 20
7.0
 30
0.0
 11
-16.0
 21
0.0
 31
0.0
  0
TEXT
  5
34F
  8
SYS-BUHIN0
  6
CONTINUOUS
 62
     7
 10
-13.61264708219346
 20
0.6000000119208835
 30
0.0
 40
1.1000000000000001
  1
PARTS NO.
 41
1.3
  0
TEXT
  5
350
  8
SYS-BUHIN0
  6
CONTINUOUS
 62
     7
 10
-14.36429419116018
 20
3.0691472933651762
 30
0.0
 40
2.2000000000000002
  1
部品コード
  0
TEXT
  5
351
  8
SYS-BUHIN0
  6
CONTINUOUS
 62
     7
 10
-43.852454807937526
 20
0.6000000119208835
 30
0.0
 40
1.1000000000000001
  1
REMARKS
 41
1.3
  0
TEXT
  5
352
  8
SYS-BUHIN0
  6
CONTINUOUS
 62
     7
 10
-47.370000243186951
 20
2.7500000476836699
 30
0.0
 40
2.7999999999999989
  1
備    考
  0
TEXT
  5
353
  8
SYS-BUHIN0
  6
CONTINUOUS
 62
     7
 10
-69.144963642251696
 20
0.6000000119208835
 30
0.0
 40
1.1000000000000001
  1
UNIT
  0
TEXT
  5
354
  8
SYS-BUHIN0
  6
CONTINUOUS
 62
     7
 10
-70.272262370934413
 20
2.6949072988287521
 30
0.0
 40
2.7999999999999989
  1
数量
  0
TEXT
  5
355
  8
SYS-BUHIN0
  6
CONTINUOUS
 62
     7
 10
-90.559234383463263
 20
0.6000000119208835
 30
0.0
 40
1.1000000000000001
  1
MATERIAL
 41
1.3
  0
TEXT
  5
357
  8
SYS-BUHIN0
  6
CONTINUOUS
 62
     7
 10
-138.9093619295486
 20
0.6000000119208835
 30
0.0
 40
1.1000000000000001
  1
  DESCRIPTION
 41
1.3
  0
TEXT
  5
358
  8
SYS-BUHIN0
  6
CONTINUOUS
 62
     7
 10
-142.0050003230572
 20
2.7500000476836699
 30
0.0
 40
2.7999999999999989
  1
 部  品  名
  0
TEXT
  5
359
  8
SYS-BUHIN0
  6
CONTINUOUS
 62
     7
 10
-166.63404873957319
 20
0.6000000119208835
 30
0.0
 40
1.1000000000000001
  1
NO.
  0
TEXT
  5
35A
  8
SYS-BUHIN0
  6
CONTINUOUS
 62
     7
 10
-168.29000008106229
 20
2.7500000476836699
 30
0.0
 40
2.7999999999999989
  1
項番
  0
ATTDEF
  5
35B
  8
AM_0
 62
     7
 10
-168.79000008106229
 20
3.5
 30
0.0
 40
3.1000000000000001
  1

  3

  2
ITEM
 70
     1
1001
AcDbAttr
1070
     0
1070
     1
  0
TEXT
  5
C0B
  8
AM_BOR
 62
     7
 10
-91.770000159740434
 20
2.7000000476837149
 30
0.0
 40
2.7999999999999989
  1
材　　質
  0
ENDBLK
  5
35C
  8
0
  0
BLOCK
  8
0
  2
MYPLIST1
 70
     2
 10
0.0
 20
0.0
 30
0.0
  3
MYPLIST1
  1

  0
LINE
  5
393
  8
SYS-BUHIN0
  6
CONTINUOUS
 62
     4
 10
-170.0
 20
6.0
 30
0.0
 11
0.0
 21
6.0
 31
0.0
  0
LINE
  5
394
  8
SYS-BUHIN0
  6
CONTINUOUS
 62
     4
 10
-170.0
 20
0.0
 30
0.0
 11
-170.0
 21
6.0
 31
0.0
  0
LINE
  5
395
  8
SYS-BUHIN0
  6
CONTINUOUS
 62
     4
 10
-161.0
 20
0.0
 30
0.0
 11
-161.0
 21
6.0
 31
0.0
  0
LINE
  5
396
  8
SYS-BUHIN0
  6
CONTINUOUS
 62
     4
 10
-99.0
 20
0.0
 30
0.0
 11
-99.0
 21
6.0
 31
0.0
  0
LINE
  5
397
  8
SYS-BUHIN0
  6
CONTINUOUS
 62
     4
 10
-72.0
 20
0.0
 30
0.0
 11
-72.0
 21
6.0
 31
0.0
  0
LINE
  5
398
  8
SYS-BUHIN0
  6
CONTINUOUS
 62
     4
 10
-63.0
 20
0.0
 30
0.0
 11
-63.0
 21
6.0
 31
0.0
  0
LINE
  5
399
  8
SYS-BUHIN0
  6
CONTINUOUS
 62
     4
 10
-16.0
 20
0.0
 30
0.0
 11
-16.0
 21
6.0
 31
0.0
  0
LINE
  5
39A
  8
SYS-BUHIN0
  6
CONTINUOUS
 62
     4
 10
0.0
 20
0.0
 30
0.0
 11
0.0
 21
6.0
 31
0.0
  0
LINE
  5
39B
  8
SYS-BUHIN0
  6
CONTINUOUS
 62
     4
 10
-170.0
 20
0.0
 30
0.0
 11
0.0
 21
0.0
 31
0.0
  0
ATTDEF
  5
39C
  8
SYS-BUHINCODE
 10
-14.0
 20
2.5
 30
0.0
 40
1.0
  1

 11
-14.0
 21
3.0
 31
0.0
  3
部品コード
  2
PCODE
 70
     0
 74
     2
1001
AcDbAttr
1070
     0
1070
     1
  0
ATTDEF
  5
39D
  8
SYS-BUHIN0
  6
CONTINUOUS
 62
     7
 10
-61.0
 20
2.0
 30
0.0
 40
2.0
  1

 11
-61.0
 21
3.0
 31
0.0
  3
備考
  2
NOTE
 70
     0
 74
     2
1001
AcDbAttr
1070
     0
1070
     1
  0
ATTDEF
  5
39E
  8
SYS-BUHIN0
  6
CONTINUOUS
 62
     7
 10
-67.5
 20
3.0
 30
0.0
 40
2.5
  1

 72
     4
 11
-67.5
 21
3.0
 31
0.0
  3
数量
  2
QTY
 70
     0
1001
AcDbAttr
1070
     0
1070
     1
  0
ATTDEF
  5
39F
  8
SYS-BUHIN0
  6
CONTINUOUS
 62
     7
 10
-97.595958160209875
 20
2.0
 30
0.0
 40
2.0
  1

 11
-97.595958160209875
 21
3.0
 31
0.0
  3
材質
  2
MATERIAL
 70
     0
 74
     2
1001
AcDbAttr
1070
     0
1070
     1
  0
ATTDEF
  5
3A0
  8
SYS-BUHIN0
  6
CONTINUOUS
 62
     7
 10
-159.0
 20
1.75
 30
0.0
 40
2.5
  1

 11
-159.0
 21
3.0
 31
0.0
  3
部品名
  2
DESCR
 70
     0
 74
     2
1001
AcDbAttr
1070
     0
1070
     1
  0
ATTDEF
  5
3A1
  8
SYS-BUHIN0
  6
CONTINUOUS
 62
     7
 10
-165.5
 20
3.0
 30
0.0
 40
2.5
  1

 72
     4
 11
-165.5
 21
3.0
 31
0.0
  3
項番
  2
ITEM
 70
     0
1001
AcDbAttr
1070
     0
1070
     1
  0
ENDBLK
  5
370
  8
0
  0
BLOCK
  8
0
  2
A$C1C06296A
 70
     2
 10
0.0
 20
0.0
 30
0.0
  3
A$C1C06296A
  1

  0
LINE
  5
204C
  8
AM_BOR
 10
198.86851880399371
 20
17.886744577931989
 30
0.0
 11
203.2337455721775
 21
13.521517809748619
 31
0.0
  0
LINE
  5
204D
  8
AM_BOR
 10
198.8685188039936
 20
17.866715351316039
 30
0.0
 11
198.86851880399399
 21
14.128964361178911
 31
0.0
  0
LINE
  5
204E
  8
AM_BOR
 10
204.7045172738834
 20
17.866715326469411
 30
0.0
 11
204.70451727388391
 21
14.181128845625549
 31
0.0
  0
LINE
  5
204F
  8
AM_BOR
 10
204.20428883360731
 20
17.793010290175861
 30
0.0
 11
204.204288833607
 21
14.69861035774108
 31
0.0
  0
LINE
  5
2050
  8
AM_BOR
 10
199.3687472442698
 20
17.176052465333349
 30
0.0
 11
199.36874724427059
 21
14.197800355103411
 31
0.0
  0
LINE
  5
2051
  8
AM_BOR
 10
200.43756462039269
 20
18.46533457095553
 30
0.0
 11
204.20428883360731
 21
14.69861035774052
 31
0.0
  0
LINE
  5
2052
  8
AM_BOR
 10
199.36874724426971
 20
17.17605246533255
 30
0.0
 11
203.02713287203409
 21
13.51766683756852
 31
0.0
  0
ARC
  5
2053
  8
AM_BOR
 10
198.36829036868701
 20
17.866715351316049
 30
0.0
 40
0.5002284402762121
 50
0.0
 51
50.265515568291427
  0
ARC
  5
2054
  8
AM_BOR
 10
198.36829034384081
 20
14.12896436117892
 30
0.0
 40
0.5002284402762121
 50
304.69759678405279
 51
0.0
  0
ARC
  5
2055
  8
AM_BOR
 10
205.20474573403669
 20
17.866715326469411
 30
0.0
 40
0.5002284402762121
 50
127.0284887689633
 51
180.00000500895629
  0
ARC
  5
2056
  8
AM_BOR
 10
203.53731756996689
 20
17.793010290175818
 30
0.0
 40
0.6669712537016159
 50
0.0
 51
74.714823568866152
  0
ARC
  5
2057
  8
AM_BOR
 10
200.03571849797169
 20
14.197800355103389
 30
0.0
 40
0.6669712537016159
 50
180.00000500895629
 51
256.4857883914604
  0
LINE
  5
2058
  8
AM_BOR
 10
210.95737277733619
 20
15.993445664994679
 30
0.0
 11
210.9224749062999
 21
16.211434571273589
 31
0.0
  0
LINE
  5
2059
  8
AM_BOR
 10
210.92247490629941
 20
16.211434571273411
 30
0.0
 11
210.8180468870608
 21
16.42776445035037
 31
0.0
  0
LINE
  5
205A
  8
AM_BOR
 10
210.8180468870604
 20
16.42776445035037
 30
0.0
 11
210.64488347990149
 21
16.640788901221669
 31
0.0
  0
LINE
  5
205B
  8
AM_BOR
 10
210.6448834799013
 20
16.640788901221619
 30
0.0
 11
210.40430256290981
 21
16.848886679188759
 31
0.0
  0
LINE
  5
205C
  8
AM_BOR
 10
210.40430256290949
 20
16.848886679189
 30
0.0
 11
210.0981351021297
 21
17.050474034508689
 31
0.0
  0
LINE
  5
205D
  8
AM_BOR
 10
210.09813510212999
 20
17.05047403450855
 30
0.0
 11
209.7287112168076
 21
17.244016765685139
 31
0.0
  0
LINE
  5
205E
  8
AM_BOR
 10
209.72871121680711
 20
17.24401676568521
 30
0.0
 11
209.29884244577369
 21
17.428041895669988
 31
0.0
  0
LINE
  5
205F
  8
AM_BOR
 10
209.29884244577369
 20
17.428041895670081
 30
0.0
 11
208.81180034993889
 21
17.601148882106369
 31
0.0
  0
LINE
  5
2060
  8
AM_BOR
 10
208.81180034993889
 20
17.60114888210644
 30
0.0
 11
208.27129161373591
 21
17.76202027630297
 31
0.0
  0
LINE
  5
2061
  8
AM_BOR
 10
208.27129161373611
 20
17.76202027630309
 30
0.0
 11
207.68142983501551
 21
17.909431749813081
 31
0.0
  0
LINE
  5
2062
  8
AM_BOR
 10
207.68142983501531
 20
17.90943174981297
 30
0.0
 11
207.04670421808169
 21
18.042261412313358
 31
0.0
  0
LINE
  5
2063
  8
AM_BOR
 10
207.04670421808169
 20
18.04226141231344
 30
0.0
 11
206.37194540813729
 21
18.15949834986797
 31
0.0
  0
LINE
  5
2064
  8
AM_BOR
 10
206.37194540813749
 20
18.159498349867881
 30
0.0
 11
205.66228872715681
 21
18.260250318592298
 31
0.0
  0
LINE
  5
2065
  8
AM_BOR
 10
205.66228872715661
 20
18.260250318592369
 30
0.0
 11
205.02242374599979
 21
18.33253416039674
 31
0.0
  0
LINE
  5
2066
  8
AM_BOR
 10
205.02242374599939
 20
18.332534160396779
 30
0.0
 11
204.92313509098369
 21
18.343750535168819
 31
0.0
  0
LINE
  5
2067
  8
AM_BOR
 10
204.92313509098369
 20
18.343750535168748
 30
0.0
 11
204.16010990510409
 21
18.409363512530259
 31
0.0
  0
LINE
  5
2068
  8
AM_BOR
 10
204.1601099051048
 20
18.409363512530259
 30
0.0
 11
203.71314686010501
 21
18.436387872932471
 31
0.0
  0
LINE
  5
2069
  8
AM_BOR
 10
200.43756462039249
 20
18.465334570955569
 30
0.0
 11
200.19401582596791
 21
18.45658989630088
 31
0.0
  0
LINE
  5
206A
  8
AM_BOR
 10
200.19401582596799
 20
18.456589896300901
 30
0.0
 11
199.41292617277259
 21
18.409363512530309
 31
0.0
  0
LINE
  5
206B
  8
AM_BOR
 10
199.41292617277259
 20
18.409363512530248
 30
0.0
 11
198.64990098689299
 21
18.343750535168759
 31
0.0
  0
LINE
  5
206C
  8
AM_BOR
 10
198.5506123731563
 20
18.332534165059979
 30
0.0
 11
197.9107473507209
 21
18.260250318592469
 31
0.0
  0
LINE
  5
206D
  8
AM_BOR
 10
198.64990098689299
 20
18.343750535168791
 30
0.0
 11
198.5506123731563
 21
18.332534165059919
 31
0.0
  0
LINE
  5
206E
  8
AM_BOR
 10
197.91074735072121
 20
18.26025031859243
 30
0.0
 11
197.20109066974049
 21
18.159498349868041
 31
0.0
  0
LINE
  5
206F
  8
AM_BOR
 10
197.20109066974041
 20
18.159498349868091
 30
0.0
 11
196.52633185979579
 21
18.042261412313529
 31
0.0
  0
LINE
  5
2070
  8
AM_BOR
 10
196.5263318597959
 20
18.042261412313589
 30
0.0
 11
195.89160624286239
 21
17.909431749813219
 31
0.0
  0
LINE
  5
2071
  8
AM_BOR
 10
195.89160624286171
 20
17.90943174981302
 30
0.0
 11
195.30174446414119
 21
17.762020276303058
 31
0.0
  0
LINE
  5
2072
  8
AM_BOR
 10
195.301744464141
 20
17.762020276303161
 30
0.0
 11
194.76123572793779
 21
17.60114888210661
 31
0.0
  0
LINE
  5
2073
  8
AM_BOR
 10
194.76123572793779
 20
17.60114888210656
 30
0.0
 11
194.27419363210299
 21
17.428041895670152
 31
0.0
  0
LINE
  5
2074
  8
AM_BOR
 10
194.27419363210339
 20
17.428041895670152
 30
0.0
 11
193.84432486106959
 21
17.244016765685259
 31
0.0
  0
LINE
  5
2075
  8
AM_BOR
 10
193.84432486106959
 20
17.24401676568521
 30
0.0
 11
193.4749009757472
 21
17.05047403450865
 31
0.0
  0
LINE
  5
2076
  8
AM_BOR
 10
193.4749009757472
 20
17.050474034508671
 30
0.0
 11
193.16873351496719
 21
16.848886679188929
 31
0.0
  0
LINE
  5
2077
  8
AM_BOR
 10
193.1687335149673
 20
16.848886679188951
 30
0.0
 11
192.92815259797499
 21
16.640788901221619
 31
0.0
  0
LINE
  5
2078
  8
AM_BOR
 10
192.9281525979753
 20
16.640788901221811
 30
0.0
 11
192.75498919081639
 21
16.42776445035042
 31
0.0
  0
LINE
  5
2079
  8
AM_BOR
 10
192.75498919081639
 20
16.427764450350349
 30
0.0
 11
192.65056117157769
 21
16.211434571273479
 31
0.0
  0
LINE
  5
207A
  8
AM_BOR
 10
192.65056117157789
 20
16.211434571273731
 30
0.0
 11
192.61566330054151
 21
15.993445664994679
 31
0.0
  0
LINE
  5
207B
  8
AM_BOR
 10
192.61566330054069
 20
15.99344566499464
 30
0.0
 11
192.65056117157721
 21
15.775456758715791
 31
0.0
  0
LINE
  5
207C
  8
AM_BOR
 10
192.65056117157769
 20
15.775456758715929
 30
0.0
 11
192.7549891908163
 21
15.55912687963913
 31
0.0
  0
LINE
  5
207D
  8
AM_BOR
 10
192.75498919081639
 20
15.559126879639029
 30
0.0
 11
192.9281525979753
 21
15.34610242876764
 31
0.0
  0
LINE
  5
207E
  8
AM_BOR
 10
192.9281525979751
 20
15.34610242876769
 30
0.0
 11
193.16873351496719
 21
15.1380046508005
 31
0.0
  0
LINE
  5
207F
  8
AM_BOR
 10
193.1687335149669
 20
15.1380046508005
 30
0.0
 11
193.47490097574689
 21
14.93641729548081
 31
0.0
  0
LINE
  5
2080
  8
AM_BOR
 10
193.47490097574729
 20
14.936417295480711
 30
0.0
 11
193.84432486106959
 21
14.742874564304079
 31
0.0
  0
LINE
  5
2081
  8
AM_BOR
 10
193.84432486106951
 20
14.74287456430417
 30
0.0
 11
194.27419363210271
 21
14.558849434319351
 31
0.0
  0
LINE
  5
2082
  8
AM_BOR
 10
194.27419363210319
 20
14.558849434319439
 30
0.0
 11
194.7612357279379
 21
14.38574244788296
 31
0.0
  0
LINE
  5
2083
  8
AM_BOR
 10
194.76123572793779
 20
14.38574244788277
 30
0.0
 11
195.301744464141
 21
14.22487105368617
 31
0.0
  0
LINE
  5
2084
  8
AM_BOR
 10
195.301744464141
 20
14.224871053686311
 30
0.0
 11
195.891606242862
 21
14.077459580176351
 31
0.0
  0
LINE
  5
2085
  8
AM_BOR
 10
195.89160624286191
 20
14.077459580176219
 30
0.0
 11
196.52633185979579
 21
13.94462991767579
 31
0.0
  0
LINE
  5
2086
  8
AM_BOR
 10
196.52633185979539
 20
13.944629917675821
 30
0.0
 11
197.2010906697397
 21
13.827392980121321
 31
0.0
  0
LINE
  5
2087
  8
AM_BOR
 10
197.20109066974049
 20
13.82739298012133
 30
0.0
 11
197.9107473507209
 21
13.726641011397049
 31
0.0
  0
LINE
  5
2088
  8
AM_BOR
 10
197.9107473507205
 20
13.72664101139711
 30
0.0
 11
198.5412166771807
 21
13.655418571666219
 31
0.0
  0
LINE
  5
2089
  8
AM_BOR
 10
198.54121667717999
 20
13.65541857166625
 30
0.0
 11
198.64990098689259
 21
13.643140794820731
 31
0.0
  0
LINE
  5
208A
  8
AM_BOR
 10
198.6499009868929
 20
13.643140794820679
 30
0.0
 11
199.41292617277259
 21
13.57752781745919
 31
0.0
  0
LINE
  5
208B
  8
AM_BOR
 10
199.41292617277259
 20
13.577527817459201
 30
0.0
 11
199.8798563250744
 21
13.54929620220682
 31
0.0
  0
LINE
  5
208C
  8
AM_BOR
 10
203.0271328720325
 20
13.51766683756999
 30
0.0
 11
203.37902025190911
 21
13.530301433688649
 31
0.0
  0
LINE
  5
208D
  8
AM_BOR
 10
203.3790202519092
 20
13.530301433688599
 30
0.0
 11
204.16010990510441
 21
13.57752781745919
 31
0.0
  0
LINE
  5
208E
  8
AM_BOR
 10
204.70451727388399
 20
13.624341722195579
 30
0.0
 11
204.9231350909844
 21
13.64314079482075
 31
0.0
  0
LINE
  5
208F
  8
AM_BOR
 10
204.16010990510441
 20
13.57752781745917
 30
0.0
 11
204.70451727388379
 21
13.62434172219551
 31
0.0
  0
LINE
  5
2090
  8
AM_BOR
 10
204.92313509098409
 20
13.643140794820759
 30
0.0
 11
205.66228872715669
 21
13.726641011397151
 31
0.0
  0
LINE
  5
2091
  8
AM_BOR
 10
205.66228872715661
 20
13.72664101139711
 30
0.0
 11
206.37194540813709
 21
13.827392980121401
 31
0.0
  0
LINE
  5
2092
  8
AM_BOR
 10
206.37194540813749
 20
13.82739298012145
 30
0.0
 11
207.04670421808191
 21
13.94462991767594
 31
0.0
  0
LINE
  5
2093
  8
AM_BOR
 10
207.04670421808169
 20
13.94462991767597
 30
0.0
 11
207.68142983501559
 21
14.07745958017637
 31
0.0
  0
LINE
  5
2094
  8
AM_BOR
 10
207.68142983501551
 20
14.07745958017629
 30
0.0
 11
208.27129161373611
 21
14.22487105368625
 31
0.0
  0
LINE
  5
2095
  8
AM_BOR
 10
208.2712916137362
 20
14.224871053686289
 30
0.0
 11
208.81180034993929
 21
14.38574244788289
 31
0.0
  0
LINE
  5
2096
  8
AM_BOR
 10
208.81180034993929
 20
14.385742447882921
 30
0.0
 11
209.29884244577411
 21
14.558849434319351
 31
0.0
  0
LINE
  5
2097
  8
AM_BOR
 10
209.298842445774
 20
14.55884943431932
 30
0.0
 11
209.72871121680751
 21
14.74287456430422
 31
0.0
  0
LINE
  5
2098
  8
AM_BOR
 10
209.72871121680711
 20
14.742874564304151
 30
0.0
 11
210.0981351021297
 21
14.93641729548083
 31
0.0
  0
LINE
  5
2099
  8
AM_BOR
 10
210.09813510212999
 20
14.93641729548081
 30
0.0
 11
210.40430256290989
 21
15.13800465080036
 31
0.0
  0
LINE
  5
209A
  8
AM_BOR
 10
210.40430256291
 20
15.13800465080055
 30
0.0
 11
210.64488347990201
 21
15.346102428767731
 31
0.0
  0
LINE
  5
209B
  8
AM_BOR
 10
210.64488347990169
 20
15.34610242876783
 30
0.0
 11
210.8180468870608
 21
15.559126879639029
 31
0.0
  0
LINE
  5
209C
  8
AM_BOR
 10
210.81804688706069
 20
15.559126879639059
 30
0.0
 11
210.92247490629899
 21
15.77545675871586
 31
0.0
  0
LINE
  5
209D
  8
AM_BOR
 10
210.92247490629981
 20
15.775456758715791
 30
0.0
 11
210.95737277733619
 21
15.993445664994621
 31
0.0
  0
LINE
  5
209E
  8
AM_BOR
 10
199.10514248704791
 20
18.382897015254191
 30
0.0
 11
203.92474251077411
 21
13.563296991527499
 31
0.0
  0
ARC
  5
209F
  8
AM_BOR
 10
205.2047457141602
 20
14.181128845625549
 30
0.0
 40
0.5002284402762121
 50
180.0
 51
244.5184856857075
  0
LINE
  5
20A0
  8
AM_BOR
 10
199.36521928176651
 20
18.405261169360589
 30
0.0
 11
204.19035209062989
 21
13.58012836049622
 31
0.0
  0
LINE
  5
20A1
  8
AM_BOR
 10
199.630408435547
 20
18.422512964405719
 30
0.0
 11
204.450428885349
 21
13.602492514602771
 31
0.0
  0
LINE
  5
20A2
  8
AM_BOR
 10
199.8967460324557
 20
18.438616316322719
 30
0.0
 11
204.70776895023289
 21
13.62759339854461
 31
0.0
  0
LINE
  5
20A3
  8
AM_BOR
 10
200.16308362936431
 20
18.454719668239761
 30
0.0
 11
204.9488987968831
 21
13.66890450072008
 31
0.0
  0
LINE
  5
20A4
  8
AM_BOR
 10
198.8450656923284
 20
18.36053286114759
 30
0.0
 11
203.6584049138651
 21
13.547193639610409
 31
0.0
  0
LINE
  5
20A5
  8
AM_BOR
 10
198.7943784573331
 20
18.12877914731807
 30
0.0
 11
203.39206731695711
 21
13.53109028769336
 31
0.0
  0
LINE
  5
20A6
  8
AM_BOR
 10
199.01830573664321
 20
18.375429872827009
 30
0.0
 11
199.01830573664321
 21
13.61146145716244
 31
0.0
  0
LINE
  5
20A7
  8
AM_BOR
 10
199.2180216468426
 20
18.39260355953768
 30
0.0
 11
199.2180216468426
 21
13.594287770451791
 31
0.0
  0
LINE
  5
20A8
  8
AM_BOR
 10
204.55473034123381
 20
18.375429872826999
 30
0.0
 11
204.55473034123381
 21
13.61146145716245
 31
0.0
  0
LINE
  5
20A9
  8
AM_BOR
 10
204.35501443103459
 20
18.39260355953764
 30
0.0
 11
204.35501443103459
 21
13.594287770451791
 31
0.0
  0
LINE
  5
20AA
  8
AM_BOR
 62
     4
 10
-0.0000001316067255
 20
15.000000173111291
 30
0.0
 11
190.49999986839319
 21
15.000000173111291
 31
0.0
  0
LINE
  5
20AB
  8
AM_BOR
 62
     4
 10
276.49999986839327
 20
28.000000173111289
 30
0.0
 11
276.49999986839327
 21
0.000000173111296
 31
0.0
  0
LINE
  5
20AC
  8
AM_BOR
 62
     4
 10
-0.0000001316067255
 20
15.000000173111291
 30
0.0
 11
-0.0000001316067255
 21
0.000000173111296
 31
0.0
  0
LINE
  5
20AD
  8
AM_BOR
 62
     4
 10
-0.0000001316067255
 20
28.000000173111289
 30
0.0
 11
276.49999986839327
 21
28.000000173111289
 31
0.0
  0
LINE
  5
20AE
  8
AM_BOR
 62
     4
 10
15.999999868393269
 20
15.000000173111291
 30
0.0
 11
15.999999868393269
 21
0.000000173111296
 31
0.0
  0
TEXT
  5
20AF
  8
AM_BOR
 62
     4
 10
215.17999986839331
 20
10.000000173111291
 30
0.0
 40
1.5
  1
NAKANISHI　INDUSTRIAL CO., LTD.
 41
1.5
  0
TEXT
  5
20B0
  8
AM_BOR
 62
     3
 10
213.19999986839329
 20
13.500000173111291
 30
0.0
 40
5.5
  1
中西産業株式会社
 41
1.1999999999999991
  0
TEXT
  5
20B1
  8
AM_BOR
 62
     4
 10
196.192787937406
 20
10.000000173111291
 30
0.0
 40
1.5
  1
Nakanishi
 41
1.1999999999999991
  0
TEXT
  5
20B2
  8
AM_BOR
 62
     7
 10
98.104999768257457
 20
15.650000185032219
 30
0.0
 40
1.0
  1
FINISH
 41
1.6000000000000001
  0
TEXT
  5
20B3
  8
AM_BOR
 62
     7
 10
96.979999708652798
 20
17.700000220795008
 30
0.0
 40
2.7999999999999989
  1
仕　　上
  0
TEXT
  5
20B4
  8
AM_BOR
 62
     7
 10
3.1549997801784002
 20
15.650000185032219
 30
0.0
 40
1.0
  1
MATERIAL
 41
1.6000000000000001
  0
TEXT
  5
20B5
  8
AM_BOR
 62
     7
 10
1.729999708652826
 20
17.700000220795008
 30
0.0
 40
2.7999999999999989
  1
材　　質
  0
LINE
  5
20B6
  8
AM_BOR
 62
     4
 10
190.49999986839319
 20
28.000000173111289
 30
0.0
 11
190.49999986839319
 21
0.000000173111296
 31
0.0
  0
LINE
  5
20B7
  8
AM_BOR
 62
     4
 10
-0.0000001316067255
 20
28.000000173111289
 30
0.0
 11
-0.0000001316067255
 21
15.000000173111291
 31
0.0
  0
LINE
  5
20B8
  8
AM_BOR
 62
     4
 10
-0.0000001316067255
 20
21.500000173111289
 30
0.0
 11
190.49999986839319
 21
21.500000173111289
 31
0.0
  0
LINE
  5
20B9
  8
AM_BOR
 62
     4
 10
15.999999868393269
 20
28.000000173111289
 30
0.0
 11
15.999999868393269
 21
15.000000173111291
 31
0.0
  0
TEXT
  5
20BA
  8
AM_BOR
 62
     7
 10
98.104999768257457
 20
22.150000185032219
 30
0.0
 40
1.0
  1
ART. NO.
 41
1.6000000000000001
  0
TEXT
  5
20BB
  8
AM_BOR
 62
     7
 10
96.979999708652684
 20
24.200000220795008
 30
0.0
 40
2.7999999999999989
  1
品　　番
  0
TEXT
  5
20BC
  8
AM_BOR
 62
     7
 10
3.1549997801784002
 20
22.150000185032219
 30
0.0
 40
1.0
  1
ARTICLE
 41
1.6000000000000001
  0
TEXT
  5
20BD
  8
AM_BOR
 62
     7
 10
1.7299997086527119
 20
24.200000220795008
 30
0.0
 40
2.7999999999999989
  1
品　　名
  0
LINE
  5
20BE
  8
AM_BOR
 62
     4
 10
-0.0000001316067255
 20
15.000000173111291
 30
0.0
 11
-0.0000001316067255
 21
0.0000001731112924
 31
0.0
  0
LINE
  5
20BF
  8
AM_BOR
 62
     4
 10
95.249999868393246
 20
28.000000173111289
 30
0.0
 11
95.249999868393246
 21
0.000000173111296
 31
0.0
  0
TEXT
  5
20C0
  8
AM_BOR
 62
     7
 10
3.1549997801784002
 20
9.1500001850322192
 30
0.0
 40
1.0
  1
REMARKS
 41
1.6000000000000001
  0
TEXT
  5
20C1
  8
AM_BOR
 62
     7
 10
1.7299997086527119
 20
11.20000022079501
 30
0.0
 40
2.7999999999999989
  1
備　　考
  0
LINE
  5
20C2
  8
AM_BOR
 62
     4
 10
111.2499998683932
 20
28.000000173111289
 30
0.0
 11
111.2499998683932
 21
0.000000173111296
 31
0.0
  0
LINE
  5
20C3
  8
AM_BOR
 62
     4
 10
-0.0000001316067255
 20
0.000000173111296
 30
0.0
 11
276.49999986839327
 21
0.000000173111296
 31
0.0
  0
TEXT
  5
20C4
  8
AM_BOR
 62
     7
 10
98.404999780178386
 20
9.1500001850322157
 30
0.0
 40
1.0
  1
SETS
 41
1.6000000000000001
  0
TEXT
  5
20C5
  8
AM_BOR
 62
     7
 10
96.979999708652684
 20
11.20000022079501
 30
0.0
 40
2.7999999999999989
  1
セット品
  0
ATTDEF
  5
20C6
  8
AM_BOR
 62
     7
 10
114.3107095753831
 20
0.5000001731112853
 30
0.0
 40
3.0
  1

 11
114.3107095753831
 21
2.0000001731112849
 31
0.0
  3
セット
  2
SETS｛20｝
 70
     0
 74
     2
1001
ACADANNOTATIVE
1000
AnnotativeData
1002
{
1070
     1
1070
     0
1002
}
1001
AcDbAttr
1070
     0
1070
     1
  0
ATTDEF
  5
20CA
  8
AM_BOR
 62
     7
 10
19.060709575383161
 20
0.5000001731112889
 30
0.0
 40
3.0
  1

 11
19.060709575383161
 21
2.000000173111288
 31
0.0
  3
備　　考
  2
REMARKS｛20｝
 70
     0
 74
     2
1001
ACADANNOTATIVE
1000
AnnotativeData
1002
{
1070
     1
1070
     0
1002
}
1001
AcDbAttr
1070
     0
1070
     1
  0
ATTDEF
  5
20CE
  8
AM_BOR
 62
     7
 10
114.3107095753831
 20
5.5000001731112853
 30
0.0
 40
3.0
  1

 11
114.3107095753831
 21
7.0000001731112853
 31
0.0
  3
セット
  2
SETS｛20｝
 70
     0
 74
     2
1001
ACADANNOTATIVE
1000
AnnotativeData
1002
{
1070
     1
1070
     0
1002
}
1001
AcDbAttr
1070
     0
1070
     1
  0
ATTDEF
  5
20D2
  8
AM_BOR
 62
     7
 10
19.060709575383161
 20
5.500000173111288
 30
0.0
 40
3.0
  1

 11
19.060709575383161
 21
7.000000173111288
 31
0.0
  3
備　　考
  2
REMARKS｛20｝
 70
     0
 74
     2
1001
ACADANNOTATIVE
1000
AnnotativeData
1002
{
1070
     1
1070
     0
1002
}
1001
AcDbAttr
1070
     0
1070
     1
  0
ATTDEF
  5
20D6
  8
AM_BOR
 62
     7
 10
114.3107095753831
 20
10.50000017311128
 30
0.0
 40
3.0
  1

 11
114.3107095753831
 21
12.00000017311128
 31
0.0
  3
セット
  2
SETS｛20｝
 70
     0
 74
     2
1001
ACADANNOTATIVE
1000
AnnotativeData
1002
{
1070
     1
1070
     0
1002
}
1001
AcDbAttr
1070
     0
1070
     1
  0
ATTDEF
  5
20DA
  8
AM_BOR
 62
     7
 10
19.060709575383161
 20
10.500000173111291
 30
0.0
 40
3.0
  1

 11
19.060709575383161
 21
12.000000173111291
 31
0.0
  3
備　　考
  2
REMARKS｛20｝
 70
     0
 74
     2
1001
ACADANNOTATIVE
1000
AnnotativeData
1002
{
1070
     1
1070
     0
1002
}
1001
AcDbAttr
1070
     0
1070
     1
  0
ATTDEF
  5
20DE
  8
AM_BOR
 62
     7
 10
114.2499998683932
 20
23.500000173111289
 30
0.0
 40
3.0
  1

 11
114.2499998683932
 21
25.000000173111289
 31
0.0
  3
品    番
  2
ART_NO｛20｝
 70
     0
 74
     2
1001
ACADANNOTATIVE
1000
AnnotativeData
1002
{
1070
     1
1070
     0
1002
}
1001
AcDbAttr
1070
     0
1070
     1
  0
ATTDEF
  5
20E2
  8
AM_BOR
 62
     7
 10
18.999999868393271
 20
23.500000173111289
 30
0.0
 40
3.0
  1

 11
18.999999868393271
 21
25.000000173111289
 31
0.0
  3
品    名
  2
ARTICLE｛20｝
 70
     0
 74
     2
1001
ACADANNOTATIVE
1000
AnnotativeData
1002
{
1070
     1
1070
     0
1002
}
1001
AcDbAttr
1070
     0
1070
     1
  0
ATTDEF
  5
20E6
  8
AM_BOR
 62
     7
 10
114.2499998683932
 20
17.000000173111289
 30
0.0
 40
3.0
  1

 11
114.2499998683932
 21
18.500000173111289
 31
0.0
  3
仕上
  2
FINISH｛20｝
 70
     0
 74
     2
1001
ACADANNOTATIVE
1000
AnnotativeData
1002
{
1070
     1
1070
     0
1002
}
1001
AcDbAttr
1070
     0
1070
     1
  0
ATTDEF
  5
20EA
  8
AM_BOR
 62
     7
 10
18.999999868393271
 20
17.000000173111289
 30
0.0
 40
3.0
  1

 11
18.999999868393271
 21
18.500000173111289
 31
0.0
  3
材　　質
  2
MATERIAK｛20｝
 70
     0
 74
     2
1001
ACADANNOTATIVE
1000
AnnotativeData
1002
{
1070
     1
1070
     0
1002
}
1001
AcDbAttr
1070
     0
1070
     1
  0
ENDBLK
  5
20F1
  8
0
  0
BLOCK
  8
0
  2
ZUWAKU-A3H
 70
     0
 10
0.0
 20
0.0
 30
0.0
  3
ZUWAKU-A3H
  1

  0
LINE
  5
29DD
  8
AM_BOR
 62
     3
 10
24.999999999999989
 20
284.99999999999977
 30
0.0
 11
24.999999999999979
 21
9.0
 31
0.0
  0
LINE
  5
29DE
  8
AM_BOR
 62
     3
 10
411.99999999999989
 20
284.99999999999989
 30
0.0
 11
25.0
 21
284.99999999999989
 31
0.0
  0
LINE
  5
29DF
  8
AM_BOR
 62
     3
 10
411.99999999999989
 20
284.99999999999989
 30
0.0
 11
411.99999999999989
 21
9.0
 31
0.0
  0
LINE
  5
29E0
  8
AM_BOR
 62
     3
 10
24.999999999999989
 20
8.9999999999999964
 30
0.0
 11
411.99999999999972
 21
8.9999999999999964
 31
0.0
  0
TEXT
  5
29E1
  8
SYS-TEISEI0
  6
CONTINUOUS
 62
     3
 10
144.38500001765789
 20
14.950000047683719
 30
0.0
 40
3.099999904632567
  1
 
  0
TEXT
  5
29E2
  8
SYS-TEISEI0
  6
CONTINUOUS
 62
     3
 10
169.88500004447991
 20
14.950000047683719
 30
0.0
 40
3.099999904632567
  1
 
  0
TEXT
  5
29E3
  8
SYS-TEISEI0
  6
CONTINUOUS
 62
     3
 10
229.24499995708459
 20
14.950000047683719
 30
0.0
 40
3.099999904632567
  1
 
  0
TEXT
  5
29E4
  8
SYS-TEISEI0
  6
CONTINUOUS
 62
     3
 10
236.9449999570846
 20
14.950000047683719
 30
0.0
 40
3.099999904632567
  1
 
  0
TEXT
  5
29E5
  8
SYS-TEISEI0
  6
CONTINUOUS
 62
     3
 10
144.38500001765789
 20
19.950000047683719
 30
0.0
 40
3.099999904632567
  1
 
  0
TEXT
  5
29E6
  8
SYS-TEISEI0
  6
CONTINUOUS
 62
     3
 10
169.88500004447991
 20
19.950000047683719
 30
0.0
 40
3.099999904632567
  1
 
  0
TEXT
  5
29E7
  8
SYS-TEISEI0
  6
CONTINUOUS
 62
     3
 10
229.24499995708459
 20
19.950000047683719
 30
0.0
 40
3.099999904632567
  1
 
  0
TEXT
  5
29E8
  8
SYS-TEISEI0
  6
CONTINUOUS
 62
     3
 10
236.9449999570846
 20
19.950000047683719
 30
0.0
 40
3.099999904632567
  1
 
  0
TEXT
  5
29E9
  8
SYS-TEISEI0
  6
CONTINUOUS
 62
     3
 10
144.38500001765789
 20
24.950000047683719
 30
0.0
 40
3.099999904632567
  1
 
  0
TEXT
  5
29EA
  8
SYS-TEISEI0
  6
CONTINUOUS
 62
     3
 10
169.88500004447991
 20
24.950000047683719
 30
0.0
 40
3.099999904632567
  1
 
  0
TEXT
  5
29EB
  8
SYS-TEISEI0
  6
CONTINUOUS
 62
     3
 10
229.24499995708459
 20
24.950000047683719
 30
0.0
 40
3.099999904632567
  1
 
  0
TEXT
  5
29EC
  8
SYS-TEISEI0
  6
CONTINUOUS
 62
     3
 10
236.9449999570846
 20
24.950000047683719
 30
0.0
 40
3.099999904632567
  1
 
  0
TEXT
  5
29ED
  8
AM_BOR
 10
24.999999999999989
 20
9.0
 30
0.0
 40
5.0
  1
!GENTITLE-LL
  0
TEXT
  5
29EE
  8
AM_BOR
 10
411.99999999999989
 20
9.0
 30
0.0
 40
5.0
  1
!GENTITLE-INSERT
  0
TEXT
  5
29EF
  8
AM_BOR
 10
411.99999999999989
 20
284.99999999999989
 30
0.0
 40
5.0
  1
!GENTITLE-RU
  0
TEXT
  5
29F0
  8
AM_BOR
 10
420.0
 20
297.0
 30
0.0
 40
5.0
  1
!GENTITLE-MAX
  0
ENDBLK
  5
29F2
  8
0
  0
BLOCK
  8
0
  2
_ACMFILLEDHALF
 70
     0
 10
0.0
 20
0.0
 30
0.0
  3
_ACMFILLEDHALF
  1

  0
TRACE
  5
32A5
  8
0
 62
     0
 10
-0.8
 20
0.0
 30
0.0
 11
-1.0
 21
0.166666666
 31
0.0
 12
0.0
 22
0.0
 32
0.0
 13
0.0
 23
0.0
 33
0.0
  0
LINE
  5
32A6
  8
0
 62
     0
 10
-1.0
 20
0.0
 30
0.0
 11
-0.8
 21
0.0
 31
0.0
  0
ENDBLK
  5
32A4
  8
0
  0
BLOCK
  8
0
  2
_ACMFILLED
 70
     0
 10
0.0
 20
0.0
 30
0.0
  3
_ACMFILLED
  1

  0
TRACE
  5
32B1
  8
0
 62
     0
 10
-1.0
 20
-0.166666666
 30
0.0
 11
-1.0
 21
0.166666666
 31
0.0
 12
0.0
 22
0.0
 32
0.0
 13
0.0
 23
0.0
 33
0.0
  0
ENDBLK
  5
32B0
  8
0
  0
BLOCK
  8
0
  2
_ACMOPEN15
 70
     0
 10
0.0
 20
0.0
 30
0.0
  3
_ACMOPEN15
  1

  0
LINE
  5
32BB
  8
0
 62
     0
 10
-1.0
 20
0.0
 30
0.0
 11
0.0
 21
0.0
 31
0.0
  0
LINE
  5
32BC
  8
0
 62
     0
 10
-1.0
 20
-0.131652497
 30
0.0
 11
0.0
 21
0.0
 31
0.0
  0
LINE
  5
32BD
  8
0
 62
     0
 10
0.0
 20
0.0
 30
0.0
 11
-1.0
 21
0.131652497
 31
0.0
  0
ENDBLK
  5
32BA
  8
0
  0
BLOCK
  8
0
  2
_ACMFILLED15
 70
     0
 10
0.0
 20
0.0
 30
0.0
  3
_ACMFILLED15
  1

  0
TRACE
  5
32C9
  8
0
 62
     0
 10
-1.0
 20
-0.131652497
 30
0.0
 11
-1.0
 21
0.131652497
 31
0.0
 12
0.0
 22
0.0
 32
0.0
 13
0.0
 23
0.0
 33
0.0
  0
ENDBLK
  5
32C8
  8
0
  0
BLOCK
  8
0
  2
TOP__1
 70
     0
 10
1835.667894865825
 20
80.950289389527853
 30
0.0
  3
TOP__1
  1

  0
INSERT
  5
32DB
  8
0
  2
*U30
 10
0.0
 20
0.0
 30
0.0
  0
INSERT
  5
32DC
  8
0
  2
*U31
 10
0.0
 20
0.0
 30
0.0
  0
LINE
  5
32DD
  8
1
  6
CONTINUOUS
 62
     3
 10
1870.87033083707
 20
77.450289389527867
 30
0.0
 11
1870.87033083707
 21
84.450289389527853
 31
0.0
  0
LINE
  5
32DE
  8
1
  6
CONTINUOUS
 62
     3
 10
1877.87033083707
 20
77.450289389527867
 30
0.0
 11
1870.87033083707
 21
77.450289389527867
 31
0.0
  0
LINE
  5
32DF
  8
1
  6
CONTINUOUS
 62
     3
 10
1877.87033083707
 20
84.450289389527853
 30
0.0
 11
1877.87033083707
 21
77.450289389527867
 31
0.0
  0
LINE
  5
32E0
  8
1
  6
CONTINUOUS
 62
     3
 10
1870.87033083707
 20
84.450289389527853
 30
0.0
 11
1877.87033083707
 21
84.450289389527853
 31
0.0
  0
ENDBLK
  5
32E1
  8
0
  0
BLOCK
  8
0
  2
TOP__2
 70
     0
 10
1874.37033083707
 20
80.950289389527853
 30
0.0
  3
TOP__2
  1

  0
INSERT
  5
32E4
  8
0
  2
TOP__1
 10
1835.667894865825
 20
80.950289389527853
 30
0.0
  0
ENDBLK
  5
32E5
  8
0
  0
BLOCK
  8
0
  2
*D23
 70
     1
 10
0.0
 20
0.0
 30
0.0
  3
*D23
  1

  0
LINE
  5
3655
  8
1
 62
     2
 10
339.09508364245733
 20
194.07263469766011
 30
0.0
 11
297.50405221707979
 21
235.6636661230371
 31
0.0
  0
LINE
  5
3656
  8
1
 62
     2
 10
291.29466523424719
 20
146.27221628944929
 30
0.0
 11
249.70363380886971
 21
187.86324771482629
 31
0.0
  0
LINE
  5
3657
  8
1
 62
     2
 10
296.62723980840849
 20
233.3726401519927
 30
0.0
 11
277.23059369368048
 21
213.97599403726451
 31
0.0
  0
LINE
  5
3658
  8
1
 62
     2
 10
251.994659779914
 20
188.74006012349761
 30
0.0
 11
271.39130589464202
 21
208.13670623822591
 31
0.0
  0
INSERT
  5
3659
  8
1
 62
     2
  2
_OPEN30
 10
298.2111589982664
 20
234.95655934185061
 30
0.0
 41
2.2400000000000002
 42
2.2400000000000002
 43
2.2400000000000002
 50
45.000000000000313
  0
INSERT
  5
365A
  8
1
 62
     2
  2
_OPEN30
 10
250.41074059005621
 20
187.15614093363979
 30
0.0
 41
2.2400000000000002
 42
2.2400000000000002
 43
2.2400000000000002
 50
225.0000000000004
  0
INSERT
  5
365B
  8
0
  2
*U57
 10
0.0
 20
0.0
 30
0.0
  0
POINT
  5
365C
  8
DEFPOINTS
 62
     0
 10
339.80219042364388
 20
193.36552791647361
 30
0.0
  0
POINT
  5
365D
  8
DEFPOINTS
 62
     0
 10
292.00177201543369
 20
145.56510950826279
 30
0.0
  0
POINT
  5
365E
  8
DEFPOINTS
 62
     0
 10
250.41074059005621
 20
187.15614093363979
 30
0.0
  0
ENDBLK
  5
35B4
  8
0
  0
BLOCK
  8
0
  2
*D24
 70
     1
 10
0.0
 20
0.0
 30
0.0
  3
*D24
  1

  0
LINE
  5
3618
  8
1
 62
     2
 10
191.87577769457289
 20
199.73697736028231
 30
0.0
 11
191.87577769457289
 21
215.16320532569119
 31
0.0
  0
LINE
  5
3619
  8
1
 62
     2
 10
190.37577769457289
 20
205.4653187123682
 30
0.0
 11
190.37577769457289
 21
215.16320532569119
 31
0.0
  0
LINE
  5
361A
  8
1
 62
     2
 10
194.1157776945729
 20
214.16320532569119
 30
0.0
 11
196.35577769457291
 21
214.16320532569119
 31
0.0
  0
LINE
  5
361B
  8
1
 62
     2
 10
188.13577769457279
 20
214.16320532569119
 30
0.0
 11
185.8957776945729
 21
214.16320532569119
 31
0.0
  0
LINE
  5
361C
  8
1
 62
     2
 10
191.87577769457289
 20
214.16320532569119
 30
0.0
 11
190.37577769457289
 21
214.16320532569119
 31
0.0
  0
INSERT
  5
361D
  8
1
 62
     2
  2
_OPEN30
 10
191.87577769457289
 20
214.16320532569119
 30
0.0
 41
2.2400000000000002
 42
2.2400000000000002
 43
2.2400000000000002
 50
180.0
  0
INSERT
  5
361E
  8
1
 62
     2
  2
_OPEN30
 10
190.37577769457289
 20
214.16320532569119
 30
0.0
 41
2.2400000000000002
 42
2.2400000000000002
 43
2.2400000000000002
  0
INSERT
  5
361F
  8
0
  2
*U53
 10
0.0
 20
0.0
 30
0.0
  0
POINT
  5
3620
  8
DEFPOINTS
 62
     0
 10
191.87577769457289
 20
198.73697736028231
 30
0.0
  0
POINT
  5
3621
  8
DEFPOINTS
 62
     0
 10
190.37577769457289
 20
204.4653187123682
 30
0.0
  0
POINT
  5
3622
  8
DEFPOINTS
 62
     0
 10
190.37577769457289
 20
214.16320532569119
 30
0.0
  0
ENDBLK
  5
35C1
  8
0
  0
BLOCK
  8
0
  2
*D25
 70
     1
 10
0.0
 20
0.0
 30
0.0
  3
*D25
  1

  0
LINE
  5
3623
  8
1
 62
     2
 10
190.37577769457289
 20
133.46531871236809
 30
0.0
 11
190.37577769457289
 21
114.3433991716052
 31
0.0
  0
LINE
  5
3624
  8
1
 62
     2
 10
183.37577769457289
 20
133.46531871236809
 30
0.0
 11
183.37577769457289
 21
114.3433991716052
 31
0.0
  0
LINE
  5
3625
  8
1
 62
     2
 10
188.13577769457279
 20
115.3433991716052
 30
0.0
 11
185.6157776945729
 21
115.3433991716052
 31
0.0
  0
LINE
  5
3626
  8
1
 62
     2
 10
183.37577769457289
 20
115.3433991716052
 30
0.0
 11
181.13577769457291
 21
115.3433991716052
 31
0.0
  0
INSERT
  5
3627
  8
1
 62
     2
  2
_OPEN30
 10
190.37577769457289
 20
115.3433991716052
 30
0.0
 41
2.2400000000000002
 42
2.2400000000000002
 43
2.2400000000000002
  0
INSERT
  5
3628
  8
1
 62
     2
  2
_OPEN30
 10
183.37577769457289
 20
115.3433991716052
 30
0.0
 41
2.2400000000000002
 42
2.2400000000000002
 43
2.2400000000000002
 50
180.0
  0
INSERT
  5
3629
  8
0
  2
*U54
 10
0.0
 20
0.0
 30
0.0
  0
POINT
  5
362A
  8
DEFPOINTS
 62
     0
 10
190.37577769457289
 20
134.46531871236809
 30
0.0
  0
POINT
  5
362B
  8
DEFPOINTS
 62
     0
 10
183.37577769457289
 20
134.46531871236809
 30
0.0
  0
POINT
  5
362C
  8
DEFPOINTS
 62
     0
 10
183.37577769457289
 20
115.3433991716052
 30
0.0
  0
ENDBLK
  5
35CF
  8
0
  0
BLOCK
  8
0
  2
*D26
 70
     1
 10
0.0
 20
0.0
 30
0.0
  3
*D26
  1

  0
LINE
  5
362D
  8
1
 62
     2
 10
110.15486113951511
 20
192.46531871236809
 30
0.0
 11
60.531412668811747
 21
192.46531871236809
 31
0.0
  0
LINE
  5
362E
  8
1
 62
     2
 10
110.15486113951511
 20
198.46531871236809
 30
0.0
 11
60.531412668811747
 21
198.46531871236809
 31
0.0
  0
LINE
  5
362F
  8
1
 62
     2
 10
61.531412668811747
 20
194.7053187123681
 30
0.0
 11
61.531412668811747
 21
196.22531871236811
 31
0.0
  0
LINE
  5
3630
  8
1
 62
     2
 10
61.531412668811747
 20
198.46531871236809
 30
0.0
 11
61.531412668811747
 21
200.7053187123681
 31
0.0
  0
INSERT
  5
3631
  8
1
 62
     2
  2
_OPEN30
 10
61.531412668811747
 20
192.46531871236809
 30
0.0
 41
2.2400000000000002
 42
2.2400000000000002
 43
2.2400000000000002
 50
270.0
  0
INSERT
  5
3632
  8
1
 62
     2
  2
_OPEN30
 10
61.531412668811747
 20
198.46531871236809
 30
0.0
 41
2.2400000000000002
 42
2.2400000000000002
 43
2.2400000000000002
 50
90.0
  0
INSERT
  5
3633
  8
0
  2
*U55
 10
0.0
 20
0.0
 30
0.0
  0
POINT
  5
3634
  8
DEFPOINTS
 62
     0
 10
111.15486113951511
 20
192.46531871236809
 30
0.0
  0
POINT
  5
3635
  8
DEFPOINTS
 62
     0
 10
111.15486113951511
 20
198.46531871236809
 30
0.0
  0
POINT
  5
3636
  8
DEFPOINTS
 62
     0
 10
61.531412668811747
 20
198.46531871236809
 30
0.0
  0
ENDBLK
  5
35DC
  8
0
  0
BLOCK
  8
0
  2
*D27
 70
     1
 10
0.0
 20
0.0
 30
0.0
  3
*D27
  1

  0
LINE
  5
3637
  8
1
 62
     2
 10
110.15486113951511
 20
160.96531871236809
 30
0.0
 11
60.531412668811747
 21
160.9653187123682
 31
0.0
  0
LINE
  5
3638
  8
1
 62
     2
 10
110.15486113951511
 20
177.9653187123682
 30
0.0
 11
60.531412668811747
 21
177.9653187123682
 31
0.0
  0
LINE
  5
3639
  8
1
 62
     2
 10
61.53141266881174
 20
163.20531871236821
 30
0.0
 11
61.53141266881174
 21
166.4163187123682
 31
0.0
  0
LINE
  5
363A
  8
1
 62
     2
 10
61.53141266881174
 20
175.72531871236819
 30
0.0
 11
61.53141266881174
 21
172.51431871236821
 31
0.0
  0
INSERT
  5
363B
  8
1
 62
     2
  2
_OPEN30
 10
61.53141266881174
 20
160.9653187123682
 30
0.0
 41
2.2400000000000002
 42
2.2400000000000002
 43
2.2400000000000002
 50
270.0
  0
INSERT
  5
363C
  8
1
 62
     2
  2
_OPEN30
 10
61.531412668811747
 20
177.9653187123682
 30
0.0
 41
2.2400000000000002
 42
2.2400000000000002
 43
2.2400000000000002
 50
90.0
  0
INSERT
  5
363D
  8
0
  2
*U56
 10
0.0
 20
0.0
 30
0.0
  0
POINT
  5
363E
  8
DEFPOINTS
 62
     0
 10
111.15486113951511
 20
160.96531871236809
 30
0.0
  0
POINT
  5
363F
  8
DEFPOINTS
 62
     0
 10
111.15486113951511
 20
177.9653187123682
 30
0.0
  0
POINT
  5
3640
  8
DEFPOINTS
 62
     0
 10
61.531412668811747
 20
177.9653187123682
 30
0.0
  0
ENDBLK
  5
35E9
  8
0
  0
BLOCK
  8
0
  2
*D28
 70
     1
 10
0.0
 20
0.0
 30
0.0
  3
*D28
  1

  0
LINE
  5
365F
  8
1
 62
     2
 10
311.60198121953857
 20
143.465318712368
 30
0.0
 11
269.18773217093963
 21
143.465318712368
 31
0.0
  0
LINE
  5
3660
  8
1
 62
     2
 10
311.60198121953857
 20
195.46531871236809
 30
0.0
 11
269.18773217093963
 21
195.46531871236809
 31
0.0
  0
LINE
  5
3661
  8
1
 62
     2
 10
270.18773217093963
 20
145.70531871236801
 30
0.0
 11
270.18773217093963
 21
167.160318712368
 31
0.0
  0
LINE
  5
3662
  8
1
 62
     2
 10
270.18773217093963
 20
193.22531871236811
 30
0.0
 11
270.18773217093963
 21
171.77031871236809
 31
0.0
  0
INSERT
  5
3663
  8
1
 62
     2
  2
_OPEN30
 10
270.18773217093963
 20
143.465318712368
 30
0.0
 41
2.2400000000000002
 42
2.2400000000000002
 43
2.2400000000000002
 50
270.0
  0
INSERT
  5
3664
  8
1
 62
     2
  2
_OPEN30
 10
270.18773217093963
 20
195.46531871236809
 30
0.0
 41
2.2400000000000002
 42
2.2400000000000002
 43
2.2400000000000002
 50
90.0
  0
INSERT
  5
3665
  8
0
  2
*U58
 10
0.0
 20
0.0
 30
0.0
  0
POINT
  5
3666
  8
DEFPOINTS
 62
     0
 10
312.60198121953857
 20
143.465318712368
 30
0.0
  0
POINT
  5
3667
  8
DEFPOINTS
 62
     0
 10
312.60198121953857
 20
195.46531871236809
 30
0.0
  0
POINT
  5
3668
  8
DEFPOINTS
 62
     0
 10
270.18773217093963
 20
195.46531871236809
 30
0.0
  0
ENDBLK
  5
35F6
  8
0
  0
BLOCK
  8
0
  2
*D29
 70
     1
 10
0.0
 20
0.0
 30
0.0
  3
*D29
  1

  0
LINE
  5
3669
  8
1
 62
     2
 10
314.90198121953881
 20
133.46531871236809
 30
0.0
 11
261.18773217093963
 21
133.46531871236809
 31
0.0
  0
LINE
  5
366A
  8
1
 62
     2
 10
314.90198121953881
 20
205.4653187123682
 30
0.0
 11
261.18773217093963
 21
205.4653187123682
 31
0.0
  0
LINE
  5
366B
  8
1
 62
     2
 10
262.18773217093963
 20
135.70531871236821
 30
0.0
 11
262.18773217093963
 21
166.08031871236821
 31
0.0
  0
LINE
  5
366C
  8
1
 62
     2
 10
262.18773217093963
 20
203.22531871236819
 30
0.0
 11
262.18773217093963
 21
172.85031871236811
 31
0.0
  0
INSERT
  5
366D
  8
1
 62
     2
  2
_OPEN30
 10
262.18773217093963
 20
133.46531871236809
 30
0.0
 41
2.2400000000000002
 42
2.2400000000000002
 43
2.2400000000000002
 50
270.0
  0
INSERT
  5
366E
  8
1
 62
     2
  2
_OPEN30
 10
262.18773217093963
 20
205.4653187123682
 30
0.0
 41
2.2400000000000002
 42
2.2400000000000002
 43
2.2400000000000002
 50
90.0
  0
INSERT
  5
366F
  8
0
  2
*U59
 10
0.0
 20
0.0
 30
0.0
  0
POINT
  5
3670
  8
DEFPOINTS
 62
     0
 10
315.90198121953881
 20
133.46531871236809
 30
0.0
  0
POINT
  5
3671
  8
DEFPOINTS
 62
     0
 10
315.90198121953881
 20
205.4653187123682
 30
0.0
  0
POINT
  5
3672
  8
DEFPOINTS
 62
     0
 10
262.18773217093963
 20
205.4653187123682
 30
0.0
  0
ENDBLK
  5
3603
  8
0
  0
BLOCK
  8
0
  2
*U30
 70
     1
 10
0.0
 20
0.0
 30
0.0
  3
*U30
  1

  0
TEXT
  5
372D
  8
1
 62
     3
 10
1873.17033083707
 20
78.950289389527867
 30
0.0
 40
4.0
  1
S
 41
0.9
  7
CONVERTER_2
  0
ENDBLK
  5
372F
  8
0
  0
BLOCK
  8
0
  2
*U31
 70
     1
 10
0.0
 20
0.0
 30
0.0
  3
*U31
  1

  0
TEXT
  5
3731
  8
1
 62
     3
 10
1835.3830948658249
 20
82.245527484765972
 30
0.0
 40
3.2000000000000002
  1
※当ＣＡＤデータと製品の形状・
 41
0.6230000000000001
  7
CONVERTER_1
  0
TEXT
  5
3732
  8
1
 62
     3
 10
1835.667894865825
 20
76.290479865718325
 30
0.0
 40
3.2000000000000002
  1
　実寸法は異なる場合があります
 41
0.6230000000000001
  7
CONVERTER_1
  0
ENDBLK
  5
3734
  8
0
  0
BLOCK
  8
0
  2
*U32
 70
     1
 10
0.0
 20
0.0
 30
0.0
  3
*U32
  1

  0
TEXT
  5
3736
  8
1
 62
     3
 10
281.29528418689239
 20
214.01580219059849
 30
0.0
 40
3.2000000000000002
  1
重 量
 41
0.6230000000000001
  7
CONVERTER_1
  0
ENDBLK
  5
3738
  8
0
  0
BLOCK
  8
0
  2
*U33
 70
     1
 10
0.0
 20
0.0
 30
0.0
  3
*U33
  1

  0
TEXT
  5
373A
  8
1
 62
     3
 10
185.9745509989018
 20
214.27610739178041
 30
0.0
 40
3.5
  1
照 合
 41
0.6230000000000001
  7
CONVERTER_1
  0
ENDBLK
  5
373C
  8
0
  0
BLOCK
  8
0
  2
*U34
 70
     1
 10
0.0
 20
0.0
 30
0.0
  3
*U34
  1

  0
TEXT
  5
373E
  8
1
 62
     3
 10
204.58809751924599
 20
214.0138553578212
 30
0.0
 40
3.5
  1
品  名
 41
0.6230000000000001
  7
CONVERTER_1
  0
ENDBLK
  5
3740
  8
0
  0
BLOCK
  8
0
  2
*U35
 70
     1
 10
0.0
 20
0.0
 30
0.0
  3
*U35
  1

  0
TEXT
  5
3742
  8
1
 62
     3
 10
230.12499131243521
 20
213.98916405140139
 30
0.0
 40
3.5
  1
材  料
 41
0.6230000000000001
  7
CONVERTER_1
  0
ENDBLK
  5
3744
  8
0
  0
BLOCK
  8
0
  2
*U36
 70
     1
 10
0.0
 20
0.0
 30
0.0
  3
*U36
  1

  0
TEXT
  5
3746
  8
1
 62
     3
 10
243.4501192861326
 20
213.94778079947639
 30
0.0
 40
3.5
  1
１組分数
 41
0.534
  7
CONVERTER_8
  0
ENDBLK
  5
3748
  8
0
  0
BLOCK
  8
0
  2
*U37
 70
     1
 10
0.0
 20
0.0
 30
0.0
  3
*U37
  1

  0
TEXT
  5
374A
  8
1
 62
     3
 10
258.35537817687901
 20
214.43137738817961
 30
0.0
 40
3.5
  1
図 面 番 号
 41
0.6230000000000001
  7
CONVERTER_1
  0
ENDBLK
  5
374C
  8
0
  0
BLOCK
  8
0
  2
*U38
 70
     1
 10
0.0
 20
0.0
 30
0.0
  3
*U38
  1

  0
TEXT
  5
374E
  8
1
 62
     3
 10
299.47155479813182
 20
214.35137738817861
 30
0.0
 40
3.5
  1
記    事
 41
0.6230000000000001
  7
CONVERTER_1
  0
ENDBLK
  5
3750
  8
0
  0
BLOCK
  8
0
  2
*U39
 70
     1
 10
0.0
 20
0.0
 30
0.0
  3
*U39
  1

  0
TEXT
  5
3752
  8
1
 62
     3
 10
130.50087834038121
 20
67.555660948223874
 30
0.0
 40
2.5
  1
2
 41
0.63
  7
CONVERTER_3
  0
ENDBLK
  5
3754
  8
0
  0
BLOCK
  8
0
  2
*U40
 70
     1
 10
0.0
 20
0.0
 30
0.0
  3
*U40
  1

  0
TEXT
  5
3756
  8
1
 62
     3
 10
203.63318551319111
 20
207.74372615785981
 30
0.0
 40
3.2000000000000002
  1
ABS
 41
0.63
  7
CONVERTER_3
  0
ENDBLK
  5
3758
  8
0
  0
BLOCK
  8
0
  2
*U41
 70
     1
 10
0.0
 20
0.0
 30
0.0
  3
*U41
  1

  0
TEXT
  5
375A
  8
1
 62
     3
 10
300.99553208524151
 20
208.02383617103689
 30
0.0
 40
3.2000000000000002
  1
ブラック
 41
0.534
  7
CONVERTER_8
  0
ENDBLK
  5
375C
  8
0
  0
BLOCK
  8
0
  2
*U42
 70
     1
 10
0.0
 20
0.0
 30
0.0
  3
*U42
  1

  0
TEXT
  5
375E
  8
1
 62
     3
 10
212.3617789771013
 20
208.12406337758421
 30
0.0
 40
2.5
  1
1
 41
0.63
  7
CONVERTER_3
  0
ENDBLK
  5
3760
  8
0
  0
BLOCK
  8
0
  2
*U43
 70
     1
 10
0.0
 20
0.0
 30
0.0
  3
*U43
  1

  0
TEXT
  5
3762
  8
1
 62
     3
 10
165.66786607858111
 20
162.25222070052121
 30
0.0
 40
2.5
  1
2
 41
0.63
  7
CONVERTER_3
  0
ENDBLK
  5
3764
  8
0
  0
BLOCK
  8
0
  2
*U44
 70
     1
 10
0.0
 20
0.0
 30
0.0
  3
*U44
  1

  0
TEXT
  5
3766
  8
1
 62
     3
 10
370.28362890468128
 20
280.18246859218681
 30
0.0
 40
3.2000000000000002
  1
重 量
 41
0.6230000000000001
  7
CONVERTER_1
  0
ENDBLK
  5
3768
  8
0
  0
BLOCK
  8
0
  2
*U45
 70
     1
 10
0.0
 20
0.0
 30
0.0
  3
*U45
  1

  0
TEXT
  5
376A
  8
1
 62
     3
 10
274.9628957166907
 20
280.44277379336887
 30
0.0
 40
3.5
  1
照 合
 41
0.6230000000000001
  7
CONVERTER_1
  0
ENDBLK
  5
376C
  8
0
  0
BLOCK
  8
0
  2
*U46
 70
     1
 10
0.0
 20
0.0
 30
0.0
  3
*U46
  1

  0
TEXT
  5
376E
  8
1
 62
     3
 10
293.576442237035
 20
280.18052175940949
 30
0.0
 40
3.5
  1
品  名
 41
0.6230000000000001
  7
CONVERTER_1
  0
ENDBLK
  5
3770
  8
0
  0
BLOCK
  8
0
  2
*U47
 70
     1
 10
0.0
 20
0.0
 30
0.0
  3
*U47
  1

  0
TEXT
  5
3772
  8
1
 62
     3
 10
319.1133360302241
 20
280.15583045298979
 30
0.0
 40
3.5
  1
材  料
 41
0.6230000000000001
  7
CONVERTER_1
  0
ENDBLK
  5
3774
  8
0
  0
BLOCK
  8
0
  2
*U48
 70
     1
 10
0.0
 20
0.0
 30
0.0
  3
*U48
  1

  0
TEXT
  5
3776
  8
1
 62
     3
 10
332.43846400392152
 20
280.11444720106482
 30
0.0
 40
3.5
  1
１組分数
 41
0.534
  7
CONVERTER_8
  0
ENDBLK
  5
3778
  8
0
  0
BLOCK
  8
0
  2
*U49
 70
     1
 10
0.0
 20
0.0
 30
0.0
  3
*U49
  1

  0
TEXT
  5
377A
  8
1
 62
     3
 10
347.34372289466791
 20
280.59804378976798
 30
0.0
 40
3.5
  1
図 面 番 号
 41
0.6230000000000001
  7
CONVERTER_1
  0
ENDBLK
  5
377C
  8
0
  0
BLOCK
  8
0
  2
*U50
 70
     1
 10
0.0
 20
0.0
 30
0.0
  3
*U50
  1

  0
TEXT
  5
377E
  8
1
 62
     3
 10
388.45989951592071
 20
280.51804378976698
 30
0.0
 40
3.5
  1
記    事
 41
0.6230000000000001
  7
CONVERTER_1
  0
ENDBLK
  5
3780
  8
0
  0
BLOCK
  8
0
  2
*U51
 70
     1
 10
0.0
 20
0.0
 30
0.0
  3
*U51
  1

  0
TEXT
  5
3782
  8
1
 62
     3
 10
292.62153023097989
 20
273.91039255944833
 30
0.0
 40
3.2000000000000002
  1
ABS
 41
0.63
  7
CONVERTER_3
  0
ENDBLK
  5
3784
  8
0
  0
BLOCK
  8
0
  2
*U52
 70
     1
 10
0.0
 20
0.0
 30
0.0
  3
*U52
  1

  0
TEXT
  5
3786
  8
1
 62
     3
 10
389.9838768030304
 20
274.19050257262541
 30
0.0
 40
3.2000000000000002
  1
ブラック
 41
0.534
  7
CONVERTER_8
  0
ENDBLK
  5
3788
  8
0
  0
BLOCK
  8
0
  2
*U53
 70
     1
 10
0.0
 20
0.0
 30
0.0
  3
*U53
  1

  0
TEXT
  5
378A
  8
1
 62
     3
 10
181.9107815730805
 20
212.56320125326101
 30
0.0
 40
3.2000000000000002
  1
1.5
 50
0.00013888888889
 41
0.63
  7
CONVERTER_3
  0
ENDBLK
  5
378C
  8
0
  0
BLOCK
  8
0
  2
*U54
 70
     1
 10
0.0
 20
0.0
 30
0.0
  3
*U54
  1

  0
TEXT
  5
378E
  8
1
 62
     3
 10
179.1667815730805
 20
113.7433975426359
 30
0.0
 40
3.2000000000000002
  1
7
 50
0.00013888888889
 41
0.63
  7
CONVERTER_3
  0
ENDBLK
  5
3790
  8
0
  0
BLOCK
  8
0
  2
*U55
 70
     1
 10
0.0
 20
0.0
 30
0.0
  3
*U55
  1

  0
TEXT
  5
3792
  8
1
 62
     3
 10
65.089365049764112
 20
198.80931871236811
 30
0.0
 40
3.2000000000000002
  1
n
 50
90.0
 41
0.63
  7
CONVERTER_3
  0
TEXT
  5
3793
  8
1
 62
     3
 10
65.089365049764112
 20
201.11331871236811
 30
0.0
 40
3.2000000000000002
  1
6
 50
90.0
 41
0.63
  7
CONVERTER_3
  0
ENDBLK
  5
3795
  8
0
  0
BLOCK
  8
0
  2
*U56
 70
     1
 10
0.0
 20
0.0
 30
0.0
  3
*U56
  1

  0
TEXT
  5
3797
  8
1
 62
     3
 10
62.712365049764102
 20
166.89731871236819
 30
0.0
 40
3.2000000000000002
  1
n
 50
90.0
 41
0.63
  7
CONVERTER_3
  0
TEXT
  5
3798
  8
1
 62
     3
 10
62.712365049764102
 20
169.20131871236819
 30
0.0
 40
3.2000000000000002
  1
17
 50
90.0
 41
0.63
  7
CONVERTER_3
  0
ENDBLK
  5
379A
  8
0
  0
BLOCK
  8
0
  2
*U57
 70
     1
 10
0.0
 20
0.0
 30
0.0
  3
*U57
  1

  0
TEXT
  5
379C
  8
1
 62
     3
 10
272.66830706971348
 20
207.7435885396377
 30
0.0
 40
3.2000000000000002
  1
(
 50
45.000000000000519
 41
0.63
  7
CONVERTER_3
  0
TEXT
  5
379D
  8
1
 62
     3
 10
273.61865858362819
 20
208.69394005355241
 30
0.0
 40
3.2000000000000002
  1
n
 50
45.000000000000519
 41
0.63
  7
CONVERTER_3
  0
TEXT
  5
379E
  8
1
 62
     3
 10
275.247832607482
 20
210.3231140774063
 30
0.0
 40
3.2000000000000002
  1
68
 50
45.000000000000519
 41
0.63
  7
CONVERTER_3
  0
ENDBLK
  5
37A0
  8
0
  0
BLOCK
  8
0
  2
*U58
 70
     1
 10
0.0
 20
0.0
 30
0.0
  3
*U58
  1

  0
TEXT
  5
37A2
  8
1
 62
     3
 10
271.78773217093948
 20
167.785318712368
 30
0.0
 40
3.2000000000000002
  1
52
 50
90.0
 41
0.63
  7
CONVERTER_3
  0
ENDBLK
  5
37A4
  8
0
  0
BLOCK
  8
0
  2
*U59
 70
     1
 10
0.0
 20
0.0
 30
0.0
  3
*U59
  1

  0
TEXT
  5
37A6
  8
1
 62
     3
 10
263.36868455189187
 20
166.56131871236821
 30
0.0
 40
3.2000000000000002
  1
n
 50
90.0
 41
0.63
  7
CONVERTER_3
  0
TEXT
  5
37A7
  8
1
 62
     3
 10
263.36868455189187
 20
168.86531871236821
 30
0.0
 40
3.2000000000000002
  1
72
 50
90.0
 41
0.63
  7
CONVERTER_3
  0
ENDBLK
  5
37A9
  8
0
  0
ENDSEC
  0
SECTION
  2
ENTITIES
  0
INSERT
  5
1BB5
  8
0
  2
ZUWAKU-A3H
 10
0.0
 20
0.0
 30
0.0
1001
GENIUS_GENOREF_13
1005
1C93
1001
GENIUS_GENOBJ-N-SDF_13
1002
{
1000
OWNER
1000
GEN
1002
}
1001
GENIUS_GENODEF_13
1002
{
1000
HIER
1070
     0
1002
}
1002
{
1000
MANEDIT
1070
     0
1002
}
1002
{
1000
NOSEL
1070
     0
1002
}
1002
{
1000
BEHIND
1070
     0
1002
}
1002
{
1000
OTHER
1070
     0
1002
}
1002
{
1000
REACTOR
1002
}
1001
GENIUS_GENSCREG_13
1040
1.0
1040
1.0
1011
24.999999999999979
1021
0.0
1031
0.0
1021
8.9999999999999964
1031
0.0
1011
411.99999999999989
1021
0.0
1031
0.0
1021
284.99999999999989
1031
0.0
1070
     3
  0
POINT
  5
1C93
  8
0
 10
0.0
 20
0.0
 30
0.0
1001
GENIUS_GENOENT_13
1002
{
1000
MYREF
1005
1C93
1002
}
1002
{
1000
GRP
1005
0
1002
}
1001
GENIUS_GENOBJ-N-TIT_13
1002
{
1000
OWNER
1000
GEN
1002
}
1001
GENIUS_GENODEF_13
1002
{
1000
HIER
1070
     1
1002
}
1002
{
1000
MANEDIT
1070
     1
1002
}
1002
{
1000
NOSEL
1070
     0
1002
}
1002
{
1000
BEHIND
1070
     0
1002
}
1002
{
1000
OTHER
1070
     0
1002
}
1002
{
1000
REACTOR
1002
}
1001
GENIUS_GENOLIS_13
1002
{
1000
ENT
1005
1BB5
1005
2A9C
1002
}
1001
GENIUS_GENTITLE_13
1002
{
1000
BORDER
1000
C:\Program Files\Autodesk\ACADM 2008\Acadm\gen\Dwg\Format\ZUWAKU-A3H
1002
}
1002
{
1000
TITLE
1000
C:\Program Files\Autodesk\ACADM 2008\Acadm\gen\Dwg\Title\N_Title
1002
}
1002
{
1000
ADDITIONAL1
1000

1002
}
1002
{
1000
ADDITIONAL2
1000

1002
}
1002
{
1000
SCALE
1000
1:1
1002
}
1002
{
1000
TITLESTD
1000
JIS
1002
}
1002
{
1000
HRA
1005
1BB5
1002
}
1002
{
1000
HTIT
1005
2A9C
1002
}
1002
{
1000
GENIUSID
1005
1C93
1002
}
1002
{
1000
INVTXTID
1005
0
1002
}
1002
{
1000
UNCHG
1002
{
1000
GEN-TITLE-SIZ
1000
GEN-TITLE-SCA
1002
}
1002
}
  0
INSERT
  5
20F2
  8
0
 66
     1
  2
A$C1C06296A
 10
135.5000001316065
 20
8.9999998268887005
 30
0.0
  0
ATTRIB
  5
20F3
  8
AM_BOR
 62
     7
 10
249.8107097069896
 20
9.4999999999999893
 30
0.0
 40
3.0
  1

 11
249.8107097069896
 21
10.999999999999989
 31
0.0
  2
SETS｛20｝
 70
     0
 74
     2
1001
AcDbAttr
1070
     0
1070
     1
  0
ATTRIB
  5
20F4
  8
AM_BOR
 62
     7
 10
154.5607097069896
 20
9.4999999999999893
 30
0.0
 40
3.0
  1

 11
154.5607097069896
 21
10.999999999999989
 31
0.0
  2
REMARKS｛20｝
 70
     0
 74
     2
1001
AcDbAttr
1070
     0
1070
     1
  0
ATTRIB
  5
20F5
  8
AM_BOR
 62
     7
 10
249.8107097069896
 20
14.499999999999989
 30
0.0
 40
3.0
  1

 11
249.8107097069896
 21
15.999999999999989
 31
0.0
  2
SETS｛20｝
 70
     0
 74
     2
1001
AcDbAttr
1070
     0
1070
     1
  0
ATTRIB
  5
20F6
  8
AM_BOR
 62
     7
 10
154.5607097069896
 20
14.499999999999989
 30
0.0
 40
3.0
  1

 11
154.5607097069896
 21
15.999999999999989
 31
0.0
  2
REMARKS｛20｝
 70
     0
 74
     2
1001
AcDbAttr
1070
     0
1070
     1
  0
ATTRIB
  5
20F7
  8
AM_BOR
 62
     7
 10
249.8107097069896
 20
19.499999999999989
 30
0.0
 40
3.0
  1

 11
249.8107097069896
 21
20.999999999999989
 31
0.0
  2
SETS｛20｝
 70
     0
 74
     2
1001
AcDbAttr
1070
     0
1070
     1
  0
ATTRIB
  5
20F8
  8
AM_BOR
 62
     7
 10
154.5607097069896
 20
19.499999999999989
 30
0.0
 40
3.0
  1

 11
154.5607097069896
 21
20.999999999999989
 31
0.0
  2
REMARKS｛20｝
 70
     0
 74
     2
1001
AcDbAttr
1070
     0
1070
     1
  0
ATTRIB
  5
20F9
  8
AM_BOR
 62
     7
 10
249.74999999999969
 20
32.499999999999993
 30
0.0
 40
3.0
  1
ET-7
 11
249.74999999999969
 21
33.999999999999993
 31
0.0
  2
ART_NO｛20｝
 70
     0
 74
     2
1001
AcDbAttr
1070
     0
1070
     1
  0
ATTRIB
  5
20FA
  8
AM_BOR
 62
     7
 10
154.49999999999969
 20
32.499999999999993
 30
0.0
 40
3.0
  1
トイレ金物ラッチET-70スペーサ
 11
154.49999999999969
 21
33.999999999999993
 31
0.0
  2
ARTICLE｛20｝
 70
     0
 74
     2
1001
AcDbAttr
1070
     0
1070
     1
  0
ATTRIB
  5
20FB
  8
AM_BOR
 62
     7
 10
249.74999999999969
 20
25.999999999999989
 30
0.0
 40
3.0
  1

 11
249.74999999999969
 21
27.499999999999989
 31
0.0
  2
FINISH｛20｝
 70
     0
 74
     2
1001
AcDbAttr
1070
     0
1070
     1
  0
ATTRIB
  5
20FC
  8
AM_BOR
 62
     7
 10
154.49999999999969
 20
25.999999999999989
 30
0.0
 40
3.0
  1

 11
154.49999999999969
 21
27.499999999999989
 31
0.0
  2
MATERIAK｛20｝
 70
     0
 74
     2
1001
AcDbAttr
1070
     0
1070
     1
  0
SEQEND
  5
20FD
  8
0
  0
INSERT
  5
3485
  8
0
  2
TOP__2
 10
373.27347680458178
 20
59.695753275150352
 30
0.0
  0
INSERT
  5
3486
  8
0
  2
*U44
 10
0.0
 20
0.0
 30
0.0
  0
INSERT
  5
3487
  8
0
  2
*U45
 10
0.0
 20
0.0
 30
0.0
  0
INSERT
  5
3488
  8
0
  2
*U46
 10
0.0
 20
0.0
 30
0.0
  0
INSERT
  5
3489
  8
0
  2
*U47
 10
0.0
 20
0.0
 30
0.0
  0
INSERT
  5
348A
  8
0
  2
*U48
 10
0.0
 20
0.0
 30
0.0
  0
INSERT
  5
348B
  8
0
  2
*U49
 10
0.0
 20
0.0
 30
0.0
  0
INSERT
  5
348C
  8
0
  2
*U50
 10
0.0
 20
0.0
 30
0.0
  0
LINE
  5
348D
  8
1
  6
CONTINUOUS
 62
     2
 10
283.99999999999989
 20
278.99999999999989
 30
0.0
 11
283.99999999999989
 21
272.99999999999989
 31
0.0
  0
LINE
  5
348E
  8
1
  6
CONTINUOUS
 62
     2
 10
313.99999999999989
 20
278.99999999999989
 30
0.0
 11
313.99999999999989
 21
272.99999999999989
 31
0.0
  0
LINE
  5
348F
  8
1
  6
CONTINUOUS
 62
     2
 10
333.99999999999989
 20
278.99999999999989
 30
0.0
 11
333.99999999999989
 21
272.99999999999989
 31
0.0
  0
LINE
  5
3490
  8
1
  6
CONTINUOUS
 62
     2
 10
342.99999999999989
 20
278.99999999999989
 30
0.0
 11
342.99999999999989
 21
272.99999999999989
 31
0.0
  0
LINE
  5
3491
  8
1
  6
CONTINUOUS
 62
     2
 10
369.99999999999989
 20
278.99999999999989
 30
0.0
 11
369.99999999999989
 21
272.99999999999989
 31
0.0
  0
LINE
  5
3492
  8
1
  6
CONTINUOUS
 62
     2
 10
377.99999999999989
 20
278.99999999999989
 30
0.0
 11
377.99999999999989
 21
272.99999999999989
 31
0.0
  0
LINE
  5
3493
  8
1
  6
CONTINUOUS
 62
     2
 10
377.99999999999989
 20
284.99999999999989
 30
0.0
 11
377.99999999999989
 21
278.99999999999989
 31
0.0
  0
LINE
  5
3494
  8
1
  6
CONTINUOUS
 62
     6
 10
369.99999999999989
 20
284.99999999999989
 30
0.0
 11
377.99999999999989
 21
284.99999999999989
 31
0.0
  0
LINE
  5
3495
  8
1
  6
CONTINUOUS
 62
     6
 10
411.99999999999989
 20
272.99999999999989
 30
0.0
 11
411.99999999999989
 21
278.99999999999989
 31
0.0
  0
LINE
  5
3496
  8
1
  6
CONTINUOUS
 62
     2
 10
411.99999999999989
 20
272.99999999999989
 30
0.0
 11
273.99999999999989
 21
272.99999999999989
 31
0.0
  0
LINE
  5
3497
  8
1
  6
CONTINUOUS
 62
     2
 10
283.99999999999989
 20
284.99999999999989
 30
0.0
 11
283.99999999999989
 21
278.99999999999989
 31
0.0
  0
LINE
  5
3498
  8
1
  6
CONTINUOUS
 62
     6
 10
283.99999999999989
 20
284.99999999999989
 30
0.0
 11
313.99999999999989
 21
284.99999999999989
 31
0.0
  0
LINE
  5
3499
  8
1
  6
CONTINUOUS
 62
     2
 10
313.99999999999989
 20
284.99999999999989
 30
0.0
 11
313.99999999999989
 21
278.99999999999989
 31
0.0
  0
LINE
  5
349A
  8
1
  6
CONTINUOUS
 62
     6
 10
313.99999999999989
 20
284.99999999999989
 30
0.0
 11
333.99999999999989
 21
284.99999999999989
 31
0.0
  0
LINE
  5
349B
  8
1
  6
CONTINUOUS
 62
     2
 10
333.99999999999989
 20
284.99999999999989
 30
0.0
 11
333.99999999999989
 21
278.99999999999989
 31
0.0
  0
LINE
  5
349C
  8
1
  6
CONTINUOUS
 62
     6
 10
333.99999999999989
 20
284.99999999999989
 30
0.0
 11
342.99999999999989
 21
284.99999999999989
 31
0.0
  0
LINE
  5
349D
  8
1
  6
CONTINUOUS
 62
     2
 10
342.99999999999989
 20
284.99999999999989
 30
0.0
 11
342.99999999999989
 21
278.99999999999989
 31
0.0
  0
LINE
  5
349E
  8
1
  6
CONTINUOUS
 62
     6
 10
342.99999999999989
 20
284.99999999999989
 30
0.0
 11
369.99999999999989
 21
284.99999999999989
 31
0.0
  0
LINE
  5
349F
  8
1
  6
CONTINUOUS
 62
     2
 10
369.99999999999989
 20
284.99999999999989
 30
0.0
 11
369.99999999999989
 21
278.99999999999989
 31
0.0
  0
LINE
  5
34A0
  8
1
  6
CONTINUOUS
 62
     2
 10
369.99999999999989
 20
284.99999999999989
 30
0.0
 11
369.99999999999989
 21
278.99999999999989
 31
0.0
  0
LINE
  5
34A1
  8
1
  6
CONTINUOUS
 62
     6
 10
377.99999999999989
 20
284.99999999999989
 30
0.0
 11
411.99999999999989
 21
284.99999999999989
 31
0.0
  0
LINE
  5
34A2
  8
1
  6
CONTINUOUS
 62
     2
 10
273.99999999999989
 20
284.99999999999989
 30
0.0
 11
273.99999999999989
 21
278.99999999999989
 31
0.0
  0
LINE
  5
34A3
  8
1
  6
CONTINUOUS
 62
     6
 10
273.99999999999989
 20
284.99999999999989
 30
0.0
 11
283.99999999999989
 21
284.99999999999989
 31
0.0
  0
LINE
  5
34A4
  8
1
  6
CONTINUOUS
 62
     6
 10
411.99999999999989
 20
278.99999999999989
 30
0.0
 11
411.99999999999989
 21
284.99999999999989
 31
0.0
  0
LINE
  5
34A5
  8
1
  6
CONTINUOUS
 62
     2
 10
273.99999999999989
 20
278.99999999999989
 30
0.0
 11
283.99999999999989
 21
278.99999999999989
 31
0.0
  0
LINE
  5
34A6
  8
1
  6
CONTINUOUS
 62
     2
 10
273.99999999999989
 20
278.99999999999989
 30
0.0
 11
283.99999999999989
 21
278.99999999999989
 31
0.0
  0
LINE
  5
34A8
  8
1
  6
CONTINUOUS
 62
     2
 10
369.99999999999989
 20
278.99999999999989
 30
0.0
 11
369.99999999999989
 21
272.99999999999989
 31
0.0
  0
LINE
  5
34A9
  8
1
  6
CONTINUOUS
 62
     2
 10
273.99999999999989
 20
278.99999999999989
 30
0.0
 11
273.99999999999989
 21
272.99999999999989
 31
0.0
  0
LINE
  5
34AA
  8
1
  6
CONTINUOUS
 62
     2
 10
283.99999999999989
 20
278.99999999999989
 30
0.0
 11
313.99999999999989
 21
278.99999999999989
 31
0.0
  0
LINE
  5
34AB
  8
1
  6
CONTINUOUS
 62
     2
 10
283.99999999999989
 20
278.99999999999989
 30
0.0
 11
313.99999999999989
 21
278.99999999999989
 31
0.0
  0
LINE
  5
34AC
  8
1
  6
CONTINUOUS
 62
     2
 10
313.99999999999989
 20
278.99999999999989
 30
0.0
 11
333.99999999999989
 21
278.99999999999989
 31
0.0
  0
LINE
  5
34AD
  8
1
  6
CONTINUOUS
 62
     2
 10
313.99999999999989
 20
278.99999999999989
 30
0.0
 11
333.99999999999989
 21
278.99999999999989
 31
0.0
  0
LINE
  5
34AE
  8
1
  6
CONTINUOUS
 62
     2
 10
333.99999999999989
 20
278.99999999999989
 30
0.0
 11
342.99999999999989
 21
278.99999999999989
 31
0.0
  0
LINE
  5
34AF
  8
1
  6
CONTINUOUS
 62
     2
 10
333.99999999999989
 20
278.99999999999989
 30
0.0
 11
342.99999999999989
 21
278.99999999999989
 31
0.0
  0
LINE
  5
34B0
  8
1
  6
CONTINUOUS
 62
     2
 10
342.99999999999989
 20
278.99999999999989
 30
0.0
 11
369.99999999999989
 21
278.99999999999989
 31
0.0
  0
LINE
  5
34B1
  8
1
  6
CONTINUOUS
 62
     2
 10
342.99999999999989
 20
278.99999999999989
 30
0.0
 11
369.99999999999989
 21
278.99999999999989
 31
0.0
  0
LINE
  5
34B2
  8
1
  6
CONTINUOUS
 62
     2
 10
369.99999999999989
 20
278.99999999999989
 30
0.0
 11
377.99999999999989
 21
278.99999999999989
 31
0.0
  0
LINE
  5
34B3
  8
1
  6
CONTINUOUS
 62
     2
 10
369.99999999999989
 20
278.99999999999989
 30
0.0
 11
377.99999999999989
 21
278.99999999999989
 31
0.0
  0
LINE
  5
34B4
  8
1
  6
CONTINUOUS
 62
     2
 10
377.99999999999989
 20
278.99999999999989
 30
0.0
 11
411.99999999999989
 21
278.99999999999989
 31
0.0
  0
LINE
  5
34B5
  8
1
  6
CONTINUOUS
 62
     2
 10
377.99999999999989
 20
278.99999999999989
 30
0.0
 11
411.99999999999989
 21
278.99999999999989
 31
0.0
  0
LINE
  5
34B6
  8
1
  6
CONTINUOUS
 62
     2
 10
369.99999999999989
 20
272.99999999999989
 30
0.0
 11
377.99999999999989
 21
272.99999999999989
 31
0.0
  0
LINE
  5
34B7
  8
1
  6
CONTINUOUS
 62
     2
 10
369.99999999999989
 20
272.99999999999989
 30
0.0
 11
377.99999999999989
 21
272.99999999999989
 31
0.0
  0
LINE
  5
34B8
  8
1
  6
CONTINUOUS
 62
     2
 10
377.99999999999989
 20
278.99999999999989
 30
0.0
 11
377.99999999999989
 21
272.99999999999989
 31
0.0
  0
LINE
  5
34B9
  8
1
  6
CONTINUOUS
 62
     2
 10
283.99999999999989
 20
272.99999999999989
 30
0.0
 11
313.99999999999989
 21
272.99999999999989
 31
0.0
  0
LINE
  5
34BA
  8
1
  6
CONTINUOUS
 62
     2
 10
283.99999999999989
 20
272.99999999999989
 30
0.0
 11
313.99999999999989
 21
272.99999999999989
 31
0.0
  0
LINE
  5
34BB
  8
1
  6
CONTINUOUS
 62
     2
 10
273.99999999999989
 20
272.99999999999989
 30
0.0
 11
283.99999999999989
 21
272.99999999999989
 31
0.0
  0
LINE
  5
34BC
  8
1
  6
CONTINUOUS
 62
     2
 10
273.99999999999989
 20
272.99999999999989
 30
0.0
 11
283.99999999999989
 21
272.99999999999989
 31
0.0
  0
LINE
  5
34BD
  8
1
  6
CONTINUOUS
 62
     2
 10
283.99999999999989
 20
278.99999999999989
 30
0.0
 11
283.99999999999989
 21
272.99999999999989
 31
0.0
  0
LINE
  5
34BE
  8
1
  6
CONTINUOUS
 62
     2
 10
273.99999999999989
 20
272.99999999999989
 30
0.0
 11
283.99999999999989
 21
272.99999999999989
 31
0.0
  0
LINE
  5
34BF
  8
1
  6
CONTINUOUS
 62
     2
 10
273.99999999999989
 20
272.99999999999989
 30
0.0
 11
283.99999999999989
 21
272.99999999999989
 31
0.0
  0
LINE
  5
34C0
  8
1
  6
CONTINUOUS
 62
     2
 10
273.99999999999989
 20
278.99999999999989
 30
0.0
 11
273.99999999999989
 21
272.99999999999989
 31
0.0
  0
LINE
  5
34C4
  8
1
  6
CONTINUOUS
 62
     7
 10
191.87577769457289
 20
140.19366006445409
 30
0.0
 11
191.87577769457289
 21
153.5653187123682
 31
0.0
  0
LINE
  5
34C5
  8
1
  6
CONTINUOUS
 62
     7
 10
191.87577769457289
 20
198.73697736028231
 30
0.0
 11
191.87577769457289
 21
197.00492655271319
 31
0.0
  0
LINE
  5
34C6
  8
1
  6
CONTINUOUS
 62
     7
 10
190.37577769457289
 20
198.73697736028231
 30
0.0
 11
190.37577769457289
 21
197.00492655271319
 31
0.0
  0
LINE
  5
34C7
  8
1
  6
CONTINUOUS
 62
     7
 10
190.37577769457289
 20
198.73697736028231
 30
0.0
 11
191.87577769457289
 21
198.73697736028231
 31
0.0
  0
LINE
  5
34C8
  8
1
  6
CONTINUOUS
 62
     7
 10
190.37577769457289
 20
185.36531871236821
 30
0.0
 11
190.37577769457289
 21
179.46531871236809
 31
0.0
  0
LINE
  5
34C9
  8
1
  6
CONTINUOUS
 62
     7
 10
190.37577769457289
 20
185.36531871236821
 30
0.0
 11
191.87577769457289
 21
185.36531871236821
 31
0.0
  0
LINE
  5
34CA
  8
1
  6
CONTINUOUS
 62
     7
 10
190.37577769457289
 20
140.19366006445409
 30
0.0
 11
190.37577769457289
 21
137.41531871236799
 31
0.0
  0
LINE
  5
34CB
  8
1
  6
CONTINUOUS
 62
     7
 10
190.37577769457289
 20
140.19366006445409
 30
0.0
 11
191.87577769457289
 21
140.19366006445409
 31
0.0
  0
LINE
  5
34CC
  8
1
  6
CONTINUOUS
 62
     7
 10
190.37577769457289
 20
153.5653187123682
 30
0.0
 11
190.37577769457289
 21
152.5653187123682
 31
0.0
  0
LINE
  5
34CD
  8
1
  6
CONTINUOUS
 62
     7
 10
190.37577769457289
 20
153.5653187123682
 30
0.0
 11
191.87577769457289
 21
153.5653187123682
 31
0.0
  0
LINE
  5
34CE
  8
1
  6
CONTINUOUS
 62
     7
 10
190.37577769457289
 20
152.5653187123682
 30
0.0
 11
190.37577769457289
 21
149.51531871236801
 31
0.0
  0
LINE
  5
34CF
  8
1
  6
CONTINUOUS
 62
     7
 10
190.37577769457289
 20
152.5653187123682
 30
0.0
 11
191.87577769457289
 21
152.5653187123682
 31
0.0
  0
LINE
  5
34D0
  8
1
  6
DOT_CENTER
 62
     2
 10
315.90198121953881
 20
192.16531871236811
 30
0.0
 11
315.90198121953881
 21
198.7653187123681
 31
0.0
  0
LINE
  5
34D1
  8
1
  6
DOT_CENTER
 62
     2
 10
319.20198121953871
 20
195.46531871236809
 30
0.0
 11
312.60198121953857
 21
195.46531871236809
 31
0.0
  0
LINE
  5
34D2
  8
1
  6
DOT_CENTER
 62
     2
 10
315.90198121953881
 20
140.16531871236811
 30
0.0
 11
315.90198121953881
 21
146.76531871236801
 31
0.0
  0
LINE
  5
34D3
  8
1
  6
DOT_CENTER
 62
     2
 10
319.20198121953871
 20
143.465318712368
 30
0.0
 11
312.60198121953857
 21
143.465318712368
 31
0.0
  0
LINE
  5
34D4
  8
1
  6
DASHED
 62
     2
 10
186.37577769457289
 20
180.86707296335959
 30
0.0
 11
183.37577769457289
 21
180.86707296335959
 31
0.0
  0
LINE
  5
34D5
  8
1
  6
DASHED
 62
     2
 10
187.37577769457289
 20
188.65584369305691
 30
0.0
 11
187.37577769457289
 21
181.86707296335959
 31
0.0
  0
LINE
  5
34D6
  8
1
  6
CONTINUOUS
 62
     7
 10
80.584287052657587
 20
167.96531871236809
 30
0.0
 11
97.370812387424849
 21
167.96531871236809
 31
0.0
  0
LINE
  5
34D7
  8
1
  6
CONTINUOUS
 62
     7
 10
97.370812387424849
 20
170.9653187123682
 30
0.0
 11
80.584287052657587
 21
170.9653187123682
 31
0.0
  0
LINE
  5
34D8
  8
1
  6
CONTINUOUS
 62
     7
 10
112.65486113951511
 20
183.24936746445829
 30
0.0
 11
112.65486113951511
 21
187.67109007830771
 31
0.0
  0
LINE
  5
34D9
  8
1
  6
CONTINUOUS
 62
     7
 10
109.65486113951511
 20
187.67109007830811
 30
0.0
 11
109.65486113951511
 21
183.2493674644584
 31
0.0
  0
LINE
  5
34DA
  8
1
  6
CONTINUOUS
 62
     7
 10
109.65486113951511
 20
155.68126996027789
 30
0.0
 11
109.65486113951511
 21
151.25954734642801
 31
0.0
  0
LINE
  5
34DB
  8
1
  6
CONTINUOUS
 62
     7
 10
112.65486113951511
 20
151.25954734642789
 30
0.0
 11
112.65486113951511
 21
155.68126996027789
 31
0.0
  0
LINE
  5
34DC
  8
1
  6
CONTINUOUS
 62
     7
 10
124.93890989160511
 20
167.96531871236809
 30
0.0
 11
141.7254352263717
 21
167.96531871236809
 31
0.0
  0
LINE
  5
34DD
  8
1
  6
CONTINUOUS
 62
     7
 10
124.93890989160511
 20
170.9653187123682
 30
0.0
 11
141.7254352263717
 21
170.9653187123682
 31
0.0
  0
LINE
  5
34DE
  8
1
  6
CONTINUOUS
 62
     7
 10
183.37577769457289
 20
204.4653187123682
 30
0.0
 11
190.37577769457289
 21
204.4653187123682
 31
0.0
  0
LINE
  5
34DF
  8
1
  6
CONTINUOUS
 62
     7
 10
190.37577769457289
 20
204.4653187123682
 30
0.0
 11
190.37577769457289
 21
200.9543247705902
 31
0.0
  0
LINE
  5
34E0
  8
1
  6
CONTINUOUS
 62
     7
 10
190.37577769457289
 20
134.46531871236809
 30
0.0
 11
183.37577769457289
 21
134.46531871236809
 31
0.0
  0
LINE
  5
34E1
  8
1
  6
CONTINUOUS
 62
     7
 10
183.37577769457289
 20
134.46531871236809
 30
0.0
 11
183.37577769457289
 21
137.41531871236799
 31
0.0
  0
LINE
  5
34E2
  8
1
  6
DOT_CENTER
 62
     2
 10
177.3917974507537
 20
169.4653187123682
 30
0.0
 11
196.2885771680937
 21
169.4653187123682
 31
0.0
  0
LINE
  5
34E3
  8
1
  6
DOT_CENTER
 62
     2
 10
178.65158276524309
 20
143.465318712368
 30
0.0
 11
195.2138455249837
 21
143.465318712368
 31
0.0
  0
LINE
  5
34E4
  8
1
  6
DOT_CENTER
 62
     2
 10
178.65158276524309
 20
195.46531871236809
 30
0.0
 11
196.7885771680937
 21
195.46531871236809
 31
0.0
  0
LINE
  5
34E5
  8
1
  6
DASHED
 62
     2
 10
183.37577769457289
 20
198.46531871236809
 30
0.0
 11
190.37577769457289
 21
198.46531871236809
 31
0.0
  0
LINE
  5
34E6
  8
1
  6
CONTINUOUS
 62
     7
 10
190.37577769457289
 20
200.9543247705902
 30
0.0
 11
190.37577769457289
 21
198.73697736028231
 31
0.0
  0
LINE
  5
34E7
  8
1
  6
CONTINUOUS
 62
     7
 10
183.37577769457289
 20
200.9543247705902
 30
0.0
 11
183.37577769457289
 21
204.4653187123682
 31
0.0
  0
LINE
  5
34E8
  8
1
  6
DASHED
 62
     2
 10
183.37577769457289
 20
192.46531871236809
 30
0.0
 11
190.37577769457289
 21
192.46531871236809
 31
0.0
  0
LINE
  5
34E9
  8
1
  6
CONTINUOUS
 62
     7
 10
183.37577769457289
 20
180.86707296335959
 30
0.0
 11
183.37577769457289
 21
189.65584369305691
 31
0.0
  0
LINE
  5
34EA
  8
1
  6
CONTINUOUS
 62
     7
 10
190.37577769457289
 20
189.41531871236811
 30
0.0
 11
190.37577769457289
 21
188.82393215484541
 31
0.0
  0
LINE
  5
34EB
  8
1
  6
DASHED
 62
     2
 10
183.37577769457289
 20
177.9653187123682
 30
0.0
 11
190.37577769457289
 21
177.9653187123682
 31
0.0
  0
LINE
  5
34EC
  8
1
  6
CONTINUOUS
 62
     7
 10
183.37577769457289
 20
179.46531871236809
 30
0.0
 11
183.37577769457289
 21
180.86707296335959
 31
0.0
  0
LINE
  5
34ED
  8
1
  6
CONTINUOUS
 62
     7
 10
190.37577769457289
 20
179.46531871236809
 30
0.0
 11
190.37577769457289
 21
159.46531871236809
 31
0.0
  0
LINE
  5
34EE
  8
1
  6
DASHED
 62
     2
 10
183.37577769457289
 20
160.96531871236809
 30
0.0
 11
190.37577769457289
 21
160.96531871236809
 31
0.0
  0
LINE
  5
34EF
  8
1
  6
CONTINUOUS
 62
     7
 10
183.37577769457289
 20
159.46531871236809
 30
0.0
 11
183.37577769457289
 21
179.46531871236809
 31
0.0
  0
LINE
  5
34F0
  8
1
  6
CONTINUOUS
 62
     7
 10
190.37577769457289
 20
159.46531871236809
 30
0.0
 11
190.37577769457289
 21
153.5653187123682
 31
0.0
  0
LINE
  5
34F1
  8
1
  6
DASHED
 62
     2
 10
183.37577769457289
 20
146.465318712368
 30
0.0
 11
190.37577769457289
 21
146.465318712368
 31
0.0
  0
LINE
  5
34F2
  8
1
  6
CONTINUOUS
 62
     7
 10
190.37577769457289
 20
149.51531871236801
 30
0.0
 11
190.37577769457289
 21
140.19366006445409
 31
0.0
  0
LINE
  5
34F3
  8
1
  6
DASHED
 62
     2
 10
190.37577769457289
 20
140.465318712368
 30
0.0
 11
183.37577769457289
 21
140.465318712368
 31
0.0
  0
LINE
  5
34F4
  8
1
  6
CONTINUOUS
 62
     7
 10
183.37577769457289
 20
137.41531871236799
 30
0.0
 11
183.37577769457289
 21
159.46531871236809
 31
0.0
  0
LINE
  5
34F5
  8
1
  6
CONTINUOUS
 62
     7
 10
190.37577769457289
 20
137.41531871236799
 30
0.0
 11
190.37577769457289
 21
134.46531871236809
 31
0.0
  0
LINE
  5
34F6
  8
1
  6
DOT_CENTER
 62
     2
 10
114.45486113951461
 20
195.46531871236809
 30
0.0
 11
107.8548611395149
 21
195.46531871236809
 31
0.0
  0
LINE
  5
34F7
  8
1
  6
DOT_CENTER
 62
     2
 10
111.15486113951511
 20
198.7653187123681
 30
0.0
 11
111.15486113951511
 21
192.16531871236811
 31
0.0
  0
LINE
  5
34F8
  8
1
  6
DOT_CENTER
 62
     2
 10
114.45486113951461
 20
143.465318712368
 30
0.0
 11
107.8548611395149
 21
143.465318712368
 31
0.0
  0
LINE
  5
34F9
  8
1
  6
DOT_CENTER
 62
     2
 10
111.15486113951511
 20
146.76531871236801
 30
0.0
 11
111.15486113951511
 21
140.16531871236811
 31
0.0
  0
LINE
  5
34FA
  8
1
  6
DOT_CENTER
 62
     2
 10
359.10198121953857
 20
169.4653187123682
 30
0.0
 11
272.70198121953882
 21
169.4653187123682
 31
0.0
  0
LINE
  5
34FB
  8
1
  6
DOT_CENTER
 62
     2
 10
315.90198121953881
 20
212.66531871236819
 30
0.0
 11
315.90198121953881
 21
126.2653187123681
 31
0.0
  0
LINE
  5
34FC
  8
1
  6
CONTINUOUS
 62
     7
 10
300.001981219539
 20
141.9257108720231
 30
0.0
 11
299.00198121953889
 21
140.19366006445409
 31
0.0
  0
LINE
  5
34FD
  8
1
  6
CONTINUOUS
 62
     7
 10
286.6303225716245
 20
152.5653187123682
 30
0.0
 11
288.36237337919368
 21
153.5653187123682
 31
0.0
  0
LINE
  5
34FE
  8
1
  6
CONTINUOUS
 62
     7
 10
331.80198121953867
 20
197.00492655271319
 30
0.0
 11
332.80198121953867
 21
198.73697736028231
 31
0.0
  0
LINE
  5
34FF
  8
1
  6
CONTINUOUS
 62
     7
 10
343.4415890598836
 20
185.36531871236821
 30
0.0
 11
345.17363986745272
 21
186.36531871236821
 31
0.0
  0
LINE
  5
3500
  8
1
  6
DOT_CENTER
 62
     2
 10
154.3548611395149
 20
169.4653187123682
 30
0.0
 11
67.954861139514605
 21
169.4653187123682
 31
0.0
  0
LINE
  5
3501
  8
1
  6
DOT_CENTER
 62
     2
 10
111.15486113951511
 20
212.66531871236819
 30
0.0
 11
111.15486113951511
 21
126.2653187123681
 31
0.0
  0
LINE
  5
3502
  8
1
  6
DASHED
 62
     2
 10
183.37577769457289
 20
189.65584369305691
 30
0.0
 11
186.37577769457289
 21
189.65584369305691
 31
0.0
  0
LINE
  5
3503
  8
1
  6
CONTINUOUS
 62
     7
 10
183.37577769457289
 20
189.65584369305691
 30
0.0
 11
183.37577769457289
 21
200.9543247705902
 31
0.0
  0
LINE
  5
3504
  8
1
  6
DASHED
 62
     2
 10
187.37577769457289
 20
157.06356446137681
 30
0.0
 11
187.37577769457289
 21
150.27479373167941
 31
0.0
  0
LINE
  5
3505
  8
1
  6
DASHED
 62
     2
 10
183.37577769457289
 20
158.06356446137681
 30
0.0
 11
186.37577769457289
 21
158.06356446137681
 31
0.0
  0
LINE
  5
3506
  8
1
  6
DASHED
 62
     2
 10
186.37577769457289
 20
149.27479373167941
 30
0.0
 11
183.37577769457289
 21
149.27479373167941
 31
0.0
  0
LINE
  5
3507
  8
1
  6
DOT_CENTER
 62
     2
 10
287.4583048412278
 20
197.90899509067961
 30
0.0
 11
345.51937560486181
 21
139.84792432704521
 31
0.0
  0
LINE
  5
3508
  8
1
  6
DOT_CENTER
 62
     2
 10
287.24326383840281
 20
140.8066013312316
 30
0.0
 11
344.71338222785039
 21
198.27671972068009
 31
0.0
  0
LINE
  5
3509
  8
1
  6
CONTINUOUS
 62
     7
 10
335.26059466201559
 20
144.23668249110699
 30
0.0
 11
336.47811752003389
 21
142.64997581052441
 31
0.0
  0
LINE
  5
350A
  8
1
  6
CONTINUOUS
 62
     7
 10
341.13061744079982
 20
150.10670526989091
 30
0.0
 11
342.71732412138272
 21
148.88918241187329
 31
0.0
  0
LINE
  5
350B
  8
1
  6
CONTINUOUS
 62
     7
 10
289.08663831769451
 20
190.04145501286291
 30
0.0
 11
290.67334499827763
 21
188.82393215484541
 31
0.0
  0
LINE
  5
350C
  8
1
  6
CONTINUOUS
 62
     7
 10
295.3258449190439
 20
196.28066161421191
 30
0.0
 11
296.5433677770618
 21
194.69395493362941
 31
0.0
  0
LINE
  5
350D
  8
1
  6
CONTINUOUS
 62
     7
 10
137.36452654876479
 20
187.81752400587919
 30
0.0
 11
138.092511400755
 21
188.3272644869453
 31
0.0
  0
LINE
  5
350E
  8
1
  6
CONTINUOUS
 62
     7
 10
138.86429094238181
 20
185.46336546814439
 30
0.0
 11
139.63393240246111
 21
185.90771817230089
 31
0.0
  0
LINE
  5
350F
  8
1
  6
CONTINUOUS
 62
     7
 10
129.50706643302581
 20
195.674984121618
 30
0.0
 11
130.016806914092
 21
196.40296897360841
 31
0.0
  0
LINE
  5
3510
  8
1
  6
CONTINUOUS
 62
     7
 10
127.1529078952908
 20
197.17474851523491
 30
0.0
 11
127.59726059944791
 21
197.94438997531469
 31
0.0
  0
LINE
  5
3511
  8
1
  6
CONTINUOUS
 62
     7
 10
84.945195730265127
 20
151.1131134188571
 30
0.0
 11
84.217210878274486
 21
150.60337293779099
 31
0.0
  0
LINE
  5
3512
  8
1
  6
CONTINUOUS
 62
     7
 10
83.445431336647985
 20
153.46727195659199
 30
0.0
 11
82.675789876567933
 21
153.02291925243551
 31
0.0
  0
LINE
  5
3513
  8
1
  6
CONTINUOUS
 62
     7
 10
92.802655846003987
 20
143.25565330311841
 30
0.0
 11
92.292915364937926
 21
142.52766845112779
 31
0.0
  0
LINE
  5
3514
  8
1
  6
CONTINUOUS
 62
     7
 10
95.156814383738734
 20
141.75588890950141
 30
0.0
 11
94.712461679581793
 21
140.9862474494216
 31
0.0
  0
LINE
  5
3515
  8
1
  6
CONTINUOUS
 62
     7
 10
125.6807836225378
 20
140.956590645034
 30
0.0
 11
126.08424743497881
 21
140.16474832814549
 31
0.0
  0
LINE
  5
3516
  8
1
  6
CONTINUOUS
 62
     7
 10
123.4737236380531
 20
138.97506409319371
 30
0.0
 11
123.14080873249461
 21
139.7990573992476
 31
0.0
  0
LINE
  5
3517
  8
1
  6
CONTINUOUS
 62
     7
 10
139.66358920684891
 20
154.93939622934519
 30
0.0
 11
140.45543152373759
 21
154.53593241690399
 31
0.0
  0
LINE
  5
3518
  8
1
  6
CONTINUOUS
 62
     7
 10
141.6451157586898
 20
157.14645621382999
 30
0.0
 11
140.82112245263511
 21
157.47937111938859
 31
0.0
  0
LINE
  5
3519
  8
1
  6
CONTINUOUS
 62
     7
 10
98.835998640976868
 20
199.9555733315425
 30
0.0
 11
99.168913546534895
 21
199.1315800254886
 31
0.0
  0
LINE
  5
351A
  8
1
  6
CONTINUOUS
 62
     7
 10
96.628938656491982
 20
197.97404677970249
 30
0.0
 11
96.225474844050495
 21
198.76588909659051
 31
0.0
  0
LINE
  5
351B
  8
1
  6
CONTINUOUS
 62
     7
 10
81.854290755291899
 20
184.39470500783219
 30
0.0
 11
82.646133072181115
 21
183.9912411953911
 31
0.0
  0
LINE
  5
351C
  8
1
  6
CONTINUOUS
 62
     7
 10
81.488599826395102
 20
181.4512663053477
 30
0.0
 11
80.66460652034084
 21
181.78418121090621
 31
0.0
  0
LINE
  5
351D
  8
1
  6
CONTINUOUS
 62
     7
 10
191.87577769457289
 20
188.82393215484541
 30
0.0
 11
190.37577769457289
 21
188.82393215484541
 31
0.0
  0
LINE
  5
351E
  8
1
  6
CONTINUOUS
 62
     7
 10
191.87577769457289
 20
188.82393215484541
 30
0.0
 11
191.87577769457289
 21
185.36531871236821
 31
0.0
  0
LINE
  5
351F
  8
1
  6
CONTINUOUS
 62
     7
 10
190.37577769457289
 20
188.82393215484541
 30
0.0
 11
190.37577769457289
 21
185.36531871236821
 31
0.0
  0
LINE
  5
3520
  8
1
  6
CONTINUOUS
 62
     7
 10
190.37577769457289
 20
190.04145501286291
 30
0.0
 11
191.87577769457289
 21
190.04145501286291
 31
0.0
  0
LINE
  5
3521
  8
1
  6
CONTINUOUS
 62
     7
 10
191.87577769457289
 20
190.04145501286291
 30
0.0
 11
191.87577769457289
 21
188.82393215484541
 31
0.0
  0
LINE
  5
3522
  8
1
  6
CONTINUOUS
 62
     7
 10
190.37577769457289
 20
190.04145501286291
 30
0.0
 11
190.37577769457289
 21
189.41531871236811
 31
0.0
  0
LINE
  5
3523
  8
1
  6
CONTINUOUS
 62
     7
 10
191.87577769457289
 20
196.28066161421191
 30
0.0
 11
190.37577769457289
 21
196.28066161421191
 31
0.0
  0
LINE
  5
3524
  8
1
  6
CONTINUOUS
 62
     7
 10
191.87577769457289
 20
196.28066161421191
 30
0.0
 11
191.87577769457289
 21
190.04145501286291
 31
0.0
  0
LINE
  5
3525
  8
1
  6
CONTINUOUS
 62
     7
 10
190.37577769457289
 20
196.28066161421191
 30
0.0
 11
190.37577769457289
 21
190.04145501286291
 31
0.0
  0
LINE
  5
3526
  8
1
  6
CONTINUOUS
 62
     7
 10
190.37577769457289
 20
197.00492655271319
 30
0.0
 11
191.87577769457289
 21
197.00492655271319
 31
0.0
  0
LINE
  5
3527
  8
1
  6
CONTINUOUS
 62
     7
 10
191.87577769457289
 20
197.00492655271319
 30
0.0
 11
191.87577769457289
 21
196.28066161421191
 31
0.0
  0
LINE
  5
3528
  8
1
  6
CONTINUOUS
 62
     7
 10
190.37577769457289
 20
197.00492655271319
 30
0.0
 11
190.37577769457289
 21
196.28066161421191
 31
0.0
  0
ARC
  5
352F
  8
1
  6
CONTINUOUS
 62
     7
 10
315.90198121953881
 20
169.4653187123682
 30
0.0
 40
10.0
 50
90.0
 51
180.0
  0
ARC
  5
3530
  8
1
  6
CONTINUOUS
 62
     7
 10
315.90198121953881
 20
169.4653187123682
 30
0.0
 40
10.0
 50
180.0
 51
270.0
  0
ARC
  5
3531
  8
1
  6
CONTINUOUS
 62
     7
 10
315.90198121953881
 20
169.4653187123682
 30
0.0
 40
10.0
 50
270.0
 51
90.0
  0
ARC
  5
3532
  8
1
  6
CONTINUOUS
 62
     7
 10
315.90198121953881
 20
195.46531871236809
 30
0.0
 40
3.0
 50
270.0
 51
90.0
  0
ARC
  5
3533
  8
1
  6
CONTINUOUS
 62
     7
 10
315.90198121953881
 20
195.46531871236809
 30
0.0
 40
3.0
 50
180.0
 51
270.0
  0
ARC
  5
3534
  8
1
  6
CONTINUOUS
 62
     7
 10
315.90198121953881
 20
195.46531871236809
 30
0.0
 40
3.0
 50
90.0
 51
180.0
  0
ARC
  5
3535
  8
1
  6
CONTINUOUS
 62
     7
 10
111.15486113951511
 20
195.46531871236809
 30
0.0
 40
2.9999999999999791
 50
120.0000000000001
 51
270.0
  0
ARC
  5
3536
  8
1
  6
CONTINUOUS
 62
     7
 10
111.15486113951511
 20
195.46531871236809
 30
0.0
 40
3.0
 50
270.0
 51
0.0
  0
ARC
  5
3537
  8
1
  6
CONTINUOUS
 62
     7
 10
111.15486113951511
 20
195.46531871236809
 30
0.0
 40
2.9999999999999791
 50
59.999999999999858
 51
90.0
  0
ARC
  5
3538
  8
1
  6
CONTINUOUS
 62
     7
 10
315.90198121953881
 20
169.4653187123682
 30
0.0
 40
31.79999999999993
 50
209.99999999999719
 51
239.99999999999989
  0
ARC
  5
3539
  8
1
  6
CONTINUOUS
 62
     7
 10
315.90198121953881
 20
169.4653187123682
 30
0.0
 40
33.799999999999883
 50
225.00000000000469
 51
239.99999999999989
  0
ARC
  5
353A
  8
1
  6
CONTINUOUS
 62
     7
 10
315.90198121953881
 20
169.4653187123682
 30
0.0
 40
31.799999999999741
 50
29.999999999997229
 51
59.999999999999972
  0
ARC
  5
353B
  8
1
  6
CONTINUOUS
 62
     7
 10
315.90198121953881
 20
169.4653187123682
 30
0.0
 40
33.799999999999763
 50
45.000000000004668
 51
60.000000000000469
  0
ARC
  5
353C
  8
1
  6
CONTINUOUS
 62
     7
 10
315.90198121953881
 20
169.4653187123682
 30
0.0
 40
33.799999999999912
 50
29.999999999997229
 51
45.000000000004668
  0
ARC
  5
353D
  8
1
  6
CONTINUOUS
 62
     7
 10
315.90198121953881
 20
169.4653187123682
 30
0.0
 40
33.800000000000082
 50
209.99999999999719
 51
225.00000000000469
  0
ARC
  5
353E
  8
1
  6
CONTINUOUS
 62
     7
 10
111.15486113951511
 20
169.4653187123682
 30
0.0
 40
33.899999999999913
 50
339.74178132028533
 51
351.62617536299888
  0
ARC
  5
353F
  8
1
  6
CONTINUOUS
 62
     7
 10
111.15486113951511
 20
195.46531871236809
 30
0.0
 40
3.0
 50
90.0
 51
120.0000000000001
  0
ARC
  5
3540
  8
1
  6
CONTINUOUS
 62
     7
 10
111.15486113951511
 20
195.46531871236809
 30
0.0
 40
3.0
 50
0.0
 51
59.999999999999858
  0
ARC
  5
3541
  8
1
  6
CONTINUOUS
 62
     7
 10
111.15486113951511
 20
169.4653187123682
 30
0.0
 40
33.899999999999032
 50
159.7417813202845
 51
171.62617536299879
  0
ARC
  5
3542
  8
1
  6
CONTINUOUS
 62
     7
 10
111.15486113951511
 20
143.465318712368
 30
0.0
 40
6.0
 50
0.0
 51
59.999999999999858
  0
ARC
  5
3543
  8
1
  6
CONTINUOUS
 62
     7
 10
111.15486113951511
 20
143.465318712368
 30
0.0
 40
5.9999999999998881
 50
334.99666968256111
 51
0.0
  0
ARC
  5
3544
  8
1
  6
CONTINUOUS
 62
     7
 10
111.15486113951511
 20
195.46531871236809
 30
0.0
 40
6.0000000000001803
 50
154.99666968256111
 51
239.9999999999998
  0
ARC
  5
3545
  8
1
  6
CONTINUOUS
 62
     7
 10
111.15486113951511
 20
195.46531871236809
 30
0.0
 40
5.9999999999999813
 50
299.99999999999989
 51
0.0
  0
ARC
  5
3546
  8
1
  6
CONTINUOUS
 62
     7
 10
119.3114101268709
 20
139.6612802508298
 30
0.0
 40
3.000000000000179
 50
154.99666968256199
 51
285.30552061456223
  0
ARC
  5
3547
  8
1
  6
CONTINUOUS
 62
     7
 10
102.9983121521586
 20
139.6612802508298
 30
0.0
 40
2.9999999999997899
 50
254.6944793854378
 51
25.003330317439449
  0
ARC
  5
3548
  8
1
  6
CONTINUOUS
 62
     7
 10
111.15486113951511
 20
169.4653187123682
 30
0.0
 40
33.899999999999928
 50
241.7417813202818
 51
254.69447938542439
  0
ARC
  5
3549
  8
1
  6
CONTINUOUS
 62
     7
 10
111.15486113951511
 20
143.465318712368
 30
0.0
 40
5.9999999999999813
 50
120.0000000000001
 51
205.0033303174373
  0
ARC
  5
354A
  8
1
  6
CONTINUOUS
 62
     7
 10
119.3114101268709
 20
199.2693571739066
 30
0.0
 40
2.9999999999997899
 50
74.694479385437816
 51
205.00333031743801
  0
ARC
  5
354B
  8
1
  6
CONTINUOUS
 62
     7
 10
111.15486113951511
 20
169.4653187123682
 30
0.0
 40
33.899999999999849
 50
61.741781320282122
 51
74.694479385424401
  0
ARC
  5
354C
  8
1
  6
CONTINUOUS
 62
     7
 10
111.15486113951511
 20
195.46531871236809
 30
0.0
 40
6.0
 50
0.0
 51
25.003330317439449
  0
ARC
  5
354D
  8
1
  6
CONTINUOUS
 62
     7
 10
102.9983121521586
 20
199.2693571739066
 30
0.0
 40
2.9999999999999698
 50
334.99666968256048
 51
105.3055206145622
  0
ARC
  5
354E
  8
1
  6
CONTINUOUS
 62
     7
 10
111.15486113951511
 20
169.4653187123682
 30
0.0
 40
36.0
 50
90.0
 51
270.0
  0
ARC
  5
354F
  8
1
  6
CONTINUOUS
 62
     7
 10
111.15486113951511
 20
169.4653187123682
 30
0.0
 40
36.0
 50
270.0
 51
272.38801546327312
  0
ARC
  5
3550
  8
1
  6
CONTINUOUS
 62
     7
 10
111.15486113951511
 20
169.4653187123682
 30
0.0
 40
36.0
 50
272.38801546327312
 51
90.0
  0
ARC
  5
3551
  8
1
  6
CONTINUOUS
 62
     7
 10
111.15486113951511
 20
169.4653187123682
 30
0.0
 40
11.49999999999975
 50
198.08001262442551
 51
251.91998737557111
  0
ARC
  5
3552
  8
1
  6
CONTINUOUS
 62
     7
 10
111.15486113951511
 20
169.4653187123682
 30
0.0
 40
11.499999999999799
 50
288.08001262442849
 51
341.91998737557441
  0
ARC
  5
3553
  8
1
  6
CONTINUOUS
 62
     7
 10
111.15486113951511
 20
169.4653187123682
 30
0.0
 40
11.5
 50
108.0800126244289
 51
161.91998737557441
  0
ARC
  5
3554
  8
1
  6
CONTINUOUS
 62
     7
 10
111.15486113951511
 20
169.4653187123682
 30
0.0
 40
11.49999999999954
 50
18.080012624425549
 51
71.919987375571097
  0
ARC
  5
3555
  8
1
  6
CONTINUOUS
 62
     7
 10
111.15486113951511
 20
169.4653187123682
 30
0.0
 40
8.5
 50
90.0
 51
270.0
  0
ARC
  5
3556
  8
1
  6
CONTINUOUS
 62
     7
 10
111.15486113951511
 20
169.4653187123682
 30
0.0
 40
8.5
 50
270.0
 51
0.0
  0
ARC
  5
3557
  8
1
  6
CONTINUOUS
 62
     7
 10
111.15486113951511
 20
169.4653187123682
 30
0.0
 40
8.5
 50
0.0
 51
90.0
  0
ARC
  5
3558
  8
1
  6
CONTINUOUS
 62
     7
 10
315.90198121953881
 20
169.4653187123682
 30
0.0
 40
31.799999999999741
 50
307.499999999995
 51
322.50000000000318
  0
ARC
  5
3559
  8
1
  6
CONTINUOUS
 62
     7
 10
315.90198121953881
 20
169.4653187123682
 30
0.0
 40
33.800000000000132
 50
307.499999999995
 51
322.50000000000318
  0
ARC
  5
355A
  8
1
  6
CONTINUOUS
 62
     7
 10
315.90198121953881
 20
169.4653187123682
 30
0.0
 40
31.79999999999977
 50
127.499999999995
 51
142.50000000000321
  0
ARC
  5
355B
  8
1
  6
CONTINUOUS
 62
     7
 10
315.90198121953881
 20
169.4653187123682
 30
0.0
 40
33.800000000000203
 50
127.5000000000053
 51
142.50000000000381
  0
ARC
  5
355C
  8
1
  6
CONTINUOUS
 62
     7
 10
111.15486113951511
 20
169.4653187123682
 30
0.0
 40
31.499999999999929
 50
30.895282986568802
 51
34.104717013427837
  0
ARC
  5
355D
  8
1
  6
CONTINUOUS
 62
     7
 10
111.15486113951511
 20
169.4653187123682
 30
0.0
 40
33.899999999999473
 50
8.3738246370011531
 51
28.258218679713689
  0
ARC
  5
355E
  8
1
  6
CONTINUOUS
 62
     7
 10
111.15486113951511
 20
169.4653187123682
 30
0.0
 40
33.899999999999586
 50
36.741781320285142
 51
53.258218679715192
  0
ARC
  5
355F
  8
1
  6
CONTINUOUS
 62
     7
 10
111.15486113951511
 20
169.4653187123682
 30
0.0
 40
31.499999999999869
 50
55.895282986567203
 51
59.104717013431753
  0
ARC
  5
3560
  8
1
  6
CONTINUOUS
 62
     7
 10
111.15486113951511
 20
169.4653187123682
 30
0.0
 40
31.50000000000011
 50
210.89528298656879
 51
214.1047170134278
  0
ARC
  5
3561
  8
1
  6
CONTINUOUS
 62
     7
 10
111.15486113951511
 20
169.4653187123682
 30
0.0
 40
33.8999999999997
 50
188.37382463700109
 51
208.25821867971311
  0
ARC
  5
3562
  8
1
  6
CONTINUOUS
 62
     7
 10
111.15486113951511
 20
169.4653187123682
 30
0.0
 40
33.8999999999998
 50
216.7417813202851
 51
233.25821867971581
  0
ARC
  5
3563
  8
1
  6
CONTINUOUS
 62
     7
 10
111.15486113951511
 20
169.4653187123682
 30
0.0
 40
31.49999999999984
 50
235.89528298656711
 51
239.10471701343181
  0
ARC
  5
3564
  8
1
  6
CONTINUOUS
 62
     7
 10
111.15486113951511
 20
169.4653187123682
 30
0.0
 40
31.500000000000089
 50
292.89528298656711
 51
296.10471701343602
  0
ARC
  5
3565
  8
1
  6
CONTINUOUS
 62
     7
 10
111.15486113951511
 20
169.4653187123682
 30
0.0
 40
33.899999999999771
 50
285.30552061457558
 51
290.25821867970939
  0
ARC
  5
3566
  8
1
  6
CONTINUOUS
 62
     7
 10
111.15486113951511
 20
169.4653187123682
 30
0.0
 40
33.899999999999473
 50
298.74178132028578
 51
331.25821867971149
  0
ARC
  5
3567
  8
1
  6
CONTINUOUS
 62
     7
 10
111.15486113951511
 20
169.4653187123682
 30
0.0
 40
31.50000000000016
 50
333.89528298656791
 51
337.10471701343113
  0
ARC
  5
3568
  8
1
  6
CONTINUOUS
 62
     7
 10
111.15486113951511
 20
169.4653187123682
 30
0.0
 40
33.8999999999998
 50
105.3055206145756
 51
110.2582186797094
  0
ARC
  5
3569
  8
1
  6
CONTINUOUS
 62
     7
 10
111.15486113951511
 20
169.4653187123682
 30
0.0
 40
31.50000000000011
 50
112.8952829865671
 51
116.1047170134361
  0
ARC
  5
356A
  8
1
  6
CONTINUOUS
 62
     7
 10
111.15486113951511
 20
169.4653187123682
 30
0.0
 40
33.899999999999316
 50
118.7417813202858
 51
151.25821867971149
  0
ARC
  5
356B
  8
1
  6
CONTINUOUS
 62
     7
 10
111.15486113951511
 20
169.4653187123682
 30
0.0
 40
31.50000000000038
 50
153.89528298656791
 51
157.1047170134311
  0
ARC
  5
356C
  8
1
  6
CONTINUOUS
 62
     7
 10
315.90198121953881
 20
169.4653187123682
 30
0.0
 40
36.0
 50
0.0
 51
90.0
  0
ARC
  5
356D
  8
1
  6
CONTINUOUS
 62
     7
 10
315.90198121953881
 20
169.4653187123682
 30
0.0
 40
36.0
 50
270.0
 51
0.0
  0
ARC
  5
356E
  8
1
  6
CONTINUOUS
 62
     7
 10
315.90198121953881
 20
169.4653187123682
 30
0.0
 40
36.0
 50
90.0
 51
270.0
  0
CIRCLE
  5
356F
  8
1
  6
CONTINUOUS
 62
     7
 10
315.90198121953881
 20
143.465318712368
 30
0.0
 40
3.0
  0
CIRCLE
  5
3570
  8
1
  6
CONTINUOUS
 62
     7
 10
111.15486113951511
 20
143.465318712368
 30
0.0
 40
3.0
  0
ARC
  5
3571
  8
1
  6
DASHED
 62
     2
 10
186.37577769457289
 20
181.86707296335959
 30
0.0
 40
1.0
 50
270.0
 51
0.0
  0
ARC
  5
3572
  8
1
  6
CONTINUOUS
 62
     7
 10
141.7254352263717
 20
164.96531871236809
 30
0.0
 40
2.9999999999992202
 50
351.62617536299638
 51
90.0
  0
ARC
  5
3573
  8
1
  6
CONTINUOUS
 62
     7
 10
141.7254352263717
 20
173.96531871236809
 30
0.0
 40
3.0
 50
270.0
 51
8.3738246370036276
  0
ARC
  5
3574
  8
1
  6
CONTINUOUS
 62
     7
 10
80.584287052657587
 20
173.96531871236809
 30
0.0
 40
2.9999999999994391
 50
171.6261753629972
 51
270.0
  0
ARC
  5
3575
  8
1
  6
CONTINUOUS
 62
     7
 10
80.584287052657587
 20
164.96531871236809
 30
0.0
 40
3.0
 50
90.0
 51
188.3738246370028
  0
ARC
  5
3576
  8
1
  6
CONTINUOUS
 62
     7
 10
115.65486113951511
 20
187.6710900783082
 30
0.0
 40
2.9999999999999791
 50
120.0000000000001
 51
180.0000000000073
  0
ARC
  5
3577
  8
1
  6
CONTINUOUS
 62
     7
 10
106.65486113951511
 20
187.6710900783082
 30
0.0
 40
3.0
 50
359.99999999999761
 51
59.999999999999858
  0
ARC
  5
3578
  8
1
  6
CONTINUOUS
 62
     7
 10
115.65486113951511
 20
151.25954734642801
 30
0.0
 40
3.0
 50
180.00000000000239
 51
240.0
  0
ARC
  5
3579
  8
1
  6
CONTINUOUS
 62
     7
 10
106.65486113951511
 20
151.25954734642801
 30
0.0
 40
3.0000000000000688
 50
299.9999999999996
 51
0.0
  0
ARC
  5
357A
  8
1
  6
CONTINUOUS
 62
     7
 10
124.93890989160511
 20
164.96531871236809
 30
0.0
 40
3.0
 50
90.0
 51
161.91998737557699
  0
ARC
  5
357B
  8
1
  6
CONTINUOUS
 62
     7
 10
124.93890989160511
 20
173.96531871236809
 30
0.0
 40
3.0000000000002789
 50
198.08001262442221
 51
270.0
  0
ARC
  5
357C
  8
1
  6
CONTINUOUS
 62
     7
 10
115.65486113951511
 20
183.24936746445829
 30
0.0
 40
3.0
 50
180.0
 51
251.9199873755702
  0
ARC
  5
357D
  8
1
  6
CONTINUOUS
 62
     7
 10
106.65486113951511
 20
183.2493674644584
 30
0.0
 40
3.0000000000000902
 50
288.08001262442951
 51
0.0
  0
ARC
  5
357E
  8
1
  6
CONTINUOUS
 62
     7
 10
97.370812387424849
 20
173.96531871236809
 30
0.0
 40
3.0
 50
270.0
 51
341.91998737557611
  0
ARC
  5
357F
  8
1
  6
CONTINUOUS
 62
     7
 10
97.370812387424849
 20
164.96531871236809
 30
0.0
 40
3.0000000000000688
 50
18.08001262442388
 51
90.0
  0
ARC
  5
3580
  8
1
  6
CONTINUOUS
 62
     7
 10
106.65486113951511
 20
155.68126996027789
 30
0.0
 40
3.0
 50
0.0
 51
71.919987375570585
  0
ARC
  5
3581
  8
1
  6
CONTINUOUS
 62
     7
 10
115.65486113951511
 20
155.68126996027789
 30
0.0
 40
3.000000000000179
 50
108.0800126244298
 51
180.0
  0
ARC
  5
3582
  8
1
  6
DASHED
 62
     2
 10
186.37577769457289
 20
188.65584369305691
 30
0.0
 40
1.0
 50
0.0
 51
90.0
  0
ARC
  5
3583
  8
1
  6
DASHED
 62
     2
 10
186.37577769457289
 20
157.06356446137681
 30
0.0
 40
1.0
 50
0.0
 51
90.0
  0
ARC
  5
3584
  8
1
  6
DASHED
 62
     2
 10
186.37577769457289
 20
157.06356446137681
 30
0.0
 40
1.0
 50
0.0
 51
90.0
  0
ARC
  5
3585
  8
1
  6
DASHED
 62
     2
 10
186.37577769457289
 20
150.27479373167941
 30
0.0
 40
1.0
 50
270.0
 51
0.0
  0
ARC
  5
3586
  8
1
  6
CONTINUOUS
 62
     7
 10
91.473763320648914
 20
143.10124488747891
 30
0.0
 40
1.0000000000000591
 50
233.25821867970151
 51
325.00000000000261
  0
ARC
  5
3587
  8
1
  6
CONTINUOUS
 62
     7
 10
95.578487083367008
 20
140.4862474494216
 30
0.0
 40
1.0000000000004801
 50
150.00000000001461
 51
241.74178132026699
  0
ARC
  5
3588
  8
1
  6
CONTINUOUS
 62
     7
 10
84.790787314625732
 20
149.78422089350209
 30
0.0
 40
0.9999999999999699
 50
124.9999999999974
 51
216.74178132028629
  0
ARC
  5
3589
  8
1
  6
CONTINUOUS
 62
     7
 10
82.175789876567933
 20
153.88894465621991
 30
0.0
 40
0.99999999999976
 50
208.25821867971729
 51
300.0000000000004
  0
ARC
  5
358A
  8
1
  6
CONTINUOUS
 62
     7
 10
140.13393240246111
 20
185.0416927685165
 30
0.0
 40
0.9999999999999598
 50
28.258218679712229
 51
120.0000000000001
  0
ARC
  5
358B
  8
1
  6
CONTINUOUS
 62
     7
 10
137.5189349644038
 20
189.14641653123419
 30
0.0
 40
0.9999999999999699
 50
304.99999999999739
 51
36.741781320283671
  0
ARC
  5
358C
  8
1
  6
CONTINUOUS
 62
     7
 10
130.83595895838101
 20
195.82939253725729
 30
0.0
 40
1.0000000000000591
 50
53.258218679701521
 51
144.99999999999989
  0
ARC
  5
358D
  8
1
  6
CONTINUOUS
 62
     7
 10
126.73123519566251
 20
198.44438997531469
 30
0.0
 40
1.0000000000004801
 50
330.00000000001472
 51
61.741781320267009
  0
ARC
  5
358E
  8
1
  6
CONTINUOUS
 62
     7
 10
93.21223186814791
 20
142.96886508494279
 30
0.0
 40
0.50000000000045
 50
55.89528298648748
 51
144.99999999997451
  0
ARC
  5
358F
  8
1
  6
CONTINUOUS
 62
     7
 10
94.723801681847135
 20
142.00588890950129
 30
0.0
 40
0.4999999999995901
 50
329.99999999998693
 51
59.104717013449282
  0
ARC
  5
3590
  8
1
  6
CONTINUOUS
 62
     7
 10
84.658407512089752
 20
151.5226894410016
 30
0.0
 40
0.4999999999998
 50
304.99999999996533
 51
34.104717013451889
  0
ARC
  5
3591
  8
1
  6
CONTINUOUS
 62
     7
 10
83.695431336647957
 20
153.03425925469969
 30
0.0
 40
0.5000000000002302
 50
30.895282986561131
 51
120.0000000000001
  0
ARC
  5
3592
  8
1
  6
CONTINUOUS
 62
     7
 10
137.65131476694
 20
187.4079479837346
 30
0.0
 40
0.49999999999967
 50
124.99999999994741
 51
214.1047170134668
  0
ARC
  5
3593
  8
1
  6
CONTINUOUS
 62
     7
 10
138.61429094238181
 20
185.8963781700366
 30
0.0
 40
0.5000000000002302
 50
210.89528298656111
 51
299.99999999999989
  0
ARC
  5
3594
  8
1
  6
CONTINUOUS
 62
     7
 10
129.09749041088179
 20
195.96177233979361
 30
0.0
 40
0.50000000000045
 50
235.8952829864875
 51
324.99999999995703
  0
ARC
  5
3595
  8
1
  6
CONTINUOUS
 62
     7
 10
127.58592059718281
 20
196.92474851523491
 30
0.0
 40
0.4999999999998401
 50
149.9999999999882
 51
239.10471701343079
  0
ARC
  5
3596
  8
1
  6
CONTINUOUS
 62
     7
 10
126.9752539591677
 20
140.61873882788501
 30
0.0
 40
1.0000000000004701
 50
206.9999999999836
 51
298.74178132025588
  0
ARC
  5
3597
  8
1
  6
CONTINUOUS
 62
     7
 10
122.5465397834859
 20
138.60045749977769
 30
0.0
 40
1.000000000000089
 50
290.2582186797224
 51
21.999999999989839
  0
ARC
  5
3598
  8
1
  6
CONTINUOUS
 62
     7
 10
140.00144102399781
 20
153.64492589271561
 30
0.0
 40
1.00000000000031
 50
331.2582186797286
 51
62.999999999982208
  0
ARC
  5
3599
  8
1
  6
CONTINUOUS
 62
     7
 10
142.01972235210579
 20
158.07364006839691
 30
0.0
 40
1.0000000000000691
 50
247.9999999999921
 51
339.74178132028089
  0
ARC
  5
359A
  8
1
  6
CONTINUOUS
 62
     7
 10
139.8905844567189
 20
155.3848994914394
 30
0.0
 40
0.49999999999985
 50
153.89528298656069
 51
242.99999999998221
  0
ARC
  5
359B
  8
1
  6
CONTINUOUS
 62
     7
 10
140.6338191559266
 20
157.01577919210521
 30
0.0
 40
0.5000000000000301
 50
67.999999999992099
 51
157.1047170134139
  0
ARC
  5
359C
  8
1
  6
CONTINUOUS
 62
     7
 10
125.23528036044399
 20
140.72959539516421
 30
0.0
 40
0.4999999999998601
 50
27.00000000001415
 51
116.1047170134221
  0
ARC
  5
359D
  8
1
  6
CONTINUOUS
 62
     7
 10
123.6044006597776
 20
139.98636069595571
 30
0.0
 40
0.49999999999992
 50
112.8952829865529
 51
202.00000000001981
  0
ARC
  5
359E
  8
1
  6
CONTINUOUS
 62
     7
 10
99.763182495543788
 20
200.33017992495829
 30
0.0
 40
1.0000000000000091
 50
110.2582186797229
 51
201.99999999999289
  0
ARC
  5
359F
  8
1
  6
CONTINUOUS
 62
     7
 10
95.334468319862481
 20
198.31189859685111
 30
0.0
 40
0.9999999999996699
 50
27.000000000009049
 51
118.7417813202858
  0
ARC
  5
35A0
  8
1
  6
CONTINUOUS
 62
     7
 10
82.308281255031943
 20
185.28571153202071
 30
0.0
 40
1.000000000000119
 50
151.2582186797226
 51
242.9999999999844
  0
ARC
  5
35A1
  8
1
  6
CONTINUOUS
 62
     7
 10
80.289999926925034
 20
180.85699735633929
 30
0.0
 40
1.0000000000000691
 50
67.999999999992099
 51
159.74178132028089
  0
ARC
  5
35A2
  8
1
  6
CONTINUOUS
 62
     7
 10
81.675903123102898
 20
181.91485823263119
 30
0.0
 40
0.5000000000000301
 50
247.9999999999921
 51
337.1047170134056
  0
ARC
  5
35A3
  8
1
  6
CONTINUOUS
 62
     7
 10
82.419137822310645
 20
183.54573793329689
 30
0.0
 40
0.4999999999996501
 50
333.89528298655108
 51
62.999999999982208
  0
ARC
  5
35A4
  8
1
  6
CONTINUOUS
 62
     7
 10
97.074441918585777
 20
198.20104202957219
 30
0.0
 40
0.49999999999985
 50
207.00000000001199
 51
296.10471701343738
  0
ARC
  5
35A5
  8
1
  6
CONTINUOUS
 62
     7
 10
98.705321619251905
 20
198.94427672878069
 30
0.0
 40
0.49999999999992
 50
292.89528298655279
 51
22.000000000019789
  0
INSERT
  5
35A7
  8
0
  2
*U51
 10
0.0
 20
0.0
 30
0.0
  0
INSERT
  5
35A8
  8
0
  2
*U52
 10
0.0
 20
0.0
 30
0.0
  0
DIMENSION
  5
35AB
  8
1
  2
*D23
 10
250.41074059005621
 20
187.15614093363979
 30
0.0
 11
274.31094979416127
 21
211.05635013774511
 31
0.0
 70
     1
  1
({\Fgdt;n}68
 53
45.000000000000533
 13
339.80219042364388
 23
193.36552791647361
 33
0.0
 14
292.00177201543369
 24
145.56510950826279
 34
0.0
  0
DIMENSION
  5
35AC
  8
1
  2
*D24
 10
190.37577769457289
 20
214.16320532569119
 30
0.0
 11
183.5907776945661
 21
214.16320532569119
 31
0.0
 70
     0
  1
<>
 53
0.00013888888889
 13
191.87577769457289
 23
198.73697736028231
 33
0.0
 14
190.37577769457289
 24
204.4653187123682
 34
0.0
  0
DIMENSION
  5
35AD
  8
1
  2
*D25
 10
183.37577769457289
 20
115.3433991716052
 30
0.0
 11
179.8387776945691
 21
115.3433991716052
 31
0.0
 70
     0
  1
7
 53
0.00013888888889
 13
190.37577769457289
 23
134.46531871236809
 33
0.0
 14
183.37577769457289
 24
134.46531871236809
 34
0.0
  0
DIMENSION
  5
35AE
  8
1
  2
*D26
 10
61.531412668811747
 20
198.46531871236809
 30
0.0
 11
63.908412668811728
 21
200.7053187123681
 31
0.0
 70
     0
  1
<>
 53
90.0
 13
111.15486113951511
 23
192.46531871236809
 33
0.0
 14
111.15486113951511
 24
198.46531871236809
 34
0.0
 50
90.0
  0
DIMENSION
  5
35AF
  8
1
  2
*D27
 10
61.531412668811747
 20
177.9653187123682
 30
0.0
 11
61.531412668811718
 21
169.4653187123682
 31
0.0
 70
     0
  1
<>
 53
90.0
 13
111.15486113951511
 23
160.96531871236809
 33
0.0
 14
111.15486113951511
 24
177.9653187123682
 34
0.0
 50
90.0
  0
DIMENSION
  5
35B0
  8
1
  2
*D28
 10
270.18773217093963
 20
195.46531871236809
 30
0.0
 11
270.18773217093963
 21
169.46531871236809
 31
0.0
 70
     0
  1
<>
 53
90.0
 13
312.60198121953857
 23
143.465318712368
 33
0.0
 14
312.60198121953857
 24
195.46531871236809
 34
0.0
 50
90.0
  0
DIMENSION
  5
35B1
  8
1
  2
*D29
 10
262.18773217093963
 20
205.4653187123682
 30
0.0
 11
262.18773217093963
 21
169.4653187123682
 31
0.0
 70
     0
  1
<>
 53
90.0
 13
315.90198121953881
 23
133.46531871236809
 33
0.0
 14
315.90198121953881
 24
205.4653187123682
 34
0.0
 50
90.0
  0
VIEWPORT
  5
95A
 67
     1
  8
0
  6
CONTINUOUS
 10
128.5
 20
97.5
 30
0.0
 40
386.73855140186919
 41
222.18000000000001
 68
     1
 69
     1
1001
ACAD
1000
MVIEW
1002
{
1070
    16
1010
0.0
1020
0.0
1030
0.0
1010
0.0
1020
0.0
1030
1.0
1040
0.0
1040
222.18000000000001
1040
128.5
1040
97.5
1040
50.0
1040
0.0
1040
0.0
1070
     0
1070
   100
1070
     1
1070
     1
1070
     0
1070
     0
1070
     0
1070
     0
1040
0.0
1040
0.0
1040
0.0
1040
10.0
1040
10.0
1040
10.0
1040
10.0
1070
     0
1002
{
1002
}
1002
}
1001
GENIUS_GENODEF_13
1002
{
1000
HIER
1070
     0
1002
}
1002
{
1000
MANEDIT
1070
     0
1002
}
1002
{
1000
NOSEL
1070
     0
1002
}
1002
{
1000
BEHIND
1070
     0
1002
}
1002
{
1000
OTHER
1070
     0
1002
}
1002
{
1000
REACTOR
1002
}
1001
GENIUS_GENOBJ-N-SDF_13
1002
{
1000
OWNER
1000
GEN
1002
}
1001
GENIUS_GENSCREG_15
1000
PF
1040
1.0
1000
DF
1040
1.0
1000
MIN
1011
-64.869275700934566
1021
0.0
1031
0.0
1021
-13.59
1031
0.0
1000
MAX
1011
321.86927570093462
1021
0.0
1031
0.0
1021
208.59
1031
0.0
1000
FLAGS
1070
     4
  0
ENDSEC
  0
EOF
