  0
SECTION
  2
HEADER
  9
$ACADVER
  1
AC1009
  9
$INSBASE
 10
0.0
 20
0.0
 30
0.0
  9
$EXTMIN
 10
24.97638633321538
 20
8.9831592453939493
 30
-0.000000000000013
  9
$EXTMAX
 10
412.02362583177768
 20
285.01684943041528
 30
0.0000000000000023
  9
$LIMMIN
 10
24.999999999999979
 20
8.9999999999999964
  9
$LIMMAX
 10
411.99999999999989
 20
284.99999999999989
  9
$ORTHOMODE
 70
     1
  9
$REGENMODE
 70
     1
  9
$FILLMODE
 70
     1
  9
$QTEXTMODE
 70
     0
  9
$MIRRTEXT
 70
     1
  9
$DRAGMODE
 70
     2
  9
$LTSCALE
 40
5.0
  9
$OSMODE
 70
    39
  9
$ATTMODE
 70
     1
  9
$TEXTSIZE
 40
3.0
  9
$TRACEWID
 40
0.05
  9
$TEXTSTYLE
  7
STANDARD
  9
$CLAYER
  8
0
  9
$CELTYPE
  6
BYLAYER
  9
$CECOLOR
 62
   256
  9
$DIMSCALE
 40
1.0
  9
$DIMASZ
 40
2.5
  9
$DIMEXO
 40
1.0
  9
$DIMDLI
 40
7.0
  9
$DIMRND
 40
0.0
  9
$DIMDLE
 40
0.0
  9
$DIMEXE
 40
1.0
  9
$DIMTP
 40
0.1
  9
$DIMTM
 40
0.1
  9
$DIMTXT
 40
3.0
  9
$DIMCEN
 40
0.0
  9
$DIMTSZ
 40
0.0
  9
$DIMTOL
 70
     0
  9
$DIMLIM
 70
     0
  9
$DIMTIH
 70
     0
  9
$DIMTOH
 70
     0
  9
$DIMSE1
 70
     0
  9
$DIMSE2
 70
     0
  9
$DIMTAD
 70
     3
  9
$DIMZIN
 70
     8
  9
$DIMBLK
  1
OPEN30
  9
$DIMASO
 70
     1
  9
$DIMSHO
 70
     1
  9
$DIMPOST
  1

  9
$DIMAPOST
  1
"
  9
$DIMALT
 70
     0
  9
$DIMALTD
 70
     2
  9
$DIMALTF
 40
0.0393701
  9
$DIMLFAC
 40
1.0
  9
$DIMTOFL
 70
     1
  9
$DIMTVP
 40
0.0
  9
$DIMTIX
 70
     0
  9
$DIMSOXD
 70
     0
  9
$DIMSAH
 70
     0
  9
$DIMBLK1
  1

  9
$DIMBLK2
  1

  9
$DIMSTYLE
  2
AM_JIS
  9
$DIMCLRD
 70
     7
  9
$DIMCLRE
 70
     7
  9
$DIMCLRT
 70
     7
  9
$DIMTFAC
 40
0.71
  9
$DIMGAP
 40
1.0
  9
$LUNITS
 70
     2
  9
$LUPREC
 70
     4
  9
$SKETCHINC
 40
0.1
  9
$FILLETRAD
 40
0.0
  9
$AUNITS
 70
     0
  9
$AUPREC
 70
     0
  9
$MENU
  1
acad
  9
$ELEVATION
 40
0.0
  9
$PELEVATION
 40
0.0
  9
$THICKNESS
 40
0.0
  9
$LIMCHECK
 70
     0
  9
$BLIPMODE
 70
     0
  9
$CHAMFERA
 40
0.0
  9
$CHAMFERB
 40
0.0
  9
$SKPOLY
 70
     0
  9
$TDCREATE
 40
2455755.6568701151
  9
$TDUPDATE
 40
2457176.38636669
  9
$TDINDWG
 40
0.1959816667
  9
$TDUSRTIMER
 40
0.1959814815
  9
$USRTIMER
 70
     1
  9
$ANGBASE
 50
0.0
  9
$ANGDIR
 70
     0
  9
$PDMODE
 70
     0
  9
$PDSIZE
 40
0.0
  9
$PLINEWID
 40
0.0
  9
$COORDS
 70
     1
  9
$SPLFRAME
 70
     0
  9
$SPLINETYPE
 70
     6
  9
$SPLINESEGS
 70
     8
  9
$ATTDIA
 70
     1
  9
$ATTREQ
 70
     1
  9
$HANDLING
 70
     1
  9
$HANDSEED
  5
45B6
  9
$SURFTAB1
 70
     6
  9
$SURFTAB2
 70
     6
  9
$SURFTYPE
 70
     6
  9
$SURFU
 70
     6
  9
$SURFV
 70
     6
  9
$UCSNAME
  2

  9
$UCSORG
 10
0.0
 20
0.0
 30
0.0
  9
$UCSXDIR
 10
1.0
 20
0.0
 30
0.0
  9
$UCSYDIR
 10
0.0
 20
1.0
 30
0.0
  9
$PUCSNAME
  2

  9
$PUCSORG
 10
0.0
 20
0.0
 30
0.0
  9
$PUCSXDIR
 10
1.0
 20
0.0
 30
0.0
  9
$PUCSYDIR
 10
0.0
 20
1.0
 30
0.0
  9
$USERI1
 70
     0
  9
$USERI2
 70
     0
  9
$USERI3
 70
     0
  9
$USERI4
 70
     0
  9
$USERI5
 70
     0
  9
$USERR1
 40
0.0
  9
$USERR2
 40
0.0
  9
$USERR3
 40
0.0
  9
$USERR4
 40
0.0
  9
$USERR5
 40
0.0
  9
$WORLDVIEW
 70
     1
  9
$SHADEDGE
 70
     3
  9
$SHADEDIF
 70
    70
  9
$TILEMODE
 70
     1
  9
$MAXACTVP
 70
    16
  9
$PLIMCHECK
 70
     0
  9
$PEXTMIN
 10
1.0000000000000000E+020
 20
1.0000000000000000E+020
 30
1.0000000000000000E+020
  9
$PEXTMAX
 10
-1.0000000000000000E+020
 20
-1.0000000000000000E+020
 30
-1.0000000000000000E+020
  9
$PLIMMIN
 10
-20.0
 20
-7.5
  9
$PLIMMAX
 10
277.0
 20
202.5
  9
$UNITMODE
 70
     0
  9
$VISRETAIN
 70
     0
  9
$PLINEGEN
 70
     1
  9
$PSLTSCALE
 70
     0
  0
ENDSEC
  0
SECTION
  2
TABLES
  0
TABLE
  2
VPORT
 70
     1
  0
VPORT
  2
*ACTIVE
 70
     0
 10
0.0
 20
0.0
 11
1.0
 21
1.0
 12
218.5000060824965
 22
147.00000433790461
 13
0.0
 23
0.0
 14
2.5
 24
2.5
 15
10.0
 25
10.0
 16
0.0
 26
0.0
 36
1.0
 17
0.0
 27
0.0
 37
0.0
 40
278.4319485655227
 41
2.1053391053391048
 42
50.0
 43
0.0
 44
0.0
 50
0.0
 51
0.0
 71
     0
 72
   100
 73
     1
 74
     3
 75
     0
 76
     0
 77
     0
 78
     1
  0
ENDTAB
  0
TABLE
  2
LTYPE
 70
    14
  0
LTYPE
  2
CONTINUOUS
 70
     0
  3
Solid line (NEC CAE2D for Win R7.2 : 2008.02.20
 72
    65
 73
     0
 40
0.0
  0
LTYPE
  2
HIDDEN
 70
     0
  3
Hidden __ __ __ __ __ __ __ __ __ __ __ __ __ _
 72
    65
 73
     2
 40
0.375
 49
0.25
 49
-0.125
  0
LTYPE
  2
PHANTOM2
 70
     0
  3
Phantom (.5x) ___ _ _ ___ _ _ ___ _ _ ___ _ _
 72
    65
 73
     6
 40
1.25
 49
0.625
 49
-0.125
 49
0.125
 49
-0.125
 49
0.125
 49
-0.125
  0
LTYPE
  2
CENTER
 70
     0
  3
Center ____ _ ____ _ ____ _ ____ _ ____ _ ____
 72
    65
 73
     4
 40
2.0
 49
1.25
 49
-0.25
 49
0.25
 49
-0.25
  0
LTYPE
  2
CENTER2
 70
     0
  3
Center (.5x) ___ _ ___ _ ___ _ ___ _ ___ _ ___
 72
    65
 73
     4
 40
1.125
 49
0.75
 49
-0.125
 49
0.125
 49
-0.125
  0
LTYPE
  2
HIDDEN2
 70
     0
  3
Hidden (.5x) _ _ _ _ _ _ _ _ _ _ _ _ _ _ _ _ _
 72
    65
 73
     2
 40
0.1875
 49
0.125
 49
-0.0625
  0
LTYPE
  2
ACANSTGB
 70
     0
  3
__ . . __ . .
 72
    65
 73
     6
 40
0.35433070866
 49
0.15748031496
 49
-0.03937007874
 49
0.03937007874
 49
-0.03937007874
 49
0.03937007874
 49
-0.03937007874
  0
LTYPE
  2
ACANSTGL
 70
     0
  3
_ _ _ _ _
 72
    65
 73
     2
 40
0.11811023622
 49
0.07874015748
 49
-0.03937007874
  0
LTYPE
  2
ACJISWELD
 70
     0
  3
_ _ _ _ _
 72
    65
 73
     2
 40
2.0
 49
2.0
 49
-1.0
  0
LTYPE
  2
ACJISTGB
 70
     0
  3
__ . . __ . .
 72
    65
 73
     6
 40
9.0
 49
4.0
 49
-1.0
 49
1.0
 49
-1.0
 49
1.0
 49
-1.0
  0
LTYPE
  2
ACJISTGL
 70
     0
  3
_ _ _ _ _
 72
    65
 73
     2
 40
3.0
 49
2.0
 49
-1.0
  0
LTYPE
  2
ACISOWELD
 70
     0
  3
_ _ _ _ _
 72
    65
 73
     2
 40
2.0
 49
2.0
 49
-1.0
  0
LTYPE
  2
ACISOTGB
 70
     0
  3
__ . . __ . .
 72
    65
 73
     6
 40
9.0
 49
4.0
 49
-1.0
 49
1.0
 49
-1.0
 49
1.0
 49
-1.0
  0
LTYPE
  2
ACISOTGL
 70
     0
  3
_ _ _ _ _
 72
    65
 73
     2
 40
3.0
 49
2.0
 49
-1.0
  0
ENDTAB
  0
TABLE
  2
LAYER
 70
    21
  0
LAYER
  2
0
 70
     0
 62
     3
  6
CONTINUOUS
  0
LAYER
  2
SYS-BUHIN0
 70
     0
 62
     7
  6
CONTINUOUS
  0
LAYER
  2
AM_0
 70
     0
 62
     3
  6
CONTINUOUS
  0
LAYER
  2
DEFPOINTS
 70
     0
 62
     7
  6
CONTINUOUS
  0
LAYER
  2
AM_5
 70
     0
 62
     7
  6
CONTINUOUS
  0
LAYER
  2
AM_BOR
 70
     0
 62
     7
  6
CONTINUOUS
  0
LAYER
  2
SYS-BUHINCODE
 70
     0
 62
     7
  6
CONTINUOUS
  0
LAYER
  2
AM_7
 70
     0
 62
     4
  6
CENTER
  0
LAYER
  2
AM_3
 70
     0
 62
     7
  6
HIDDEN
  0
LAYER
  2
AM_12
 70
     0
 62
   253
  6
CONTINUOUS
  0
LAYER
  2
AM_PAREF
 70
     0
 62
     4
  6
CONTINUOUS
  0
LAYER
  2
AM_6
 70
     0
 62
     7
  6
CONTINUOUS
  0
LAYER
  2
AM_8
 70
     0
 62
   253
  6
CONTINUOUS
  0
LAYER
  2
AM_4
 70
     0
 62
     6
  6
CONTINUOUS
  0
LAYER
  2
AM_10
 70
     0
 62
     7
  6
CONTINUOUS
  0
LAYER
  2
AM_CL
 70
     0
 62
     1
  6
CONTINUOUS
  0
LAYER
  2
AM_2
 70
     0
 62
     5
  6
PHANTOM2
  0
LAYER
  2
AM_1N
 70
     0
 62
    14
  6
CONTINUOUS
  0
LAYER
  2
AM_1
 70
     0
 62
    14
  6
PHANTOM2
  0
LAYER
  2
AM_9
 70
     0
 62
    -7
  6
CONTINUOUS
  0
LAYER
  2
SYS-TEISEI0
 70
     0
 62
     7
  6
CONTINUOUS
  0
ENDTAB
  0
TABLE
  2
STYLE
 70
    13
  0
STYLE
  2
STANDARD
 70
     0
 40
0.0
 41
1.0
 50
0.0
 71
     0
 42
3.0
  3
dim.shx
  4
extfont.shx
  0
STYLE
  2
KNJYOKO
 70
     0
 40
0.0
 41
1.0
 50
0.0
 71
     0
 42
3.099999904632567
  3
TXT.shx
  4
extfont.shx
  0
STYLE
  2
ACANSTS
 70
     0
 40
1.0
 41
1.0
 50
0.0
 71
     0
 42
0.2
  3
romans.shx
  4
extfont.shx
  0
STYLE
  2
ACANSGDT
 70
     0
 40
0.0
 41
1.0
 50
0.0
 71
     0
 42
0.2
  3
amgdt.shx
  4

  0
STYLE
  2
ACJISTS
 70
     0
 40
1.0
 41
1.0
 50
0.0
 71
     0
 42
0.2
  3
isocp.shx
  4
extfont.shx
  0
STYLE
  2
ACJISGDT
 70
     0
 40
0.0
 41
1.0
 50
0.0
 71
     0
 42
0.2
  3
amgdt.shx
  4

  0
STYLE
  2
MINNTYOU
 70
     0
 40
0.0
 41
1.0
 50
0.0
 71
     0
 42
3.0
  3
txt
  4

  0
STYLE
  2
R寸法
 70
     0
 40
2.0
 41
1.0
 50
0.0
 71
     0
 42
3.0
  3
dim.shx
  4
extfont.shx
  0
STYLE
  2
ANKTATE
 70
     4
 40
0.0
 41
1.0
 50
0.0
 71
     0
 42
3.099999904632567
  3
TXT
  4

  0
STYLE
  2
KNJTATE
 70
     4
 40
0.0
 41
1.0
 50
0.0
 71
     0
 42
3.099999904632567
  3
TXT
  4
BIGFONT
  0
STYLE
  2
ACISOTS
 70
     0
 40
1.0
 41
1.0
 50
0.0
 71
     0
 42
2.5
  3
isocp.shx
  4
extfont.shx
  0
STYLE
  2
ACISOGDT
 70
     0
 40
0.0
 41
1.0
 50
0.0
 71
     0
 42
2.5
  3
amgdt.shx
  4

  0
ENDTAB
  0
TABLE
  2
VIEW
 70
     8
  0
VIEW
  2
AM_VIEW1
 70
     0
 40
137.99999999999989
 10
151.8531375166888
 20
215.99999999999989
 41
253.70627503337769
 11
0.0
 21
0.0
 31
1.0
 12
0.0
 22
0.0
 32
0.0
 42
50.0
 43
0.0
 44
0.0
 50
0.0
 71
     0
  0
VIEW
  2
AM_VIEW2
 70
     0
 40
137.99999999999989
 10
285.146862483311
 20
215.99999999999989
 41
253.70627503337769
 11
0.0
 21
0.0
 31
1.0
 12
0.0
 22
0.0
 32
0.0
 42
50.0
 43
0.0
 44
0.0
 50
0.0
 71
     0
  0
VIEW
  2
AM_VIEW3
 70
     0
 40
137.99999999999989
 10
151.8531375166888
 20
77.999999999999972
 41
253.70627503337769
 11
0.0
 21
0.0
 31
1.0
 12
0.0
 22
0.0
 32
0.0
 42
50.0
 43
0.0
 44
0.0
 50
0.0
 71
     0
  0
VIEW
  2
AM_VIEW4
 70
     0
 40
137.99999999999989
 10
285.146862483311
 20
77.999999999999972
 41
253.70627503337769
 11
0.0
 21
0.0
 31
1.0
 12
0.0
 22
0.0
 32
0.0
 42
50.0
 43
0.0
 44
0.0
 50
0.0
 71
     0
  0
VIEW
  2
AM_VIEW5
 70
     0
 40
137.99999999999989
 10
218.49999999999989
 20
146.99999999999989
 41
253.70627503337769
 11
0.0
 21
0.0
 31
1.0
 12
0.0
 22
0.0
 32
0.0
 42
50.0
 43
0.0
 44
0.0
 50
0.0
 71
     0
  0
VIEW
  2
AM_VIEW6
 70
     0
 40
275.99723999999992
 10
218.49999999999989
 20
146.99999999999989
 41
507.4074759412548
 11
0.0
 21
0.0
 31
1.0
 12
0.0
 22
0.0
 32
0.0
 42
50.0
 43
0.0
 44
0.0
 50
0.0
 71
     0
  0
ENDTAB
  0
TABLE
  2
UCS
 70
     0
  0
ENDTAB
  0
TABLE
  2
APPID
 70
    59
  0
APPID
  2
ACAD
 70
     0
  0
APPID
  2
ACADANNOTATIVE
 70
     0
  0
APPID
  2
ACAD_MLEADERVER
 70
     0
  0
APPID
  2
MCAD_NO_VIS
 70
     0
  0
APPID
  2
ACAD_TEMP_GRAPHIC
 70
     0
  0
APPID
  2
AD_DRAW
 70
     0
  0
APPID
  2
ACATTRIBSERVICES
 70
     0
  0
APPID
  2
DESIGNERASSEMBLIES
 70
     0
  0
APPID
  2
ACADM_DIM_EDIT
 70
     0
  0
APPID
  2
AMDT_DM_ADJ
 70
     0
  0
APPID
  2
ACADANNOPO
 70
     0
  0
APPID
  2
ACAECLAYERSTANDARD
 70
     0
  0
APPID
  2
ACDBDYNAMICBLOCKGUID
 70
     0
  0
APPID
  2
ACDBBLOCKREPETAG
 70
     0
  0
APPID
  2
ACAUTHENVIRON
 70
     0
  0
APPID
  2
ACDBDYNAMICBLOCKTRUENAME
 70
     0
  0
APPID
  2
GENIUS_GENREC_14
 70
     0
  0
APPID
  2
GENIUS_GENOBJ-N-REC_13
 70
     0
  0
APPID
  2
GENIUS_GENODEF_13
 70
     0
  0
APPID
  2
ACAD_EXEMPT_FROM_CAD_STANDARDS
 70
     0
  0
APPID
  2
GENIUS_GENOBJ-N-CEN_13
 70
     0
  0
APPID
  2
GENIUS_GENCEN_19
 70
     0
  0
APPID
  2
ACAD_DSTYLE_DIMINSPECT
 70
     0
  0
APPID
  2
DCO15
 70
     0
  0
APPID
  2
ACAD_PSEXT
 70
     0
  0
APPID
  2
GENIUS_GENBH_13
 70
     0
  0
APPID
  2
GENIUS_GENOENT_13
 70
     0
  0
APPID
  2
GENIUS_GENOLIS_13
 70
     0
  0
APPID
  2
GENIUS_GENOBJ-NBEHI-BHF_13
 70
     0
  0
APPID
  2
GENIUS_GENOREF_13
 70
     0
  0
APPID
  2
GENIUS_GENOBJ-NBEHI-BHB_13
 70
     0
  0
APPID
  2
AMG_2DHIDE
 70
     0
  0
APPID
  2
AMG_2DSTRUCT_BTR
 70
     0
  0
APPID
  2
GENIUS_AMGTXT_16
 70
     0
  0
APPID
  2
GENIUS_GENOBJ-N-HTC_13
 70
     0
  0
APPID
  2
GENIUS_GENHATCH_13
 70
     0
  0
APPID
  2
GEVID1208849169
 70
     0
  0
APPID
  2
GEVDC
 70
     0
  0
APPID
  2
ACADM_2DVIEW_IGN_NOTIFY
 70
     0
  0
APPID
  2
GEVID1208849170
 70
     0
  0
APPID
  2
GEVID1208849171
 70
     0
  0
APPID
  2
GEVRADREF
 70
     0
  0
APPID
  2
ACAD_DSTYLE_DIMJAG
 70
     0
  0
APPID
  2
ACAD_DSTYLE_DIMTALN
 70
     0
  0
APPID
  2
GENIUS_GENDTOL_13
 70
     0
  0
APPID
  2
GENIUS_GENTRA_14
 70
     0
  0
APPID
  2
GENIUS_GENOBJ-N-TIT_13
 70
     0
  0
APPID
  2
GENIUS_GENTITLE_13
 70
     0
  0
APPID
  2
GENIUS_GENSCREG_15
 70
     0
  0
APPID
  2
GENIUS_GENOBJ-N-SDF_13
 70
     0
  0
APPID
  2
ACAD_DSTYLE_DIMRADIAL_EXTENSION
 70
     0
  0
APPID
  2
GENIUS_GENOBJ-N-FIL_13
 70
     0
  0
APPID
  2
GENIUS_GENOBJ-N-CRS_13
 70
     0
  0
APPID
  2
GENIUS_GENDIMSH_14
 70
     0
  0
APPID
  2
ACAD_DSTYLE_DIMANGULAR_EXT
 70
     0
  0
APPID
  2
ACAD_NAV_VCDISPLAY
 70
     0
  0
APPID
  2
GENIUS_GENSCREG_13
 70
     0
  0
APPID
  2
CONTENTBLOCKICON
 70
     0
  0
APPID
  2
AcDbAttr
 70
     0
  0
ENDTAB
  0
TABLE
  2
DIMSTYLE
 70
    26
  0
DIMSTYLE
  2
STANDARD
 70
     0
  3

  4

  5

  6

  7

 40
1.0
 41
1.0
 42
0.8
 43
0.38
 44
1.0
 45
0.0
 46
0.0
 47
0.0
 48
0.0
140
3.1000000000000001
141
0.09
142
0.0
143
25.399999999999999
144
1.0
145
0.5
146
1.0
147
0.09
 71
     0
 72
     0
 73
     0
 74
     0
 75
     0
 76
     0
 77
     1
 78
     0
170
     0
171
     2
172
     0
173
     0
174
     0
175
     0
176
     0
177
     0
178
     0
  0
DIMSTYLE
  2
AM_ANSI
 70
     0
  3

  4
mm
  5

  6

  7

 40
1.0
 41
0.1
 42
0.05
 43
0.5
 44
0.1
 45
0.0
 46
0.0
 47
0.1
 48
0.1
140
0.12
141
0.0
142
0.0
143
25.399999999999999
144
1.0
145
0.0
146
0.71
147
0.06
 71
     0
 72
     0
 73
     1
 74
     1
 75
     0
 76
     0
 77
     0
 78
     7
170
     0
171
     2
172
     0
173
     0
174
     0
175
     0
176
   256
177
   256
178
     2
  0
DIMSTYLE
  2
AM_ANSI$3
 70
     0
  3

  4
mm
  5

  6

  7

 40
1.0
 41
0.1
 42
0.05
 43
0.5
 44
0.1
 45
0.0
 46
0.0
 47
0.1
 48
0.1
140
0.12
141
0.0
142
0.0
143
25.399999999999999
144
1.0
145
0.0
146
0.71
147
0.06
 71
     0
 72
     0
 73
     1
 74
     1
 75
     0
 76
     0
 77
     0
 78
     7
170
     0
171
     2
172
     0
173
     0
174
     0
175
     0
176
   256
177
   256
178
     2
  0
DIMSTYLE
  2
AM_ANSI$4
 70
     0
  3

  4
mm
  5

  6

  7

 40
1.0
 41
0.1
 42
0.05
 43
0.5
 44
0.1
 45
0.0
 46
0.0
 47
0.1
 48
0.1
140
0.12
141
0.0
142
0.0
143
25.399999999999999
144
1.0
145
0.0
146
0.71
147
0.06
 71
     0
 72
     0
 73
     1
 74
     1
 75
     0
 76
     0
 77
     0
 78
     7
170
     0
171
     2
172
     0
173
     0
174
     0
175
     0
176
   256
177
   256
178
     2
  0
DIMSTYLE
  2
AM_ANSI$7
 70
     0
  3

  4
mm
  5

  6

  7

 40
1.0
 41
0.1
 42
0.05
 43
0.5
 44
0.1
 45
0.0
 46
0.0
 47
0.1
 48
0.1
140
0.24
141
0.0
142
0.0
143
25.399999999999999
144
1.0
145
0.0
146
0.71
147
0.06
 71
     0
 72
     0
 73
     1
 74
     1
 75
     0
 76
     0
 77
     0
 78
     7
170
     0
171
     2
172
     0
173
     0
174
     0
175
     0
176
   256
177
   256
178
     2
  0
DIMSTYLE
  2
AM_ANSI$SF
 70
     0
  3

  4
mm
  5

  6

  7

 40
1.0
 41
0.1
 42
0.05
 43
0.5
 44
0.1
 45
0.0
 46
0.0
 47
0.1
 48
0.1
140
0.12
141
0.0
142
0.0
143
25.399999999999999
144
1.0
145
0.0
146
0.71
147
0.06
 71
     0
 72
     0
 73
     1
 74
     1
 75
     1
 76
     1
 77
     0
 78
     7
170
     0
171
     2
172
     0
173
     0
174
     0
175
     0
176
   256
177
   256
178
     2
  0
DIMSTYLE
  2
AM_ANSI$SH
 70
     0
  3

  4
mm
  5

  6
GENAXEH
  7

 40
1.0
 41
0.1
 42
0.05
 43
0.5
 44
0.1
 45
0.0
 46
0.0
 47
0.1
 48
0.1
140
0.12
141
0.0
142
0.0
143
25.399999999999999
144
1.0
145
0.0
146
0.71
147
0.06
 71
     0
 72
     0
 73
     1
 74
     1
 75
     1
 76
     1
 77
     0
 78
     7
170
     0
171
     2
172
     0
173
     1
174
     0
175
     0
176
   256
177
   256
178
     2
  0
DIMSTYLE
  2
AM_JIS
 70
     0
  3

  4
"
  5
OPEN30
  6

  7

 40
1.0
 41
2.5
 42
1.0
 43
7.0
 44
1.0
 45
0.0
 46
0.0
 47
0.1
 48
0.1
140
3.0
141
0.0
142
0.0
143
0.0393701
144
1.0
145
0.0
146
0.71
147
1.0
 71
     0
 72
     0
 73
     0
 74
     0
 75
     0
 76
     0
 77
     3
 78
     8
170
     0
171
     2
172
     1
173
     0
174
     0
175
     0
176
     7
177
     7
178
     7
  0
DIMSTYLE
  2
AM_JIS$3
 70
     0
  3

  4
"
  5
OPEN30
  6

  7

 40
1.0
 41
2.5
 42
1.0
 43
10.0
 44
1.0
 45
0.0
 46
0.0
 47
0.1
 48
0.1
140
3.0
141
0.0
142
0.0
143
0.0393701
144
1.0
145
0.0
146
0.71
147
1.0
 71
     0
 72
     0
 73
     0
 74
     1
 75
     0
 76
     0
 77
     3
 78
     8
170
     0
171
     2
172
     0
173
     0
174
     0
175
     0
176
     7
177
     7
178
     7
  0
DIMSTYLE
  2
AM_JIS$4
 70
     0
  3

  4
"
  5
OPEN30
  6

  7

 40
1.0
 41
2.5
 42
1.0
 43
10.0
 44
1.0
 45
0.0
 46
0.0
 47
0.1
 48
0.1
140
2.0
141
0.0
142
0.0
143
0.0393701
144
1.0
145
0.0
146
0.71
147
1.0
 71
     0
 72
     0
 73
     0
 74
     0
 75
     0
 76
     0
 77
     3
 78
     8
170
     0
171
     2
172
     0
173
     0
174
     0
175
     0
176
     7
177
     7
178
     7
  0
DIMSTYLE
  2
AM_JIS$6
 70
     0
  3

  4
"
  5
OPEN30
  6

  7

 40
1.0
 41
2.5
 42
1.0
 43
10.0
 44
1.0
 45
0.0
 46
0.0
 47
0.1
 48
0.1
140
3.0
141
0.0
142
0.0
143
0.0393701
144
1.0
145
0.0
146
0.71
147
1.0
 71
     0
 72
     0
 73
     0
 74
     0
 75
     0
 76
     0
 77
     0
 78
     8
170
     0
171
     2
172
     1
173
     0
174
     0
175
     0
176
   256
177
     7
178
     7
  0
DIMSTYLE
  2
AM_JIS$7
 70
     0
  3

  4
"
  5
OPEN30
  6

  7

 40
1.0
 41
2.5
 42
1.0
 43
10.0
 44
1.0
 45
0.0
 46
0.0
 47
0.1
 48
0.1
140
3.0
141
0.0
142
0.0
143
0.0393701
144
1.0
145
0.0
146
0.71
147
1.0
 71
     0
 72
     0
 73
     0
 74
     0
 75
     0
 76
     0
 77
     3
 78
     8
170
     0
171
     2
172
     1
173
     0
174
     0
175
     0
176
     7
177
   256
178
     7
  0
DIMSTYLE
  2
AM_JIS$SF
 70
     0
  3

  4
"
  5
OPEN30
  6

  7

 40
1.0
 41
2.5
 42
1.0
 43
7.0
 44
1.0
 45
0.0
 46
0.0
 47
0.1
 48
0.1
140
3.0
141
0.0
142
0.0
143
0.0393701
144
1.0
145
0.0
146
0.71
147
1.0
 71
     0
 72
     0
 73
     0
 74
     0
 75
     1
 76
     1
 77
     3
 78
     8
170
     0
171
     2
172
     1
173
     0
174
     0
175
     0
176
     7
177
   256
178
     7
  0
DIMSTYLE
  2
AM_JIS$SH
 70
     0
  3

  4
"
  5

  6
GENAXEH
  7
OPEN30
 40
1.0
 41
2.5
 42
1.0
 43
7.0
 44
1.0
 45
0.0
 46
0.0
 47
0.1
 48
0.1
140
3.0
141
0.0
142
0.0
143
0.0393701
144
2.0
145
0.0
146
0.71
147
1.0
 71
     0
 72
     0
 73
     0
 74
     0
 75
     1
 76
     1
 77
     3
 78
     8
170
     0
171
     2
172
     1
173
     1
174
     0
175
     0
176
     7
177
   256
178
     7
  0
DIMSTYLE
  2
AM_JIS$2
 70
     0
  3

  4
"
  5
OPEN30
  6

  7

 40
1.0
 41
2.5
 42
1.0
 43
7.0
 44
1.0
 45
0.0
 46
0.0
 47
0.1
 48
0.1
140
3.0
141
0.0
142
0.0
143
0.0393701
144
1.0
145
0.0
146
0.71
147
1.0
 71
     0
 72
     0
 73
     0
 74
     0
 75
     0
 76
     0
 77
     3
 78
     8
170
     0
171
     2
172
     1
173
     0
174
     0
175
     0
176
     7
177
     7
178
     7
  0
DIMSTYLE
  2
AM_JIS$0
 70
     0
  3

  4
"
  5
OPEN30
  6

  7

 40
1.0
 41
2.5
 42
1.0
 43
7.0
 44
1.0
 45
0.0
 46
0.0
 47
0.1
 48
0.1
140
3.0
141
0.0
142
0.0
143
0.0393701
144
1.0
145
0.0
146
0.71
147
1.0
 71
     0
 72
     0
 73
     0
 74
     0
 75
     0
 76
     0
 77
     3
 78
     8
170
     0
171
     2
172
     1
173
     0
174
     0
175
     0
176
     7
177
     7
178
     7
  0
DIMSTYLE
  2
STANDARD$0
 70
     0
  3

  4

  5

  6

  7

 40
1.0
 41
1.0
 42
0.8
 43
0.38
 44
1.0
 45
0.0
 46
0.0
 47
0.0
 48
0.0
140
3.1000000000000001
141
0.09
142
0.0
143
25.399999999999999
144
1.0
145
0.5
146
1.0
147
0.09
 71
     0
 72
     0
 73
     0
 74
     0
 75
     0
 76
     0
 77
     1
 78
     0
170
     0
171
     2
172
     0
173
     0
174
     0
175
     0
176
     0
177
     0
178
     0
  0
DIMSTYLE
  2
ANNOTATIVE
 70
     0
  3

  4

  5

  6

  7

 40
1.0
 41
0.18
 42
0.0625
 43
0.38
 44
0.18
 45
0.0
 46
0.0
 47
0.0
 48
0.0
140
0.18
141
0.09
142
0.0
143
25.399999999999999
144
1.0
145
0.0
146
1.0
147
0.09
 71
     0
 72
     0
 73
     1
 74
     1
 75
     0
 76
     0
 77
     0
 78
     0
170
     0
171
     2
172
     0
173
     0
174
     0
175
     0
176
     0
177
     0
178
     0
  0
DIMSTYLE
  2
AM_ISO
 70
     0
  3

  4
"
  5

  6

  7

 40
1.0
 41
2.5
 42
1.0
 43
10.0
 44
1.0
 45
0.0
 46
0.0
 47
0.1
 48
0.1
140
3.5
141
0.0
142
0.0
143
0.0393701
144
1.0
145
0.0
146
0.71
147
1.5
 71
     0
 72
     0
 73
     0
 74
     0
 75
     0
 76
     0
 77
     1
 78
     8
170
     0
171
     2
172
     1
173
     0
174
     0
175
     0
176
   256
177
   256
178
     2
  0
DIMSTYLE
  2
AM_ISO$3
 70
     0
  3

  4
"
  5

  6

  7

 40
1.0
 41
2.5
 42
1.0
 43
10.0
 44
1.0
 45
0.0
 46
0.0
 47
0.1
 48
0.1
140
3.5
141
0.0
142
0.0
143
0.0393701
144
1.0
145
0.0
146
0.71
147
1.5
 71
     0
 72
     0
 73
     0
 74
     1
 75
     0
 76
     0
 77
     1
 78
     8
170
     0
171
     2
172
     0
173
     0
174
     0
175
     0
176
   256
177
   256
178
     2
  0
DIMSTYLE
  2
AM_ISO$4
 70
     0
  3

  4
"
  5

  6

  7

 40
1.0
 41
2.5
 42
1.0
 43
10.0
 44
1.0
 45
0.0
 46
0.0
 47
0.1
 48
0.1
140
3.5
141
0.0
142
0.0
143
0.0393701
144
1.0
145
0.0
146
0.71
147
1.5
 71
     0
 72
     0
 73
     0
 74
     1
 75
     0
 76
     0
 77
     1
 78
     8
170
     0
171
     2
172
     0
173
     0
174
     0
175
     0
176
   256
177
   256
178
     2
  0
DIMSTYLE
  2
AM_ISO$6
 70
     0
  3

  4
"
  5

  6

  7

 40
1.0
 41
2.5
 42
1.0
 43
10.0
 44
1.0
 45
0.0
 46
0.0
 47
0.1
 48
0.1
140
3.5
141
0.0
142
0.0
143
0.0393701
144
1.0
145
0.0
146
0.71
147
1.5
 71
     0
 72
     0
 73
     0
 74
     0
 75
     0
 76
     0
 77
     0
 78
     8
170
     0
171
     2
172
     1
173
     0
174
     0
175
     0
176
   256
177
   256
178
     2
  0
DIMSTYLE
  2
AM_ISO$7
 70
     0
  3

  4
"
  5

  6

  7

 40
1.0
 41
2.5
 42
1.0
 43
10.0
 44
1.0
 45
0.0
 46
0.0
 47
0.1
 48
0.1
140
5.0
141
0.0
142
0.0
143
0.0393701
144
1.0
145
0.0
146
0.71
147
1.5
 71
     0
 72
     0
 73
     0
 74
     0
 75
     0
 76
     0
 77
     1
 78
     8
170
     0
171
     2
172
     1
173
     0
174
     0
175
     0
176
   256
177
   256
178
     2
  0
DIMSTYLE
  2
AM_ISO$SF
 70
     0
  3

  4
"
  5

  6

  7

 40
1.0
 41
2.5
 42
1.0
 43
10.0
 44
1.0
 45
0.0
 46
0.0
 47
0.1
 48
0.1
140
3.5
141
0.0
142
0.0
143
0.0393701
144
1.0
145
0.0
146
0.71
147
1.5
 71
     0
 72
     0
 73
     0
 74
     0
 75
     1
 76
     1
 77
     1
 78
     8
170
     0
171
     2
172
     1
173
     0
174
     0
175
     0
176
   256
177
   256
178
     2
  0
DIMSTYLE
  2
AM_ISO$SH
 70
     0
  3

  4
"
  5

  6
GENAXEH
  7

 40
1.0
 41
2.5
 42
1.0
 43
10.0
 44
1.0
 45
0.0
 46
0.0
 47
0.1
 48
0.1
140
3.5
141
0.0
142
0.0
143
0.0393701
144
2.0
145
0.0
146
0.71
147
1.5
 71
     0
 72
     0
 73
     0
 74
     0
 75
     1
 76
     1
 77
     1
 78
     8
170
     0
171
     2
172
     1
173
     1
174
     0
175
     0
176
   256
177
   256
178
     2
  0
ENDTAB
  0
ENDSEC
  0
SECTION
  2
BLOCKS
  0
BLOCK
  8
0
  2
$MODEL_SPACE
 70
     0
 10
0.0
 20
0.0
 30
0.0
  3
$MODEL_SPACE
  1

  0
ENDBLK
  5
1D3
  8
0
  0
BLOCK
 67
     1
  8
0
  2
$PAPER_SPACE
 70
     0
 10
0.0
 20
0.0
 30
0.0
  3
$PAPER_SPACE
  1

  0
ENDBLK
  5
1D1
 67
     1
  8
0
  0
BLOCK
  8
0
  2
GENAXEH
 70
     0
 10
0.0
 20
0.0
 30
0.0
  3
GENAXEH
  1

  0
LINE
  5
264
  8
0
 10
-1.0
 20
0.0
 30
0.0
 11
1.0
 21
0.0
 31
0.0
  0
ENDBLK
  5
266
  8
0
  0
BLOCK
  8
0
  2
_OPEN30
 70
     0
 10
0.0
 20
0.0
 30
0.0
  3
_OPEN30
  1

  0
LINE
  5
2FA
  8
0
  6
BYBLOCK
 62
     0
 10
-1.0
 20
0.26794919
 30
0.0
 11
0.0
 21
0.0
 31
0.0
  0
LINE
  5
2FB
  8
0
  6
BYBLOCK
 62
     0
 10
0.0
 20
0.0
 30
0.0
 11
-1.0
 21
-0.26794919
 31
0.0
  0
LINE
  5
2FC
  8
0
  6
BYBLOCK
 62
     0
 10
0.0
 20
0.0
 30
0.0
 11
-1.0
 21
0.0
 31
0.0
  0
ENDBLK
  5
2FE
  8
0
  0
BLOCK
  8
0
  2
MYPLIST0
 70
     2
 10
0.0
 20
0.0
 30
0.0
  3
MYPLIST0
  1

  0
LINE
  5
346
  8
SYS-BUHIN0
  6
CONTINUOUS
 62
     4
 10
-170.0
 20
7.0
 30
0.0
 11
0.0
 21
7.0
 31
0.0
  0
LINE
  5
347
  8
SYS-BUHIN0
  6
CONTINUOUS
 62
     4
 10
-170.0
 20
-0.0000000000030695
 30
0.0
 11
0.0
 21
-0.0000000000001137
 31
0.0
  0
LINE
  5
348
  8
SYS-BUHIN0
  6
CONTINUOUS
 62
     4
 10
-170.0
 20
7.0
 30
0.0
 11
-170.0
 21
0.0
 31
0.0
  0
LINE
  5
349
  8
SYS-BUHIN0
  6
CONTINUOUS
 62
     4
 10
0.0
 20
7.0
 30
0.0
 11
0.0
 21
0.0
 31
0.0
  0
LINE
  5
34A
  8
SYS-BUHIN0
  6
CONTINUOUS
 62
     4
 10
-161.0
 20
7.0
 30
0.0
 11
-161.0
 21
0.0
 31
0.0
  0
LINE
  5
34B
  8
SYS-BUHIN0
  6
CONTINUOUS
 62
     4
 10
-99.0
 20
7.0
 30
0.0
 11
-99.0
 21
0.0
 31
0.0
  0
LINE
  5
34C
  8
SYS-BUHIN0
  6
CONTINUOUS
 62
     4
 10
-72.0
 20
7.0
 30
0.0
 11
-72.0
 21
0.0
 31
0.0
  0
LINE
  5
34D
  8
SYS-BUHIN0
  6
CONTINUOUS
 62
     4
 10
-63.0
 20
7.0
 30
0.0
 11
-63.0
 21
0.0
 31
0.0
  0
LINE
  5
34E
  8
SYS-BUHIN0
  6
CONTINUOUS
 62
     4
 10
-16.0
 20
7.0
 30
0.0
 11
-16.0
 21
0.0
 31
0.0
  0
TEXT
  5
34F
  8
SYS-BUHIN0
  6
CONTINUOUS
 62
     7
 10
-13.61264708219346
 20
0.6000000119208835
 30
0.0
 40
1.1000000000000001
  1
PARTS NO.
 41
1.3
  0
TEXT
  5
350
  8
SYS-BUHIN0
  6
CONTINUOUS
 62
     7
 10
-14.36429419116018
 20
3.0691472933651762
 30
0.0
 40
2.2000000000000002
  1
部品コード
  0
TEXT
  5
351
  8
SYS-BUHIN0
  6
CONTINUOUS
 62
     7
 10
-43.852454807937526
 20
0.6000000119208835
 30
0.0
 40
1.1000000000000001
  1
REMARKS
 41
1.3
  0
TEXT
  5
352
  8
SYS-BUHIN0
  6
CONTINUOUS
 62
     7
 10
-47.370000243186951
 20
2.7500000476836699
 30
0.0
 40
2.7999999999999989
  1
備    考
  0
TEXT
  5
353
  8
SYS-BUHIN0
  6
CONTINUOUS
 62
     7
 10
-69.144963642251696
 20
0.6000000119208835
 30
0.0
 40
1.1000000000000001
  1
UNIT
  0
TEXT
  5
354
  8
SYS-BUHIN0
  6
CONTINUOUS
 62
     7
 10
-70.272262370934413
 20
2.6949072988287521
 30
0.0
 40
2.7999999999999989
  1
数量
  0
TEXT
  5
355
  8
SYS-BUHIN0
  6
CONTINUOUS
 62
     7
 10
-90.559234383463263
 20
0.6000000119208835
 30
0.0
 40
1.1000000000000001
  1
MATERIAL
 41
1.3
  0
TEXT
  5
357
  8
SYS-BUHIN0
  6
CONTINUOUS
 62
     7
 10
-138.9093619295486
 20
0.6000000119208835
 30
0.0
 40
1.1000000000000001
  1
  DESCRIPTION
 41
1.3
  0
TEXT
  5
358
  8
SYS-BUHIN0
  6
CONTINUOUS
 62
     7
 10
-142.0050003230572
 20
2.7500000476836699
 30
0.0
 40
2.7999999999999989
  1
 部  品  名
  0
TEXT
  5
359
  8
SYS-BUHIN0
  6
CONTINUOUS
 62
     7
 10
-166.63404873957319
 20
0.6000000119208835
 30
0.0
 40
1.1000000000000001
  1
NO.
  0
TEXT
  5
35A
  8
SYS-BUHIN0
  6
CONTINUOUS
 62
     7
 10
-168.29000008106229
 20
2.7500000476836699
 30
0.0
 40
2.7999999999999989
  1
項番
  0
ATTDEF
  5
35B
  8
AM_0
 62
     7
 10
-168.79000008106229
 20
3.5
 30
0.0
 40
3.1000000000000001
  1

  3

  2
ITEM
 70
     1
1001
AcDbAttr
1070
     0
1070
     1
  0
TEXT
  5
C0B
  8
AM_BOR
 62
     7
 10
-91.770000159740434
 20
2.7000000476837149
 30
0.0
 40
2.7999999999999989
  1
材　　質
  0
ENDBLK
  5
35C
  8
0
  0
BLOCK
  8
0
  2
MYPLIST1
 70
     2
 10
0.0
 20
0.0
 30
0.0
  3
MYPLIST1
  1

  0
LINE
  5
393
  8
SYS-BUHIN0
  6
CONTINUOUS
 62
     4
 10
-170.0
 20
6.0
 30
0.0
 11
0.0
 21
6.0
 31
0.0
  0
LINE
  5
394
  8
SYS-BUHIN0
  6
CONTINUOUS
 62
     4
 10
-170.0
 20
0.0
 30
0.0
 11
-170.0
 21
6.0
 31
0.0
  0
LINE
  5
395
  8
SYS-BUHIN0
  6
CONTINUOUS
 62
     4
 10
-161.0
 20
0.0
 30
0.0
 11
-161.0
 21
6.0
 31
0.0
  0
LINE
  5
396
  8
SYS-BUHIN0
  6
CONTINUOUS
 62
     4
 10
-99.0
 20
0.0
 30
0.0
 11
-99.0
 21
6.0
 31
0.0
  0
LINE
  5
397
  8
SYS-BUHIN0
  6
CONTINUOUS
 62
     4
 10
-72.0
 20
0.0
 30
0.0
 11
-72.0
 21
6.0
 31
0.0
  0
LINE
  5
398
  8
SYS-BUHIN0
  6
CONTINUOUS
 62
     4
 10
-63.0
 20
0.0
 30
0.0
 11
-63.0
 21
6.0
 31
0.0
  0
LINE
  5
399
  8
SYS-BUHIN0
  6
CONTINUOUS
 62
     4
 10
-16.0
 20
0.0
 30
0.0
 11
-16.0
 21
6.0
 31
0.0
  0
LINE
  5
39A
  8
SYS-BUHIN0
  6
CONTINUOUS
 62
     4
 10
0.0
 20
0.0
 30
0.0
 11
0.0
 21
6.0
 31
0.0
  0
LINE
  5
39B
  8
SYS-BUHIN0
  6
CONTINUOUS
 62
     4
 10
-170.0
 20
0.0
 30
0.0
 11
0.0
 21
0.0
 31
0.0
  0
ATTDEF
  5
39C
  8
SYS-BUHINCODE
 10
-14.0
 20
2.5
 30
0.0
 40
1.0
  1

 11
-14.0
 21
3.0
 31
0.0
  3
部品コード
  2
PCODE
 70
     0
 74
     2
1001
AcDbAttr
1070
     0
1070
     1
  0
ATTDEF
  5
39D
  8
SYS-BUHIN0
  6
CONTINUOUS
 62
     7
 10
-61.0
 20
2.0
 30
0.0
 40
2.0
  1

 11
-61.0
 21
3.0
 31
0.0
  3
備考
  2
NOTE
 70
     0
 74
     2
1001
AcDbAttr
1070
     0
1070
     1
  0
ATTDEF
  5
39E
  8
SYS-BUHIN0
  6
CONTINUOUS
 62
     7
 10
-67.5
 20
3.0
 30
0.0
 40
2.5
  1

 72
     4
 11
-67.5
 21
3.0
 31
0.0
  3
数量
  2
QTY
 70
     0
1001
AcDbAttr
1070
     0
1070
     1
  0
ATTDEF
  5
39F
  8
SYS-BUHIN0
  6
CONTINUOUS
 62
     7
 10
-97.595958160209875
 20
2.0
 30
0.0
 40
2.0
  1

 11
-97.595958160209875
 21
3.0
 31
0.0
  3
材質
  2
MATERIAL
 70
     0
 74
     2
1001
AcDbAttr
1070
     0
1070
     1
  0
ATTDEF
  5
3A0
  8
SYS-BUHIN0
  6
CONTINUOUS
 62
     7
 10
-159.0
 20
1.75
 30
0.0
 40
2.5
  1

 11
-159.0
 21
3.0
 31
0.0
  3
部品名
  2
DESCR
 70
     0
 74
     2
1001
AcDbAttr
1070
     0
1070
     1
  0
ATTDEF
  5
3A1
  8
SYS-BUHIN0
  6
CONTINUOUS
 62
     7
 10
-165.5
 20
3.0
 30
0.0
 40
2.5
  1

 72
     4
 11
-165.5
 21
3.0
 31
0.0
  3
項番
  2
ITEM
 70
     0
1001
AcDbAttr
1070
     0
1070
     1
  0
ENDBLK
  5
370
  8
0
  0
BLOCK
  8
0
  2
A$C1C06296A
 70
     2
 10
0.0
 20
0.0
 30
0.0
  3
A$C1C06296A
  1

  0
LINE
  5
204C
  8
AM_BOR
 10
198.86851880399371
 20
17.886744577931989
 30
0.0
 11
203.2337455721775
 21
13.521517809748619
 31
0.0
  0
LINE
  5
204D
  8
AM_BOR
 10
198.8685188039936
 20
17.866715351316039
 30
0.0
 11
198.86851880399399
 21
14.128964361178911
 31
0.0
  0
LINE
  5
204E
  8
AM_BOR
 10
204.7045172738834
 20
17.866715326469411
 30
0.0
 11
204.70451727388391
 21
14.181128845625549
 31
0.0
  0
LINE
  5
204F
  8
AM_BOR
 10
204.20428883360731
 20
17.793010290175861
 30
0.0
 11
204.204288833607
 21
14.69861035774108
 31
0.0
  0
LINE
  5
2050
  8
AM_BOR
 10
199.3687472442698
 20
17.176052465333349
 30
0.0
 11
199.36874724427059
 21
14.197800355103411
 31
0.0
  0
LINE
  5
2051
  8
AM_BOR
 10
200.43756462039269
 20
18.46533457095553
 30
0.0
 11
204.20428883360731
 21
14.69861035774052
 31
0.0
  0
LINE
  5
2052
  8
AM_BOR
 10
199.36874724426971
 20
17.17605246533255
 30
0.0
 11
203.02713287203409
 21
13.51766683756852
 31
0.0
  0
ARC
  5
2053
  8
AM_BOR
 10
198.36829036868701
 20
17.866715351316049
 30
0.0
 40
0.5002284402762121
 50
0.0
 51
50.265515568291427
  0
ARC
  5
2054
  8
AM_BOR
 10
198.36829034384081
 20
14.12896436117892
 30
0.0
 40
0.5002284402762121
 50
304.69759678405279
 51
0.0
  0
ARC
  5
2055
  8
AM_BOR
 10
205.20474573403669
 20
17.866715326469411
 30
0.0
 40
0.5002284402762121
 50
127.0284887689633
 51
180.00000500895629
  0
ARC
  5
2056
  8
AM_BOR
 10
203.53731756996689
 20
17.793010290175818
 30
0.0
 40
0.6669712537016159
 50
0.0
 51
74.714823568866152
  0
ARC
  5
2057
  8
AM_BOR
 10
200.03571849797169
 20
14.197800355103389
 30
0.0
 40
0.6669712537016159
 50
180.00000500895629
 51
256.4857883914604
  0
LINE
  5
2058
  8
AM_BOR
 10
210.95737277733619
 20
15.993445664994679
 30
0.0
 11
210.9224749062999
 21
16.211434571273589
 31
0.0
  0
LINE
  5
2059
  8
AM_BOR
 10
210.92247490629941
 20
16.211434571273411
 30
0.0
 11
210.8180468870608
 21
16.42776445035037
 31
0.0
  0
LINE
  5
205A
  8
AM_BOR
 10
210.8180468870604
 20
16.42776445035037
 30
0.0
 11
210.64488347990149
 21
16.640788901221669
 31
0.0
  0
LINE
  5
205B
  8
AM_BOR
 10
210.6448834799013
 20
16.640788901221619
 30
0.0
 11
210.40430256290981
 21
16.848886679188759
 31
0.0
  0
LINE
  5
205C
  8
AM_BOR
 10
210.40430256290949
 20
16.848886679189
 30
0.0
 11
210.0981351021297
 21
17.050474034508689
 31
0.0
  0
LINE
  5
205D
  8
AM_BOR
 10
210.09813510212999
 20
17.05047403450855
 30
0.0
 11
209.7287112168076
 21
17.244016765685139
 31
0.0
  0
LINE
  5
205E
  8
AM_BOR
 10
209.72871121680711
 20
17.24401676568521
 30
0.0
 11
209.29884244577369
 21
17.428041895669988
 31
0.0
  0
LINE
  5
205F
  8
AM_BOR
 10
209.29884244577369
 20
17.428041895670081
 30
0.0
 11
208.81180034993889
 21
17.601148882106369
 31
0.0
  0
LINE
  5
2060
  8
AM_BOR
 10
208.81180034993889
 20
17.60114888210644
 30
0.0
 11
208.27129161373591
 21
17.76202027630297
 31
0.0
  0
LINE
  5
2061
  8
AM_BOR
 10
208.27129161373611
 20
17.76202027630309
 30
0.0
 11
207.68142983501551
 21
17.909431749813081
 31
0.0
  0
LINE
  5
2062
  8
AM_BOR
 10
207.68142983501531
 20
17.90943174981297
 30
0.0
 11
207.04670421808169
 21
18.042261412313358
 31
0.0
  0
LINE
  5
2063
  8
AM_BOR
 10
207.04670421808169
 20
18.04226141231344
 30
0.0
 11
206.37194540813729
 21
18.15949834986797
 31
0.0
  0
LINE
  5
2064
  8
AM_BOR
 10
206.37194540813749
 20
18.159498349867881
 30
0.0
 11
205.66228872715681
 21
18.260250318592298
 31
0.0
  0
LINE
  5
2065
  8
AM_BOR
 10
205.66228872715661
 20
18.260250318592369
 30
0.0
 11
205.02242374599979
 21
18.33253416039674
 31
0.0
  0
LINE
  5
2066
  8
AM_BOR
 10
205.02242374599939
 20
18.332534160396779
 30
0.0
 11
204.92313509098369
 21
18.343750535168819
 31
0.0
  0
LINE
  5
2067
  8
AM_BOR
 10
204.92313509098369
 20
18.343750535168748
 30
0.0
 11
204.16010990510409
 21
18.409363512530259
 31
0.0
  0
LINE
  5
2068
  8
AM_BOR
 10
204.1601099051048
 20
18.409363512530259
 30
0.0
 11
203.71314686010501
 21
18.436387872932471
 31
0.0
  0
LINE
  5
2069
  8
AM_BOR
 10
200.43756462039249
 20
18.465334570955569
 30
0.0
 11
200.19401582596791
 21
18.45658989630088
 31
0.0
  0
LINE
  5
206A
  8
AM_BOR
 10
200.19401582596799
 20
18.456589896300901
 30
0.0
 11
199.41292617277259
 21
18.409363512530309
 31
0.0
  0
LINE
  5
206B
  8
AM_BOR
 10
199.41292617277259
 20
18.409363512530248
 30
0.0
 11
198.64990098689299
 21
18.343750535168759
 31
0.0
  0
LINE
  5
206C
  8
AM_BOR
 10
198.5506123731563
 20
18.332534165059979
 30
0.0
 11
197.9107473507209
 21
18.260250318592469
 31
0.0
  0
LINE
  5
206D
  8
AM_BOR
 10
198.64990098689299
 20
18.343750535168791
 30
0.0
 11
198.5506123731563
 21
18.332534165059919
 31
0.0
  0
LINE
  5
206E
  8
AM_BOR
 10
197.91074735072121
 20
18.26025031859243
 30
0.0
 11
197.20109066974049
 21
18.159498349868041
 31
0.0
  0
LINE
  5
206F
  8
AM_BOR
 10
197.20109066974041
 20
18.159498349868091
 30
0.0
 11
196.52633185979579
 21
18.042261412313529
 31
0.0
  0
LINE
  5
2070
  8
AM_BOR
 10
196.5263318597959
 20
18.042261412313589
 30
0.0
 11
195.89160624286239
 21
17.909431749813219
 31
0.0
  0
LINE
  5
2071
  8
AM_BOR
 10
195.89160624286171
 20
17.90943174981302
 30
0.0
 11
195.30174446414119
 21
17.762020276303058
 31
0.0
  0
LINE
  5
2072
  8
AM_BOR
 10
195.301744464141
 20
17.762020276303161
 30
0.0
 11
194.76123572793779
 21
17.60114888210661
 31
0.0
  0
LINE
  5
2073
  8
AM_BOR
 10
194.76123572793779
 20
17.60114888210656
 30
0.0
 11
194.27419363210299
 21
17.428041895670152
 31
0.0
  0
LINE
  5
2074
  8
AM_BOR
 10
194.27419363210339
 20
17.428041895670152
 30
0.0
 11
193.84432486106959
 21
17.244016765685259
 31
0.0
  0
LINE
  5
2075
  8
AM_BOR
 10
193.84432486106959
 20
17.24401676568521
 30
0.0
 11
193.4749009757472
 21
17.05047403450865
 31
0.0
  0
LINE
  5
2076
  8
AM_BOR
 10
193.4749009757472
 20
17.050474034508671
 30
0.0
 11
193.16873351496719
 21
16.848886679188929
 31
0.0
  0
LINE
  5
2077
  8
AM_BOR
 10
193.1687335149673
 20
16.848886679188951
 30
0.0
 11
192.92815259797499
 21
16.640788901221619
 31
0.0
  0
LINE
  5
2078
  8
AM_BOR
 10
192.9281525979753
 20
16.640788901221811
 30
0.0
 11
192.75498919081639
 21
16.42776445035042
 31
0.0
  0
LINE
  5
2079
  8
AM_BOR
 10
192.75498919081639
 20
16.427764450350349
 30
0.0
 11
192.65056117157769
 21
16.211434571273479
 31
0.0
  0
LINE
  5
207A
  8
AM_BOR
 10
192.65056117157789
 20
16.211434571273731
 30
0.0
 11
192.61566330054151
 21
15.993445664994679
 31
0.0
  0
LINE
  5
207B
  8
AM_BOR
 10
192.61566330054069
 20
15.99344566499464
 30
0.0
 11
192.65056117157721
 21
15.775456758715791
 31
0.0
  0
LINE
  5
207C
  8
AM_BOR
 10
192.65056117157769
 20
15.775456758715929
 30
0.0
 11
192.7549891908163
 21
15.55912687963913
 31
0.0
  0
LINE
  5
207D
  8
AM_BOR
 10
192.75498919081639
 20
15.559126879639029
 30
0.0
 11
192.9281525979753
 21
15.34610242876764
 31
0.0
  0
LINE
  5
207E
  8
AM_BOR
 10
192.9281525979751
 20
15.34610242876769
 30
0.0
 11
193.16873351496719
 21
15.1380046508005
 31
0.0
  0
LINE
  5
207F
  8
AM_BOR
 10
193.1687335149669
 20
15.1380046508005
 30
0.0
 11
193.47490097574689
 21
14.93641729548081
 31
0.0
  0
LINE
  5
2080
  8
AM_BOR
 10
193.47490097574729
 20
14.936417295480711
 30
0.0
 11
193.84432486106959
 21
14.742874564304079
 31
0.0
  0
LINE
  5
2081
  8
AM_BOR
 10
193.84432486106951
 20
14.74287456430417
 30
0.0
 11
194.27419363210271
 21
14.558849434319351
 31
0.0
  0
LINE
  5
2082
  8
AM_BOR
 10
194.27419363210319
 20
14.558849434319439
 30
0.0
 11
194.7612357279379
 21
14.38574244788296
 31
0.0
  0
LINE
  5
2083
  8
AM_BOR
 10
194.76123572793779
 20
14.38574244788277
 30
0.0
 11
195.301744464141
 21
14.22487105368617
 31
0.0
  0
LINE
  5
2084
  8
AM_BOR
 10
195.301744464141
 20
14.224871053686311
 30
0.0
 11
195.891606242862
 21
14.077459580176351
 31
0.0
  0
LINE
  5
2085
  8
AM_BOR
 10
195.89160624286191
 20
14.077459580176219
 30
0.0
 11
196.52633185979579
 21
13.94462991767579
 31
0.0
  0
LINE
  5
2086
  8
AM_BOR
 10
196.52633185979539
 20
13.944629917675821
 30
0.0
 11
197.2010906697397
 21
13.827392980121321
 31
0.0
  0
LINE
  5
2087
  8
AM_BOR
 10
197.20109066974049
 20
13.82739298012133
 30
0.0
 11
197.9107473507209
 21
13.726641011397049
 31
0.0
  0
LINE
  5
2088
  8
AM_BOR
 10
197.9107473507205
 20
13.72664101139711
 30
0.0
 11
198.5412166771807
 21
13.655418571666219
 31
0.0
  0
LINE
  5
2089
  8
AM_BOR
 10
198.54121667717999
 20
13.65541857166625
 30
0.0
 11
198.64990098689259
 21
13.643140794820731
 31
0.0
  0
LINE
  5
208A
  8
AM_BOR
 10
198.6499009868929
 20
13.643140794820679
 30
0.0
 11
199.41292617277259
 21
13.57752781745919
 31
0.0
  0
LINE
  5
208B
  8
AM_BOR
 10
199.41292617277259
 20
13.577527817459201
 30
0.0
 11
199.8798563250744
 21
13.54929620220682
 31
0.0
  0
LINE
  5
208C
  8
AM_BOR
 10
203.0271328720325
 20
13.51766683756999
 30
0.0
 11
203.37902025190911
 21
13.530301433688649
 31
0.0
  0
LINE
  5
208D
  8
AM_BOR
 10
203.3790202519092
 20
13.530301433688599
 30
0.0
 11
204.16010990510441
 21
13.57752781745919
 31
0.0
  0
LINE
  5
208E
  8
AM_BOR
 10
204.70451727388399
 20
13.624341722195579
 30
0.0
 11
204.9231350909844
 21
13.64314079482075
 31
0.0
  0
LINE
  5
208F
  8
AM_BOR
 10
204.16010990510441
 20
13.57752781745917
 30
0.0
 11
204.70451727388379
 21
13.62434172219551
 31
0.0
  0
LINE
  5
2090
  8
AM_BOR
 10
204.92313509098409
 20
13.643140794820759
 30
0.0
 11
205.66228872715669
 21
13.726641011397151
 31
0.0
  0
LINE
  5
2091
  8
AM_BOR
 10
205.66228872715661
 20
13.72664101139711
 30
0.0
 11
206.37194540813709
 21
13.827392980121401
 31
0.0
  0
LINE
  5
2092
  8
AM_BOR
 10
206.37194540813749
 20
13.82739298012145
 30
0.0
 11
207.04670421808191
 21
13.94462991767594
 31
0.0
  0
LINE
  5
2093
  8
AM_BOR
 10
207.04670421808169
 20
13.94462991767597
 30
0.0
 11
207.68142983501559
 21
14.07745958017637
 31
0.0
  0
LINE
  5
2094
  8
AM_BOR
 10
207.68142983501551
 20
14.07745958017629
 30
0.0
 11
208.27129161373611
 21
14.22487105368625
 31
0.0
  0
LINE
  5
2095
  8
AM_BOR
 10
208.2712916137362
 20
14.224871053686289
 30
0.0
 11
208.81180034993929
 21
14.38574244788289
 31
0.0
  0
LINE
  5
2096
  8
AM_BOR
 10
208.81180034993929
 20
14.385742447882921
 30
0.0
 11
209.29884244577411
 21
14.558849434319351
 31
0.0
  0
LINE
  5
2097
  8
AM_BOR
 10
209.298842445774
 20
14.55884943431932
 30
0.0
 11
209.72871121680751
 21
14.74287456430422
 31
0.0
  0
LINE
  5
2098
  8
AM_BOR
 10
209.72871121680711
 20
14.742874564304151
 30
0.0
 11
210.0981351021297
 21
14.93641729548083
 31
0.0
  0
LINE
  5
2099
  8
AM_BOR
 10
210.09813510212999
 20
14.93641729548081
 30
0.0
 11
210.40430256290989
 21
15.13800465080036
 31
0.0
  0
LINE
  5
209A
  8
AM_BOR
 10
210.40430256291
 20
15.13800465080055
 30
0.0
 11
210.64488347990201
 21
15.346102428767731
 31
0.0
  0
LINE
  5
209B
  8
AM_BOR
 10
210.64488347990169
 20
15.34610242876783
 30
0.0
 11
210.8180468870608
 21
15.559126879639029
 31
0.0
  0
LINE
  5
209C
  8
AM_BOR
 10
210.81804688706069
 20
15.559126879639059
 30
0.0
 11
210.92247490629899
 21
15.77545675871586
 31
0.0
  0
LINE
  5
209D
  8
AM_BOR
 10
210.92247490629981
 20
15.775456758715791
 30
0.0
 11
210.95737277733619
 21
15.993445664994621
 31
0.0
  0
LINE
  5
209E
  8
AM_BOR
 10
199.10514248704791
 20
18.382897015254191
 30
0.0
 11
203.92474251077411
 21
13.563296991527499
 31
0.0
  0
ARC
  5
209F
  8
AM_BOR
 10
205.2047457141602
 20
14.181128845625549
 30
0.0
 40
0.5002284402762121
 50
180.0
 51
244.5184856857075
  0
LINE
  5
20A0
  8
AM_BOR
 10
199.36521928176651
 20
18.405261169360589
 30
0.0
 11
204.19035209062989
 21
13.58012836049622
 31
0.0
  0
LINE
  5
20A1
  8
AM_BOR
 10
199.630408435547
 20
18.422512964405719
 30
0.0
 11
204.450428885349
 21
13.602492514602771
 31
0.0
  0
LINE
  5
20A2
  8
AM_BOR
 10
199.8967460324557
 20
18.438616316322719
 30
0.0
 11
204.70776895023289
 21
13.62759339854461
 31
0.0
  0
LINE
  5
20A3
  8
AM_BOR
 10
200.16308362936431
 20
18.454719668239761
 30
0.0
 11
204.9488987968831
 21
13.66890450072008
 31
0.0
  0
LINE
  5
20A4
  8
AM_BOR
 10
198.8450656923284
 20
18.36053286114759
 30
0.0
 11
203.6584049138651
 21
13.547193639610409
 31
0.0
  0
LINE
  5
20A5
  8
AM_BOR
 10
198.7943784573331
 20
18.12877914731807
 30
0.0
 11
203.39206731695711
 21
13.53109028769336
 31
0.0
  0
LINE
  5
20A6
  8
AM_BOR
 10
199.01830573664321
 20
18.375429872827009
 30
0.0
 11
199.01830573664321
 21
13.61146145716244
 31
0.0
  0
LINE
  5
20A7
  8
AM_BOR
 10
199.2180216468426
 20
18.39260355953768
 30
0.0
 11
199.2180216468426
 21
13.594287770451791
 31
0.0
  0
LINE
  5
20A8
  8
AM_BOR
 10
204.55473034123381
 20
18.375429872826999
 30
0.0
 11
204.55473034123381
 21
13.61146145716245
 31
0.0
  0
LINE
  5
20A9
  8
AM_BOR
 10
204.35501443103459
 20
18.39260355953764
 30
0.0
 11
204.35501443103459
 21
13.594287770451791
 31
0.0
  0
LINE
  5
20AA
  8
AM_BOR
 62
     4
 10
-0.0000001316067255
 20
15.000000173111291
 30
0.0
 11
190.49999986839319
 21
15.000000173111291
 31
0.0
  0
LINE
  5
20AB
  8
AM_BOR
 62
     4
 10
276.49999986839327
 20
28.000000173111289
 30
0.0
 11
276.49999986839327
 21
0.000000173111296
 31
0.0
  0
LINE
  5
20AC
  8
AM_BOR
 62
     4
 10
-0.0000001316067255
 20
15.000000173111291
 30
0.0
 11
-0.0000001316067255
 21
0.000000173111296
 31
0.0
  0
LINE
  5
20AD
  8
AM_BOR
 62
     4
 10
-0.0000001316067255
 20
28.000000173111289
 30
0.0
 11
276.49999986839327
 21
28.000000173111289
 31
0.0
  0
LINE
  5
20AE
  8
AM_BOR
 62
     4
 10
15.999999868393269
 20
15.000000173111291
 30
0.0
 11
15.999999868393269
 21
0.000000173111296
 31
0.0
  0
TEXT
  5
20AF
  8
AM_BOR
 62
     4
 10
215.17999986839331
 20
10.000000173111291
 30
0.0
 40
1.5
  1
NAKANISHI　INDUSTRIAL CO., LTD.
 41
1.5
  0
TEXT
  5
20B0
  8
AM_BOR
 62
     3
 10
213.19999986839329
 20
13.500000173111291
 30
0.0
 40
5.5
  1
中西産業株式会社
 41
1.1999999999999991
  0
TEXT
  5
20B1
  8
AM_BOR
 62
     4
 10
196.192787937406
 20
10.000000173111291
 30
0.0
 40
1.5
  1
Nakanishi
 41
1.1999999999999991
  0
TEXT
  5
20B2
  8
AM_BOR
 62
     7
 10
98.104999768257457
 20
15.650000185032219
 30
0.0
 40
1.0
  1
FINISH
 41
1.6000000000000001
  0
TEXT
  5
20B3
  8
AM_BOR
 62
     7
 10
96.979999708652798
 20
17.700000220795008
 30
0.0
 40
2.7999999999999989
  1
仕　　上
  0
TEXT
  5
20B4
  8
AM_BOR
 62
     7
 10
3.1549997801784002
 20
15.650000185032219
 30
0.0
 40
1.0
  1
MATERIAL
 41
1.6000000000000001
  0
TEXT
  5
20B5
  8
AM_BOR
 62
     7
 10
1.729999708652826
 20
17.700000220795008
 30
0.0
 40
2.7999999999999989
  1
材　　質
  0
LINE
  5
20B6
  8
AM_BOR
 62
     4
 10
190.49999986839319
 20
28.000000173111289
 30
0.0
 11
190.49999986839319
 21
0.000000173111296
 31
0.0
  0
LINE
  5
20B7
  8
AM_BOR
 62
     4
 10
-0.0000001316067255
 20
28.000000173111289
 30
0.0
 11
-0.0000001316067255
 21
15.000000173111291
 31
0.0
  0
LINE
  5
20B8
  8
AM_BOR
 62
     4
 10
-0.0000001316067255
 20
21.500000173111289
 30
0.0
 11
190.49999986839319
 21
21.500000173111289
 31
0.0
  0
LINE
  5
20B9
  8
AM_BOR
 62
     4
 10
15.999999868393269
 20
28.000000173111289
 30
0.0
 11
15.999999868393269
 21
15.000000173111291
 31
0.0
  0
TEXT
  5
20BA
  8
AM_BOR
 62
     7
 10
98.104999768257457
 20
22.150000185032219
 30
0.0
 40
1.0
  1
ART. NO.
 41
1.6000000000000001
  0
TEXT
  5
20BB
  8
AM_BOR
 62
     7
 10
96.979999708652684
 20
24.200000220795008
 30
0.0
 40
2.7999999999999989
  1
品　　番
  0
TEXT
  5
20BC
  8
AM_BOR
 62
     7
 10
3.1549997801784002
 20
22.150000185032219
 30
0.0
 40
1.0
  1
ARTICLE
 41
1.6000000000000001
  0
TEXT
  5
20BD
  8
AM_BOR
 62
     7
 10
1.7299997086527119
 20
24.200000220795008
 30
0.0
 40
2.7999999999999989
  1
品　　名
  0
LINE
  5
20BE
  8
AM_BOR
 62
     4
 10
-0.0000001316067255
 20
15.000000173111291
 30
0.0
 11
-0.0000001316067255
 21
0.0000001731112924
 31
0.0
  0
LINE
  5
20BF
  8
AM_BOR
 62
     4
 10
95.249999868393246
 20
28.000000173111289
 30
0.0
 11
95.249999868393246
 21
0.000000173111296
 31
0.0
  0
TEXT
  5
20C0
  8
AM_BOR
 62
     7
 10
3.1549997801784002
 20
9.1500001850322192
 30
0.0
 40
1.0
  1
REMARKS
 41
1.6000000000000001
  0
TEXT
  5
20C1
  8
AM_BOR
 62
     7
 10
1.7299997086527119
 20
11.20000022079501
 30
0.0
 40
2.7999999999999989
  1
備　　考
  0
LINE
  5
20C2
  8
AM_BOR
 62
     4
 10
111.2499998683932
 20
28.000000173111289
 30
0.0
 11
111.2499998683932
 21
0.000000173111296
 31
0.0
  0
LINE
  5
20C3
  8
AM_BOR
 62
     4
 10
-0.0000001316067255
 20
0.000000173111296
 30
0.0
 11
276.49999986839327
 21
0.000000173111296
 31
0.0
  0
TEXT
  5
20C4
  8
AM_BOR
 62
     7
 10
98.404999780178386
 20
9.1500001850322157
 30
0.0
 40
1.0
  1
SETS
 41
1.6000000000000001
  0
TEXT
  5
20C5
  8
AM_BOR
 62
     7
 10
96.979999708652684
 20
11.20000022079501
 30
0.0
 40
2.7999999999999989
  1
セット品
  0
ATTDEF
  5
20C6
  8
AM_BOR
 62
     7
 10
114.3107095753831
 20
0.5000001731112853
 30
0.0
 40
3.0
  1

 11
114.3107095753831
 21
2.0000001731112849
 31
0.0
  3
セット
  2
SETS｛20｝
 70
     0
 74
     2
1001
ACADANNOTATIVE
1000
AnnotativeData
1002
{
1070
     1
1070
     0
1002
}
1001
AcDbAttr
1070
     0
1070
     1
  0
ATTDEF
  5
20CA
  8
AM_BOR
 62
     7
 10
19.060709575383161
 20
0.5000001731112889
 30
0.0
 40
3.0
  1

 11
19.060709575383161
 21
2.000000173111288
 31
0.0
  3
備　　考
  2
REMARKS｛20｝
 70
     0
 74
     2
1001
ACADANNOTATIVE
1000
AnnotativeData
1002
{
1070
     1
1070
     0
1002
}
1001
AcDbAttr
1070
     0
1070
     1
  0
ATTDEF
  5
20CE
  8
AM_BOR
 62
     7
 10
114.3107095753831
 20
5.5000001731112853
 30
0.0
 40
3.0
  1

 11
114.3107095753831
 21
7.0000001731112853
 31
0.0
  3
セット
  2
SETS｛20｝
 70
     0
 74
     2
1001
ACADANNOTATIVE
1000
AnnotativeData
1002
{
1070
     1
1070
     0
1002
}
1001
AcDbAttr
1070
     0
1070
     1
  0
ATTDEF
  5
20D2
  8
AM_BOR
 62
     7
 10
19.060709575383161
 20
5.500000173111288
 30
0.0
 40
3.0
  1

 11
19.060709575383161
 21
7.000000173111288
 31
0.0
  3
備　　考
  2
REMARKS｛20｝
 70
     0
 74
     2
1001
ACADANNOTATIVE
1000
AnnotativeData
1002
{
1070
     1
1070
     0
1002
}
1001
AcDbAttr
1070
     0
1070
     1
  0
ATTDEF
  5
20D6
  8
AM_BOR
 62
     7
 10
114.3107095753831
 20
10.50000017311128
 30
0.0
 40
3.0
  1

 11
114.3107095753831
 21
12.00000017311128
 31
0.0
  3
セット
  2
SETS｛20｝
 70
     0
 74
     2
1001
ACADANNOTATIVE
1000
AnnotativeData
1002
{
1070
     1
1070
     0
1002
}
1001
AcDbAttr
1070
     0
1070
     1
  0
ATTDEF
  5
20DA
  8
AM_BOR
 62
     7
 10
19.060709575383161
 20
10.500000173111291
 30
0.0
 40
3.0
  1

 11
19.060709575383161
 21
12.000000173111291
 31
0.0
  3
備　　考
  2
REMARKS｛20｝
 70
     0
 74
     2
1001
ACADANNOTATIVE
1000
AnnotativeData
1002
{
1070
     1
1070
     0
1002
}
1001
AcDbAttr
1070
     0
1070
     1
  0
ATTDEF
  5
20DE
  8
AM_BOR
 62
     7
 10
114.2499998683932
 20
23.500000173111289
 30
0.0
 40
3.0
  1

 11
114.2499998683932
 21
25.000000173111289
 31
0.0
  3
品    番
  2
ART_NO｛20｝
 70
     0
 74
     2
1001
ACADANNOTATIVE
1000
AnnotativeData
1002
{
1070
     1
1070
     0
1002
}
1001
AcDbAttr
1070
     0
1070
     1
  0
ATTDEF
  5
20E2
  8
AM_BOR
 62
     7
 10
18.999999868393271
 20
23.500000173111289
 30
0.0
 40
3.0
  1

 11
18.999999868393271
 21
25.000000173111289
 31
0.0
  3
品    名
  2
ARTICLE｛20｝
 70
     0
 74
     2
1001
ACADANNOTATIVE
1000
AnnotativeData
1002
{
1070
     1
1070
     0
1002
}
1001
AcDbAttr
1070
     0
1070
     1
  0
ATTDEF
  5
20E6
  8
AM_BOR
 62
     7
 10
114.2499998683932
 20
17.000000173111289
 30
0.0
 40
3.0
  1

 11
114.2499998683932
 21
18.500000173111289
 31
0.0
  3
仕上
  2
FINISH｛20｝
 70
     0
 74
     2
1001
ACADANNOTATIVE
1000
AnnotativeData
1002
{
1070
     1
1070
     0
1002
}
1001
AcDbAttr
1070
     0
1070
     1
  0
ATTDEF
  5
20EA
  8
AM_BOR
 62
     7
 10
18.999999868393271
 20
17.000000173111289
 30
0.0
 40
3.0
  1

 11
18.999999868393271
 21
18.500000173111289
 31
0.0
  3
材　　質
  2
MATERIAK｛20｝
 70
     0
 74
     2
1001
ACADANNOTATIVE
1000
AnnotativeData
1002
{
1070
     1
1070
     0
1002
}
1001
AcDbAttr
1070
     0
1070
     1
  0
ENDBLK
  5
20F1
  8
0
  0
BLOCK
  8
0
  2
ZUWAKU-A3H
 70
     0
 10
0.0
 20
0.0
 30
0.0
  3
ZUWAKU-A3H
  1

  0
LINE
  5
29DD
  8
AM_BOR
 62
     3
 10
24.999999999999989
 20
284.99999999999977
 30
0.0
 11
24.999999999999979
 21
9.0
 31
0.0
  0
LINE
  5
29DE
  8
AM_BOR
 62
     3
 10
411.99999999999989
 20
284.99999999999989
 30
0.0
 11
25.0
 21
284.99999999999989
 31
0.0
  0
LINE
  5
29DF
  8
AM_BOR
 62
     3
 10
411.99999999999989
 20
284.99999999999989
 30
0.0
 11
411.99999999999989
 21
9.0
 31
0.0
  0
LINE
  5
29E0
  8
AM_BOR
 62
     3
 10
24.999999999999989
 20
8.9999999999999964
 30
0.0
 11
411.99999999999972
 21
8.9999999999999964
 31
0.0
  0
TEXT
  5
29E1
  8
SYS-TEISEI0
  6
CONTINUOUS
 62
     3
 10
144.38500001765789
 20
14.950000047683719
 30
0.0
 40
3.099999904632567
  1
 
  0
TEXT
  5
29E2
  8
SYS-TEISEI0
  6
CONTINUOUS
 62
     3
 10
169.88500004447991
 20
14.950000047683719
 30
0.0
 40
3.099999904632567
  1
 
  0
TEXT
  5
29E3
  8
SYS-TEISEI0
  6
CONTINUOUS
 62
     3
 10
229.24499995708459
 20
14.950000047683719
 30
0.0
 40
3.099999904632567
  1
 
  0
TEXT
  5
29E4
  8
SYS-TEISEI0
  6
CONTINUOUS
 62
     3
 10
236.9449999570846
 20
14.950000047683719
 30
0.0
 40
3.099999904632567
  1
 
  0
TEXT
  5
29E5
  8
SYS-TEISEI0
  6
CONTINUOUS
 62
     3
 10
144.38500001765789
 20
19.950000047683719
 30
0.0
 40
3.099999904632567
  1
 
  0
TEXT
  5
29E6
  8
SYS-TEISEI0
  6
CONTINUOUS
 62
     3
 10
169.88500004447991
 20
19.950000047683719
 30
0.0
 40
3.099999904632567
  1
 
  0
TEXT
  5
29E7
  8
SYS-TEISEI0
  6
CONTINUOUS
 62
     3
 10
229.24499995708459
 20
19.950000047683719
 30
0.0
 40
3.099999904632567
  1
 
  0
TEXT
  5
29E8
  8
SYS-TEISEI0
  6
CONTINUOUS
 62
     3
 10
236.9449999570846
 20
19.950000047683719
 30
0.0
 40
3.099999904632567
  1
 
  0
TEXT
  5
29E9
  8
SYS-TEISEI0
  6
CONTINUOUS
 62
     3
 10
144.38500001765789
 20
24.950000047683719
 30
0.0
 40
3.099999904632567
  1
 
  0
TEXT
  5
29EA
  8
SYS-TEISEI0
  6
CONTINUOUS
 62
     3
 10
169.88500004447991
 20
24.950000047683719
 30
0.0
 40
3.099999904632567
  1
 
  0
TEXT
  5
29EB
  8
SYS-TEISEI0
  6
CONTINUOUS
 62
     3
 10
229.24499995708459
 20
24.950000047683719
 30
0.0
 40
3.099999904632567
  1
 
  0
TEXT
  5
29EC
  8
SYS-TEISEI0
  6
CONTINUOUS
 62
     3
 10
236.9449999570846
 20
24.950000047683719
 30
0.0
 40
3.099999904632567
  1
 
  0
TEXT
  5
29ED
  8
AM_BOR
 10
24.999999999999989
 20
9.0
 30
0.0
 40
5.0
  1
!GENTITLE-LL
  0
TEXT
  5
29EE
  8
AM_BOR
 10
411.99999999999989
 20
9.0
 30
0.0
 40
5.0
  1
!GENTITLE-INSERT
  0
TEXT
  5
29EF
  8
AM_BOR
 10
411.99999999999989
 20
284.99999999999989
 30
0.0
 40
5.0
  1
!GENTITLE-RU
  0
TEXT
  5
29F0
  8
AM_BOR
 10
420.0
 20
297.0
 30
0.0
 40
5.0
  1
!GENTITLE-MAX
  0
ENDBLK
  5
29F2
  8
0
  0
BLOCK
  8
0
  2
_ACMFILLEDHALF
 70
     0
 10
0.0
 20
0.0
 30
0.0
  3
_ACMFILLEDHALF
  1

  0
TRACE
  5
32A5
  8
0
 62
     0
 10
-0.8
 20
0.0
 30
0.0
 11
-1.0
 21
0.166666666
 31
0.0
 12
0.0
 22
0.0
 32
0.0
 13
0.0
 23
0.0
 33
0.0
  0
LINE
  5
32A6
  8
0
 62
     0
 10
-1.0
 20
0.0
 30
0.0
 11
-0.8
 21
0.0
 31
0.0
  0
ENDBLK
  5
32A4
  8
0
  0
BLOCK
  8
0
  2
_ACMFILLED
 70
     0
 10
0.0
 20
0.0
 30
0.0
  3
_ACMFILLED
  1

  0
TRACE
  5
32B1
  8
0
 62
     0
 10
-1.0
 20
-0.166666666
 30
0.0
 11
-1.0
 21
0.166666666
 31
0.0
 12
0.0
 22
0.0
 32
0.0
 13
0.0
 23
0.0
 33
0.0
  0
ENDBLK
  5
32B0
  8
0
  0
BLOCK
  8
0
  2
_ACMOPEN15
 70
     0
 10
0.0
 20
0.0
 30
0.0
  3
_ACMOPEN15
  1

  0
LINE
  5
32BB
  8
0
 62
     0
 10
-1.0
 20
0.0
 30
0.0
 11
0.0
 21
0.0
 31
0.0
  0
LINE
  5
32BC
  8
0
 62
     0
 10
-1.0
 20
-0.131652497
 30
0.0
 11
0.0
 21
0.0
 31
0.0
  0
LINE
  5
32BD
  8
0
 62
     0
 10
0.0
 20
0.0
 30
0.0
 11
-1.0
 21
0.131652497
 31
0.0
  0
ENDBLK
  5
32BA
  8
0
  0
BLOCK
  8
0
  2
_ACMFILLED15
 70
     0
 10
0.0
 20
0.0
 30
0.0
  3
_ACMFILLED15
  1

  0
TRACE
  5
32C9
  8
0
 62
     0
 10
-1.0
 20
-0.131652497
 30
0.0
 11
-1.0
 21
0.131652497
 31
0.0
 12
0.0
 22
0.0
 32
0.0
 13
0.0
 23
0.0
 33
0.0
  0
ENDBLK
  5
32C8
  8
0
  0
BLOCK
  8
0
  2
GENDOT
 70
     0
 10
0.0
 20
0.0
 30
0.0
  3
GENDOT
  1

  0
LINE
  5
33BD
  8
0
 10
0.0
 20
0.0
 30
0.0
 11
-1.0
 21
0.0
 31
0.0
  0
POLYLINE
  5
33BE
  8
0
 66
     1
 10
0.0
 20
0.0
 30
0.0
 70
     1
 40
0.25
 41
0.25
  0
VERTEX
  5
4515
  8
0
 10
-0.125
 20
0.0
 30
0.0
 42
1.0
  0
VERTEX
  5
4516
  8
0
 10
0.125
 20
0.0
 30
0.0
 42
1.0
  0
SEQEND
  5
4517
  8
0
  0
ENDBLK
  5
33BF
  8
0
  0
BLOCK
  8
0
  2
*D14
 70
     1
 10
0.0
 20
0.0
 30
0.0
  3
*D14
  1

  0
LINE
  5
41A9
  8
AM_5
  6
CONTINUOUS
 62
     7
 10
264.12915112853739
 20
161.167642515578
 30
0.0
 11
264.12915112853739
 21
182.167642515578
 31
0.0
  0
LINE
  5
41AA
  8
AM_5
  6
CONTINUOUS
 62
     7
 10
280.1291511285375
 20
161.167642515578
 30
0.0
 11
280.1291511285375
 21
182.167642515578
 31
0.0
  0
LINE
  5
41AB
  8
AM_5
  6
CONTINUOUS
 62
     7
 10
266.6291511285375
 20
181.167642515578
 30
0.0
 11
277.6291511285375
 21
181.167642515578
 31
0.0
  0
INSERT
  5
41AC
  8
AM_5
 62
     7
  2
_OPEN30
 10
264.12915112853739
 20
181.167642515578
 30
0.0
 41
2.5
 42
2.5
 43
2.5
 50
180.0
  0
INSERT
  5
41AD
  8
AM_5
 62
     7
  2
_OPEN30
 10
280.1291511285375
 20
181.167642515578
 30
0.0
 41
2.5
 42
2.5
 43
2.5
  0
INSERT
  5
41AE
  8
0
  2
*U52
 10
0.0
 20
0.0
 30
0.0
  0
POINT
  5
41AF
  8
DEFPOINTS
 62
     0
 10
264.12915112853739
 20
160.167642515578
 30
0.0
  0
POINT
  5
41B0
  8
DEFPOINTS
 62
     0
 10
280.1291511285375
 20
160.167642515578
 30
0.0
  0
POINT
  5
41B1
  8
DEFPOINTS
 62
     0
 10
280.1291511285375
 20
181.167642515578
 30
0.0
  0
ENDBLK
  5
411A
  8
0
  0
BLOCK
  8
0
  2
*D15
 70
     1
 10
0.0
 20
0.0
 30
0.0
  3
*D15
  1

  0
LINE
  5
41B2
  8
AM_5
  6
CONTINUOUS
 62
     7
 10
268.89166254774761
 20
156.29312930794401
 30
0.0
 11
255.988218717525
 21
168.7501750274875
 31
0.0
  0
LINE
  5
41B3
  8
AM_5
  6
CONTINUOUS
 62
     7
 10
255.988218717525
 20
168.7501750274875
 30
0.0
 11
243.988218717525
 21
168.7501750274875
 31
0.0
  0
INSERT
  5
41B4
  8
AM_5
 62
     7
  2
_OPEN30
 10
270.69026731485309
 20
154.55674775662951
 30
0.0
 41
2.5
 42
2.5
 43
2.5
 50
316.00842243797541
  0
INSERT
  5
41B5
  8
0
  2
*U53
 10
0.0
 20
0.0
 30
0.0
  0
POINT
  5
41B6
  8
DEFPOINTS
 62
     0
 10
270.69026731485309
 20
154.55674775662951
 30
0.0
  0
POINT
  5
41B7
  8
DEFPOINTS
 62
     0
 10
273.5680349422218
 20
151.77853727452629
 30
0.0
  0
ENDBLK
  5
4126
  8
0
  0
BLOCK
  8
0
  2
*D16
 70
     1
 10
0.0
 20
0.0
 30
0.0
  3
*D16
  1

  0
LINE
  5
41EC
  8
AM_5
  6
CONTINUOUS
 62
     7
 10
311.52915112853748
 20
88.167642515577995
 30
0.0
 11
332.52915212853742
 21
88.167642515577995
 31
0.0
  0
LINE
  5
41ED
  8
AM_5
  6
CONTINUOUS
 62
     7
 10
311.52915112853748
 20
130.167642515578
 30
0.0
 11
332.52915212853748
 21
130.16764251557791
 31
0.0
  0
LINE
  5
41EE
  8
AM_5
  6
CONTINUOUS
 62
     7
 10
331.52915212853742
 20
90.667642515577995
 30
0.0
 11
331.52915212853742
 21
127.667642515578
 31
0.0
  0
INSERT
  5
41EF
  8
AM_5
 62
     7
  2
_OPEN30
 10
331.52915212853742
 20
88.167642515577995
 30
0.0
 41
2.5
 42
2.5
 43
2.5
 50
270.0
  0
INSERT
  5
41F0
  8
AM_5
 62
     7
  2
_OPEN30
 10
331.52915212853748
 20
130.16764251557791
 30
0.0
 41
2.5
 42
2.5
 43
2.5
 50
90.0
  0
INSERT
  5
41F1
  8
0
  2
*U58
 10
0.0
 20
0.0
 30
0.0
  0
POINT
  5
41F2
  8
DEFPOINTS
 62
     0
 10
310.52915112853748
 20
88.167642515577995
 30
0.0
  0
POINT
  5
41F3
  8
DEFPOINTS
 62
     0
 10
310.52915112853748
 20
130.167642515578
 30
0.0
  0
POINT
  5
41F4
  8
DEFPOINTS
 62
     0
 10
331.52915212853748
 20
130.16764251557791
 30
0.0
  0
ENDBLK
  5
412F
  8
0
  0
BLOCK
  8
0
  2
*D17
 70
     1
 10
0.0
 20
0.0
 30
0.0
  3
*D17
  1

  0
LINE
  5
4235
  8
AM_5
  6
CONTINUOUS
 62
     7
 10
176.1115681070774
 20
205.50206186406419
 30
0.0
 11
205.49409473542201
 21
205.50206186406419
 31
0.0
  0
LINE
  5
4236
  8
AM_5
  6
CONTINUOUS
 62
     7
 10
151.5115681070773
 20
251.90206186406419
 30
0.0
 11
205.49409473542201
 21
251.90206186406419
 31
0.0
  0
LINE
  5
4237
  8
AM_5
  6
CONTINUOUS
 62
     7
 10
204.4940947354219
 20
208.00206186406419
 30
0.0
 11
204.4940947354219
 21
249.40206186406419
 31
0.0
  0
INSERT
  5
4238
  8
AM_5
 62
     7
  2
_OPEN30
 10
204.4940947354219
 20
205.50206186406419
 30
0.0
 41
2.5
 42
2.5
 43
2.5
 50
270.0
  0
INSERT
  5
4239
  8
AM_5
 62
     7
  2
_OPEN30
 10
204.4940947354219
 20
251.90206186406419
 30
0.0
 41
2.5
 42
2.5
 43
2.5
 50
90.0
  0
INSERT
  5
423A
  8
0
  2
*U62
 10
0.0
 20
0.0
 30
0.0
  0
POINT
  5
423B
  8
DEFPOINTS
 62
     0
 10
175.1115681070774
 20
205.50206186406419
 30
0.0
  0
POINT
  5
423C
  8
DEFPOINTS
 62
     0
 10
150.5115681070773
 20
251.90206186406419
 30
0.0
  0
POINT
  5
423D
  8
DEFPOINTS
 62
     0
 10
204.4940947354219
 20
251.90206186406419
 30
0.0
  0
ENDBLK
  5
413B
  8
0
  0
BLOCK
  8
0
  2
*D18
 70
     1
 10
0.0
 20
0.0
 30
0.0
  3
*D18
  1

  0
LINE
  5
4148
  8
AM_5
  6
CONTINUOUS
 62
     7
 10
141.1115681070774
 20
204.50206186406419
 30
0.0
 11
141.1115681070774
 21
188.05206186406431
 31
0.0
  0
LINE
  5
4149
  8
AM_5
  6
CONTINUOUS
 62
     7
 10
148.1115681070774
 20
202.0520618640642
 30
0.0
 11
148.1115681070774
 21
188.05206186406431
 31
0.0
  0
LINE
  5
414A
  8
AM_5
  6
CONTINUOUS
 62
     7
 10
138.6115681070774
 20
189.05206186406431
 30
0.0
 11
136.1115681070774
 21
189.05206186406431
 31
0.0
  0
LINE
  5
414B
  8
AM_5
  6
CONTINUOUS
 62
     7
 10
150.6115681070774
 20
189.05206186406431
 30
0.0
 11
153.1115681070774
 21
189.05206186406431
 31
0.0
  0
LINE
  5
414C
  8
AM_5
  6
CONTINUOUS
 62
     7
 10
141.1115681070774
 20
189.05206186406431
 30
0.0
 11
148.1115681070774
 21
189.05206186406431
 31
0.0
  0
INSERT
  5
414D
  8
AM_5
 62
     7
  2
_OPEN30
 10
141.1115681070774
 20
189.05206186406431
 30
0.0
 41
2.5
 42
2.5
 43
2.5
  0
INSERT
  5
414E
  8
AM_5
 62
     7
  2
_OPEN30
 10
148.1115681070774
 20
189.05206186406431
 30
0.0
 41
2.5
 42
2.5
 43
2.5
 50
180.0
  0
INSERT
  5
414F
  8
0
  2
*U46
 10
0.0
 20
0.0
 30
0.0
  0
POINT
  5
4150
  8
DEFPOINTS
 62
     0
 10
141.1115681070774
 20
205.50206186406419
 30
0.0
  0
POINT
  5
4151
  8
DEFPOINTS
 62
     0
 10
148.1115681070774
 20
203.0520618640642
 30
0.0
  0
POINT
  5
4152
  8
DEFPOINTS
 62
     0
 10
148.1115681070774
 20
189.05206186406431
 30
0.0
  0
ENDBLK
  5
4147
  8
0
  0
BLOCK
  8
0
  2
*D19
 70
     1
 10
0.0
 20
0.0
 30
0.0
  3
*D19
  1

  0
LINE
  5
4156
  8
AM_5
  6
CONTINUOUS
 62
     7
 10
140.11156810707729
 20
205.50206186406419
 30
0.0
 11
123.6615681070773
 21
205.50206186406419
 31
0.0
  0
LINE
  5
4157
  8
AM_5
  6
CONTINUOUS
 62
     7
 10
137.6615681070773
 20
212.5020618640641
 30
0.0
 11
123.6615681070773
 21
212.5020618640641
 31
0.0
  0
LINE
  5
4158
  8
AM_5
  6
CONTINUOUS
 62
     7
 10
124.6615681070773
 20
203.00206186406419
 30
0.0
 11
124.6615681070773
 21
200.50206186406419
 31
0.0
  0
LINE
  5
4159
  8
AM_5
  6
CONTINUOUS
 62
     7
 10
124.6615681070773
 20
215.00206186406419
 30
0.0
 11
124.6615681070773
 21
217.50206186406419
 31
0.0
  0
LINE
  5
415A
  8
AM_5
  6
CONTINUOUS
 62
     7
 10
124.6615681070773
 20
205.50206186406419
 30
0.0
 11
124.6615681070773
 21
212.5020618640641
 31
0.0
  0
INSERT
  5
415B
  8
AM_5
 62
     7
  2
_OPEN30
 10
124.6615681070773
 20
205.50206186406419
 30
0.0
 41
2.5
 42
2.5
 43
2.5
 50
90.0
  0
INSERT
  5
415C
  8
AM_5
 62
     7
  2
_OPEN30
 10
124.6615681070773
 20
212.5020618640641
 30
0.0
 41
2.5
 42
2.5
 43
2.5
 50
270.0
  0
INSERT
  5
415D
  8
0
  2
*U47
 10
0.0
 20
0.0
 30
0.0
  0
POINT
  5
415E
  8
DEFPOINTS
 62
     0
 10
141.11156810707729
 20
205.50206186406419
 30
0.0
  0
POINT
  5
415F
  8
DEFPOINTS
 62
     0
 10
138.6615681070773
 20
212.5020618640641
 30
0.0
  0
POINT
  5
4160
  8
DEFPOINTS
 62
     0
 10
124.6615681070773
 20
212.5020618640641
 30
0.0
  0
ENDBLK
  5
4155
  8
0
  0
BLOCK
  8
0
  2
*D20
 70
     1
 10
0.0
 20
0.0
 30
0.0
  3
*D20
  1

  0
LINE
  5
4164
  8
AM_5
  6
CONTINUOUS
 62
     7
 10
266.12915112853739
 20
77.167642515577995
 30
0.0
 11
250.3241583259192
 21
77.167642515577995
 31
0.0
  0
LINE
  5
4165
  8
AM_5
  6
CONTINUOUS
 62
     7
 10
266.12915112853739
 20
65.167642515577938
 30
0.0
 11
250.3241583259192
 21
65.167642515577938
 31
0.0
  0
LINE
  5
4166
  8
AM_5
  6
CONTINUOUS
 62
     7
 10
251.32415832591909
 20
74.667642515577995
 30
0.0
 11
251.32415832591909
 21
67.667642515577938
 31
0.0
  0
INSERT
  5
4167
  8
AM_5
 62
     7
  2
_OPEN30
 10
251.32415832591909
 20
77.167642515577995
 30
0.0
 41
2.5
 42
2.5
 43
2.5
 50
90.0
  0
INSERT
  5
4168
  8
AM_5
 62
     7
  2
_OPEN30
 10
251.32415832591909
 20
65.167642515577938
 30
0.0
 41
2.5
 42
2.5
 43
2.5
 50
270.0
  0
INSERT
  5
4169
  8
0
  2
*U48
 10
0.0
 20
0.0
 30
0.0
  0
POINT
  5
416A
  8
DEFPOINTS
 62
     0
 10
267.1291511285375
 20
77.167642515577995
 30
0.0
  0
POINT
  5
416B
  8
DEFPOINTS
 62
     0
 10
267.1291511285375
 20
65.167642515577938
 30
0.0
  0
POINT
  5
416C
  8
DEFPOINTS
 62
     0
 10
251.32415832591909
 20
65.167642515577938
 30
0.0
  0
ENDBLK
  5
4163
  8
0
  0
BLOCK
  8
0
  2
*D21
 70
     1
 10
0.0
 20
0.0
 30
0.0
  3
*D21
  1

  0
LINE
  5
4170
  8
AM_5
  6
CONTINUOUS
 62
     7
 10
266.1291511285375
 20
141.167642515578
 30
0.0
 11
250.32415832591909
 21
141.167642515578
 31
0.0
  0
LINE
  5
4171
  8
AM_5
  6
CONTINUOUS
 62
     7
 10
266.12915112853739
 20
77.167642515577995
 30
0.0
 11
250.32415832591909
 21
77.167642515577995
 31
0.0
  0
LINE
  5
4172
  8
AM_5
  6
CONTINUOUS
 62
     7
 10
251.32415832591909
 20
138.667642515578
 30
0.0
 11
251.32415832591909
 21
79.667642515577995
 31
0.0
  0
INSERT
  5
4173
  8
AM_5
 62
     7
  2
_OPEN30
 10
251.32415832591909
 20
141.167642515578
 30
0.0
 41
2.5
 42
2.5
 43
2.5
 50
90.0
  0
INSERT
  5
4174
  8
AM_5
 62
     7
  2
_OPEN30
 10
251.32415832591909
 20
77.167642515577995
 30
0.0
 41
2.5
 42
2.5
 43
2.5
 50
270.0
  0
INSERT
  5
4175
  8
0
  2
*U49
 10
0.0
 20
0.0
 30
0.0
  0
POINT
  5
4176
  8
DEFPOINTS
 62
     0
 10
267.1291511285375
 20
141.167642515578
 30
0.0
  0
POINT
  5
4177
  8
DEFPOINTS
 62
     0
 10
267.1291511285375
 20
77.167642515577995
 30
0.0
  0
POINT
  5
4178
  8
DEFPOINTS
 62
     0
 10
251.32415832591909
 20
77.167642515577995
 30
0.0
  0
ENDBLK
  5
416F
  8
0
  0
BLOCK
  8
0
  2
*D22
 70
     1
 10
0.0
 20
0.0
 30
0.0
  3
*D22
  1

  0
LINE
  5
417C
  8
AM_5
  6
CONTINUOUS
 62
     7
 10
266.1291511285375
 20
153.167642515578
 30
0.0
 11
250.32415832591909
 21
153.167642515578
 31
0.0
  0
LINE
  5
417D
  8
AM_5
  6
CONTINUOUS
 62
     7
 10
266.1291511285375
 20
141.167642515578
 30
0.0
 11
250.32415832591909
 21
141.167642515578
 31
0.0
  0
LINE
  5
417E
  8
AM_5
  6
CONTINUOUS
 62
     7
 10
251.32415832591909
 20
150.667642515578
 30
0.0
 11
251.32415832591909
 21
143.667642515578
 31
0.0
  0
INSERT
  5
417F
  8
AM_5
 62
     7
  2
_OPEN30
 10
251.32415832591909
 20
153.167642515578
 30
0.0
 41
2.5
 42
2.5
 43
2.5
 50
90.0
  0
INSERT
  5
4180
  8
AM_5
 62
     7
  2
_OPEN30
 10
251.32415832591909
 20
141.167642515578
 30
0.0
 41
2.5
 42
2.5
 43
2.5
 50
270.0
  0
INSERT
  5
4181
  8
0
  2
*U50
 10
0.0
 20
0.0
 30
0.0
  0
POINT
  5
4182
  8
DEFPOINTS
 62
     0
 10
267.1291511285375
 20
153.167642515578
 30
0.0
  0
POINT
  5
4183
  8
DEFPOINTS
 62
     0
 10
267.1291511285375
 20
141.167642515578
 30
0.0
  0
POINT
  5
4184
  8
DEFPOINTS
 62
     0
 10
251.32415832591909
 20
141.167642515578
 30
0.0
  0
ENDBLK
  5
417B
  8
0
  0
BLOCK
  8
0
  2
*D23
 70
     1
 10
0.0
 20
0.0
 30
0.0
  3
*D23
  1

  0
LINE
  5
4188
  8
AM_5
  6
CONTINUOUS
 62
     7
 10
263.12915112853739
 20
58.167642515577938
 30
0.0
 11
243.32415832591909
 21
58.167642515577938
 31
0.0
  0
LINE
  5
4189
  8
AM_5
  6
CONTINUOUS
 62
     7
 10
263.12915112853739
 20
160.167642515578
 30
0.0
 11
243.32415832591909
 21
160.167642515578
 31
0.0
  0
LINE
  5
418A
  8
AM_5
  6
CONTINUOUS
 62
     7
 10
244.32415832591909
 20
60.667642515577938
 30
0.0
 11
244.3241583259192
 21
157.667642515578
 31
0.0
  0
INSERT
  5
418B
  8
AM_5
 62
     7
  2
_OPEN30
 10
244.32415832591909
 20
58.167642515577938
 30
0.0
 41
2.5
 42
2.5
 43
2.5
 50
270.0
  0
INSERT
  5
418C
  8
AM_5
 62
     7
  2
_OPEN30
 10
244.3241583259192
 20
160.167642515578
 30
0.0
 41
2.5
 42
2.5
 43
2.5
 50
90.0
  0
INSERT
  5
418D
  8
0
  2
*U51
 10
0.0
 20
0.0
 30
0.0
  0
POINT
  5
418E
  8
DEFPOINTS
 62
     0
 10
264.12915112853739
 20
58.167642515577938
 30
0.0
  0
POINT
  5
418F
  8
DEFPOINTS
 62
     0
 10
264.12915112853739
 20
160.167642515578
 30
0.0
  0
POINT
  5
4190
  8
DEFPOINTS
 62
     0
 10
244.3241583259192
 20
160.167642515578
 30
0.0
  0
ENDBLK
  5
4187
  8
0
  0
BLOCK
  8
0
  2
*D24
 70
     1
 10
0.0
 20
0.0
 30
0.0
  3
*D24
  1

  0
LINE
  5
4518
  8
AM_5
  6
CONTINUOUS
 62
     7
 10
264.12915112853739
 20
161.167642515578
 30
0.0
 11
264.12915112853739
 21
175.167642515578
 31
0.0
  0
LINE
  5
4519
  8
AM_5
  6
CONTINUOUS
 62
     7
 10
272.1291511285375
 20
159.167642515578
 30
0.0
 11
272.1291511285375
 21
175.167642515578
 31
0.0
  0
LINE
  5
451A
  8
AM_5
  6
CONTINUOUS
 62
     7
 10
266.6291511285375
 20
174.167642515578
 30
0.0
 11
269.6291511285375
 21
174.167642515578
 31
0.0
  0
INSERT
  5
451B
  8
AM_5
 62
     7
  2
_OPEN30
 10
264.12915112853739
 20
174.167642515578
 30
0.0
 41
2.5
 42
2.5
 43
2.5
 50
180.0
  0
INSERT
  5
451C
  8
AM_5
 62
     7
  2
GENDOT
 10
272.1291511285375
 20
174.167642515578
 30
0.0
 41
2.5
 42
2.5
 43
2.5
  0
TEXT
  8
AM_5
  40
3
  5
45B0
  62
7
  72
0
  71
0
 10
268.129
 20
172.768
 30
0.000000
  1
8
  0
POINT
  5
451E
  8
DEFPOINTS
 62
     0
 10
264.12915112853739
 20
160.167642515578
 30
0.0
  0
POINT
  5
451F
  8
DEFPOINTS
 62
     0
 10
272.1291511285375
 20
158.167642515578
 30
0.0
  0
POINT
  5
4520
  8
DEFPOINTS
 62
     0
 10
272.1291511285375
 20
174.167642515578
 30
0.0
  0
ENDBLK
  5
4193
  8
0
  0
BLOCK
  8
0
  2
*D25
 70
     1
 10
0.0
 20
0.0
 30
0.0
  3
*D25
  1

  0
LINE
  5
4521
  8
AM_5
  6
CONTINUOUS
 62
     7
 10
280.1291511285375
 20
161.167642515578
 30
0.0
 11
280.1291511285375
 21
175.167642515578
 31
0.0
  0
LINE
  5
4522
  8
AM_5
  6
CONTINUOUS
 62
     7
 10
272.1291511285375
 20
159.167642515578
 30
0.0
 11
272.1291511285375
 21
175.167642515578
 31
0.0
  0
LINE
  5
4523
  8
AM_5
  6
CONTINUOUS
 62
     7
 10
277.6291511285375
 20
174.167642515578
 30
0.0
 11
274.6291511285375
 21
174.167642515578
 31
0.0
  0
INSERT
  5
4524
  8
AM_5
 62
     7
  2
_OPEN30
 10
280.1291511285375
 20
174.167642515578
 30
0.0
 41
2.5
 42
2.5
 43
2.5
  0
INSERT
  5
4525
  8
AM_5
 62
     7
  2
GENDOT
 10
272.1291511285375
 20
174.167642515578
 30
0.0
 41
2.5
 42
2.5
 43
2.5
 50
180.0
  0
TEXT
  8
AM_5
  40
3
  5
45B1
  62
7
  72
0
  71
0
 10
276.129
 20
172.768
 30
0.000000
  1
8
  0
POINT
  5
4527
  8
DEFPOINTS
 62
     0
 10
280.1291511285375
 20
160.167642515578
 30
0.0
  0
POINT
  5
4528
  8
DEFPOINTS
 62
     0
 10
272.1291511285375
 20
158.167642515578
 30
0.0
  0
POINT
  5
4529
  8
DEFPOINTS
 62
     0
 10
272.1291511285375
 20
174.167642515578
 30
0.0
  0
ENDBLK
  5
419F
  8
0
  0
BLOCK
  8
0
  2
*D26
 70
     1
 10
0.0
 20
0.0
 30
0.0
  3
*D26
  1

  0
LINE
  5
41BB
  8
AM_5
  6
CONTINUOUS
 62
     7
 10
311.52915112853748
 20
88.167642515577995
 30
0.0
 11
325.52915212853748
 21
88.167642515577995
 31
0.0
  0
LINE
  5
41BC
  8
AM_5
  6
CONTINUOUS
 62
     7
 10
310.52915112853748
 20
94.167642515577995
 30
0.0
 11
325.52915212853748
 21
94.167642515577995
 31
0.0
  0
LINE
  5
41BD
  8
AM_5
  6
CONTINUOUS
 62
     7
 10
324.52915212853748
 20
85.667642515577995
 30
0.0
 11
324.52915212853748
 21
83.167642515577995
 31
0.0
  0
LINE
  5
41BE
  8
AM_5
  6
CONTINUOUS
 62
     7
 10
324.52915212853748
 20
96.667642515577995
 30
0.0
 11
324.52915212853748
 21
99.167642515577995
 31
0.0
  0
LINE
  5
41BF
  8
AM_5
  6
CONTINUOUS
 62
     7
 10
324.52915212853748
 20
88.167642515577995
 30
0.0
 11
324.52915212853748
 21
94.167642515577995
 31
0.0
  0
INSERT
  5
41C0
  8
AM_5
 62
     7
  2
_OPEN30
 10
324.52915212853748
 20
88.167642515577995
 30
0.0
 41
2.5
 42
2.5
 43
2.5
 50
90.0
  0
INSERT
  5
41C1
  8
AM_5
 62
     7
  2
_OPEN30
 10
324.52915212853748
 20
94.167642515577995
 30
0.0
 41
2.5
 42
2.5
 43
2.5
 50
270.0
  0
INSERT
  5
41C2
  8
0
  2
*U54
 10
0.0
 20
0.0
 30
0.0
  0
POINT
  5
41C3
  8
DEFPOINTS
 62
     0
 10
310.52915112853748
 20
88.167642515577995
 30
0.0
  0
POINT
  5
41C4
  8
DEFPOINTS
 62
     0
 10
309.52915112853748
 20
94.167642515577995
 30
0.0
  0
POINT
  5
41C5
  8
DEFPOINTS
 62
     0
 10
324.52915212853748
 20
94.167642515577995
 30
0.0
  0
ENDBLK
  5
41BA
  8
0
  0
BLOCK
  8
0
  2
*D27
 70
     1
 10
0.0
 20
0.0
 30
0.0
  3
*D27
  1

  0
LINE
  5
41C9
  8
AM_5
  6
CONTINUOUS
 62
     7
 10
310.52915112853748
 20
94.167642515577995
 30
0.0
 11
325.52915212853748
 21
94.167642515577995
 31
0.0
  0
LINE
  5
41CA
  8
AM_5
  6
CONTINUOUS
 62
     7
 10
305.52915112853748
 20
109.167642515578
 30
0.0
 11
325.52915212853748
 21
109.167642515578
 31
0.0
  0
LINE
  5
41CB
  8
AM_5
  6
CONTINUOUS
 62
     7
 10
324.52915212853748
 20
96.667642515577995
 30
0.0
 11
324.52915212853748
 21
106.667642515578
 31
0.0
  0
INSERT
  5
41CC
  8
AM_5
 62
     7
  2
_OPEN30
 10
324.52915212853748
 20
94.167642515577995
 30
0.0
 41
2.5
 42
2.5
 43
2.5
 50
270.0
  0
INSERT
  5
41CD
  8
AM_5
 62
     7
  2
_OPEN30
 10
324.52915212853748
 20
109.167642515578
 30
0.0
 41
2.5
 42
2.5
 43
2.5
 50
90.0
  0
INSERT
  5
41CE
  8
0
  2
*U55
 10
0.0
 20
0.0
 30
0.0
  0
POINT
  5
41CF
  8
DEFPOINTS
 62
     0
 10
309.52915112853748
 20
94.167642515577995
 30
0.0
  0
POINT
  5
41D0
  8
DEFPOINTS
 62
     0
 10
304.52915112853748
 20
109.167642515578
 30
0.0
  0
POINT
  5
41D1
  8
DEFPOINTS
 62
     0
 10
324.52915212853748
 20
109.167642515578
 30
0.0
  0
ENDBLK
  5
41C8
  8
0
  0
BLOCK
  8
0
  2
*D28
 70
     1
 10
0.0
 20
0.0
 30
0.0
  3
*D28
  1

  0
LINE
  5
41D5
  8
AM_5
  6
CONTINUOUS
 62
     7
 10
305.52915112853748
 20
109.167642515578
 30
0.0
 11
325.52915212853748
 21
109.167642515578
 31
0.0
  0
LINE
  5
41D6
  8
AM_5
  6
CONTINUOUS
 62
     7
 10
310.52915112853748
 20
124.167642515578
 30
0.0
 11
325.52915212853748
 21
124.167642515578
 31
0.0
  0
LINE
  5
41D7
  8
AM_5
  6
CONTINUOUS
 62
     7
 10
324.52915212853748
 20
111.667642515578
 30
0.0
 11
324.52915212853748
 21
121.667642515578
 31
0.0
  0
INSERT
  5
41D8
  8
AM_5
 62
     7
  2
_OPEN30
 10
324.52915212853748
 20
109.167642515578
 30
0.0
 41
2.5
 42
2.5
 43
2.5
 50
270.0
  0
INSERT
  5
41D9
  8
AM_5
 62
     7
  2
_OPEN30
 10
324.52915212853748
 20
124.167642515578
 30
0.0
 41
2.5
 42
2.5
 43
2.5
 50
90.0
  0
INSERT
  5
41DA
  8
0
  2
*U56
 10
0.0
 20
0.0
 30
0.0
  0
POINT
  5
41DB
  8
DEFPOINTS
 62
     0
 10
304.52915112853748
 20
109.167642515578
 30
0.0
  0
POINT
  5
41DC
  8
DEFPOINTS
 62
     0
 10
309.52915112853748
 20
124.167642515578
 30
0.0
  0
POINT
  5
41DD
  8
DEFPOINTS
 62
     0
 10
324.52915212853748
 20
124.167642515578
 30
0.0
  0
ENDBLK
  5
41D4
  8
0
  0
BLOCK
  8
0
  2
*D29
 70
     1
 10
0.0
 20
0.0
 30
0.0
  3
*D29
  1

  0
LINE
  5
41E1
  8
AM_5
  6
CONTINUOUS
 62
     7
 10
310.52915112853748
 20
124.167642515578
 30
0.0
 11
325.52915212853742
 21
124.167642515578
 31
0.0
  0
LINE
  5
41E2
  8
AM_5
  6
CONTINUOUS
 62
     7
 10
311.52915112853748
 20
130.167642515578
 30
0.0
 11
325.52915212853748
 21
130.16764251557791
 31
0.0
  0
LINE
  5
41E3
  8
AM_5
  6
CONTINUOUS
 62
     7
 10
324.52915212853742
 20
121.667642515578
 30
0.0
 11
324.52915212853742
 21
119.167642515578
 31
0.0
  0
LINE
  5
41E4
  8
AM_5
  6
CONTINUOUS
 62
     7
 10
324.52915212853748
 20
132.66764251557791
 30
0.0
 11
324.52915212853748
 21
135.167642515578
 31
0.0
  0
LINE
  5
41E5
  8
AM_5
  6
CONTINUOUS
 62
     7
 10
324.52915212853742
 20
124.167642515578
 30
0.0
 11
324.52915212853748
 21
130.16764251557791
 31
0.0
  0
INSERT
  5
41E6
  8
AM_5
 62
     7
  2
_OPEN30
 10
324.52915212853742
 20
124.167642515578
 30
0.0
 41
2.5
 42
2.5
 43
2.5
 50
90.0
  0
INSERT
  5
41E7
  8
AM_5
 62
     7
  2
_OPEN30
 10
324.52915212853748
 20
130.16764251557791
 30
0.0
 41
2.5
 42
2.5
 43
2.5
 50
270.0
  0
INSERT
  5
41E8
  8
0
  2
*U57
 10
0.0
 20
0.0
 30
0.0
  0
POINT
  5
41E9
  8
DEFPOINTS
 62
     0
 10
309.52915112853748
 20
124.167642515578
 30
0.0
  0
POINT
  5
41EA
  8
DEFPOINTS
 62
     0
 10
310.52915112853748
 20
130.167642515578
 30
0.0
  0
POINT
  5
41EB
  8
DEFPOINTS
 62
     0
 10
324.52915212853748
 20
130.16764251557791
 30
0.0
  0
ENDBLK
  5
41E0
  8
0
  0
BLOCK
  8
0
  2
*D30
 70
     1
 10
0.0
 20
0.0
 30
0.0
  3
*D30
  1

  0
LINE
  5
452A
  8
AM_5
  6
CONTINUOUS
 62
     7
 10
310.52915112853748
 20
87.167642515577995
 30
0.0
 11
310.52915112853748
 21
63.446487525984701
 31
0.0
  0
LINE
  5
452B
  8
AM_5
  6
CONTINUOUS
 62
     7
 10
304.52915112853748
 20
88.167642515577995
 30
0.0
 11
304.52915112853748
 21
63.446487525984701
 31
0.0
  0
LINE
  5
452C
  8
AM_5
  6
CONTINUOUS
 62
     7
 10
313.02915112853748
 20
64.446487525984708
 30
0.0
 11
315.52915112853748
 21
64.446487525984708
 31
0.0
  0
LINE
  5
452D
  8
AM_5
  6
CONTINUOUS
 62
     7
 10
302.02915112853748
 20
64.446487525984708
 30
0.0
 11
299.52915112853748
 21
64.446487525984708
 31
0.0
  0
LINE
  5
452E
  8
AM_5
  6
CONTINUOUS
 62
     7
 10
310.52915112853748
 20
64.446487525984708
 30
0.0
 11
304.52915112853748
 21
64.446487525984708
 31
0.0
  0
INSERT
  5
452F
  8
AM_5
 62
     7
  2
_OPEN30
 10
310.52915112853748
 20
64.446487525984708
 30
0.0
 41
2.5
 42
2.5
 43
2.5
 50
180.0
  0
INSERT
  5
4530
  8
AM_5
 62
     7
  2
GENDOT
 10
304.52915112853748
 20
64.446487525984708
 30
0.0
 41
2.5
 42
2.5
 43
2.5
  0
TEXT
  8
AM_5
  40
3
  5
45B2
  62
7
  72
0
  71
0
 10
307.529
 20
63.0465
 30
0.000000
  1
6
  0
POINT
  5
4532
  8
DEFPOINTS
 62
     0
 10
310.52915112853748
 20
88.167642515577995
 30
0.0
  0
POINT
  5
4533
  8
DEFPOINTS
 62
     0
 10
304.52915112853748
 20
89.167642515577995
 30
0.0
  0
POINT
  5
4534
  8
DEFPOINTS
 62
     0
 10
304.52915112853748
 20
64.446487525984708
 30
0.0
  0
ENDBLK
  5
41F7
  8
0
  0
BLOCK
  8
0
  2
*D31
 70
     1
 10
0.0
 20
0.0
 30
0.0
  3
*D31
  1

  0
LINE
  5
4535
  8
AM_5
  6
CONTINUOUS
 62
     7
 10
299.52915112853748
 20
103.167642515578
 30
0.0
 11
299.52915112853748
 21
63.446487525984701
 31
0.0
  0
LINE
  5
4536
  8
AM_5
  6
CONTINUOUS
 62
     7
 10
304.52915112853748
 20
88.167642515577995
 30
0.0
 11
304.52915112853748
 21
63.446487525984701
 31
0.0
  0
LINE
  5
4537
  8
AM_5
  6
CONTINUOUS
 62
     7
 10
297.02915112853748
 20
64.446487525984708
 30
0.0
 11
294.52915112853748
 21
64.446487525984708
 31
0.0
  0
LINE
  5
4538
  8
AM_5
  6
CONTINUOUS
 62
     7
 10
307.02915112853748
 20
64.446487525984708
 30
0.0
 11
309.52915112853748
 21
64.446487525984708
 31
0.0
  0
LINE
  5
4539
  8
AM_5
  6
CONTINUOUS
 62
     7
 10
299.52915112853748
 20
64.446487525984708
 30
0.0
 11
304.52915112853748
 21
64.446487525984708
 31
0.0
  0
INSERT
  5
453A
  8
AM_5
 62
     7
  2
_OPEN30
 10
299.52915112853748
 20
64.446487525984708
 30
0.0
 41
2.5
 42
2.5
 43
2.5
  0
INSERT
  5
453B
  8
AM_5
 62
     7
  2
GENDOT
 10
304.52915112853748
 20
64.446487525984708
 30
0.0
 41
2.5
 42
2.5
 43
2.5
 50
180.0
  0
TEXT
  8
AM_5
  40
3
  5
45B3
  62
7
  72
0
  71
0
 10
302.029
 20
63.0465
 30
0.000000
  1
5
  0
POINT
  5
453D
  8
DEFPOINTS
 62
     0
 10
299.52915112853748
 20
104.167642515578
 30
0.0
  0
POINT
  5
453E
  8
DEFPOINTS
 62
     0
 10
304.52915112853748
 20
89.167642515577995
 30
0.0
  0
POINT
  5
453F
  8
DEFPOINTS
 62
     0
 10
304.52915112853748
 20
64.446487525984708
 30
0.0
  0
ENDBLK
  5
4205
  8
0
  0
BLOCK
  8
0
  2
*D32
 70
     1
 10
0.0
 20
0.0
 30
0.0
  3
*D32
  1

  0
LINE
  5
4214
  8
AM_5
  6
CONTINUOUS
 62
     7
 10
141.1115681070774
 20
204.5020618640641
 30
0.0
 11
141.1115681070774
 21
181.05206186406451
 31
0.0
  0
LINE
  5
4215
  8
AM_5
  6
CONTINUOUS
 62
     7
 10
175.1115681070774
 20
204.50206186406419
 30
0.0
 11
175.1115681070774
 21
181.05206186406451
 31
0.0
  0
LINE
  5
4216
  8
AM_5
  6
CONTINUOUS
 62
     7
 10
143.6115681070774
 20
182.05206186406451
 30
0.0
 11
172.6115681070774
 21
182.05206186406451
 31
0.0
  0
INSERT
  5
4217
  8
AM_5
 62
     7
  2
_OPEN30
 10
141.1115681070774
 20
182.05206186406451
 30
0.0
 41
2.5
 42
2.5
 43
2.5
 50
180.0
  0
INSERT
  5
4218
  8
AM_5
 62
     7
  2
_OPEN30
 10
175.1115681070774
 20
182.05206186406451
 30
0.0
 41
2.5
 42
2.5
 43
2.5
  0
INSERT
  5
4219
  8
0
  2
*U59
 10
0.0
 20
0.0
 30
0.0
  0
POINT
  5
421A
  8
DEFPOINTS
 62
     0
 10
141.1115681070774
 20
205.5020618640641
 30
0.0
  0
POINT
  5
421B
  8
DEFPOINTS
 62
     0
 10
175.1115681070774
 20
205.50206186406419
 30
0.0
  0
POINT
  5
421C
  8
DEFPOINTS
 62
     0
 10
175.1115681070774
 20
182.05206186406451
 30
0.0
  0
ENDBLK
  5
4213
  8
0
  0
BLOCK
  8
0
  2
*D33
 70
     1
 10
0.0
 20
0.0
 30
0.0
  3
*D33
  1

  0
LINE
  5
4220
  8
AM_5
  6
CONTINUOUS
 62
     7
 10
176.11156810707729
 20
205.50206186406419
 30
0.0
 11
198.49409473542161
 21
205.50206186406419
 31
0.0
  0
LINE
  5
4221
  8
AM_5
  6
CONTINUOUS
 62
     7
 10
176.11156810707729
 20
226.50206186406419
 30
0.0
 11
198.49409473542161
 21
226.50206186406419
 31
0.0
  0
LINE
  5
4222
  8
AM_5
  6
CONTINUOUS
 62
     7
 10
197.49409473542161
 20
208.00206186406419
 30
0.0
 11
197.49409473542161
 21
224.00206186406419
 31
0.0
  0
INSERT
  5
4223
  8
AM_5
 62
     7
  2
_OPEN30
 10
197.49409473542161
 20
205.50206186406419
 30
0.0
 41
2.5
 42
2.5
 43
2.5
 50
270.0
  0
INSERT
  5
4224
  8
AM_5
 62
     7
  2
_OPEN30
 10
197.49409473542161
 20
226.50206186406419
 30
0.0
 41
2.5
 42
2.5
 43
2.5
 50
90.0
  0
INSERT
  5
4225
  8
0
  2
*U60
 10
0.0
 20
0.0
 30
0.0
  0
POINT
  5
4226
  8
DEFPOINTS
 62
     0
 10
175.11156810707729
 20
205.50206186406419
 30
0.0
  0
POINT
  5
4227
  8
DEFPOINTS
 62
     0
 10
175.11156810707729
 20
226.50206186406419
 30
0.0
  0
POINT
  5
4228
  8
DEFPOINTS
 62
     0
 10
197.49409473542161
 20
226.50206186406419
 30
0.0
  0
ENDBLK
  5
421F
  8
0
  0
BLOCK
  8
0
  2
*D34
 70
     1
 10
0.0
 20
0.0
 30
0.0
  3
*D34
  1

  0
LINE
  5
422C
  8
AM_5
  6
CONTINUOUS
 62
     7
 10
151.5115681070773
 20
251.90206186406419
 30
0.0
 11
198.49409473542181
 21
251.90206186406419
 31
0.0
  0
LINE
  5
422D
  8
AM_5
  6
CONTINUOUS
 62
     7
 10
168.1115681070774
 20
232.40206186406431
 30
0.0
 11
198.49409473542181
 21
232.40206186406431
 31
0.0
  0
LINE
  5
422E
  8
AM_5
  6
CONTINUOUS
 62
     7
 10
197.49409473542181
 20
249.40206186406419
 30
0.0
 11
197.49409473542181
 21
234.90206186406431
 31
0.0
  0
INSERT
  5
422F
  8
AM_5
 62
     7
  2
_OPEN30
 10
197.49409473542181
 20
251.90206186406419
 30
0.0
 41
2.5
 42
2.5
 43
2.5
 50
90.0
  0
INSERT
  5
4230
  8
AM_5
 62
     7
  2
_OPEN30
 10
197.49409473542181
 20
232.40206186406431
 30
0.0
 41
2.5
 42
2.5
 43
2.5
 50
270.0
  0
INSERT
  5
4231
  8
0
  2
*U61
 10
0.0
 20
0.0
 30
0.0
  0
POINT
  5
4232
  8
DEFPOINTS
 62
     0
 10
150.5115681070773
 20
251.90206186406419
 30
0.0
  0
POINT
  5
4233
  8
DEFPOINTS
 62
     0
 10
167.1115681070774
 20
232.40206186406431
 30
0.0
  0
POINT
  5
4234
  8
DEFPOINTS
 62
     0
 10
197.49409473542181
 20
232.40206186406431
 30
0.0
  0
ENDBLK
  5
422B
  8
0
  0
BLOCK
  8
0
  2
*D35
 70
     1
 10
0.0
 20
0.0
 30
0.0
  3
*D35
  1

  0
LINE
  5
4540
  8
AM_5
  6
CONTINUOUS
 62
     7
 10
141.11156810707729
 20
228.3020618640642
 30
0.0
 11
141.11156810707729
 21
269.40206186406419
 31
0.0
  0
LINE
  5
4541
  8
AM_5
  6
CONTINUOUS
 62
     7
 10
147.51156810707741
 20
252.90206186406419
 30
0.0
 11
147.51156810707741
 21
269.40206186406419
 31
0.0
  0
LINE
  5
4542
  8
AM_5
  6
CONTINUOUS
 62
     7
 10
150.01156810707741
 20
268.40206186406419
 30
0.0
 11
152.51156810707741
 21
268.40206186406419
 31
0.0
  0
LINE
  5
4543
  8
AM_5
  6
CONTINUOUS
 62
     7
 10
138.61156810707729
 20
268.40206186406419
 30
0.0
 11
127.6829966785059
 21
268.40206186406419
 31
0.0
  0
LINE
  5
4544
  8
AM_5
  6
CONTINUOUS
 62
     7
 10
147.51156810707741
 20
268.40206186406419
 30
0.0
 11
141.11156810707729
 21
268.40206186406419
 31
0.0
  0
INSERT
  5
4545
  8
AM_5
 62
     7
  2
GENDOT
 10
147.51156810707741
 20
268.40206186406419
 30
0.0
 41
2.5
 42
2.5
 43
2.5
 50
180.0
  0
INSERT
  5
4546
  8
AM_5
 62
     7
  2
_OPEN30
 10
141.11156810707729
 20
268.40206186406419
 30
0.0
 41
2.5
 42
2.5
 43
2.5
  0
TEXT
  8
AM_5
  40
3
  5
45B4
  62
7
  72
0
  71
0
 10
131.897
 20
267.002
 30
0.000000
  1
6.4
  0
POINT
  5
4548
  8
DEFPOINTS
 62
     0
 10
141.11156810707729
 20
227.3020618640642
 30
0.0
  0
POINT
  5
4549
  8
DEFPOINTS
 62
     0
 10
147.51156810707741
 20
251.90206186406419
 30
0.0
  0
POINT
  5
454A
  8
DEFPOINTS
 62
     0
 10
147.51156810707741
 20
268.40206186406419
 30
0.0
  0
ENDBLK
  5
4240
  8
0
  0
BLOCK
  8
0
  2
*D36
 70
     1
 10
0.0
 20
0.0
 30
0.0
  3
*D36
  1

  0
LINE
  5
454B
  8
AM_5
  6
CONTINUOUS
 62
     7
 10
150.5115681070773
 20
252.90206186406419
 30
0.0
 11
150.5115681070773
 21
269.40206186406419
 31
0.0
  0
LINE
  5
454C
  8
AM_5
  6
CONTINUOUS
 62
     7
 10
147.51156810707741
 20
252.90206186406419
 30
0.0
 11
147.51156810707741
 21
269.40206186406419
 31
0.0
  0
LINE
  5
454D
  8
AM_5
  6
CONTINUOUS
 62
     7
 10
145.01156810707741
 20
268.40206186406419
 30
0.0
 11
142.51156810707741
 21
268.40206186406419
 31
0.0
  0
LINE
  5
454E
  8
AM_5
  6
CONTINUOUS
 62
     7
 10
153.01156810707741
 20
268.40206186406419
 30
0.0
 11
164.85442524993451
 21
268.40206186406419
 31
0.0
  0
LINE
  5
454F
  8
AM_5
  6
CONTINUOUS
 62
     7
 10
147.51156810707741
 20
268.40206186406419
 30
0.0
 11
150.5115681070773
 21
268.40206186406419
 31
0.0
  0
INSERT
  5
4550
  8
AM_5
 62
     7
  2
GENDOT
 10
147.51156810707741
 20
268.40206186406419
 30
0.0
 41
2.5
 42
2.5
 43
2.5
  0
INSERT
  5
4551
  8
AM_5
 62
     7
  2
_OPEN30
 10
150.5115681070773
 20
268.40206186406419
 30
0.0
 41
2.5
 42
2.5
 43
2.5
 50
180.0
  0
TEXT
  8
AM_5
  40
3
  5
45B5
  62
7
  72
0
  71
0
 10
162.854
 20
267.002
 30
0.000000
  1
3
  0
POINT
  5
4553
  8
DEFPOINTS
 62
     0
 10
150.5115681070773
 20
251.90206186406419
 30
0.0
  0
POINT
  5
4554
  8
DEFPOINTS
 62
     0
 10
147.51156810707741
 20
251.90206186406419
 30
0.0
  0
POINT
  5
4555
  8
DEFPOINTS
 62
     0
 10
147.51156810707741
 20
268.40206186406419
 30
0.0
  0
ENDBLK
  5
424E
  8
0
  0
BLOCK
  8
0
  2
*D37
 70
     1
 10
0.0
 20
0.0
 30
0.0
  3
*D37
  1

  0
LINE
  5
425D
  8
AM_5
  6
CONTINUOUS
 62
     7
 10
140.1115681070774
 20
228.90206186406419
 30
0.0
 11
120.51156810707739
 21
228.90206186406419
 31
0.0
  0
LINE
  5
425E
  8
AM_5
  6
CONTINUOUS
 62
     7
 10
134.51156810707741
 20
231.90206186406419
 30
0.0
 11
120.51156810707739
 21
231.90206186406419
 31
0.0
  0
LINE
  5
425F
  8
AM_5
  6
CONTINUOUS
 62
     7
 10
121.51156810707739
 20
226.40206186406419
 30
0.0
 11
121.51156810707739
 21
223.90206186406419
 31
0.0
  0
LINE
  5
4260
  8
AM_5
  6
CONTINUOUS
 62
     7
 10
121.51156810707739
 20
234.40206186406419
 30
0.0
 11
121.51156810707739
 21
240.90206186406419
 31
0.0
  0
LINE
  5
4261
  8
AM_5
  6
CONTINUOUS
 62
     7
 10
121.51156810707739
 20
228.90206186406419
 30
0.0
 11
121.51156810707739
 21
231.90206186406419
 31
0.0
  0
INSERT
  5
4262
  8
AM_5
 62
     7
  2
_OPEN30
 10
121.51156810707739
 20
228.90206186406419
 30
0.0
 41
2.5
 42
2.5
 43
2.5
 50
90.0
  0
INSERT
  5
4263
  8
AM_5
 62
     7
  2
_OPEN30
 10
121.51156810707739
 20
231.90206186406419
 30
0.0
 41
2.5
 42
2.5
 43
2.5
 50
270.0
  0
INSERT
  5
4264
  8
0
  2
*U63
 10
0.0
 20
0.0
 30
0.0
  0
POINT
  5
4265
  8
DEFPOINTS
 62
     0
 10
141.1115681070774
 20
228.90206186406419
 30
0.0
  0
POINT
  5
4266
  8
DEFPOINTS
 62
     0
 10
135.51156810707741
 20
231.90206186406419
 30
0.0
  0
POINT
  5
4267
  8
DEFPOINTS
 62
     0
 10
121.51156810707739
 20
231.90206186406419
 30
0.0
  0
ENDBLK
  5
425C
  8
0
  0
BLOCK
  8
0
  2
*D38
 70
     1
 10
0.0
 20
0.0
 30
0.0
  3
*D38
  1

  0
LINE
  5
426B
  8
AM_5
  6
CONTINUOUS
 62
     7
 10
139.5115681070773
 20
203.70206186406409
 30
0.0
 11
139.5115681070773
 21
174.0520618640646
 31
0.0
  0
LINE
  5
426C
  8
AM_5
  6
CONTINUOUS
 62
     7
 10
135.51156810707741
 20
201.70206186406409
 30
0.0
 11
135.51156810707741
 21
174.0520618640646
 31
0.0
  0
LINE
  5
426D
  8
AM_5
  6
CONTINUOUS
 62
     7
 10
142.0115681070773
 20
175.0520618640646
 30
0.0
 11
144.5115681070773
 21
175.0520618640646
 31
0.0
  0
LINE
  5
426E
  8
AM_5
  6
CONTINUOUS
 62
     7
 10
133.01156810707741
 20
175.0520618640646
 30
0.0
 11
126.3687109642202
 21
175.0520618640646
 31
0.0
  0
LINE
  5
426F
  8
AM_5
  6
CONTINUOUS
 62
     7
 10
139.5115681070773
 20
175.0520618640646
 30
0.0
 11
135.51156810707741
 21
175.0520618640646
 31
0.0
  0
INSERT
  5
4270
  8
AM_5
 62
     7
  2
_OPEN30
 10
139.5115681070773
 20
175.0520618640646
 30
0.0
 41
2.5
 42
2.5
 43
2.5
 50
180.0
  0
INSERT
  5
4271
  8
AM_5
 62
     7
  2
_OPEN30
 10
135.51156810707741
 20
175.0520618640646
 30
0.0
 41
2.5
 42
2.5
 43
2.5
  0
INSERT
  5
4272
  8
0
  2
*U64
 10
0.0
 20
0.0
 30
0.0
  0
POINT
  5
4273
  8
DEFPOINTS
 62
     0
 10
139.5115681070773
 20
204.70206186406421
 30
0.0
  0
POINT
  5
4274
  8
DEFPOINTS
 62
     0
 10
135.51156810707741
 20
202.70206186406421
 30
0.0
  0
POINT
  5
4275
  8
DEFPOINTS
 62
     0
 10
135.51156810707741
 20
175.0520618640646
 30
0.0
  0
ENDBLK
  5
426A
  8
0
  0
BLOCK
  8
0
  2
*D39
 70
     1
 10
0.0
 20
0.0
 30
0.0
  3
*D39
  1

  0
LINE
  5
427F
  8
AM_5
  6
CONTINUOUS
 62
     7
 10
307.35516571574021
 20
90.474927856561123
 30
0.0
 11
318.597783377702
 21
75.784352926746834
 31
0.0
  0
LINE
  5
4280
  8
AM_5
  6
CONTINUOUS
 62
     7
 10
318.597783377702
 20
75.784352926746834
 30
0.0
 11
334.02635480627339
 21
75.784352926746834
 31
0.0
  0
INSERT
  5
4281
  8
AM_5
 62
     7
  2
_OPEN30
 10
305.83580303444847
 20
92.460258318398147
 30
0.0
 41
2.5
 42
2.5
 43
2.5
 50
127.4266350103989
  0
INSERT
  5
4282
  8
0
  2
*U65
 10
0.0
 20
0.0
 30
0.0
  0
POINT
  5
4283
  8
DEFPOINTS
 62
     0
 10
305.83580303444847
 20
92.460258318398147
 30
0.0
  0
POINT
  5
4284
  8
DEFPOINTS
 62
     0
 10
303.22249922262671
 20
95.875026712758014
 30
0.0
  0
ENDBLK
  5
4278
  8
0
  0
BLOCK
  8
0
  2
*S41
 70
     1
 10
0.0
 20
0.0
 30
0.0
  3
*S41
  1

  0
LINE
  5
4495
  8
AM_5
  6
CONTINUOUS
 62
     7
 10
220.19471299073399
 20
97.398628541273638
 30
0.0
 11
195.2047129907339
 21
97.398628541273638
 31
0.0
  0
LINE
  5
4496
  8
AM_5
  6
CONTINUOUS
 62
     7
 10
195.2047129907339
 20
97.398628541273638
 30
0.0
 11
188.4690931822667
 21
106.623610166129
 31
0.0
  0
LINE
  5
4497
  8
AM_5
  6
CONTINUOUS
 62
     7
 10
188.4690931822667
 20
106.623610166129
 30
0.0
 11
186.61156810707729
 21
109.167642515578
 31
0.0
  0
LINE
  5
4498
  8
AM_5
  6
CONTINUOUS
 62
     7
 10
188.8040213935204
 20
106.86815798051779
 30
0.0
 11
186.61156810707729
 21
109.167642515578
 31
0.0
  0
LINE
  5
4499
  8
AM_5
  6
CONTINUOUS
 62
     7
 10
186.61156810707729
 20
109.167642515578
 30
0.0
 11
188.13416497101301
 21
106.3790623517402
 31
0.0
  0
INSERT
  5
449A
  8
0
  2
*U67
 10
0.0
 20
0.0
 30
0.0
  0
ENDBLK
  5
449C
  8
0
  0
BLOCK
  8
0
  2
*U42
 70
     1
 10
0.0
 20
0.0
 30
0.0
  3
*U42
  1

  0
ARC
  5
449F
  8
AM_4
 10
272.12915112853739
 20
65.167642515577938
 30
0.0
 40
2.0
 50
80.000000000000014
 51
350.0
  0
CIRCLE
  5
44A0
  8
AM_0
 62
     3
 10
272.12915112853739
 20
65.167642515577938
 30
0.0
 40
1.621113885844309
  0
LINE
  5
44A1
  8
AM_7
 10
267.1291511285375
 20
65.167642515577938
 30
0.0
 11
277.1291511285375
 21
65.167642515577938
 31
0.0
  0
LINE
  5
44A2
  8
AM_7
 10
272.12915112853739
 20
60.167642515577938
 30
0.0
 11
272.12915112853739
 21
70.167642515577938
 31
0.0
  0
ENDBLK
  5
44A4
  8
0
  0
BLOCK
  8
0
  2
*U43
 70
     1
 10
0.0
 20
0.0
 30
0.0
  3
*U43
  1

  0
ARC
  5
44A7
  8
AM_4
 10
272.12915112853739
 20
77.167642515577995
 30
0.0
 40
2.0
 50
80.000000000000014
 51
350.0
  0
CIRCLE
  5
44A8
  8
AM_0
 62
     3
 10
272.12915112853739
 20
77.167642515577995
 30
0.0
 40
1.621113885844309
  0
LINE
  5
44A9
  8
AM_7
 10
267.1291511285375
 20
77.167642515577995
 30
0.0
 11
277.1291511285375
 21
77.167642515577995
 31
0.0
  0
LINE
  5
44AA
  8
AM_7
 10
272.12915112853739
 20
72.167642515577995
 30
0.0
 11
272.12915112853739
 21
82.167642515577995
 31
0.0
  0
ENDBLK
  5
44AC
  8
0
  0
BLOCK
  8
0
  2
*U44
 70
     1
 10
0.0
 20
0.0
 30
0.0
  3
*U44
  1

  0
ARC
  5
44AF
  8
AM_4
 10
272.1291511285375
 20
141.167642515578
 30
0.0
 40
2.0
 50
80.000000000000014
 51
350.0
  0
CIRCLE
  5
44B0
  8
AM_0
 62
     3
 10
272.1291511285375
 20
141.167642515578
 30
0.0
 40
1.621113885844309
  0
LINE
  5
44B1
  8
AM_7
 10
267.1291511285375
 20
141.167642515578
 30
0.0
 11
277.1291511285375
 21
141.167642515578
 31
0.0
  0
LINE
  5
44B2
  8
AM_7
 10
272.1291511285375
 20
136.167642515578
 30
0.0
 11
272.1291511285375
 21
146.167642515578
 31
0.0
  0
ENDBLK
  5
44B4
  8
0
  0
BLOCK
  8
0
  2
*U45
 70
     1
 10
0.0
 20
0.0
 30
0.0
  3
*U45
  1

  0
ARC
  5
44B7
  8
AM_4
 10
272.1291511285375
 20
153.167642515578
 30
0.0
 40
2.0
 50
80.000000000000014
 51
350.0
  0
CIRCLE
  5
44B8
  8
AM_0
 62
     3
 10
272.1291511285375
 20
153.167642515578
 30
0.0
 40
1.621113885844309
  0
LINE
  5
44B9
  8
AM_7
 10
267.1291511285375
 20
153.167642515578
 30
0.0
 11
277.1291511285375
 21
153.167642515578
 31
0.0
  0
LINE
  5
44BA
  8
AM_7
 10
272.1291511285375
 20
148.167642515578
 30
0.0
 11
272.1291511285375
 21
158.167642515578
 31
0.0
  0
ENDBLK
  5
44BC
  8
0
  0
BLOCK
  8
0
  2
*U46
 70
     1
 10
0.0
 20
0.0
 30
0.0
  3
*U46
  1

  0
TEXT
  5
4557
  8
AM_5
 62
     7
 10
143.6115681070774
 20
190.05206186406431
 30
0.0
 40
3.0
  1
7
  0
ENDBLK
  5
4559
  8
0
  0
BLOCK
  8
0
  2
*U47
 70
     1
 10
0.0
 20
0.0
 30
0.0
  3
*U47
  1

  0
TEXT
  5
455B
  8
AM_5
 62
     7
 10
123.6615681070773
 20
208.00206186406419
 30
0.0
 40
3.0
  1
7
 50
90.0
  0
ENDBLK
  5
455D
  8
0
  0
BLOCK
  8
0
  2
*U48
 70
     1
 10
0.0
 20
0.0
 30
0.0
  3
*U48
  1

  0
TEXT
  5
455F
  8
AM_5
 62
     7
 10
250.32415832591909
 20
69.024785372720871
 30
0.0
 40
3.0
  1
12
 50
90.0
  0
ENDBLK
  5
4561
  8
0
  0
BLOCK
  8
0
  2
*U49
 70
     1
 10
0.0
 20
0.0
 30
0.0
  3
*U49
  1

  0
TEXT
  5
4563
  8
AM_5
 62
     7
 10
250.32415832591909
 20
106.667642515578
 30
0.0
 40
3.0
  1
64
 50
90.0
  0
ENDBLK
  5
4565
  8
0
  0
BLOCK
  8
0
  2
*U50
 70
     1
 10
0.0
 20
0.0
 30
0.0
  3
*U50
  1

  0
TEXT
  5
4567
  8
AM_5
 62
     7
 10
250.32415832591909
 20
145.0247853727208
 30
0.0
 40
3.0
  1
12
 50
90.0
  0
ENDBLK
  5
4569
  8
0
  0
BLOCK
  8
0
  2
*U51
 70
     1
 10
0.0
 20
0.0
 30
0.0
  3
*U51
  1

  0
TEXT
  5
456B
  8
AM_5
 62
     7
 10
243.32415832591909
 20
105.5962139441494
 30
0.0
 40
3.0
  1
102
 50
90.0
  0
ENDBLK
  5
456D
  8
0
  0
BLOCK
  8
0
  2
*U52
 70
     1
 10
0.0
 20
0.0
 30
0.0
  3
*U52
  1

  0
TEXT
  5
456F
  8
AM_5
 62
     7
 10
270.05772255710889
 20
182.167642515578
 30
0.0
 40
3.0
  1
16
  0
ENDBLK
  5
4571
  8
0
  0
BLOCK
  8
0
  2
*U53
 70
     1
 10
0.0
 20
0.0
 30
0.0
  3
*U53
  1

  0
TEXT
  5
4573
  8
AM_5
 62
     7
 10
243.98821871752509
 20
169.7501750274875
 30
0.0
 40
3.0
  1
4-M4
  0
ENDBLK
  5
4575
  8
0
  0
BLOCK
  8
0
  2
*U54
 70
     1
 10
0.0
 20
0.0
 30
0.0
  3
*U54
  1

  0
TEXT
  5
4577
  8
AM_5
 62
     7
 10
323.52915212853748
 20
90.239071087006621
 30
0.0
 40
3.0
  1
6
 50
90.0
  0
ENDBLK
  5
4579
  8
0
  0
BLOCK
  8
0
  2
*U55
 70
     1
 10
0.0
 20
0.0
 30
0.0
  3
*U55
  1

  0
TEXT
  5
457B
  8
AM_5
 62
     7
 10
323.52915212853748
 20
99.524785372720913
 30
0.0
 40
3.0
  1
15
 50
90.0
  0
ENDBLK
  5
457D
  8
0
  0
BLOCK
  8
0
  2
*U56
 70
     1
 10
0.0
 20
0.0
 30
0.0
  3
*U56
  1

  0
TEXT
  5
457F
  8
AM_5
 62
     7
 10
323.52915212853748
 20
114.5247853727209
 30
0.0
 40
3.0
  1
15
 50
90.0
  0
ENDBLK
  5
4581
  8
0
  0
BLOCK
  8
0
  2
*U57
 70
     1
 10
0.0
 20
0.0
 30
0.0
  3
*U57
  1

  0
TEXT
  5
4583
  8
AM_5
 62
     7
 10
323.52915212853742
 20
126.23907108700659
 30
0.0
 40
3.0
  1
6
 50
90.0
  0
ENDBLK
  5
4585
  8
0
  0
BLOCK
  8
0
  2
*U58
 70
     1
 10
0.0
 20
0.0
 30
0.0
  3
*U58
  1

  0
TEXT
  5
4587
  8
AM_5
 62
     7
 10
330.52915212853742
 20
106.73907108700659
 30
0.0
 40
3.0
  1
42
 50
90.0
  0
ENDBLK
  5
4589
  8
0
  0
BLOCK
  8
0
  2
*U59
 70
     1
 10
0.0
 20
0.0
 30
0.0
  3
*U59
  1

  0
TEXT
  5
458B
  8
AM_5
 62
     7
 10
155.6115681070774
 20
183.05206186406451
 30
0.0
 40
3.0
  1
34
  0
ENDBLK
  5
458D
  8
0
  0
BLOCK
  8
0
  2
*U60
 70
     1
 10
0.0
 20
0.0
 30
0.0
  3
*U60
  1

  0
TEXT
  5
458F
  8
AM_5
 62
     7
 10
196.49409473542161
 20
214.21634757835
 30
0.0
 40
3.0
  1
21
 50
90.0
  0
ENDBLK
  5
4591
  8
0
  0
BLOCK
  8
0
  2
*U61
 70
     1
 10
0.0
 20
0.0
 30
0.0
  3
*U61
  1

  0
TEXT
  5
4593
  8
AM_5
 62
     7
 10
196.4940947354217
 20
237.86634757835
 30
0.0
 40
3.0
  1
19.5
 50
90.0
  0
ENDBLK
  5
4595
  8
0
  0
BLOCK
  8
0
  2
*U62
 70
     1
 10
0.0
 20
0.0
 30
0.0
  3
*U62
  1

  0
TEXT
  5
4597
  8
AM_5
 62
     7
 10
203.4940947354219
 20
224.0592047212071
 30
0.0
 40
3.0
  1
46.4
 50
90.0
  0
ENDBLK
  5
4599
  8
0
  0
BLOCK
  8
0
  2
*U63
 70
     1
 10
0.0
 20
0.0
 30
0.0
  3
*U63
  1

  0
TEXT
  5
459B
  8
AM_5
 62
     7
 10
120.51156810707739
 20
237.90206186406419
 30
0.0
 40
3.0
  1
3
 50
90.0
  0
ENDBLK
  5
459D
  8
0
  0
BLOCK
  8
0
  2
*U64
 70
     1
 10
0.0
 20
0.0
 30
0.0
  3
*U64
  1

  0
TEXT
  5
459F
  8
AM_5
 62
     7
 10
127.3687109642202
 20
176.0520618640646
 30
0.0
 40
3.0
  1
4
  0
ENDBLK
  5
45A1
  8
0
  0
BLOCK
  8
0
  2
*U65
 70
     1
 10
0.0
 20
0.0
 30
0.0
  3
*U65
  1

  0
TEXT
  5
45A3
  8
AM_5
 62
     7
 10
319.59778337770177
 20
76.784352926746763
 30
0.0
 40
3.0
  1
3-\U+22054.3
  0
ENDBLK
  5
45A5
  8
0
  0
BLOCK
  8
0
  2
*U66
 70
     1
 10
0.0
 20
0.0
 30
0.0
  3
*U66
  1

  0
TEXT
  5
45A7
  8
AM_5
 10
333.74442217090791
 20
48.01959979176911
 30
0.0
 40
3.0
  1
最大扉
  0
TEXT
  5
45A8
  8
AM_5
 10
333.74442217090791
 20
43.01959979176911
 30
0.0
 40
3.0
  1
W\U+00D7H＝600\U+00D7900　12kg　（2枚吊り）
  0
ENDBLK
  5
45AA
  8
0
  0
BLOCK
  8
0
  2
*U67
 70
     1
 10
0.0
 20
0.0
 30
0.0
  3
*U67
  1

  0
TEXT
  5
45AC
  8
AM_5
 62
     7
 10
198.3547129907339
 20
104.2236285412736
 30
0.0
 40
3.149999999999999
  1
取付け完了後
  7
ACJISTS
  0
TEXT
  5
45AD
  8
AM_5
 62
     7
 10
198.3547129907339
 20
98.973628541273627
 30
0.0
 40
3.149999999999999
  1
外して下さい
  7
ACJISTS
  0
ENDBLK
  5
45AF
  8
0
  0
ENDSEC
  0
SECTION
  2
ENTITIES
  0
INSERT
  5
1BB5
  8
0
  2
ZUWAKU-A3H
 10
0.0
 20
0.0
 30
0.0
1001
GENIUS_GENOREF_13
1005
1C93
1001
GENIUS_GENOBJ-N-SDF_13
1002
{
1000
OWNER
1000
GEN
1002
}
1001
GENIUS_GENODEF_13
1002
{
1000
HIER
1070
     0
1002
}
1002
{
1000
MANEDIT
1070
     0
1002
}
1002
{
1000
NOSEL
1070
     0
1002
}
1002
{
1000
BEHIND
1070
     0
1002
}
1002
{
1000
OTHER
1070
     0
1002
}
1002
{
1000
REACTOR
1002
}
1001
GENIUS_GENSCREG_13
1040
1.0
1040
1.0
1011
24.999999999999979
1021
0.0
1031
0.0
1021
8.9999999999999964
1031
0.0
1011
411.99999999999989
1021
0.0
1031
0.0
1021
284.99999999999989
1031
0.0
1070
     3
  0
POINT
  5
1C93
  8
0
 10
0.0
 20
0.0
 30
0.0
1001
GENIUS_GENOENT_13
1002
{
1000
MYREF
1005
1C93
1002
}
1002
{
1000
GRP
1005
0
1002
}
1001
GENIUS_GENOBJ-N-TIT_13
1002
{
1000
OWNER
1000
GEN
1002
}
1001
GENIUS_GENODEF_13
1002
{
1000
HIER
1070
     1
1002
}
1002
{
1000
MANEDIT
1070
     1
1002
}
1002
{
1000
NOSEL
1070
     0
1002
}
1002
{
1000
BEHIND
1070
     0
1002
}
1002
{
1000
OTHER
1070
     0
1002
}
1002
{
1000
REACTOR
1002
}
1001
GENIUS_GENOLIS_13
1002
{
1000
ENT
1005
1BB5
1005
2A9C
1002
}
1001
GENIUS_GENTITLE_13
1002
{
1000
BORDER
1000
C:\Program Files\Autodesk\ACADM 2008\Acadm\gen\Dwg\Format\ZUWAKU-A3H
1002
}
1002
{
1000
TITLE
1000
C:\Program Files\Autodesk\ACADM 2008\Acadm\gen\Dwg\Title\N_Title
1002
}
1002
{
1000
ADDITIONAL1
1000

1002
}
1002
{
1000
ADDITIONAL2
1000

1002
}
1002
{
1000
SCALE
1000
1:1
1002
}
1002
{
1000
TITLESTD
1000
JIS
1002
}
1002
{
1000
HRA
1005
1BB5
1002
}
1002
{
1000
HTIT
1005
2A9C
1002
}
1002
{
1000
GENIUSID
1005
1C93
1002
}
1002
{
1000
INVTXTID
1005
0
1002
}
1002
{
1000
UNCHG
1002
{
1000
GEN-TITLE-SIZ
1000
GEN-TITLE-SCA
1002
}
1002
}
  0
INSERT
  5
20F2
  8
0
 66
     1
  2
A$C1C06296A
 10
135.5000001316065
 20
8.9999998268887005
 30
0.0
  0
ATTRIB
  5
20F3
  8
AM_BOR
 62
     7
 10
249.8107097069896
 20
9.4999999999999893
 30
0.0
 40
3.0
  1

 11
249.8107097069896
 21
10.999999999999989
 31
0.0
  2
SETS｛20｝
 70
     0
 74
     2
1001
AcDbAttr
1070
     0
1070
     1
  0
ATTRIB
  5
20F4
  8
AM_BOR
 62
     7
 10
154.5607097069896
 20
9.4999999999999893
 30
0.0
 40
3.0
  1

 11
154.5607097069896
 21
10.999999999999989
 31
0.0
  2
REMARKS｛20｝
 70
     0
 74
     2
1001
AcDbAttr
1070
     0
1070
     1
  0
ATTRIB
  5
20F5
  8
AM_BOR
 62
     7
 10
249.8107097069896
 20
14.499999999999989
 30
0.0
 40
3.0
  1

 11
249.8107097069896
 21
15.999999999999989
 31
0.0
  2
SETS｛20｝
 70
     0
 74
     2
1001
AcDbAttr
1070
     0
1070
     1
  0
ATTRIB
  5
20F6
  8
AM_BOR
 62
     7
 10
154.5607097069896
 20
14.499999999999989
 30
0.0
 40
3.0
  1
バネは施錠方向にテンションがかかってます
 11
154.5607097069896
 21
15.999999999999989
 31
0.0
  2
REMARKS｛20｝
 70
     0
 74
     2
1001
AcDbAttr
1070
     0
1070
     1
  0
ATTRIB
  5
20F7
  8
AM_BOR
 62
     7
 10
249.8107097069896
 20
19.499999999999989
 30
0.0
 40
3.0
  1

 11
249.8107097069896
 21
20.999999999999989
 31
0.0
  2
SETS｛20｝
 70
     0
 74
     2
1001
AcDbAttr
1070
     0
1070
     1
  0
ATTRIB
  5
20F8
  8
AM_BOR
 62
     7
 10
154.5607097069896
 20
19.499999999999989
 30
0.0
 40
3.0
  1
TH20-12Bはバネ付きです
 11
154.5607097069896
 21
20.999999999999989
 31
0.0
  2
REMARKS｛20｝
 70
     0
 74
     2
1001
AcDbAttr
1070
     0
1070
     1
  0
ATTRIB
  5
20F9
  8
AM_BOR
 62
     7
 10
249.74999999999969
 20
32.499999999999993
 30
0.0
 40
3.0
  1
TH20-12B・TH20-12N
 11
249.74999999999969
 21
33.999999999999993
 31
0.0
  2
ART_NO｛20｝
 70
     0
 74
     2
1001
AcDbAttr
1070
     0
1070
     1
  0
ATTRIB
  5
20FA
  8
AM_BOR
 62
     7
 10
154.49999999999969
 20
32.499999999999993
 30
0.0
 40
3.0
  1
点検口ヒンジ
 11
154.49999999999969
 21
33.999999999999993
 31
0.0
  2
ARTICLE｛20｝
 70
     0
 74
     2
1001
AcDbAttr
1070
     0
1070
     1
  0
ATTRIB
  5
20FB
  8
AM_BOR
 62
     7
 10
249.74999999999969
 20
25.999999999999989
 30
0.0
 40
3.0
  1
クロメート
 11
249.74999999999969
 21
27.499999999999989
 31
0.0
  2
FINISH｛20｝
 70
     0
 74
     2
1001
AcDbAttr
1070
     0
1070
     1
  0
ATTRIB
  5
20FC
  8
AM_BOR
 62
     7
 10
154.49999999999969
 20
25.999999999999989
 30
0.0
 40
3.0
  1
鉄
 11
154.49999999999969
 21
27.499999999999989
 31
0.0
  2
MATERIAK｛20｝
 70
     0
 74
     2
1001
AcDbAttr
1070
     0
1070
     1
  0
SEQEND
  5
20FD
  8
0
  0
LINE
  5
3FA0
  8
AM_7
 10
271.1291511285375
 20
80.487230352340745
 30
0.0
 11
271.1291511285375
 21
137.8480546788152
 31
0.0
  0
LINE
  5
3FA1
  8
AM_1
 10
147.51156810707741
 20
251.10206186406421
 30
0.0
 11
147.51156810707741
 21
232.70206186406409
 31
0.0
  0
LINE
  5
3FA2
  8
AM_1
 10
141.1115681070774
 20
205.50206186406419
 30
0.0
 11
141.11156810707729
 21
227.3020618640642
 31
0.0
  0
LINE
  5
3FA3
  8
AM_1
 10
139.5115681070773
 20
204.70206186406421
 30
0.0
 11
139.51156810707741
 21
228.1020618640645
 31
0.0
  0
LINE
  5
3FA4
  8
AM_1
 10
213.18069140412041
 20
205.50206186406419
 30
0.0
 11
141.1115681070774
 21
205.50206186406419
 31
0.0
  0
LINE
  5
3FA5
  8
AM_1
 10
213.1806914041203
 20
203.90206186406431
 30
0.0
 11
140.31156810707739
 21
203.90206186406419
 31
0.0
  0
INSERT
  5
3FA6
  8
AM_0
  2
*U42
 10
0.0
 20
0.0
 30
0.0
1001
GENIUS_GENOREF_13
1005
4117
  0
INSERT
  5
3FA7
  8
AM_0
  2
*U43
 10
0.0
 20
0.0
 30
0.0
1001
GENIUS_GENOREF_13
1005
4116
  0
INSERT
  5
3FA8
  8
AM_0
  2
*U44
 10
0.0
 20
0.0
 30
0.0
1001
GENIUS_GENOREF_13
1005
4115
  0
INSERT
  5
3FA9
  8
AM_0
  2
*U45
 10
0.0
 20
0.0
 30
0.0
1001
GENIUS_GENOREF_13
1005
4114
  0
LINE
  5
3FAA
  8
AM_3
 10
170.11156810707729
 20
221.5020618640641
 30
0.0
 11
170.11156810707729
 21
209.5020618640641
 31
0.0
  0
LINE
  5
3FAB
  8
0
 10
150.51156810707741
 20
232.40206186406431
 30
0.0
 11
167.1115681070774
 21
232.40206186406431
 31
0.0
  0
ARC
  5
3FAC
  8
0
 10
150.51156810707741
 20
235.40206186406431
 30
0.0
 40
3.0
 50
180.0
 51
270.0
1001
GENIUS_GENODEF_13
1002
{
1000
HIER
1070
     0
1002
}
1002
{
1000
MANEDIT
1070
     0
1002
}
1002
{
1000
NOSEL
1070
     0
1002
}
1002
{
1000
BEHIND
1070
     0
1002
}
1002
{
1000
OTHER
1070
     0
1002
}
1002
{
1000
REACTOR
1002
}
1001
GENIUS_GENOBJ-N-FIL_13
1002
{
1000
OWNER
1000
GEN
1002
}
  0
LINE
  5
3FAD
  8
0
 10
150.5115681070773
 20
235.40206186406419
 30
0.0
 11
167.11156810707729
 21
235.40206186406419
 31
0.0
  0
ARC
  5
3FAE
  8
0
 10
167.11156810707729
 20
232.40206186406419
 30
0.0
 40
3.0
 50
0.0
 51
90.0
1001
GENIUS_GENODEF_13
1002
{
1000
HIER
1070
     0
1002
}
1002
{
1000
MANEDIT
1070
     0
1002
}
1002
{
1000
NOSEL
1070
     0
1002
}
1002
{
1000
BEHIND
1070
     0
1002
}
1002
{
1000
OTHER
1070
     0
1002
}
1002
{
1000
REACTOR
1002
}
1001
GENIUS_GENOBJ-N-FIL_13
1002
{
1000
OWNER
1000
GEN
1002
}
  0
LINE
  5
3FAF
  8
0
 10
150.5115681070773
 20
251.90206186406419
 30
0.0
 11
150.5115681070773
 21
235.40206186406419
 31
0.0
  0
LINE
  5
3FB0
  8
0
 10
170.11156810707729
 20
232.40206186406419
 30
0.0
 11
170.11156810707729
 21
221.5020618640641
 31
0.0
  0
LINE
  5
3FB3
  8
0
 10
271.1291511285375
 20
103.167642515578
 30
0.0
 11
271.1291511285375
 21
115.167642515578
 31
0.0
  0
LINE
  5
3FB5
  8
0
 10
274.1291511285375
 20
98.167642515577995
 30
0.0
 11
274.1291511285375
 21
103.167642515578
 31
0.0
  0
LINE
  5
3FB6
  8
0
 10
274.1291511285375
 20
115.167642515578
 30
0.0
 11
274.1291511285375
 21
120.167642515578
 31
0.0
  0
LINE
  5
3FB8
  8
AM_7
 10
137.71156810707731
 20
77.167642515577995
 30
0.0
 11
147.71156810707731
 21
77.167642515577995
 31
0.0
  0
LINE
  5
3FB9
  8
AM_7
 10
137.71156810707731
 20
65.167642515577995
 30
0.0
 11
147.71156810707731
 21
65.167642515577995
 31
0.0
  0
LINE
  5
3FBA
  8
AM_7
 10
137.71156810707731
 20
141.167642515578
 30
0.0
 11
147.71156810707731
 21
141.167642515578
 31
0.0
  0
LINE
  5
3FBB
  8
AM_7
 10
137.71156810707731
 20
153.167642515578
 30
0.0
 11
147.71156810707731
 21
153.167642515578
 31
0.0
  0
LINE
  5
3FBC
  8
0
 10
274.1291511285375
 20
102.5421947194511
 30
0.0
 11
266.9118656690614
 21
102.2270812310506
 31
0.0
  0
ARC
  5
3FBD
  8
0
 10
266.87915112853739
 20
104.4777964249818
 30
0.0
 40
0.7499999999999528
 50
92.500000000011596
 51
272.49999999999858
  0
ARC
  5
3FBE
  8
0
 10
266.87915112853739
 20
105.97922545272679
 30
0.0
 40
0.7499999999999528
 50
92.500000000011596
 51
272.49999999999858
  0
ARC
  5
3FBF
  8
0
 10
266.87915112853739
 20
107.4806544804718
 30
0.0
 40
0.7499999999999528
 50
92.500000000011596
 51
272.49999999999858
  0
ARC
  5
3FC0
  8
0
 10
266.87915112853739
 20
110.48351253596149
 30
0.0
 40
0.7499999999999528
 50
92.500000000011596
 51
272.49999999999858
  0
ARC
  5
3FC1
  8
0
 10
266.87915112853739
 20
111.9849415637064
 30
0.0
 40
0.7499999999999528
 50
92.500000000011596
 51
272.49999999999858
  0
ARC
  5
3FC2
  8
0
 10
266.87915112853739
 20
113.4863705914514
 30
0.0
 40
0.7499999999999528
 50
92.500000000011596
 51
272.49999999999858
  0
ARC
  5
3FC3
  8
0
 10
266.87915112853739
 20
108.9820835082167
 30
0.0
 40
0.7499999999999528
 50
92.500000000011596
 51
272.49999999999858
  0
ARC
  5
3FC4
  8
0
 10
266.87915112853739
 20
102.9763673972369
 30
0.0
 40
0.7499999999999528
 50
92.500000000011596
 51
272.49999999999858
  0
LINE
  5
3FC5
  8
0
 10
271.1291511285375
 20
114.4226441126853
 30
0.0
 11
266.9118656690614
 21
114.2385134530101
 31
0.0
  0
LINE
  5
3FC6
  8
0
 10
271.1291511285375
 20
103.9126409184706
 30
0.0
 11
266.8464365880132
 21
103.72565356342341
 31
0.0
  0
LINE
  5
3FC7
  8
0
 10
271.1291511285375
 20
106.9154989739605
 30
0.0
 11
266.92020571407579
 21
106.73173244851461
 31
0.0
  0
LINE
  5
3FC8
  8
0
 10
271.1291511285375
 20
105.41406994621561
 30
0.0
 11
266.85452670456772
 21
105.2274358132853
 31
0.0
  0
LINE
  5
3FC9
  8
0
 10
271.1291511285375
 20
108.4169280017055
 30
0.0
 11
266.85452670456772
 21
108.23029386877521
 31
0.0
  0
LINE
  5
3FCA
  8
0
 10
271.1291511285375
 20
109.91835702945041
 30
0.0
 11
266.92020571407579
 21
109.7345905040046
 31
0.0
  0
LINE
  5
3FCB
  8
0
 10
271.1291511285375
 20
111.4197860571954
 30
0.0
 11
266.85452670456772
 21
111.2331519242651
 31
0.0
  0
LINE
  5
3FCC
  8
0
 10
271.1291511285375
 20
112.9212150849404
 30
0.0
 11
266.92020571407579
 21
112.7374485594945
 31
0.0
  0
LINE
  5
3FCD
  8
0
 10
274.1291511285375
 20
116.0550559691559
 30
0.0
 11
266.8464365880132
 21
115.7370857853829
 31
0.0
  0
ARC
  5
3FCE
  8
0
 10
266.87915112853739
 20
114.98779961919639
 30
0.0
 40
0.7499999999999528
 50
92.500000000011596
 51
272.49999999999858
  0
LINE
  5
3FCF
  8
0
 10
155.31156810707731
 20
117.167642515578
 30
0.0
 11
155.31156810707731
 21
116.2384319293716
 31
0.0
  0
LINE
  5
3FD0
  8
0
 10
152.39453257606141
 20
113.1082133520998
 30
0.0
 11
143.90262269261561
 21
112.7374485594945
 31
0.0
  0
LINE
  5
3FD1
  8
0
 10
152.32885356655319
 20
111.6039167168704
 30
0.0
 11
143.83694368310739
 21
111.2331519242651
 31
0.0
  0
LINE
  5
3FD2
  8
0
 10
152.39453257606141
 20
110.1053552966099
 30
0.0
 11
143.90262269261561
 21
109.7345905040046
 31
0.0
  0
LINE
  5
3FD3
  8
0
 10
152.32885356655319
 20
108.60105866138051
 30
0.0
 11
143.83694368310739
 21
108.23029386877521
 31
0.0
  0
ARC
  5
3FD4
  8
0
 10
143.86156810707709
 20
114.98779961919639
 30
0.0
 40
0.7499999999999528
 50
92.500000000011596
 51
272.49999999999858
  0
ARC
  5
3FD5
  8
0
 10
143.86156810707709
 20
113.4863705914515
 30
0.0
 40
0.7499999999999528
 50
92.500000000011596
 51
272.49999999999858
  0
ARC
  5
3FD6
  8
0
 10
152.36156810707729
 20
113.8574886061739
 30
0.0
 40
0.7499999999999945
 50
272.49999999999858
 51
92.500000000011596
  0
ARC
  5
3FD7
  8
0
 10
143.86156810707709
 20
111.9849415637065
 30
0.0
 40
0.7499999999999528
 50
92.500000000011596
 51
272.49999999999858
  0
ARC
  5
3FD8
  8
0
 10
152.36156810707729
 20
112.3560595784289
 30
0.0
 40
0.7499999999999945
 50
272.49999999999858
 51
92.500000000011596
  0
ARC
  5
3FD9
  8
0
 10
143.86156810707709
 20
110.48351253596159
 30
0.0
 40
0.7499999999999528
 50
92.500000000011596
 51
272.49999999999858
  0
ARC
  5
3FDA
  8
0
 10
152.36156810707729
 20
110.85463055068401
 30
0.0
 40
0.7499999999999945
 50
272.49999999999858
 51
92.500000000011596
  0
ARC
  5
3FDB
  8
0
 10
143.86156810707709
 20
108.9820835082167
 30
0.0
 40
0.7499999999999528
 50
92.500000000011596
 51
272.49999999999858
  0
ARC
  5
3FDC
  8
0
 10
152.36156810707729
 20
109.3532015229391
 30
0.0
 40
0.7499999999999945
 50
272.49999999999858
 51
92.500000000011596
  0
ARC
  5
3FDD
  8
0
 10
143.86156810707709
 20
107.4806544804718
 30
0.0
 40
0.7499999999999528
 50
92.500000000011596
 51
272.49999999999858
  0
ARC
  5
3FDE
  8
0
 10
152.36156810707729
 20
107.8517724951941
 30
0.0
 40
0.7499999999999945
 50
272.49999999999858
 51
92.500000000011596
  0
ARC
  5
3FDF
  8
0
 10
143.86156810707709
 20
105.97922545272679
 30
0.0
 40
0.7499999999999528
 50
92.500000000011596
 51
272.49999999999858
  0
ARC
  5
3FE0
  8
0
 10
152.36156810707729
 20
106.35034346744931
 30
0.0
 40
0.7499999999999945
 50
272.49999999999858
 51
92.500000000011596
  0
ARC
  5
3FE1
  8
0
 10
143.86156810707709
 20
104.4777964249818
 30
0.0
 40
0.7499999999999528
 50
92.500000000011596
 51
272.49999999999858
  0
ARC
  5
3FE2
  8
0
 10
152.36156810707729
 20
104.8489144397043
 30
0.0
 40
0.7499999999999945
 50
272.49999999999858
 51
92.500000000011596
  0
ARC
  5
3FE3
  8
0
 10
155.31156810707731
 20
116.2384319293716
 30
0.0
 40
1.5
 50
272.49999999999858
 51
0.0
  0
ARC
  5
3FE4
  8
0
 10
164.81156810707739
 20
104.64177866504291
 30
0.0
 40
1.5
 50
272.49999999999858
 51
0.0
  0
ARC
  5
3FE5
  8
0
 10
143.86156810707709
 20
102.9763673972369
 30
0.0
 40
0.7499999999999528
 50
92.500000000011596
 51
272.49999999999858
  0
LINE
  5
3FE6
  8
AM_7
 10
157.01156810707741
 20
241.90206186406419
 30
0.0
 11
137.0115681070773
 21
241.90206186406419
 31
0.0
  0
LINE
  5
3FE7
  8
AM_7
 10
157.01156810707741
 20
246.90206186406419
 30
0.0
 11
137.0115681070773
 21
246.90206186406419
 31
0.0
  0
LINE
  5
3FE8
  8
0
 10
144.1115681070774
 20
221.5020618640641
 30
0.0
 11
144.11156810707729
 21
205.50206186406419
 31
0.0
  0
LINE
  5
3FE9
  8
0
 10
175.1115681070774
 20
219.5020618640641
 30
0.0
 11
184.11156810707729
 21
219.5020618640641
 31
0.0
  0
LINE
  5
3FEA
  8
0
 10
175.11156810707729
 20
223.5020618640641
 30
0.0
 11
184.11156810707729
 21
223.5020618640641
 31
0.0
  0
LINE
  5
3FEB
  8
0
 10
141.11156810707729
 20
221.5020618640641
 30
0.0
 11
141.11156810707729
 21
205.50206186406419
 31
0.0
  0
LINE
  5
3FEC
  8
AM_7
 10
157.56156810707731
 20
212.5020618640641
 30
0.0
 11
138.6615681070773
 21
212.5020618640641
 31
0.0
  0
LINE
  5
3FED
  8
AM_7
 10
148.1115681070774
 20
221.95206186406409
 30
0.0
 11
148.1115681070774
 21
203.0520618640642
 31
0.0
  0
LINE
  5
3FEE
  8
AM_3
 10
167.11156810707729
 20
209.50206186406419
 30
0.0
 11
148.1115681070774
 21
209.50206186406419
 31
0.0
  0
LINE
  5
3FEF
  8
AM_3
 10
172.1115681070774
 20
221.5020618640641
 30
0.0
 11
172.11156810707729
 21
205.50206186406419
 31
0.0
  0
LINE
  5
3FF0
  8
AM_3
 10
167.1115681070774
 20
221.5020618640641
 30
0.0
 11
167.11156810707729
 21
209.50206186406419
 31
0.0
  0
LINE
  5
3FF1
  8
0
 10
175.11156810707729
 20
221.5020618640641
 30
0.0
 11
141.11156810707729
 21
221.5020618640641
 31
0.0
  0
LINE
  5
3FF2
  8
0
 10
175.11156810707729
 20
205.50206186406419
 30
0.0
 11
141.1115681070774
 21
205.5020618640641
 31
0.0
  0
LINE
  5
3FF3
  8
0
 10
167.1115681070774
 20
232.40206186406431
 30
0.0
 11
167.1115681070774
 21
221.5020618640641
 31
0.0
  0
LINE
  5
3FF4
  8
0
 10
147.51156810707741
 20
251.90206186406419
 30
0.0
 11
147.51156810707741
 21
235.40206186406431
 31
0.0
  0
LINE
  5
3FF5
  8
AM_7
 10
136.5115681070773
 20
213.50206186406419
 30
0.0
 11
148.5115681070773
 21
213.50206186406419
 31
0.0
  0
CIRCLE
  5
3FF6
  8
AM_3
 10
148.1115681070774
 20
212.5020618640641
 30
0.0
 40
6.0
  0
CIRCLE
  5
3FF7
  8
AM_3
 10
148.1115681070774
 20
212.5020618640641
 30
0.0
 40
3.0
  0
LINE
  5
3FF8
  8
0
 10
147.51156810707741
 20
251.90206186406419
 30
0.0
 11
150.5115681070773
 21
251.90206186406419
 31
0.0
  0
LINE
  5
3FF9
  8
0
 10
172.1115681070774
 20
226.50206186406419
 30
0.0
 11
172.1115681070774
 21
221.5020618640641
 31
0.0
  0
LINE
  5
3FFA
  8
0
 10
175.11156810707729
 20
226.50206186406419
 30
0.0
 11
172.1115681070774
 21
226.50206186406419
 31
0.0
  0
LINE
  5
3FFB
  8
0
 10
175.1115681070774
 20
205.50206186406419
 30
0.0
 11
175.11156810707729
 21
226.50206186406419
 31
0.0
  0
LINE
  5
3FFC
  8
0
 10
184.11156810707729
 20
224.5020618640641
 30
0.0
 11
184.11156810707729
 21
218.5020618640641
 31
0.0
  0
LINE
  5
3FFD
  8
AM_3
 10
170.11156810707729
 20
219.5020618640641
 30
0.0
 11
175.1115681070774
 21
219.5020618640641
 31
0.0
  0
LINE
  5
3FFE
  8
AM_3
 10
170.11156810707729
 20
223.5020618640641
 30
0.0
 11
175.11156810707729
 21
223.5020618640641
 31
0.0
  0
LINE
  5
3FFF
  8
AM_3
 10
170.11156810707729
 20
223.0020618640641
 30
0.0
 11
184.11156810707729
 21
223.0020618640641
 31
0.0
  0
LINE
  5
4000
  8
AM_3
 10
170.11156810707729
 20
220.0020618640641
 30
0.0
 11
184.11156810707729
 21
220.0020618640641
 31
0.0
  0
LINE
  5
4001
  8
AM_7
 10
188.61156810707729
 20
221.5020618640641
 30
0.0
 11
169.91156810707739
 21
221.5020618640641
 31
0.0
  0
LINE
  5
4002
  8
0
 10
175.11156810707729
 20
120.167642515578
 30
0.0
 11
172.11156810707729
 21
120.167642515578
 31
0.0
  0
LINE
  5
4003
  8
0
 10
175.11156810707729
 20
98.167642515577995
 30
0.0
 11
172.11156810707729
 21
98.167642515577995
 31
0.0
  0
LINE
  5
4004
  8
0
 10
156.81156810707731
 20
117.167642515578
 30
0.0
 11
156.81156810707731
 21
116.2384319293716
 31
0.0
  0
LINE
  5
4008
  8
0
 10
164.81156810707731
 20
110.167642515578
 30
0.0
 11
166.31156810707731
 21
110.167642515578
 31
0.0
  0
LINE
  5
4009
  8
0
 10
166.31156810707731
 20
110.167642515578
 30
0.0
 11
166.31156810707739
 21
104.64177866504291
 31
0.0
  0
LINE
  5
400A
  8
0
 10
164.81156810707731
 20
110.167642515578
 30
0.0
 11
164.81156810707731
 21
104.64177866504281
 31
0.0
  0
LINE
  5
400B
  8
0
 10
155.31156810707731
 20
116.2384319293716
 30
0.0
 11
143.82885356655311
 21
115.737085785383
 31
0.0
  0
LINE
  5
400C
  8
0
 10
155.3769971881253
 20
114.7398595969988
 30
0.0
 11
143.89428264760119
 21
114.2385134530102
 31
0.0
  0
LINE
  5
400D
  8
0
 10
152.39453257606141
 20
107.1024972411201
 30
0.0
 11
143.90262269261561
 21
106.73173244851471
 31
0.0
  0
LINE
  5
400E
  8
0
 10
152.32885356655319
 20
105.5982006058907
 30
0.0
 11
143.83694368310739
 21
105.2274358132853
 31
0.0
  0
LINE
  5
400F
  8
0
 10
164.8769971881253
 20
103.14320633267
 30
0.0
 11
143.89428264760119
 21
102.2270812310506
 31
0.0
  0
LINE
  5
4010
  8
0
 10
164.81156810707731
 20
104.64177866504281
 30
0.0
 11
143.82885356655311
 21
103.72565356342341
 31
0.0
  0
LINE
  5
4011
  8
AM_7
 10
188.61156810707729
 20
109.167642515578
 30
0.0
 11
173.61156810707729
 21
109.167642515578
 31
0.0
  0
LINE
  5
4012
  8
AM_3
 10
175.11156810707729
 20
107.667642515578
 30
0.0
 11
184.11156810707729
 21
107.667642515578
 31
0.0
  0
LINE
  5
4013
  8
AM_3
 10
175.11156810707729
 20
110.667642515578
 30
0.0
 11
184.11156810707729
 21
110.667642515578
 31
0.0
  0
LINE
  5
4014
  8
0
 10
175.11156810707729
 20
107.167642515578
 30
0.0
 11
184.11156810707729
 21
107.167642515578
 31
0.0
  0
LINE
  5
4015
  8
0
 10
175.11156810707729
 20
111.167642515578
 30
0.0
 11
184.11156810707729
 21
111.167642515578
 31
0.0
  0
LINE
  5
4016
  8
0
 10
142.11156810707729
 20
101.167642515578
 30
0.0
 11
142.11156810707729
 21
87.367642515578041
 31
0.0
  0
LINE
  5
4017
  8
0
 10
142.11156810707729
 20
130.167642515578
 30
0.0
 11
170.11156810707729
 21
130.167642515578
 31
0.0
  0
LINE
  5
4018
  8
0
 10
142.11156810707729
 20
88.167642515577967
 30
0.0
 11
170.11156810707729
 21
88.167642515577995
 31
0.0
  0
LINE
  5
401A
  8
0
 10
170.11156810707729
 20
88.167642515577995
 30
0.0
 11
170.11156810707729
 21
103.167642515578
 31
0.0
  0
LINE
  5
401B
  8
0
 10
170.11156810707729
 20
115.1676425155779
 30
0.0
 11
170.11156810707729
 21
130.167642515578
 31
0.0
  0
LINE
  5
401D
  8
0
 10
172.11156810707729
 20
115.167642515578
 30
0.0
 11
172.11156810707729
 21
131.167642515578
 31
0.0
  0
LINE
  5
401E
  8
0
 10
165.08891736855239
 20
103.167642515578
 30
0.0
 11
175.11156810707729
 21
103.167642515578
 31
0.0
  0
LINE
  5
401F
  8
0
 10
162.11156810707729
 20
115.167642515578
 30
0.0
 11
175.11156810707729
 21
115.167642515578
 31
0.0
  0
LINE
  5
4020
  8
0
 10
162.11156810707729
 20
115.167642515578
 30
0.0
 11
162.11156810707729
 21
104.5238941191898
 31
0.0
  0
LINE
  5
4024
  8
0
 10
142.11156810707729
 20
101.167642515578
 30
0.0
 11
170.11156810707729
 21
101.167642515578
 31
0.0
  0
LINE
  5
4025
  8
0
 10
142.11156810707729
 20
117.167642515578
 30
0.0
 11
170.11156810707729
 21
117.167642515578
 31
0.0
  0
LINE
  5
4026
  8
0
 10
142.11156810707729
 20
130.96764251557801
 30
0.0
 11
142.11156810707729
 21
117.167642515578
 31
0.0
  0
LINE
  5
402A
  8
AM_7
 10
148.1115681070774
 20
80.800932173500541
 30
0.0
 11
148.1115681070774
 21
138.16175649997501
 31
0.0
  0
LINE
  5
402B
  8
0
 10
144.11156810707729
 20
84.167642515577924
 30
0.0
 11
144.11156810707729
 21
58.167642515577988
 31
0.0
  0
LINE
  5
402C
  8
0
 10
172.11156810707729
 20
84.167642515577924
 30
0.0
 11
144.11156810707729
 21
84.167642515577924
 31
0.0
  0
ARC
  5
402D
  8
0
 10
172.11156810707729
 20
87.167642515577938
 30
0.0
 40
3.0
 50
270.0
 51
0.0
1001
GENIUS_GENODEF_13
1002
{
1000
HIER
1070
     0
1002
}
1002
{
1000
MANEDIT
1070
     0
1002
}
1002
{
1000
NOSEL
1070
     0
1002
}
1002
{
1000
BEHIND
1070
     0
1002
}
1002
{
1000
OTHER
1070
     0
1002
}
1002
{
1000
REACTOR
1002
}
1001
GENIUS_GENOBJ-N-FIL_13
1002
{
1000
OWNER
1000
GEN
1002
}
  0
LINE
  5
402E
  8
0
 10
175.11156810707729
 20
131.167642515578
 30
0.0
 11
175.11156810707729
 21
87.167642515577995
 31
0.0
  0
LINE
  5
402F
  8
0
 10
144.11156810707729
 20
134.167642515578
 30
0.0
 11
172.11156810707729
 21
134.167642515578
 31
0.0
  0
ARC
  5
4030
  8
0
 10
172.11156810707729
 20
131.167642515578
 30
0.0
 40
3.0
 50
0.0
 51
90.0
1001
GENIUS_GENODEF_13
1002
{
1000
HIER
1070
     0
1002
}
1002
{
1000
MANEDIT
1070
     0
1002
}
1002
{
1000
NOSEL
1070
     0
1002
}
1002
{
1000
BEHIND
1070
     0
1002
}
1002
{
1000
OTHER
1070
     0
1002
}
1002
{
1000
REACTOR
1002
}
1001
GENIUS_GENOBJ-N-FIL_13
1002
{
1000
OWNER
1000
GEN
1002
}
  0
LINE
  5
4031
  8
0
 10
144.11156810707729
 20
159.167642515578
 30
0.0
 11
144.11156810707729
 21
134.167642515578
 31
0.0
  0
LINE
  5
4032
  8
0
 10
141.11156810707729
 20
159.167642515578
 30
0.0
 11
144.11156810707729
 21
159.167642515578
 31
0.0
  0
LINE
  5
4033
  8
0
 10
141.11156810707729
 20
134.167642515578
 30
0.0
 11
141.11156810707729
 21
159.167642515578
 31
0.0
  0
ARC
  5
4034
  8
0
 10
144.11156810707729
 20
134.167642515578
 30
0.0
 40
3.0
 50
180.0
 51
270.0
1001
GENIUS_GENOBJ-N-FIL_13
1002
{
1000
OWNER
1000
GEN
1002
}
1001
GENIUS_GENODEF_13
1002
{
1000
HIER
1070
     0
1002
}
1002
{
1000
MANEDIT
1070
     0
1002
}
1002
{
1000
NOSEL
1070
     0
1002
}
1002
{
1000
BEHIND
1070
     0
1002
}
1002
{
1000
OTHER
1070
     0
1002
}
1002
{
1000
REACTOR
1002
}
  0
LINE
  5
4035
  8
0
 10
172.11156810707729
 20
131.167642515578
 30
0.0
 11
144.11156810707729
 21
131.167642515578
 31
0.0
  0
LINE
  5
4036
  8
0
 10
172.11156810707729
 20
87.167642515577995
 30
0.0
 11
172.11156810707729
 21
103.167642515578
 31
0.0
  0
LINE
  5
4037
  8
0
 10
144.11156810707729
 20
87.167642515577995
 30
0.0
 11
172.11156810707729
 21
87.167642515577995
 31
0.0
  0
LINE
  5
4038
  8
0
 10
141.11156810707729
 20
58.167642515577988
 30
0.0
 11
141.11156810707729
 21
84.167642515577995
 31
0.0
  0
ARC
  5
4039
  8
0
 10
144.11156810707729
 20
84.167642515577995
 30
0.0
 40
3.0
 50
90.0
 51
180.0
1001
GENIUS_GENODEF_13
1002
{
1000
HIER
1070
     0
1002
}
1002
{
1000
MANEDIT
1070
     0
1002
}
1002
{
1000
NOSEL
1070
     0
1002
}
1002
{
1000
BEHIND
1070
     0
1002
}
1002
{
1000
OTHER
1070
     0
1002
}
1002
{
1000
REACTOR
1002
}
1001
GENIUS_GENOBJ-N-FIL_13
1002
{
1000
OWNER
1000
GEN
1002
}
  0
LINE
  5
403A
  8
0
 10
144.11156810707729
 20
58.167642515577988
 30
0.0
 11
141.11156810707729
 21
58.167642515577988
 31
0.0
  0
LINE
  5
403B
  8
0
 10
264.12915112853739
 20
101.667642515578
 30
0.0
 11
264.12915112853739
 21
58.167642515577938
 31
0.0
  0
LINE
  5
403C
  8
0
 10
264.12915112853739
 20
98.167642515577995
 30
0.0
 11
274.12915112853739
 21
98.167642515577995
 31
0.0
  0
LINE
  5
403D
  8
0
 10
264.12915112853761
 20
120.167642515578
 30
0.0
 11
274.1291511285375
 21
120.167642515578
 31
0.0
  0
LINE
  5
403F
  8
0
 10
264.12915112853739
 20
101.667642515578
 30
0.0
 11
274.1291511285375
 21
101.667642515578
 31
0.0
  0
LINE
  5
4040
  8
0
 10
264.12915112853739
 20
116.667642515578
 30
0.0
 11
274.1291511285375
 21
116.667642515578
 31
0.0
  0
LINE
  5
4045
  8
0
 10
285.1291511285375
 20
94.167642515577995
 30
0.0
 11
285.1291511285375
 21
124.167642515578
 31
0.0
  0
LINE
  5
4046
  8
0
 10
285.1291511285375
 20
124.167642515578
 30
0.0
 11
280.1291511285375
 21
129.167642515578
 31
0.0
  0
LINE
  5
4047
  8
0
 10
285.1291511285375
 20
94.167642515577995
 30
0.0
 11
280.1291511285375
 21
89.167642515577995
 31
0.0
  0
CIRCLE
  5
4048
  8
0
 10
280.1291511285375
 20
109.167642515578
 30
0.0
 40
3.0
  0
LINE
  5
4049
  8
AM_7
 10
280.1291511285375
 20
116.667642515578
 30
0.0
 11
280.1291511285375
 21
101.667642515578
 31
0.0
  0
LINE
  5
404A
  8
AM_7
 10
272.6291511285375
 20
109.167642515578
 30
0.0
 11
287.6291511285375
 21
109.167642515578
 31
0.0
  0
LINE
  5
404B
  8
0
 10
280.1291511285375
 20
134.167642515578
 30
0.0
 11
264.12915112853739
 21
134.167642515578
 31
0.0
  0
LINE
  5
404C
  8
0
 10
264.12915112853739
 20
84.167642515577995
 30
0.0
 11
280.1291511285375
 21
84.167642515577995
 31
0.0
  0
CIRCLE
  5
404D
  8
0
 10
304.52915112853748
 20
124.167642515578
 30
0.0
 40
2.149999999999999
  0
LINE
  5
404E
  8
AM_7
 10
304.52915112853748
 20
129.167642515578
 30
0.0
 11
304.52915112853748
 21
119.167642515578
 31
0.0
  0
LINE
  5
404F
  8
AM_7
 10
299.52915112853748
 20
124.167642515578
 30
0.0
 11
309.52915112853748
 21
124.167642515578
 31
0.0
  0
CIRCLE
  5
4050
  8
0
 10
299.52915112853748
 20
109.167642515578
 30
0.0
 40
2.149999999999999
  0
LINE
  5
4051
  8
AM_7
 10
299.52915112853748
 20
114.167642515578
 30
0.0
 11
299.52915112853748
 21
104.167642515578
 31
0.0
  0
LINE
  5
4052
  8
AM_7
 10
294.52915112853748
 20
109.167642515578
 30
0.0
 11
304.52915112853748
 21
109.167642515578
 31
0.0
  0
LINE
  5
4053
  8
AM_7
 10
299.52915112853748
 20
94.167642515577995
 30
0.0
 11
309.52915112853748
 21
94.167642515577995
 31
0.0
  0
CIRCLE
  5
4054
  8
0
 10
304.52915112853748
 20
94.167642515577995
 30
0.0
 40
2.149999999999999
  0
LINE
  5
4055
  8
AM_7
 10
304.52915112853748
 20
99.167642515577995
 30
0.0
 11
304.52915112853748
 21
89.167642515577995
 31
0.0
  0
LINE
  5
4056
  8
AM_3
 10
291.02915112853748
 20
88.167642515577995
 30
0.0
 11
291.02915112853748
 21
130.167642515578
 31
0.0
  0
LINE
  5
4057
  8
0
 10
294.02915112853748
 20
130.167642515578
 30
0.0
 11
294.02915112853748
 21
88.167642515577995
 31
0.0
  0
LINE
  5
4058
  8
0
 10
310.52915112853748
 20
88.167642515577995
 30
0.0
 11
310.52915112853748
 21
130.167642515578
 31
0.0
  0
LINE
  5
4059
  8
0
 10
280.1291511285375
 20
88.167642515577995
 30
0.0
 11
310.52915112853748
 21
88.167642515577995
 31
0.0
  0
LINE
  5
405A
  8
0
 10
280.1291511285375
 20
130.167642515578
 30
0.0
 11
310.52915112853748
 21
130.167642515578
 31
0.0
  0
LINE
  5
405B
  8
0
 10
280.1291511285375
 20
160.167642515578
 30
0.0
 11
280.1291511285375
 21
129.167642515578
 31
0.0
  0
LINE
  5
405C
  8
0
 10
280.1291511285375
 20
58.167642515577938
 30
0.0
 11
280.1291511285375
 21
89.167642515577995
 31
0.0
  0
LINE
  5
405D
  8
0
 10
264.12915112853739
 20
58.167642515577938
 30
0.0
 11
280.1291511285375
 21
58.167642515577938
 31
0.0
  0
LINE
  5
405E
  8
0
 10
264.12915112853739
 20
160.167642515578
 30
0.0
 11
264.12915112853739
 21
116.667642515578
 31
0.0
  0
LINE
  5
405F
  8
0
 10
280.1291511285375
 20
160.167642515578
 30
0.0
 11
264.12915112853739
 21
160.167642515578
 31
0.0
  0
LINE
  5
4060
  8
AM_1
 10
149.51156810707741
 20
228.90206186406419
 30
0.0
 11
140.31156810707739
 21
228.90206186406419
 31
0.0
  0
LINE
  5
4061
  8
AM_1
 10
146.71156810707731
 20
251.90206186406419
 30
0.0
 11
127.51156810707739
 21
251.90206186406419
 31
0.0
  0
LINE
  5
4062
  8
AM_1
 10
139.51156810707741
 20
217.1020618640643
 30
0.0
 11
139.5115681070773
 21
209.90206186406419
 31
0.0
  0
LINE
  5
406C
  8
AM_1
 10
142.71156810707731
 20
250.30206186406431
 30
0.0
 11
142.71156810707731
 21
233.50206186406419
 31
0.0
  0
LINE
  5
4070
  8
AM_1
 10
149.5115681070773
 20
227.3020618640642
 30
0.0
 11
149.51156810707741
 21
228.90206186406419
 31
0.0
  0
LINE
  5
4071
  8
AM_1
 10
149.5115681070773
 20
227.3020618640642
 30
0.0
 11
141.11156810707729
 21
227.3020618640642
 31
0.0
  0
ARC
  5
4072
  8
AM_1
 10
140.31156810707739
 20
228.10206186406421
 30
0.0
 40
0.8
 50
90.0
 51
180.0
  0
ARC
  5
4073
  8
AM_1
 10
140.31156810707739
 20
204.70206186406421
 30
0.0
 40
0.8
 50
180.0
 51
270.0
  0
ARC
  5
4074
  8
AM_1
 10
146.71156810707731
 20
251.10206186406421
 30
0.0
 40
0.8
 50
0.0
 51
90.0
  0
ARC
  5
4075
  8
AM_1
 10
116.31156810707741
 20
202.70206186406421
 30
0.0
 40
0.8
 50
180.0
 51
270.0
  0
ARC
  5
4076
  8
AM_1
 10
134.71156810707731
 20
202.70206186406421
 30
0.0
 40
0.8
 50
270.0
 51
0.0
  0
ARC
  5
4077
  8
AM_1
 10
146.71156810707731
 20
232.70206186406409
 30
0.0
 40
0.8
 50
270.0
 51
0.0
  0
ARC
  5
4078
  8
AM_1
 10
134.71156810707731
 20
232.70206186406409
 30
0.0
 40
0.8
 50
90.0
 51
180.0
  0
LINE
  5
4079
  8
AM_1
 10
145.91156810707739
 20
233.50206186406419
 30
0.0
 11
134.71156810707731
 21
233.50206186406419
 31
0.0
  0
LINE
  5
407A
  8
AM_1
 10
145.91156810707739
 20
250.30206186406431
 30
0.0
 11
145.91156810707739
 21
233.50206186406419
 31
0.0
  0
LINE
  5
407B
  8
AM_1
 10
133.91156810707739
 20
232.70206186406409
 30
0.0
 11
133.91156810707739
 21
203.50206186406419
 31
0.0
  0
LINE
  5
407C
  8
AM_1
 10
133.91156810707739
 20
203.50206186406419
 30
0.0
 11
117.1115681070774
 21
203.50206186406419
 31
0.0
  0
LINE
  5
407D
  8
AM_1
 10
117.1115681070774
 20
203.50206186406419
 30
0.0
 11
117.1115681070773
 21
213.90206186406419
 31
0.0
  0
LINE
  5
407E
  8
AM_1
 10
115.51156810707739
 20
213.90206186406419
 30
0.0
 11
117.1115681070773
 21
213.90206186406419
 31
0.0
  0
LINE
  5
407F
  8
AM_1
 10
115.51156810707739
 20
202.70206186406421
 30
0.0
 11
115.51156810707739
 21
213.90206186406419
 31
0.0
  0
LINE
  5
4080
  8
AM_1
 10
134.71156810707731
 20
201.90206186406419
 30
0.0
 11
116.31156810707741
 21
201.90206186406419
 31
0.0
  0
LINE
  5
4081
  8
AM_1
 10
135.51156810707741
 20
231.90206186406419
 30
0.0
 11
135.5115681070773
 21
202.70206186406421
 31
0.0
  0
LINE
  5
4082
  8
AM_1
 10
146.71156810707731
 20
231.90206186406419
 30
0.0
 11
135.51156810707741
 21
231.90206186406419
 31
0.0
  0
LINE
  5
4083
  8
AM_1
 10
127.51156810707739
 20
250.30206186406431
 30
0.0
 11
145.91156810707739
 21
250.30206186406431
 31
0.0
  0
LINE
  5
4084
  8
AM_1
 10
127.51156810707739
 20
251.90206186406419
 30
0.0
 11
127.51156810707739
 21
250.30206186406431
 31
0.0
  0
DIMENSION
  5
4085
  8
AM_5
  2
*D18
 10
148.1115681070774
 20
189.05206186406431
 30
0.0
 11
144.6115681070774
 21
191.55206186406431
 31
0.0
 70
     0
 13
141.1115681070774
 23
205.50206186406419
 33
0.0
 14
148.1115681070774
 24
203.0520618640642
 34
0.0
1001
ACAD_DSTYLE_DIMINSPECT
1070
   396
1000
100%
1070
   395
1000

1070
   394
1070
    33
1070
   393
1070
     0
  0
DIMENSION
  5
4088
  8
AM_5
  2
*D19
 10
124.6615681070773
 20
212.5020618640641
 30
0.0
 11
122.1615681070773
 21
209.00206186406419
 31
0.0
 70
     0
 13
141.11156810707729
 23
205.50206186406419
 33
0.0
 14
138.6615681070773
 24
212.5020618640641
 34
0.0
 50
90.0
1001
ACAD_DSTYLE_DIMINSPECT
1070
   396
1000
100%
1070
   395
1000

1070
   394
1070
    33
1070
   393
1070
     0
  0
INSERT
  5
408B
  8
AM_5
  2
*S41
 10
0.0
 20
0.0
 30
0.0
  0
DIMENSION
  5
408C
  8
AM_5
  2
*D20
 10
251.32415832591909
 20
65.167642515577938
 30
0.0
 11
248.82415832591909
 21
71.167642515578009
 31
0.0
 70
     0
 13
267.1291511285375
 23
77.167642515577995
 33
0.0
 14
267.1291511285375
 24
65.167642515577938
 34
0.0
 50
90.0
1001
ACAD
1000
DSTYLE
1002
{
1070
   174
1070
     1
1002
}
1001
ACAD_DSTYLE_DIMINSPECT
1070
   396
1000
100%
1070
   395
1000

1070
   394
1070
    33
1070
   393
1070
     0
  0
DIMENSION
  5
408F
  8
AM_5
  2
*D21
 10
251.32415832591909
 20
77.167642515577995
 30
0.0
 11
248.82415832591909
 21
109.167642515578
 31
0.0
 70
     0
 13
267.1291511285375
 23
141.167642515578
 33
0.0
 14
267.1291511285375
 24
77.167642515577995
 34
0.0
 50
90.0
1001
ACAD
1000
DSTYLE
1002
{
1070
   174
1070
     1
1002
}
1001
ACAD_DSTYLE_DIMINSPECT
1070
   396
1000
100%
1070
   395
1000

1070
   394
1070
    33
1070
   393
1070
     0
  0
DIMENSION
  5
4092
  8
AM_5
  2
*D22
 10
251.32415832591909
 20
141.167642515578
 30
0.0
 11
248.82415832591909
 21
147.167642515578
 31
0.0
 70
     0
 13
267.1291511285375
 23
153.167642515578
 33
0.0
 14
267.1291511285375
 24
141.167642515578
 34
0.0
 50
90.0
1001
ACAD
1000
DSTYLE
1002
{
1070
   174
1070
     1
1002
}
1001
ACAD_DSTYLE_DIMINSPECT
1070
   396
1000
100%
1070
   395
1000

1070
   394
1070
    33
1070
   393
1070
     0
  0
DIMENSION
  5
4095
  8
AM_5
  2
*D23
 10
244.3241583259192
 20
160.167642515578
 30
0.0
 11
241.82415832591909
 21
109.167642515578
 31
0.0
 70
     0
 13
264.12915112853739
 23
58.167642515577938
 33
0.0
 14
264.12915112853739
 24
160.167642515578
 34
0.0
 50
90.0
1001
ACAD_DSTYLE_DIMINSPECT
1070
   396
1000
100%
1070
   395
1000

1070
   394
1070
    33
1070
   393
1070
     0
  0
DIMENSION
  5
4098
  8
AM_5
  2
*D24
 10
272.1291511285375
 20
174.167642515578
 30
0.0
 11
268.1291511285375
 21
176.667642515578
 31
0.0
 70
     0
 13
264.12915112853739
 23
160.167642515578
 33
0.0
 14
272.1291511285375
 24
158.167642515578
 34
0.0
1001
ACAD_DSTYLE_DIMINSPECT
1070
   396
1000
100%
1070
   395
1000

1070
   394
1070
    33
1070
   393
1070
     0
1001
ACAD
1000
DSTYLE
1002
{
1070
   173
1070
     1
1070
   174
1070
     1
1070
     6
1000
OPEN30
1070
     7
1000
GENDOT
1002
}
  0
DIMENSION
  5
409B
  8
AM_5
  2
*D25
 10
272.1291511285375
 20
174.167642515578
 30
0.0
 11
276.1291511285375
 21
176.667642515578
 31
0.0
 70
     0
 13
280.1291511285375
 23
160.167642515578
 33
0.0
 14
272.1291511285375
 24
158.167642515578
 34
0.0
1001
ACAD_DSTYLE_DIMINSPECT
1070
   396
1000
100%
1070
   395
1000

1070
   394
1070
    33
1070
   393
1070
     0
1001
ACAD
1000
DSTYLE
1002
{
1070
   173
1070
     1
1070
   174
1070
     1
1070
     6
1000
OPEN30
1070
     7
1000
GENDOT
1002
}
  0
DIMENSION
  5
409E
  8
AM_5
  2
*D14
 10
280.1291511285375
 20
181.167642515578
 30
0.0
 11
272.1291511285375
 21
183.667642515578
 31
0.0
 70
     0
 13
264.12915112853739
 23
160.167642515578
 33
0.0
 14
280.1291511285375
 24
160.167642515578
 34
0.0
1001
ACAD_DSTYLE_DIMINSPECT
1070
   396
1000
100%
1070
   395
1000

1070
   394
1070
    33
1070
   393
1070
     0
  0
DIMENSION
  5
409F
  8
AM_5
  2
*D15
 10
273.5680349422218
 20
151.77853727452629
 30
0.0
 11
249.48821871752509
 21
168.7501750274875
 31
0.0
 70
   131
  1
4-M4
 15
270.69026731485309
 25
154.55674775662951
 35
0.0
 40
0.0
1001
ACAD_DSTYLE_DIMINSPECT
1070
   396
1000
100%
1070
   395
1000

1070
   394
1070
    33
1070
   393
1070
     0
1001
ACAD_DSTYLE_DIMRADIAL_EXTENSION
1070
   387
1070
     1
1070
   388
1040
1.3962634015954629
1070
   390
1040
6.1086523819801526
  0
DIMENSION
  5
40A0
  8
AM_5
  2
*D26
 10
324.52915212853748
 20
94.167642515577995
 30
0.0
 11
322.02915212853748
 21
91.167642515578052
 31
0.0
 70
     0
 13
310.52915112853748
 23
88.167642515577995
 33
0.0
 14
309.52915112853748
 24
94.167642515577995
 34
0.0
 50
90.0
1001
ACAD_DSTYLE_DIMINSPECT
1070
   396
1000
100%
1070
   395
1000

1070
   394
1070
    33
1070
   393
1070
     0
1001
ACAD
1000
DSTYLE
1002
{
1070
   174
1070
     1
1002
}
  0
DIMENSION
  5
40A3
  8
AM_5
  2
*D27
 10
324.52915212853748
 20
109.167642515578
 30
0.0
 11
322.02915212853748
 21
101.667642515578
 31
0.0
 70
     0
 13
309.52915112853748
 23
94.167642515577995
 33
0.0
 14
304.52915112853748
 24
109.167642515578
 34
0.0
 50
90.0
1001
ACAD
1000
DSTYLE
1002
{
1070
   174
1070
     1
1002
}
1001
ACAD_DSTYLE_DIMINSPECT
1070
   396
1000
100%
1070
   395
1000

1070
   394
1070
    33
1070
   393
1070
     0
  0
DIMENSION
  5
40A6
  8
AM_5
  2
*D28
 10
324.52915212853748
 20
124.167642515578
 30
0.0
 11
322.02915212853748
 21
116.667642515578
 31
0.0
 70
     0
 13
304.52915112853748
 23
109.167642515578
 33
0.0
 14
309.52915112853748
 24
124.167642515578
 34
0.0
 50
90.0
1001
ACAD
1000
DSTYLE
1002
{
1070
   174
1070
     1
1002
}
1001
ACAD_DSTYLE_DIMINSPECT
1070
   396
1000
100%
1070
   395
1000

1070
   394
1070
    33
1070
   393
1070
     0
  0
DIMENSION
  5
40A9
  8
AM_5
  2
*D29
 10
324.52915212853748
 20
130.16764251557791
 30
0.0
 11
322.02915212853742
 21
127.167642515578
 31
0.0
 70
     0
 13
309.52915112853748
 23
124.167642515578
 33
0.0
 14
310.52915112853748
 24
130.167642515578
 34
0.0
 50
90.0
1001
ACAD
1000
DSTYLE
1002
{
1070
   174
1070
     1
1002
}
1001
ACAD_DSTYLE_DIMINSPECT
1070
   396
1000
100%
1070
   395
1000

1070
   394
1070
    33
1070
   393
1070
     0
  0
DIMENSION
  5
40AC
  8
AM_5
  2
*D16
 10
331.52915212853748
 20
130.16764251557791
 30
0.0
 11
329.02915212853742
 21
109.167642515578
 31
0.0
 70
     0
 13
310.52915112853748
 23
88.167642515577995
 33
0.0
 14
310.52915112853748
 24
130.167642515578
 34
0.0
 50
90.0
1001
ACAD_DSTYLE_DIMINSPECT
1070
   396
1000
100%
1070
   395
1000

1070
   394
1070
    33
1070
   393
1070
     0
  0
DIMENSION
  5
40AD
  8
AM_5
  2
*D30
 10
304.52915112853748
 20
64.446487525984708
 30
0.0
 11
307.52915112853748
 21
66.946487525984708
 31
0.0
 70
     0
 13
310.52915112853748
 23
88.167642515577995
 33
0.0
 14
304.52915112853748
 24
89.167642515577995
 34
0.0
1001
ACAD_DSTYLE_DIMINSPECT
1070
   396
1000
100%
1070
   395
1000

1070
   394
1070
    33
1070
   393
1070
     0
1001
ACAD
1000
DSTYLE
1002
{
1070
   173
1070
     1
1070
   174
1070
     1
1070
     6
1000
OPEN30
1070
     7
1000
GENDOT
1002
}
  0
DIMENSION
  5
40B0
  8
AM_5
  2
*D31
 10
304.52915112853748
 20
64.446487525984708
 30
0.0
 11
302.02915112853748
 21
66.946487525984708
 31
0.0
 70
     0
 13
299.52915112853748
 23
104.167642515578
 33
0.0
 14
304.52915112853748
 24
89.167642515577995
 34
0.0
1001
ACAD_DSTYLE_DIMINSPECT
1070
   396
1000
100%
1070
   395
1000

1070
   394
1070
    33
1070
   393
1070
     0
1001
ACAD
1000
DSTYLE
1002
{
1070
   173
1070
     1
1070
   174
1070
     1
1070
     6
1000
OPEN30
1070
     7
1000
GENDOT
1002
}
  0
DIMENSION
  5
40B3
  8
AM_5
  2
*D32
 10
175.1115681070774
 20
182.05206186406451
 30
0.0
 11
158.1115681070774
 21
184.55206186406451
 31
0.0
 70
     0
 13
141.1115681070774
 23
205.5020618640641
 33
0.0
 14
175.1115681070774
 24
205.50206186406419
 34
0.0
1001
ACAD_DSTYLE_DIMINSPECT
1070
   396
1000
100%
1070
   395
1000

1070
   394
1070
    33
1070
   393
1070
     0
  0
DIMENSION
  5
40B6
  8
AM_5
  2
*D33
 10
197.49409473542161
 20
226.50206186406419
 30
0.0
 11
194.99409473542161
 21
216.00206186406419
 31
0.0
 70
     0
 13
175.11156810707729
 23
205.50206186406419
 33
0.0
 14
175.11156810707729
 24
226.50206186406419
 34
0.0
 50
90.0
1001
ACAD_DSTYLE_DIMINSPECT
1070
   396
1000
100%
1070
   395
1000

1070
   394
1070
    33
1070
   393
1070
     0
  0
DIMENSION
  5
40B9
  8
AM_5
  2
*D34
 10
197.49409473542181
 20
232.40206186406431
 30
0.0
 11
194.9940947354217
 21
242.15206186406431
 31
0.0
 70
     0
 13
150.5115681070773
 23
251.90206186406419
 33
0.0
 14
167.1115681070774
 24
232.40206186406431
 34
0.0
 50
90.0
1001
ACAD_DSTYLE_DIMINSPECT
1070
   396
1000
100%
1070
   395
1000

1070
   394
1070
    33
1070
   393
1070
     0
  0
DIMENSION
  5
40BC
  8
AM_5
  2
*D17
 10
204.4940947354219
 20
251.90206186406419
 30
0.0
 11
201.9940947354219
 21
228.70206186406421
 31
0.0
 70
     0
 13
175.1115681070774
 23
205.50206186406419
 33
0.0
 14
150.5115681070773
 24
251.90206186406419
 34
0.0
 50
90.0
1001
ACAD_DSTYLE_DIMINSPECT
1070
   396
1000
100%
1070
   395
1000

1070
   394
1070
    33
1070
   393
1070
     0
  0
DIMENSION
  5
40BD
  8
AM_5
  2
*D35
 10
147.51156810707741
 20
268.40206186406419
 30
0.0
 11
131.8972823927916
 21
268.40206186406419
 31
0.0
 70
   128
 13
141.11156810707729
 23
227.3020618640642
 33
0.0
 14
147.51156810707741
 24
251.90206186406419
 34
0.0
1001
ACAD_DSTYLE_DIMINSPECT
1070
   396
1000
100%
1070
   395
1000

1070
   394
1070
    33
1070
   393
1070
     0
1001
ACAD
1000
DSTYLE
1002
{
1070
   173
1070
     1
1070
   174
1070
     1
1070
     6
1000
OPEN30
1070
     7
1000
GENDOT
1002
}
  0
DIMENSION
  5
40C0
  8
AM_5
  2
*D36
 10
147.51156810707741
 20
268.40206186406419
 30
0.0
 11
162.85442524993451
 21
268.40206186406419
 31
0.0
 70
   128
 13
150.5115681070773
 23
251.90206186406419
 33
0.0
 14
147.51156810707741
 24
251.90206186406419
 34
0.0
1001
ACAD_DSTYLE_DIMINSPECT
1070
   396
1000
100%
1070
   395
1000

1070
   394
1070
    33
1070
   393
1070
     0
1001
ACAD
1000
DSTYLE
1002
{
1070
   173
1070
     1
1070
   174
1070
     1
1070
     6
1000
OPEN30
1070
     7
1000
GENDOT
1002
}
  0
DIMENSION
  5
40C3
  8
AM_5
  2
*D37
 10
121.51156810707739
 20
231.90206186406419
 30
0.0
 11
119.01156810707739
 21
238.90206186406419
 31
0.0
 70
     0
 13
141.1115681070774
 23
228.90206186406419
 33
0.0
 14
135.51156810707741
 24
231.90206186406419
 34
0.0
 50
90.0
1001
ACAD_DSTYLE_DIMINSPECT
1070
   396
1000
100%
1070
   395
1000

1070
   394
1070
    33
1070
   393
1070
     0
  0
DIMENSION
  5
40C6
  8
AM_5
  2
*D38
 10
135.51156810707741
 20
175.0520618640646
 30
0.0
 11
128.4401395356488
 21
177.5520618640646
 31
0.0
 70
     0
 13
139.5115681070773
 23
204.70206186406421
 33
0.0
 14
135.51156810707741
 24
202.70206186406421
 34
0.0
1001
ACAD_DSTYLE_DIMINSPECT
1070
   396
1000
100%
1070
   395
1000

1070
   394
1070
    33
1070
   393
1070
     0
  0
DIMENSION
  5
40C9
  8
AM_5
  2
*D39
 10
303.22249922262671
 20
95.875026712758014
 30
0.0
 11
326.81206909198761
 21
75.784352926746777
 31
0.0
 70
   131
  1
3-<>
 15
305.83580303444847
 25
92.460258318398147
 35
0.0
 40
0.0
1001
ACAD_DSTYLE_DIMRADIAL_EXTENSION
1070
   387
1070
     1
1070
   388
1040
0.0
1070
   390
1040
0.0
1001
ACAD_DSTYLE_DIMINSPECT
1070
   396
1000
100%
1070
   395
1000

1070
   394
1070
    33
1070
   393
1070
     0
  0
LINE
  5
40CC
  8
AM_3
 10
148.1115681070774
 20
206.5020618640641
 30
0.0
 11
167.11156810707729
 21
206.5020618640641
 31
0.0
  0
ARC
  5
40CD
  8
AM_3
 10
167.11156810707729
 20
209.5020618640641
 30
0.0
 40
3.0
 50
270.0
 51
0.0
1001
GENIUS_GENODEF_13
1002
{
1000
HIER
1070
     0
1002
}
1002
{
1000
MANEDIT
1070
     0
1002
}
1002
{
1000
NOSEL
1070
     0
1002
}
1002
{
1000
BEHIND
1070
     0
1002
}
1002
{
1000
OTHER
1070
     0
1002
}
1002
{
1000
REACTOR
1002
}
1001
GENIUS_GENOBJ-N-FIL_13
1002
{
1000
OWNER
1000
GEN
1002
}
  0
LINE
  5
40D0
  8
0
 10
142.11156810707729
 20
130.96764251557801
 30
0.0
 11
154.11156810707729
 21
130.96764251557801
 31
0.0
  0
LINE
  5
40D1
  8
0
 10
154.11156810707729
 20
130.96764251557801
 30
0.0
 11
154.11156810707729
 21
130.167642515578
 31
0.0
  0
LINE
  5
40D2
  8
0
 10
142.11156810707729
 20
87.367642515578041
 30
0.0
 11
154.11156810707729
 21
87.367642515577984
 31
0.0
  0
LINE
  5
40D3
  8
0
 10
154.11156810707729
 20
87.367642515577984
 30
0.0
 11
154.11156810707729
 21
88.167642515577995
 31
0.0
  0
LINE
  5
40D4
  8
0
 10
151.11156810707729
 20
117.167642515578
 30
0.0
 11
151.11156810707729
 21
116.0550559691558
 31
0.0
  0
LINE
  5
40D5
  8
0
 10
145.1115681070774
 20
117.167642515578
 30
0.0
 11
145.1115681070774
 21
115.7930903117047
 31
0.0
  0
LINE
  5
40D6
  8
0
 10
145.1115681070774
 20
101.167642515578
 30
0.0
 11
145.1115681070774
 21
102.2802290620002
 31
0.0
  0
LINE
  5
40D7
  8
0
 10
151.11156810707729
 20
101.167642515578
 30
0.0
 11
151.11156810707729
 21
102.5421947194512
 31
0.0
  0
LINE
  5
40D8
  8
0
 10
271.1291511285375
 20
115.167642515578
 30
0.0
 11
274.1291511285375
 21
115.167642515578
 31
0.0
  0
LINE
  5
40D9
  8
0
 10
271.1291511285375
 20
103.167642515578
 30
0.0
 11
274.1291511285375
 21
103.167642515578
 31
0.0
  0
LINE
  5
40DA
  8
0
 10
277.18976343719771
 20
109.7676425155779
 30
0.0
 11
279.1291511285375
 21
109.7676425155779
 31
0.0
  0
ARC
  5
40DB
  8
0
 10
279.1291511285375
 20
110.2676425155779
 30
0.0
 40
0.5
 50
270.0
 51
0.0
1001
GENIUS_GENODEF_13
1002
{
1000
HIER
1070
     0
1002
}
1002
{
1000
MANEDIT
1070
     0
1002
}
1002
{
1000
NOSEL
1070
     0
1002
}
1002
{
1000
BEHIND
1070
     0
1002
}
1002
{
1000
OTHER
1070
     0
1002
}
1002
{
1000
REACTOR
1002
}
1001
GENIUS_GENOBJ-N-FIL_13
1002
{
1000
OWNER
1000
GEN
1002
}
  0
LINE
  5
40DC
  8
0
 10
281.1291511285375
 20
109.767642515578
 30
0.0
 11
283.06853881987729
 21
109.767642515578
 31
0.0
  0
LINE
  5
40DD
  8
0
 10
277.18976343719771
 20
108.567642515578
 30
0.0
 11
279.1291511285375
 21
108.567642515578
 31
0.0
  0
ARC
  5
40DE
  8
0
 10
279.1291511285375
 20
108.0676425155779
 30
0.0
 40
0.5
 50
0.0
 51
90.0
1001
GENIUS_GENODEF_13
1002
{
1000
HIER
1070
     0
1002
}
1002
{
1000
MANEDIT
1070
     0
1002
}
1002
{
1000
NOSEL
1070
     0
1002
}
1002
{
1000
BEHIND
1070
     0
1002
}
1002
{
1000
OTHER
1070
     0
1002
}
1002
{
1000
REACTOR
1002
}
1001
GENIUS_GENOBJ-N-FIL_13
1002
{
1000
OWNER
1000
GEN
1002
}
  0
LINE
  5
40DF
  8
0
 10
281.1291511285375
 20
108.567642515578
 30
0.0
 11
283.06853881987729
 21
108.567642515578
 31
0.0
  0
ARC
  5
40E0
  8
0
 10
281.1291511285375
 20
108.0676425155779
 30
0.0
 40
0.5
 50
90.0
 51
180.0
1001
GENIUS_GENOBJ-N-FIL_13
1002
{
1000
OWNER
1000
GEN
1002
}
1001
GENIUS_GENODEF_13
1002
{
1000
HIER
1070
     0
1002
}
1002
{
1000
MANEDIT
1070
     0
1002
}
1002
{
1000
NOSEL
1070
     0
1002
}
1002
{
1000
BEHIND
1070
     0
1002
}
1002
{
1000
OTHER
1070
     0
1002
}
1002
{
1000
REACTOR
1002
}
  0
LINE
  5
40E1
  8
0
 10
280.6291511285375
 20
111.167642515578
 30
0.0
 11
280.6291511285375
 21
110.267642515578
 31
0.0
  0
ARC
  5
40E2
  8
0
 10
281.1291511285375
 20
110.267642515578
 30
0.0
 40
0.5
 50
180.0
 51
270.0
1001
GENIUS_GENODEF_13
1002
{
1000
HIER
1070
     0
1002
}
1002
{
1000
MANEDIT
1070
     0
1002
}
1002
{
1000
NOSEL
1070
     0
1002
}
1002
{
1000
BEHIND
1070
     0
1002
}
1002
{
1000
OTHER
1070
     0
1002
}
1002
{
1000
REACTOR
1002
}
1001
GENIUS_GENOBJ-N-FIL_13
1002
{
1000
OWNER
1000
GEN
1002
}
  0
LINE
  5
40E3
  8
0
 10
280.6291511285375
 20
108.0676425155779
 30
0.0
 11
280.6291511285375
 21
107.167642515578
 31
0.0
  0
LINE
  5
40E4
  8
0
 10
279.6291511285375
 20
111.167642515578
 30
0.0
 11
279.6291511285375
 21
110.2676425155779
 31
0.0
  0
LINE
  5
40E5
  8
0
 10
279.6291511285375
 20
108.0676425155779
 30
0.0
 11
279.6291511285375
 21
107.167642515578
 31
0.0
  0
LINE
  5
40E6
  8
0
 10
279.6291511285375
 20
111.167642515578
 30
0.0
 11
280.6291511285375
 21
111.167642515578
 31
0.0
  0
LINE
  5
40E7
  8
0
 10
279.6291511285375
 20
107.167642515578
 30
0.0
 11
280.6291511285375
 21
107.167642515578
 31
0.0
  0
LINE
  5
40E8
  8
0
 10
279.1291511285375
 20
109.7676425155779
 30
0.0
 11
279.1291511285375
 21
108.567642515578
 31
0.0
  0
LINE
  5
40E9
  8
0
 10
281.1291511285375
 20
108.567642515578
 30
0.0
 11
281.1291511285375
 21
109.7676425155779
 31
0.0
  0
LINE
  5
40EA
  8
0
 10
185.61156810707729
 20
224.5020618640641
 30
0.0
 11
184.11156810707729
 21
224.5020618640641
 31
0.0
  0
ARC
  5
40EB
  8
0
 10
185.61156810707729
 20
223.5020618640641
 30
0.0
 40
1.0
 50
0.0
 51
90.0
1001
GENIUS_GENODEF_13
1002
{
1000
HIER
1070
     0
1002
}
1002
{
1000
MANEDIT
1070
     0
1002
}
1002
{
1000
NOSEL
1070
     0
1002
}
1002
{
1000
BEHIND
1070
     0
1002
}
1002
{
1000
OTHER
1070
     0
1002
}
1002
{
1000
REACTOR
1002
}
1001
GENIUS_GENOBJ-N-FIL_13
1002
{
1000
OWNER
1000
GEN
1002
}
  0
LINE
  5
40EC
  8
0
 10
185.61156810707729
 20
218.5020618640641
 30
0.0
 11
184.11156810707729
 21
218.5020618640641
 31
0.0
  0
ARC
  5
40ED
  8
0
 10
185.61156810707729
 20
219.5020618640641
 30
0.0
 40
1.0
 50
270.0
 51
0.0
1001
GENIUS_GENODEF_13
1002
{
1000
HIER
1070
     0
1002
}
1002
{
1000
MANEDIT
1070
     0
1002
}
1002
{
1000
NOSEL
1070
     0
1002
}
1002
{
1000
BEHIND
1070
     0
1002
}
1002
{
1000
OTHER
1070
     0
1002
}
1002
{
1000
REACTOR
1002
}
1001
GENIUS_GENOBJ-N-FIL_13
1002
{
1000
OWNER
1000
GEN
1002
}
  0
LINE
  5
40EE
  8
0
 10
186.61156810707729
 20
223.5020618640641
 30
0.0
 11
186.61156810707729
 21
219.5020618640641
 31
0.0
  0
LINE
  5
40EF
  8
0
 10
184.1115681070774
 20
112.167642515578
 30
0.0
 11
184.1115681070774
 21
106.167642515578
 31
0.0
  0
LINE
  5
40F0
  8
0
 10
185.61156810707729
 20
112.167642515578
 30
0.0
 11
184.1115681070774
 21
112.167642515578
 31
0.0
  0
ARC
  5
40F1
  8
0
 10
185.61156810707729
 20
111.167642515578
 30
0.0
 40
1.0
 50
0.0
 51
90.0
1001
GENIUS_GENODEF_13
1002
{
1000
HIER
1070
     0
1002
}
1002
{
1000
MANEDIT
1070
     0
1002
}
1002
{
1000
NOSEL
1070
     0
1002
}
1002
{
1000
BEHIND
1070
     0
1002
}
1002
{
1000
OTHER
1070
     0
1002
}
1002
{
1000
REACTOR
1002
}
1001
GENIUS_GENOBJ-N-FIL_13
1002
{
1000
OWNER
1000
GEN
1002
}
  0
LINE
  5
40F2
  8
0
 10
185.61156810707729
 20
106.167642515578
 30
0.0
 11
184.1115681070774
 21
106.167642515578
 31
0.0
  0
ARC
  5
40F3
  8
0
 10
185.61156810707729
 20
107.167642515578
 30
0.0
 40
1.0
 50
270.0
 51
0.0
1001
GENIUS_GENODEF_13
1002
{
1000
HIER
1070
     0
1002
}
1002
{
1000
MANEDIT
1070
     0
1002
}
1002
{
1000
NOSEL
1070
     0
1002
}
1002
{
1000
BEHIND
1070
     0
1002
}
1002
{
1000
OTHER
1070
     0
1002
}
1002
{
1000
REACTOR
1002
}
1001
GENIUS_GENOBJ-N-FIL_13
1002
{
1000
OWNER
1000
GEN
1002
}
  0
LINE
  5
40F4
  8
0
 10
186.61156810707729
 20
111.167642515578
 30
0.0
 11
186.61156810707729
 21
107.167642515578
 31
0.0
  0
LINE
  5
40F5
  8
0
 10
151.6115681070774
 20
135.667642515578
 30
0.0
 11
144.6115681070774
 21
135.667642515578
 31
0.0
  0
LINE
  5
40F6
  8
0
 10
151.6115681070774
 20
134.167642515578
 30
0.0
 11
151.6115681070774
 21
135.667642515578
 31
0.0
  0
LINE
  5
40F7
  8
0
 10
144.6115681070774
 20
134.167642515578
 30
0.0
 11
144.6115681070774
 21
135.667642515578
 31
0.0
  0
LINE
  5
40F8
  8
0
 10
274.6291511285375
 20
135.667642515578
 30
0.0
 11
267.6291511285375
 21
135.667642515578
 31
0.0
  0
LINE
  5
40F9
  8
0
 10
274.6291511285375
 20
134.167642515578
 30
0.0
 11
274.6291511285375
 21
135.667642515578
 31
0.0
  0
LINE
  5
40FA
  8
0
 10
267.6291511285375
 20
134.167642515578
 30
0.0
 11
267.6291511285375
 21
135.667642515578
 31
0.0
  0
LINE
  5
40FB
  8
0
 10
167.11156810707729
 20
101.167642515578
 30
0.0
 11
167.11156810707729
 21
103.167642515578
 31
0.0
  0
LINE
  5
40FC
  8
0
 10
167.11156810707689
 20
117.1676425155776
 30
0.0
 11
167.11156810707701
 21
115.1676425155776
 31
0.0
  0
CIRCLE
  5
40FD
  8
0
 10
148.11156810707729
 20
212.5020618640641
 30
0.0
 40
3.5
  0
ARC
  5
40FE
  8
0
 10
148.1115681070774
 20
123.667642515578
 30
0.0
 40
12.50000000000006
 50
73.739795291687983
 51
106.260204708312
  0
ARC
  5
40FF
  8
0
 10
271.1291511285375
 20
123.6676425155779
 30
0.0
 40
12.50000000000006
 50
73.739795291687983
 51
106.260204708312
  0
LINE
  5
4100
  8
0
 10
151.6115681070774
 20
83.167642515577938
 30
0.0
 11
144.6115681070774
 21
83.167642515577938
 31
0.0
  0
LINE
  5
4101
  8
0
 10
144.6115681070774
 20
84.167642515577953
 30
0.0
 11
144.6115681070774
 21
83.167642515577938
 31
0.0
  0
LINE
  5
4102
  8
0
 10
151.6115681070774
 20
84.167642515577953
 30
0.0
 11
151.6115681070774
 21
83.167642515577938
 31
0.0
  0
LINE
  5
4103
  8
AM_3
 10
141.11156810707729
 20
151.167642515578
 30
0.0
 11
144.1115681070774
 21
151.167642515578
 31
0.0
  0
LINE
  5
4104
  8
AM_3
 10
141.11156810707729
 20
155.167642515578
 30
0.0
 11
144.11156810707729
 21
155.167642515578
 31
0.0
  0
LINE
  5
4105
  8
AM_3
 10
141.11156810707729
 20
154.667642515578
 30
0.0
 11
144.11156810707729
 21
154.667642515578
 31
0.0
  0
LINE
  5
4106
  8
AM_3
 10
141.11156810707729
 20
151.667642515578
 30
0.0
 11
144.11156810707729
 21
151.667642515578
 31
0.0
  0
LINE
  5
4107
  8
AM_3
 10
141.11156810707729
 20
139.167642515578
 30
0.0
 11
144.1115681070774
 21
139.167642515578
 31
0.0
  0
LINE
  5
4108
  8
AM_3
 10
141.11156810707729
 20
143.167642515578
 30
0.0
 11
144.11156810707729
 21
143.167642515578
 31
0.0
  0
LINE
  5
4109
  8
AM_3
 10
141.11156810707729
 20
142.667642515578
 30
0.0
 11
144.11156810707729
 21
142.667642515578
 31
0.0
  0
LINE
  5
410A
  8
AM_3
 10
141.11156810707729
 20
139.667642515578
 30
0.0
 11
144.11156810707729
 21
139.667642515578
 31
0.0
  0
LINE
  5
410B
  8
AM_3
 10
141.11156810707729
 20
75.167642515578024
 30
0.0
 11
144.1115681070774
 21
75.167642515577995
 31
0.0
  0
LINE
  5
410C
  8
AM_3
 10
141.11156810707729
 20
79.167642515577995
 30
0.0
 11
144.11156810707729
 21
79.167642515577995
 31
0.0
  0
LINE
  5
410D
  8
AM_3
 10
141.11156810707729
 20
78.667642515577995
 30
0.0
 11
144.11156810707729
 21
78.667642515577995
 31
0.0
  0
LINE
  5
410E
  8
AM_3
 10
141.11156810707729
 20
75.667642515577995
 30
0.0
 11
144.11156810707729
 21
75.667642515577995
 31
0.0
  0
LINE
  5
410F
  8
AM_3
 10
141.11156810707729
 20
63.167642515578031
 30
0.0
 11
144.1115681070774
 21
63.167642515577988
 31
0.0
  0
LINE
  5
4110
  8
AM_3
 10
141.11156810707729
 20
67.167642515577995
 30
0.0
 11
144.11156810707729
 21
67.167642515577995
 31
0.0
  0
LINE
  5
4111
  8
AM_3
 10
141.11156810707729
 20
66.667642515577995
 30
0.0
 11
144.11156810707729
 21
66.667642515577995
 31
0.0
  0
LINE
  5
4112
  8
AM_3
 10
141.11156810707729
 20
63.667642515578002
 30
0.0
 11
144.11156810707729
 21
63.667642515578002
 31
0.0
  0
POINT
  5
4114
  8
0
 10
-592.25048774784352
 20
413.81335933968768
 30
0.0
1001
GENIUS_GENOLIS_13
1002
{
1000
ENT
1005
3FA9
1002
}
1001
GENIUS_GENOBJ-NBEHI-BHF_13
1002
{
1000
OWNER
1000
genbehi
1002
}
1001
GENIUS_GENOENT_13
1002
{
1000
MYREF
1005
4114
1002
}
1002
{
1000
GRP
1005
0
1002
}
1001
GENIUS_GENODEF_13
1002
{
1000
HIER
1070
     1
1002
}
1002
{
1000
MANEDIT
1070
     0
1002
}
1002
{
1000
NOSEL
1070
     1
1002
}
1002
{
1000
BEHIND
1070
     0
1002
}
1002
{
1000
OTHER
1070
     0
1002
}
1002
{
1000
REACTOR
1002
}
1001
GENIUS_GENBH_13
1002
{
1000
BGZLEVEL
1070
    -1
1002
}
1002
{
1000
FGZLEVEL
1070
    -1
1002
}
1002
{
1000
OIUMAP
1000
OIU
1002
}
1002
{
1000
FLAGS
1070
    32
1002
}
1002
{
1000
FGLEVEL
1040
3.1415926535900001
1002
}
1002
{
1000
BGO
1005
0
1002
}
  0
POINT
  5
4115
  8
0
 10
-592.25048774784352
 20
401.81335933968768
 30
0.0
1001
GENIUS_GENOLIS_13
1002
{
1000
ENT
1005
3FA8
1002
}
1001
GENIUS_GENOBJ-NBEHI-BHF_13
1002
{
1000
OWNER
1000
genbehi
1002
}
1001
GENIUS_GENOENT_13
1002
{
1000
MYREF
1005
4115
1002
}
1002
{
1000
GRP
1005
0
1002
}
1001
GENIUS_GENODEF_13
1002
{
1000
HIER
1070
     1
1002
}
1002
{
1000
MANEDIT
1070
     0
1002
}
1002
{
1000
NOSEL
1070
     1
1002
}
1002
{
1000
BEHIND
1070
     0
1002
}
1002
{
1000
OTHER
1070
     0
1002
}
1002
{
1000
REACTOR
1002
}
1001
GENIUS_GENBH_13
1002
{
1000
BGZLEVEL
1070
    -1
1002
}
1002
{
1000
FGZLEVEL
1070
    -1
1002
}
1002
{
1000
OIUMAP
1000
OIU
1002
}
1002
{
1000
FLAGS
1070
    32
1002
}
1002
{
1000
FGLEVEL
1040
3.1415926535900001
1002
}
1002
{
1000
BGO
1005
0
1002
}
  0
POINT
  5
4116
  8
0
 10
-592.25048774784364
 20
337.81335933968768
 30
0.0
1001
GENIUS_GENOLIS_13
1002
{
1000
ENT
1005
3FA7
1002
}
1001
GENIUS_GENOBJ-NBEHI-BHF_13
1002
{
1000
OWNER
1000
genbehi
1002
}
1001
GENIUS_GENOENT_13
1002
{
1000
MYREF
1005
4116
1002
}
1002
{
1000
GRP
1005
0
1002
}
1001
GENIUS_GENODEF_13
1002
{
1000
HIER
1070
     1
1002
}
1002
{
1000
MANEDIT
1070
     0
1002
}
1002
{
1000
NOSEL
1070
     1
1002
}
1002
{
1000
BEHIND
1070
     0
1002
}
1002
{
1000
OTHER
1070
     0
1002
}
1002
{
1000
REACTOR
1002
}
1001
GENIUS_GENBH_13
1002
{
1000
BGZLEVEL
1070
    -1
1002
}
1002
{
1000
FGZLEVEL
1070
    -1
1002
}
1002
{
1000
OIUMAP
1000
OIU
1002
}
1002
{
1000
FLAGS
1070
    32
1002
}
1002
{
1000
FGLEVEL
1040
3.1415926535900001
1002
}
1002
{
1000
BGO
1005
0
1002
}
  0
POINT
  5
4117
  8
0
 10
-592.25048774784364
 20
325.81335933968768
 30
0.0
1001
GENIUS_GENOLIS_13
1002
{
1000
ENT
1005
3FA6
1002
}
1001
GENIUS_GENOBJ-NBEHI-BHF_13
1002
{
1000
OWNER
1000
genbehi
1002
}
1001
GENIUS_GENOENT_13
1002
{
1000
MYREF
1005
4117
1002
}
1002
{
1000
GRP
1005
0
1002
}
1001
GENIUS_GENODEF_13
1002
{
1000
HIER
1070
     1
1002
}
1002
{
1000
MANEDIT
1070
     0
1002
}
1002
{
1000
NOSEL
1070
     1
1002
}
1002
{
1000
BEHIND
1070
     0
1002
}
1002
{
1000
OTHER
1070
     0
1002
}
1002
{
1000
REACTOR
1002
}
1001
GENIUS_GENBH_13
1002
{
1000
BGZLEVEL
1070
    -1
1002
}
1002
{
1000
FGZLEVEL
1070
    -1
1002
}
1002
{
1000
OIUMAP
1000
OIU
1002
}
1002
{
1000
FLAGS
1070
    32
1002
}
1002
{
1000
FGLEVEL
1040
3.1415926535900001
1002
}
1002
{
1000
BGO
1005
0
1002
}
  0
INSERT
  5
438C
  8
0
  2
*U66
 10
0.0
 20
0.0
 30
0.0
  0
VIEWPORT
  5
95A
 67
     1
  8
0
  6
CONTINUOUS
 10
128.5
 20
97.5
 30
0.0
 40
386.73855140186919
 41
222.18000000000001
 68
     1
 69
     1
1001
ACAD
1000
MVIEW
1002
{
1070
    16
1010
0.0
1020
0.0
1030
0.0
1010
0.0
1020
0.0
1030
1.0
1040
0.0
1040
222.18000000000001
1040
128.5
1040
97.5
1040
50.0
1040
0.0
1040
0.0
1070
     0
1070
   100
1070
     1
1070
     1
1070
     0
1070
     0
1070
     0
1070
     0
1040
0.0
1040
0.0
1040
0.0
1040
10.0
1040
10.0
1040
10.0
1040
10.0
1070
     0
1002
{
1002
}
1002
}
1001
GENIUS_GENOBJ-N-SDF_13
1002
{
1000
OWNER
1000
GEN
1002
}
1001
GENIUS_GENODEF_13
1002
{
1000
HIER
1070
     0
1002
}
1002
{
1000
MANEDIT
1070
     0
1002
}
1002
{
1000
NOSEL
1070
     0
1002
}
1002
{
1000
BEHIND
1070
     0
1002
}
1002
{
1000
OTHER
1070
     0
1002
}
1002
{
1000
REACTOR
1002
}
1001
GENIUS_GENSCREG_15
1000
PF
1040
1.0
1000
DF
1040
1.0
1000
MIN
1011
-64.869275700934566
1021
0.0
1031
0.0
1021
-13.59
1031
0.0
1000
MAX
1011
321.86927570093462
1021
0.0
1031
0.0
1021
208.59
1031
0.0
1000
FLAGS
1070
     4
  0
ENDSEC
  0
EOF
