  0
SECTION
  2
HEADER
  9
$ACADVER
  1
AC1009
  9
$INSBASE
 10
0.0
 20
0.0
 30
0.0
  9
$EXTMIN
 10
24.988202312896082
 20
8.9915861456314587
 30
-0.000000000000013
  9
$EXTMAX
 10
412.0118166105425
 20
285.0084273501547
 30
0.0000000000000023
  9
$LIMMIN
 10
24.999999999999979
 20
8.9999999999999964
  9
$LIMMAX
 10
411.99999999999989
 20
284.99999999999989
  9
$ORTHOMODE
 70
     0
  9
$REGENMODE
 70
     1
  9
$FILLMODE
 70
     1
  9
$QTEXTMODE
 70
     0
  9
$MIRRTEXT
 70
     1
  9
$DRAGMODE
 70
     2
  9
$LTSCALE
 40
5.0
  9
$OSMODE
 70
    39
  9
$ATTMODE
 70
     1
  9
$TEXTSIZE
 40
3.0
  9
$TRACEWID
 40
0.05
  9
$TEXTSTYLE
  7
STANDARD
  9
$CLAYER
  8
0
  9
$CELTYPE
  6
BYLAYER
  9
$CECOLOR
 62
   256
  9
$DIMSCALE
 40
1.0
  9
$DIMASZ
 40
2.5
  9
$DIMEXO
 40
1.0
  9
$DIMDLI
 40
7.0
  9
$DIMRND
 40
0.0
  9
$DIMDLE
 40
0.0
  9
$DIMEXE
 40
1.0
  9
$DIMTP
 40
0.1
  9
$DIMTM
 40
0.1
  9
$DIMTXT
 40
3.0
  9
$DIMCEN
 40
0.0
  9
$DIMTSZ
 40
0.0
  9
$DIMTOL
 70
     0
  9
$DIMLIM
 70
     0
  9
$DIMTIH
 70
     0
  9
$DIMTOH
 70
     0
  9
$DIMSE1
 70
     0
  9
$DIMSE2
 70
     0
  9
$DIMTAD
 70
     3
  9
$DIMZIN
 70
     8
  9
$DIMBLK
  1
OPEN30
  9
$DIMASO
 70
     1
  9
$DIMSHO
 70
     1
  9
$DIMPOST
  1

  9
$DIMAPOST
  1
"
  9
$DIMALT
 70
     0
  9
$DIMALTD
 70
     2
  9
$DIMALTF
 40
0.0393701
  9
$DIMLFAC
 40
1.0
  9
$DIMTOFL
 70
     1
  9
$DIMTVP
 40
0.0
  9
$DIMTIX
 70
     0
  9
$DIMSOXD
 70
     0
  9
$DIMSAH
 70
     0
  9
$DIMBLK1
  1

  9
$DIMBLK2
  1

  9
$DIMSTYLE
  2
AM_JIS
  9
$DIMCLRD
 70
     7
  9
$DIMCLRE
 70
     7
  9
$DIMCLRT
 70
     7
  9
$DIMTFAC
 40
0.71
  9
$DIMGAP
 40
1.0
  9
$LUNITS
 70
     2
  9
$LUPREC
 70
     4
  9
$SKETCHINC
 40
0.1
  9
$FILLETRAD
 40
1.0
  9
$AUNITS
 70
     0
  9
$AUPREC
 70
     0
  9
$MENU
  1
acad
  9
$ELEVATION
 40
0.0
  9
$PELEVATION
 40
0.0
  9
$THICKNESS
 40
0.0
  9
$LIMCHECK
 70
     0
  9
$BLIPMODE
 70
     0
  9
$CHAMFERA
 40
0.0
  9
$CHAMFERB
 40
0.0
  9
$SKPOLY
 70
     0
  9
$TDCREATE
 40
2455755.6568701151
  9
$TDUPDATE
 40
2457176.5806671069
  9
$TDINDWG
 40
0.2821683681
  9
$TDUSRTIMER
 40
0.2821681829
  9
$USRTIMER
 70
     1
  9
$ANGBASE
 50
0.0
  9
$ANGDIR
 70
     0
  9
$PDMODE
 70
     0
  9
$PDSIZE
 40
0.0
  9
$PLINEWID
 40
0.0
  9
$COORDS
 70
     1
  9
$SPLFRAME
 70
     0
  9
$SPLINETYPE
 70
     6
  9
$SPLINESEGS
 70
     8
  9
$ATTDIA
 70
     1
  9
$ATTREQ
 70
     1
  9
$HANDLING
 70
     1
  9
$HANDSEED
  5
5121
  9
$SURFTAB1
 70
     6
  9
$SURFTAB2
 70
     6
  9
$SURFTYPE
 70
     6
  9
$SURFU
 70
     6
  9
$SURFV
 70
     6
  9
$UCSNAME
  2

  9
$UCSORG
 10
0.0
 20
0.0
 30
0.0
  9
$UCSXDIR
 10
1.0
 20
0.0
 30
0.0
  9
$UCSYDIR
 10
0.0
 20
1.0
 30
0.0
  9
$PUCSNAME
  2

  9
$PUCSORG
 10
0.0
 20
0.0
 30
0.0
  9
$PUCSXDIR
 10
1.0
 20
0.0
 30
0.0
  9
$PUCSYDIR
 10
0.0
 20
1.0
 30
0.0
  9
$USERI1
 70
     0
  9
$USERI2
 70
     0
  9
$USERI3
 70
     0
  9
$USERI4
 70
     0
  9
$USERI5
 70
     0
  9
$USERR1
 40
0.0
  9
$USERR2
 40
0.0
  9
$USERR3
 40
0.0
  9
$USERR4
 40
0.0
  9
$USERR5
 40
0.0
  9
$WORLDVIEW
 70
     1
  9
$SHADEDGE
 70
     3
  9
$SHADEDIF
 70
    70
  9
$TILEMODE
 70
     1
  9
$MAXACTVP
 70
    16
  9
$PLIMCHECK
 70
     0
  9
$PEXTMIN
 10
1.0000000000000000E+020
 20
1.0000000000000000E+020
 30
1.0000000000000000E+020
  9
$PEXTMAX
 10
-1.0000000000000000E+020
 20
-1.0000000000000000E+020
 30
-1.0000000000000000E+020
  9
$PLIMMIN
 10
-20.0
 20
-7.5
  9
$PLIMMAX
 10
277.0
 20
202.5
  9
$UNITMODE
 70
     0
  9
$VISRETAIN
 70
     0
  9
$PLINEGEN
 70
     1
  9
$PSLTSCALE
 70
     0
  0
ENDSEC
  0
SECTION
  2
TABLES
  0
TABLE
  2
VPORT
 70
     1
  0
VPORT
  2
*ACTIVE
 70
     0
 10
0.0
 20
0.0
 11
1.0
 21
1.0
 12
218.50000946171929
 22
147.00000674789311
 13
0.0
 23
0.0
 14
2.5
 24
2.5
 15
10.0
 25
10.0
 16
0.0
 26
0.0
 36
1.0
 17
0.0
 27
0.0
 37
0.0
 40
278.42541513027589
 41
2.221739130434782
 42
50.0
 43
0.0
 44
0.0
 50
0.0
 51
0.0
 71
     0
 72
   100
 73
     1
 74
     3
 75
     0
 76
     0
 77
     0
 78
     1
  0
ENDTAB
  0
TABLE
  2
LTYPE
 70
    22
  0
LTYPE
  2
CONTINUOUS
 70
     0
  3
Solid line (NEC CAE2D for Win R7.2 : 2008.02.20
 72
    65
 73
     0
 40
0.0
  0
LTYPE
  2
HIDDEN
 70
     0
  3
Hidden __ __ __ __ __ __ __ __ __ __ __ __ __ _
 72
    65
 73
     2
 40
0.375
 49
0.25
 49
-0.125
  0
LTYPE
  2
PHANTOM2
 70
     0
  3
Phantom (.5x) ___ _ _ ___ _ _ ___ _ _ ___ _ _
 72
    65
 73
     6
 40
1.25
 49
0.625
 49
-0.125
 49
0.125
 49
-0.125
 49
0.125
 49
-0.125
  0
LTYPE
  2
CENTER
 70
     0
  3
Center ____ _ ____ _ ____ _ ____ _ ____ _ ____
 72
    65
 73
     4
 40
2.0
 49
1.25
 49
-0.25
 49
0.25
 49
-0.25
  0
LTYPE
  2
CENTER2
 70
     0
  3
Center (.5x) ___ _ ___ _ ___ _ ___ _ ___ _ ___
 72
    65
 73
     4
 40
1.125
 49
0.75
 49
-0.125
 49
0.125
 49
-0.125
  0
LTYPE
  2
HIDDEN2
 70
     0
  3
Hidden (.5x) _ _ _ _ _ _ _ _ _ _ _ _ _ _ _ _ _
 72
    65
 73
     2
 40
0.1875
 49
0.125
 49
-0.0625
  0
LTYPE
  2
ACANSTGB
 70
     0
  3
__ . . __ . .
 72
    65
 73
     6
 40
0.35433070866
 49
0.15748031496
 49
-0.03937007874
 49
0.03937007874
 49
-0.03937007874
 49
0.03937007874
 49
-0.03937007874
  0
LTYPE
  2
ACANSTGL
 70
     0
  3
_ _ _ _ _
 72
    65
 73
     2
 40
0.11811023622
 49
0.07874015748
 49
-0.03937007874
  0
LTYPE
  2
ACJISWELD
 70
     0
  3
_ _ _ _ _
 72
    65
 73
     2
 40
2.0
 49
2.0
 49
-1.0
  0
LTYPE
  2
ACJISTGB
 70
     0
  3
__ . . __ . .
 72
    65
 73
     6
 40
9.0
 49
4.0
 49
-1.0
 49
1.0
 49
-1.0
 49
1.0
 49
-1.0
  0
LTYPE
  2
ACJISTGL
 70
     0
  3
_ _ _ _ _
 72
    65
 73
     2
 40
3.0
 49
2.0
 49
-1.0
  0
LTYPE
  2
ACISOWELD
 70
     0
  3
_ _ _ _ _
 72
    65
 73
     2
 40
2.0
 49
2.0
 49
-1.0
  0
LTYPE
  2
ACISOTGB
 70
     0
  3
__ . . __ . .
 72
    65
 73
     6
 40
9.0
 49
4.0
 49
-1.0
 49
1.0
 49
-1.0
 49
1.0
 49
-1.0
  0
LTYPE
  2
ACISOTGL
 70
     0
  3
_ _ _ _ _
 72
    65
 73
     2
 40
3.0
 49
2.0
 49
-1.0
  0
LTYPE
  2
AM_ISO02W050
 70
     0
  3
__ __ __ __ __ __ __ __ __ __ __ __ __ __ __
 72
    65
 73
     2
 40
7.5
 49
6.0
 49
-1.5
  0
LTYPE
  2
AM_ISO08W050
 70
     0
  3
____ . ____ . ____ . ____ . ____ . ____ . ____
 72
    65
 73
     4
 40
18.0
 49
12.0
 49
-1.5
 49
3.0
 49
-1.5
  0
LTYPE
  2
AM_ISO09W050
 70
     0
  3
_____ . . _____ . . _____ . . ____ .. ____
 72
    65
 73
     6
 40
22.5
 49
12.0
 49
-1.5
 49
3.0
 49
-1.5
 49
3.0
 49
-1.5
  0
LTYPE
  2
AMCONSTR
 70
     0
  3
_______________________
 72
    65
 73
     2
 40
9999.0
 49
9999.0
 49
0.0
  0
LTYPE
  2
AM_ISO08W050X2
 70
     0
  3
__ . __ . __ . __ . __ . __
 72
    65
 73
     4
 40
9.0
 49
6.0
 49
-0.75
 49
1.5
 49
-0.75
  0
LTYPE
  2
AM_ISO02W050X2
 70
     0
  3
 _ _ _ _ _ _ _ _ _ _ _ _
 72
    65
 73
     2
 40
3.75
 49
3.0
 49
-0.75
  0
LTYPE
  2
AMZIGZAG
 70
     0
  3
/\/-/\/-/\/-/\/-/\/-/\/
 72
    65
 73
     2
 40
11.0001
 49
0.0001
 49
-11.0
  0
ENDTAB
  0
TABLE
  2
LAYER
 70
    23
  0
LAYER
  2
0
 70
     0
 62
     3
  6
CONTINUOUS
  0
LAYER
  2
SYS-BUHIN0
 70
     0
 62
     7
  6
CONTINUOUS
  0
LAYER
  2
AM_0
 70
     0
 62
     3
  6
CONTINUOUS
  0
LAYER
  2
DEFPOINTS
 70
     0
 62
     7
  6
CONTINUOUS
  0
LAYER
  2
AM_5
 70
     0
 62
     7
  6
CONTINUOUS
  0
LAYER
  2
AM_BOR
 70
     0
 62
     7
  6
CONTINUOUS
  0
LAYER
  2
SYS-BUHINCODE
 70
     0
 62
     7
  6
CONTINUOUS
  0
LAYER
  2
AM_7
 70
     0
 62
     4
  6
CENTER
  0
LAYER
  2
AM_3
 70
     0
 62
     7
  6
HIDDEN
  0
LAYER
  2
AM_12
 70
     0
 62
   253
  6
CONTINUOUS
  0
LAYER
  2
AM_PAREF
 70
     0
 62
     4
  6
CONTINUOUS
  0
LAYER
  2
AM_6
 70
     0
 62
     7
  6
CONTINUOUS
  0
LAYER
  2
AM_8
 70
     0
 62
   253
  6
CONTINUOUS
  0
LAYER
  2
AM_4
 70
     0
 62
     6
  6
CONTINUOUS
  0
LAYER
  2
AM_10
 70
     0
 62
     7
  6
CONTINUOUS
  0
LAYER
  2
AM_CL
 70
     0
 62
     1
  6
CONTINUOUS
  0
LAYER
  2
AM_2
 70
     0
 62
     5
  6
PHANTOM2
  0
LAYER
  2
AM_1N
 70
     0
 62
    14
  6
CONTINUOUS
  0
LAYER
  2
AM_1
 70
     0
 62
    14
  6
PHANTOM2
  0
LAYER
  2
AM_9
 70
     0
 62
    -7
  6
CONTINUOUS
  0
LAYER
  2
SYS-TEISEI0
 70
     0
 62
     7
  6
CONTINUOUS
  0
ENDTAB
  0
TABLE
  2
STYLE
 70
    14
  0
STYLE
  2
STANDARD
 70
     0
 40
0.0
 41
1.0
 50
0.0
 71
     0
 42
3.0
  3
dim.shx
  4
extfont.shx
  0
STYLE
  2
KNJYOKO
 70
     0
 40
0.0
 41
1.0
 50
0.0
 71
     0
 42
3.099999904632567
  3
TXT.shx
  4
extfont.shx
  0
STYLE
  2
ACANSTS
 70
     0
 40
1.0
 41
1.0
 50
0.0
 71
     0
 42
0.2
  3
romans.shx
  4
extfont.shx
  0
STYLE
  2
ACANSGDT
 70
     0
 40
0.0
 41
1.0
 50
0.0
 71
     0
 42
0.2
  3
amgdt.shx
  4

  0
STYLE
  2
ACJISTS
 70
     0
 40
1.0
 41
1.0
 50
0.0
 71
     0
 42
0.2
  3
isocp.shx
  4
extfont.shx
  0
STYLE
  2
ACJISGDT
 70
     0
 40
0.0
 41
1.0
 50
0.0
 71
     0
 42
0.2
  3
amgdt.shx
  4

  0
STYLE
  2
MINNTYOU
 70
     0
 40
0.0
 41
1.0
 50
0.0
 71
     0
 42
3.0
  3
txt
  4

  0
STYLE
  2
R寸法
 70
     0
 40
2.0
 41
1.0
 50
0.0
 71
     0
 42
3.0
  3
dim.shx
  4
extfont.shx
  0
STYLE
  2
ANKTATE
 70
     4
 40
0.0
 41
1.0
 50
0.0
 71
     0
 42
3.099999904632567
  3
TXT
  4

  0
STYLE
  2
KNJTATE
 70
     4
 40
0.0
 41
1.0
 50
0.0
 71
     0
 42
3.099999904632567
  3
TXT
  4
BIGFONT
  0
STYLE
  2
ACISOTS
 70
     0
 40
1.0
 41
1.0
 50
0.0
 71
     0
 42
2.5
  3
isocp.shx
  4
extfont.shx
  0
STYLE
  2
ACISOGDT
 70
     0
 40
0.0
 41
1.0
 50
0.0
 71
     0
 42
2.5
  3
amgdt.shx
  4

  0
STYLE
  2

 70
     1
 40
0.0
 41
1.0
 50
0.0
 71
     0
 42
3.0
  3
genltshp.shx
  4

  0
ENDTAB
  0
TABLE
  2
VIEW
 70
     8
  0
VIEW
  2
AM_VIEW1
 70
     0
 40
137.99999999999989
 10
151.8531375166888
 20
215.99999999999989
 41
253.70627503337769
 11
0.0
 21
0.0
 31
1.0
 12
0.0
 22
0.0
 32
0.0
 42
50.0
 43
0.0
 44
0.0
 50
0.0
 71
     0
  0
VIEW
  2
AM_VIEW2
 70
     0
 40
137.99999999999989
 10
285.146862483311
 20
215.99999999999989
 41
253.70627503337769
 11
0.0
 21
0.0
 31
1.0
 12
0.0
 22
0.0
 32
0.0
 42
50.0
 43
0.0
 44
0.0
 50
0.0
 71
     0
  0
VIEW
  2
AM_VIEW3
 70
     0
 40
137.99999999999989
 10
151.8531375166888
 20
77.999999999999972
 41
253.70627503337769
 11
0.0
 21
0.0
 31
1.0
 12
0.0
 22
0.0
 32
0.0
 42
50.0
 43
0.0
 44
0.0
 50
0.0
 71
     0
  0
VIEW
  2
AM_VIEW4
 70
     0
 40
137.99999999999989
 10
285.146862483311
 20
77.999999999999972
 41
253.70627503337769
 11
0.0
 21
0.0
 31
1.0
 12
0.0
 22
0.0
 32
0.0
 42
50.0
 43
0.0
 44
0.0
 50
0.0
 71
     0
  0
VIEW
  2
AM_VIEW5
 70
     0
 40
137.99999999999989
 10
218.49999999999989
 20
146.99999999999989
 41
253.70627503337769
 11
0.0
 21
0.0
 31
1.0
 12
0.0
 22
0.0
 32
0.0
 42
50.0
 43
0.0
 44
0.0
 50
0.0
 71
     0
  0
VIEW
  2
AM_VIEW6
 70
     0
 40
275.99723999999992
 10
218.49999999999989
 20
146.99999999999989
 41
507.4074759412548
 11
0.0
 21
0.0
 31
1.0
 12
0.0
 22
0.0
 32
0.0
 42
50.0
 43
0.0
 44
0.0
 50
0.0
 71
     0
  0
ENDTAB
  0
TABLE
  2
UCS
 70
     0
  0
ENDTAB
  0
TABLE
  2
APPID
 70
    63
  0
APPID
  2
ACAD
 70
     0
  0
APPID
  2
ACADANNOTATIVE
 70
     0
  0
APPID
  2
ACAD_MLEADERVER
 70
     0
  0
APPID
  2
MCAD_NO_VIS
 70
     0
  0
APPID
  2
ACAD_TEMP_GRAPHIC
 70
     0
  0
APPID
  2
AD_DRAW
 70
     0
  0
APPID
  2
ACATTRIBSERVICES
 70
     0
  0
APPID
  2
DESIGNERASSEMBLIES
 70
     0
  0
APPID
  2
ACADM_DIM_EDIT
 70
     0
  0
APPID
  2
AMDT_DM_ADJ
 70
     0
  0
APPID
  2
ACADANNOPO
 70
     0
  0
APPID
  2
ACAECLAYERSTANDARD
 70
     0
  0
APPID
  2
ACDBDYNAMICBLOCKGUID
 70
     0
  0
APPID
  2
ACDBBLOCKREPETAG
 70
     0
  0
APPID
  2
ACAUTHENVIRON
 70
     0
  0
APPID
  2
ACDBDYNAMICBLOCKTRUENAME
 70
     0
  0
APPID
  2
GENIUS_GENREC_14
 70
     0
  0
APPID
  2
GENIUS_GENOBJ-N-REC_13
 70
     0
  0
APPID
  2
GENIUS_GENODEF_13
 70
     0
  0
APPID
  2
ACAD_EXEMPT_FROM_CAD_STANDARDS
 70
     0
  0
APPID
  2
GENIUS_GENOBJ-N-CEN_13
 70
     0
  0
APPID
  2
GENIUS_GENCEN_19
 70
     0
  0
APPID
  2
ACAD_DSTYLE_DIMINSPECT
 70
     0
  0
APPID
  2
DCO15
 70
     0
  0
APPID
  2
ACAD_PSEXT
 70
     0
  0
APPID
  2
GENIUS_GENBH_13
 70
     0
  0
APPID
  2
GENIUS_GENOENT_13
 70
     0
  0
APPID
  2
GENIUS_GENOLIS_13
 70
     0
  0
APPID
  2
GENIUS_GENOBJ-NBEHI-BHF_13
 70
     0
  0
APPID
  2
GENIUS_GENOREF_13
 70
     0
  0
APPID
  2
GENIUS_GENOBJ-NBEHI-BHB_13
 70
     0
  0
APPID
  2
AMG_2DHIDE
 70
     0
  0
APPID
  2
AMG_2DSTRUCT_BTR
 70
     0
  0
APPID
  2
GENIUS_AMGTXT_16
 70
     0
  0
APPID
  2
GENIUS_GENOBJ-N-HTC_13
 70
     0
  0
APPID
  2
GENIUS_GENHATCH_13
 70
     0
  0
APPID
  2
GEVID1208849169
 70
     0
  0
APPID
  2
GEVDC
 70
     0
  0
APPID
  2
ACADM_2DVIEW_IGN_NOTIFY
 70
     0
  0
APPID
  2
GEVID1208849170
 70
     0
  0
APPID
  2
GEVID1208849171
 70
     0
  0
APPID
  2
GEVRADREF
 70
     0
  0
APPID
  2
ACAD_DSTYLE_DIMJAG
 70
     0
  0
APPID
  2
ACAD_DSTYLE_DIMTALN
 70
     0
  0
APPID
  2
GENIUS_GENDTOL_13
 70
     0
  0
APPID
  2
GENIUS_GENTRA_14
 70
     0
  0
APPID
  2
GENIUS_GENOBJ-N-TIT_13
 70
     0
  0
APPID
  2
GENIUS_GENTITLE_13
 70
     0
  0
APPID
  2
GENIUS_GENSCREG_15
 70
     0
  0
APPID
  2
GENIUS_GENOBJ-N-SDF_13
 70
     0
  0
APPID
  2
ACAD_DSTYLE_DIMRADIAL_EXTENSION
 70
     0
  0
APPID
  2
GENIUS_GENOBJ-N-FIL_13
 70
     0
  0
APPID
  2
GENIUS_GENOBJ-N-CRS_13
 70
     0
  0
APPID
  2
GENIUS_GENDIMSH_14
 70
     0
  0
APPID
  2
ACAD_DSTYLE_DIMANGULAR_EXT
 70
     0
  0
APPID
  2
ACAD_NAV_VCDISPLAY
 70
     0
  0
APPID
  2
ACAD_DSTYLE_DIMBREAK
 70
     0
  0
APPID
  2
GRADIENTCOLOR1ACI
 70
     0
  0
APPID
  2
GRADIENTCOLOR2ACI
 70
     0
  0
APPID
  2
ACADANNOMONITORALERTICONDI
 70
     0
  0
APPID
  2
GENIUS_GENSCREG_13
 70
     0
  0
APPID
  2
CONTENTBLOCKICON
 70
     0
  0
APPID
  2
AcDbAttr
 70
     0
  0
ENDTAB
  0
TABLE
  2
DIMSTYLE
 70
    26
  0
DIMSTYLE
  2
STANDARD
 70
     0
  3

  4

  5

  6

  7

 40
1.0
 41
1.0
 42
0.8
 43
0.38
 44
1.0
 45
0.0
 46
0.0
 47
0.0
 48
0.0
140
3.1000000000000001
141
0.09
142
0.0
143
25.399999999999999
144
1.0
145
0.5
146
1.0
147
0.09
 71
     0
 72
     0
 73
     0
 74
     0
 75
     0
 76
     0
 77
     1
 78
     0
170
     0
171
     2
172
     0
173
     0
174
     0
175
     0
176
     0
177
     0
178
     0
  0
DIMSTYLE
  2
AM_ANSI
 70
     0
  3

  4
mm
  5

  6

  7

 40
1.0
 41
0.1
 42
0.05
 43
0.5
 44
0.1
 45
0.0
 46
0.0
 47
0.1
 48
0.1
140
0.12
141
0.0
142
0.0
143
25.399999999999999
144
1.0
145
0.0
146
0.71
147
0.06
 71
     0
 72
     0
 73
     1
 74
     1
 75
     0
 76
     0
 77
     0
 78
     7
170
     0
171
     2
172
     0
173
     0
174
     0
175
     0
176
   256
177
   256
178
     2
  0
DIMSTYLE
  2
AM_ANSI$3
 70
     0
  3

  4
mm
  5

  6

  7

 40
1.0
 41
0.1
 42
0.05
 43
0.5
 44
0.1
 45
0.0
 46
0.0
 47
0.1
 48
0.1
140
0.12
141
0.0
142
0.0
143
25.399999999999999
144
1.0
145
0.0
146
0.71
147
0.06
 71
     0
 72
     0
 73
     1
 74
     1
 75
     0
 76
     0
 77
     0
 78
     7
170
     0
171
     2
172
     0
173
     0
174
     0
175
     0
176
   256
177
   256
178
     2
  0
DIMSTYLE
  2
AM_ANSI$4
 70
     0
  3

  4
mm
  5

  6

  7

 40
1.0
 41
0.1
 42
0.05
 43
0.5
 44
0.1
 45
0.0
 46
0.0
 47
0.1
 48
0.1
140
0.12
141
0.0
142
0.0
143
25.399999999999999
144
1.0
145
0.0
146
0.71
147
0.06
 71
     0
 72
     0
 73
     1
 74
     1
 75
     0
 76
     0
 77
     0
 78
     7
170
     0
171
     2
172
     0
173
     0
174
     0
175
     0
176
   256
177
   256
178
     2
  0
DIMSTYLE
  2
AM_ANSI$7
 70
     0
  3

  4
mm
  5

  6

  7

 40
1.0
 41
0.1
 42
0.05
 43
0.5
 44
0.1
 45
0.0
 46
0.0
 47
0.1
 48
0.1
140
0.24
141
0.0
142
0.0
143
25.399999999999999
144
1.0
145
0.0
146
0.71
147
0.06
 71
     0
 72
     0
 73
     1
 74
     1
 75
     0
 76
     0
 77
     0
 78
     7
170
     0
171
     2
172
     0
173
     0
174
     0
175
     0
176
   256
177
   256
178
     2
  0
DIMSTYLE
  2
AM_ANSI$SF
 70
     0
  3

  4
mm
  5

  6

  7

 40
1.0
 41
0.1
 42
0.05
 43
0.5
 44
0.1
 45
0.0
 46
0.0
 47
0.1
 48
0.1
140
0.12
141
0.0
142
0.0
143
25.399999999999999
144
1.0
145
0.0
146
0.71
147
0.06
 71
     0
 72
     0
 73
     1
 74
     1
 75
     1
 76
     1
 77
     0
 78
     7
170
     0
171
     2
172
     0
173
     0
174
     0
175
     0
176
   256
177
   256
178
     2
  0
DIMSTYLE
  2
AM_ANSI$SH
 70
     0
  3

  4
mm
  5

  6
GENAXEH
  7

 40
1.0
 41
0.1
 42
0.05
 43
0.5
 44
0.1
 45
0.0
 46
0.0
 47
0.1
 48
0.1
140
0.12
141
0.0
142
0.0
143
25.399999999999999
144
1.0
145
0.0
146
0.71
147
0.06
 71
     0
 72
     0
 73
     1
 74
     1
 75
     1
 76
     1
 77
     0
 78
     7
170
     0
171
     2
172
     0
173
     1
174
     0
175
     0
176
   256
177
   256
178
     2
  0
DIMSTYLE
  2
AM_JIS
 70
     0
  3

  4
"
  5
OPEN30
  6

  7

 40
1.0
 41
2.5
 42
1.0
 43
7.0
 44
1.0
 45
0.0
 46
0.0
 47
0.1
 48
0.1
140
3.0
141
0.0
142
0.0
143
0.0393701
144
1.0
145
0.0
146
0.71
147
1.0
 71
     0
 72
     0
 73
     0
 74
     0
 75
     0
 76
     0
 77
     3
 78
     8
170
     0
171
     2
172
     1
173
     0
174
     0
175
     0
176
     7
177
     7
178
     7
  0
DIMSTYLE
  2
AM_JIS$3
 70
     0
  3

  4
"
  5
OPEN30
  6

  7

 40
1.0
 41
2.5
 42
1.0
 43
10.0
 44
1.0
 45
0.0
 46
0.0
 47
0.1
 48
0.1
140
3.0
141
0.0
142
0.0
143
0.0393701
144
1.0
145
0.0
146
0.71
147
1.0
 71
     0
 72
     0
 73
     0
 74
     1
 75
     0
 76
     0
 77
     3
 78
     8
170
     0
171
     2
172
     0
173
     0
174
     0
175
     0
176
     7
177
     7
178
     7
  0
DIMSTYLE
  2
AM_JIS$4
 70
     0
  3

  4
"
  5
OPEN30
  6

  7

 40
1.0
 41
2.5
 42
1.0
 43
10.0
 44
1.0
 45
0.0
 46
0.0
 47
0.1
 48
0.1
140
2.0
141
0.0
142
0.0
143
0.0393701
144
1.0
145
0.0
146
0.71
147
1.0
 71
     0
 72
     0
 73
     0
 74
     0
 75
     0
 76
     0
 77
     3
 78
     8
170
     0
171
     2
172
     0
173
     0
174
     0
175
     0
176
     7
177
     7
178
     7
  0
DIMSTYLE
  2
AM_JIS$6
 70
     0
  3

  4
"
  5
OPEN30
  6

  7

 40
1.0
 41
2.5
 42
1.0
 43
10.0
 44
1.0
 45
0.0
 46
0.0
 47
0.1
 48
0.1
140
3.0
141
0.0
142
0.0
143
0.0393701
144
1.0
145
0.0
146
0.71
147
1.0
 71
     0
 72
     0
 73
     0
 74
     0
 75
     0
 76
     0
 77
     0
 78
     8
170
     0
171
     2
172
     1
173
     0
174
     0
175
     0
176
   256
177
     7
178
     7
  0
DIMSTYLE
  2
AM_JIS$7
 70
     0
  3

  4
"
  5
OPEN30
  6

  7

 40
1.0
 41
2.5
 42
1.0
 43
10.0
 44
1.0
 45
0.0
 46
0.0
 47
0.1
 48
0.1
140
3.0
141
0.0
142
0.0
143
0.0393701
144
1.0
145
0.0
146
0.71
147
1.0
 71
     0
 72
     0
 73
     0
 74
     0
 75
     0
 76
     0
 77
     3
 78
     8
170
     0
171
     2
172
     1
173
     0
174
     0
175
     0
176
     7
177
   256
178
     7
  0
DIMSTYLE
  2
AM_JIS$SF
 70
     0
  3

  4
"
  5
OPEN30
  6

  7

 40
1.0
 41
2.5
 42
1.0
 43
7.0
 44
1.0
 45
0.0
 46
0.0
 47
0.1
 48
0.1
140
3.0
141
0.0
142
0.0
143
0.0393701
144
1.0
145
0.0
146
0.71
147
1.0
 71
     0
 72
     0
 73
     0
 74
     0
 75
     1
 76
     1
 77
     3
 78
     8
170
     0
171
     2
172
     1
173
     0
174
     0
175
     0
176
     7
177
   256
178
     7
  0
DIMSTYLE
  2
AM_JIS$SH
 70
     0
  3

  4
"
  5

  6
GENAXEH
  7
OPEN30
 40
1.0
 41
2.5
 42
1.0
 43
7.0
 44
1.0
 45
0.0
 46
0.0
 47
0.1
 48
0.1
140
3.0
141
0.0
142
0.0
143
0.0393701
144
2.0
145
0.0
146
0.71
147
1.0
 71
     0
 72
     0
 73
     0
 74
     0
 75
     1
 76
     1
 77
     3
 78
     8
170
     0
171
     2
172
     1
173
     1
174
     0
175
     0
176
     7
177
   256
178
     7
  0
DIMSTYLE
  2
AM_JIS$2
 70
     0
  3

  4
"
  5
OPEN30
  6

  7

 40
1.0
 41
2.5
 42
1.0
 43
7.0
 44
1.0
 45
0.0
 46
0.0
 47
0.1
 48
0.1
140
3.0
141
0.0
142
0.0
143
0.0393701
144
1.0
145
0.0
146
0.71
147
1.0
 71
     0
 72
     0
 73
     0
 74
     0
 75
     0
 76
     0
 77
     3
 78
     8
170
     0
171
     2
172
     1
173
     0
174
     0
175
     0
176
     7
177
     7
178
     7
  0
DIMSTYLE
  2
AM_JIS$0
 70
     0
  3

  4
"
  5
OPEN30
  6

  7

 40
1.0
 41
2.5
 42
1.0
 43
7.0
 44
1.0
 45
0.0
 46
0.0
 47
0.1
 48
0.1
140
3.0
141
0.0
142
0.0
143
0.0393701
144
1.0
145
0.0
146
0.71
147
1.0
 71
     0
 72
     0
 73
     0
 74
     0
 75
     0
 76
     0
 77
     3
 78
     8
170
     0
171
     2
172
     1
173
     0
174
     0
175
     0
176
     7
177
     7
178
     7
  0
DIMSTYLE
  2
STANDARD$0
 70
     0
  3

  4

  5

  6

  7

 40
1.0
 41
1.0
 42
0.8
 43
0.38
 44
1.0
 45
0.0
 46
0.0
 47
0.0
 48
0.0
140
3.1000000000000001
141
0.09
142
0.0
143
25.399999999999999
144
1.0
145
0.5
146
1.0
147
0.09
 71
     0
 72
     0
 73
     0
 74
     0
 75
     0
 76
     0
 77
     1
 78
     0
170
     0
171
     2
172
     0
173
     0
174
     0
175
     0
176
     0
177
     0
178
     0
  0
DIMSTYLE
  2
ANNOTATIVE
 70
     0
  3

  4

  5

  6

  7

 40
1.0
 41
0.18
 42
0.0625
 43
0.38
 44
0.18
 45
0.0
 46
0.0
 47
0.0
 48
0.0
140
0.18
141
0.09
142
0.0
143
25.399999999999999
144
1.0
145
0.0
146
1.0
147
0.09
 71
     0
 72
     0
 73
     1
 74
     1
 75
     0
 76
     0
 77
     0
 78
     0
170
     0
171
     2
172
     0
173
     0
174
     0
175
     0
176
     0
177
     0
178
     0
  0
DIMSTYLE
  2
AM_ISO
 70
     0
  3

  4
"
  5

  6

  7

 40
1.0
 41
2.5
 42
1.0
 43
10.0
 44
1.0
 45
0.0
 46
0.0
 47
0.1
 48
0.1
140
3.5
141
0.0
142
0.0
143
0.0393701
144
1.0
145
0.0
146
0.71
147
1.5
 71
     0
 72
     0
 73
     0
 74
     0
 75
     0
 76
     0
 77
     1
 78
     8
170
     0
171
     2
172
     1
173
     0
174
     0
175
     0
176
   256
177
   256
178
     2
  0
DIMSTYLE
  2
AM_ISO$3
 70
     0
  3

  4
"
  5

  6

  7

 40
1.0
 41
2.5
 42
1.0
 43
10.0
 44
1.0
 45
0.0
 46
0.0
 47
0.1
 48
0.1
140
3.5
141
0.0
142
0.0
143
0.0393701
144
1.0
145
0.0
146
0.71
147
1.5
 71
     0
 72
     0
 73
     0
 74
     1
 75
     0
 76
     0
 77
     1
 78
     8
170
     0
171
     2
172
     0
173
     0
174
     0
175
     0
176
   256
177
   256
178
     2
  0
DIMSTYLE
  2
AM_ISO$4
 70
     0
  3

  4
"
  5

  6

  7

 40
1.0
 41
2.5
 42
1.0
 43
10.0
 44
1.0
 45
0.0
 46
0.0
 47
0.1
 48
0.1
140
3.5
141
0.0
142
0.0
143
0.0393701
144
1.0
145
0.0
146
0.71
147
1.5
 71
     0
 72
     0
 73
     0
 74
     1
 75
     0
 76
     0
 77
     1
 78
     8
170
     0
171
     2
172
     0
173
     0
174
     0
175
     0
176
   256
177
   256
178
     2
  0
DIMSTYLE
  2
AM_ISO$6
 70
     0
  3

  4
"
  5

  6

  7

 40
1.0
 41
2.5
 42
1.0
 43
10.0
 44
1.0
 45
0.0
 46
0.0
 47
0.1
 48
0.1
140
3.5
141
0.0
142
0.0
143
0.0393701
144
1.0
145
0.0
146
0.71
147
1.5
 71
     0
 72
     0
 73
     0
 74
     0
 75
     0
 76
     0
 77
     0
 78
     8
170
     0
171
     2
172
     1
173
     0
174
     0
175
     0
176
   256
177
   256
178
     2
  0
DIMSTYLE
  2
AM_ISO$7
 70
     0
  3

  4
"
  5

  6

  7

 40
1.0
 41
2.5
 42
1.0
 43
10.0
 44
1.0
 45
0.0
 46
0.0
 47
0.1
 48
0.1
140
5.0
141
0.0
142
0.0
143
0.0393701
144
1.0
145
0.0
146
0.71
147
1.5
 71
     0
 72
     0
 73
     0
 74
     0
 75
     0
 76
     0
 77
     1
 78
     8
170
     0
171
     2
172
     1
173
     0
174
     0
175
     0
176
   256
177
   256
178
     2
  0
DIMSTYLE
  2
AM_ISO$SF
 70
     0
  3

  4
"
  5

  6

  7

 40
1.0
 41
2.5
 42
1.0
 43
10.0
 44
1.0
 45
0.0
 46
0.0
 47
0.1
 48
0.1
140
3.5
141
0.0
142
0.0
143
0.0393701
144
1.0
145
0.0
146
0.71
147
1.5
 71
     0
 72
     0
 73
     0
 74
     0
 75
     1
 76
     1
 77
     1
 78
     8
170
     0
171
     2
172
     1
173
     0
174
     0
175
     0
176
   256
177
   256
178
     2
  0
DIMSTYLE
  2
AM_ISO$SH
 70
     0
  3

  4
"
  5

  6
GENAXEH
  7

 40
1.0
 41
2.5
 42
1.0
 43
10.0
 44
1.0
 45
0.0
 46
0.0
 47
0.1
 48
0.1
140
3.5
141
0.0
142
0.0
143
0.0393701
144
2.0
145
0.0
146
0.71
147
1.5
 71
     0
 72
     0
 73
     0
 74
     0
 75
     1
 76
     1
 77
     1
 78
     8
170
     0
171
     2
172
     1
173
     1
174
     0
175
     0
176
   256
177
   256
178
     2
  0
ENDTAB
  0
ENDSEC
  0
SECTION
  2
BLOCKS
  0
BLOCK
  8
0
  2
$MODEL_SPACE
 70
     0
 10
0.0
 20
0.0
 30
0.0
  3
$MODEL_SPACE
  1

  0
ENDBLK
  5
1D3
  8
0
  0
BLOCK
 67
     1
  8
0
  2
$PAPER_SPACE
 70
     0
 10
0.0
 20
0.0
 30
0.0
  3
$PAPER_SPACE
  1

  0
ENDBLK
  5
1D1
 67
     1
  8
0
  0
BLOCK
  8
0
  2
GENAXEH
 70
     0
 10
0.0
 20
0.0
 30
0.0
  3
GENAXEH
  1

  0
LINE
  5
264
  8
0
 10
-1.0
 20
0.0
 30
0.0
 11
1.0
 21
0.0
 31
0.0
  0
ENDBLK
  5
266
  8
0
  0
BLOCK
  8
0
  2
_OPEN30
 70
     0
 10
0.0
 20
0.0
 30
0.0
  3
_OPEN30
  1

  0
LINE
  5
2FA
  8
0
  6
BYBLOCK
 62
     0
 10
-1.0
 20
0.26794919
 30
0.0
 11
0.0
 21
0.0
 31
0.0
  0
LINE
  5
2FB
  8
0
  6
BYBLOCK
 62
     0
 10
0.0
 20
0.0
 30
0.0
 11
-1.0
 21
-0.26794919
 31
0.0
  0
LINE
  5
2FC
  8
0
  6
BYBLOCK
 62
     0
 10
0.0
 20
0.0
 30
0.0
 11
-1.0
 21
0.0
 31
0.0
  0
ENDBLK
  5
2FE
  8
0
  0
BLOCK
  8
0
  2
MYPLIST0
 70
     2
 10
0.0
 20
0.0
 30
0.0
  3
MYPLIST0
  1

  0
LINE
  5
346
  8
SYS-BUHIN0
  6
CONTINUOUS
 62
     4
 10
-170.0
 20
7.0
 30
0.0
 11
0.0
 21
7.0
 31
0.0
  0
LINE
  5
347
  8
SYS-BUHIN0
  6
CONTINUOUS
 62
     4
 10
-170.0
 20
-0.0000000000030695
 30
0.0
 11
0.0
 21
-0.0000000000001137
 31
0.0
  0
LINE
  5
348
  8
SYS-BUHIN0
  6
CONTINUOUS
 62
     4
 10
-170.0
 20
7.0
 30
0.0
 11
-170.0
 21
0.0
 31
0.0
  0
LINE
  5
349
  8
SYS-BUHIN0
  6
CONTINUOUS
 62
     4
 10
0.0
 20
7.0
 30
0.0
 11
0.0
 21
0.0
 31
0.0
  0
LINE
  5
34A
  8
SYS-BUHIN0
  6
CONTINUOUS
 62
     4
 10
-161.0
 20
7.0
 30
0.0
 11
-161.0
 21
0.0
 31
0.0
  0
LINE
  5
34B
  8
SYS-BUHIN0
  6
CONTINUOUS
 62
     4
 10
-99.0
 20
7.0
 30
0.0
 11
-99.0
 21
0.0
 31
0.0
  0
LINE
  5
34C
  8
SYS-BUHIN0
  6
CONTINUOUS
 62
     4
 10
-72.0
 20
7.0
 30
0.0
 11
-72.0
 21
0.0
 31
0.0
  0
LINE
  5
34D
  8
SYS-BUHIN0
  6
CONTINUOUS
 62
     4
 10
-63.0
 20
7.0
 30
0.0
 11
-63.0
 21
0.0
 31
0.0
  0
LINE
  5
34E
  8
SYS-BUHIN0
  6
CONTINUOUS
 62
     4
 10
-16.0
 20
7.0
 30
0.0
 11
-16.0
 21
0.0
 31
0.0
  0
TEXT
  5
34F
  8
SYS-BUHIN0
  6
CONTINUOUS
 62
     7
 10
-13.61264708219346
 20
0.6000000119208835
 30
0.0
 40
1.1000000000000001
  1
PARTS NO.
 41
1.3
  0
TEXT
  5
350
  8
SYS-BUHIN0
  6
CONTINUOUS
 62
     7
 10
-14.36429419116018
 20
3.0691472933651762
 30
0.0
 40
2.2000000000000002
  1
部品コード
  0
TEXT
  5
351
  8
SYS-BUHIN0
  6
CONTINUOUS
 62
     7
 10
-43.852454807937526
 20
0.6000000119208835
 30
0.0
 40
1.1000000000000001
  1
REMARKS
 41
1.3
  0
TEXT
  5
352
  8
SYS-BUHIN0
  6
CONTINUOUS
 62
     7
 10
-47.370000243186951
 20
2.7500000476836699
 30
0.0
 40
2.7999999999999989
  1
備    考
  0
TEXT
  5
353
  8
SYS-BUHIN0
  6
CONTINUOUS
 62
     7
 10
-69.144963642251696
 20
0.6000000119208835
 30
0.0
 40
1.1000000000000001
  1
UNIT
  0
TEXT
  5
354
  8
SYS-BUHIN0
  6
CONTINUOUS
 62
     7
 10
-70.272262370934413
 20
2.6949072988287521
 30
0.0
 40
2.7999999999999989
  1
数量
  0
TEXT
  5
355
  8
SYS-BUHIN0
  6
CONTINUOUS
 62
     7
 10
-90.559234383463263
 20
0.6000000119208835
 30
0.0
 40
1.1000000000000001
  1
MATERIAL
 41
1.3
  0
TEXT
  5
357
  8
SYS-BUHIN0
  6
CONTINUOUS
 62
     7
 10
-138.9093619295486
 20
0.6000000119208835
 30
0.0
 40
1.1000000000000001
  1
  DESCRIPTION
 41
1.3
  0
TEXT
  5
358
  8
SYS-BUHIN0
  6
CONTINUOUS
 62
     7
 10
-142.0050003230572
 20
2.7500000476836699
 30
0.0
 40
2.7999999999999989
  1
 部  品  名
  0
TEXT
  5
359
  8
SYS-BUHIN0
  6
CONTINUOUS
 62
     7
 10
-166.63404873957319
 20
0.6000000119208835
 30
0.0
 40
1.1000000000000001
  1
NO.
  0
TEXT
  5
35A
  8
SYS-BUHIN0
  6
CONTINUOUS
 62
     7
 10
-168.29000008106229
 20
2.7500000476836699
 30
0.0
 40
2.7999999999999989
  1
項番
  0
ATTDEF
  5
35B
  8
AM_0
 62
     7
 10
-168.79000008106229
 20
3.5
 30
0.0
 40
3.1000000000000001
  1

  3

  2
ITEM
 70
     1
1001
AcDbAttr
1070
     0
1070
     1
  0
TEXT
  5
C0B
  8
AM_BOR
 62
     7
 10
-91.770000159740434
 20
2.7000000476837149
 30
0.0
 40
2.7999999999999989
  1
材　　質
  0
ENDBLK
  5
35C
  8
0
  0
BLOCK
  8
0
  2
MYPLIST1
 70
     2
 10
0.0
 20
0.0
 30
0.0
  3
MYPLIST1
  1

  0
LINE
  5
393
  8
SYS-BUHIN0
  6
CONTINUOUS
 62
     4
 10
-170.0
 20
6.0
 30
0.0
 11
0.0
 21
6.0
 31
0.0
  0
LINE
  5
394
  8
SYS-BUHIN0
  6
CONTINUOUS
 62
     4
 10
-170.0
 20
0.0
 30
0.0
 11
-170.0
 21
6.0
 31
0.0
  0
LINE
  5
395
  8
SYS-BUHIN0
  6
CONTINUOUS
 62
     4
 10
-161.0
 20
0.0
 30
0.0
 11
-161.0
 21
6.0
 31
0.0
  0
LINE
  5
396
  8
SYS-BUHIN0
  6
CONTINUOUS
 62
     4
 10
-99.0
 20
0.0
 30
0.0
 11
-99.0
 21
6.0
 31
0.0
  0
LINE
  5
397
  8
SYS-BUHIN0
  6
CONTINUOUS
 62
     4
 10
-72.0
 20
0.0
 30
0.0
 11
-72.0
 21
6.0
 31
0.0
  0
LINE
  5
398
  8
SYS-BUHIN0
  6
CONTINUOUS
 62
     4
 10
-63.0
 20
0.0
 30
0.0
 11
-63.0
 21
6.0
 31
0.0
  0
LINE
  5
399
  8
SYS-BUHIN0
  6
CONTINUOUS
 62
     4
 10
-16.0
 20
0.0
 30
0.0
 11
-16.0
 21
6.0
 31
0.0
  0
LINE
  5
39A
  8
SYS-BUHIN0
  6
CONTINUOUS
 62
     4
 10
0.0
 20
0.0
 30
0.0
 11
0.0
 21
6.0
 31
0.0
  0
LINE
  5
39B
  8
SYS-BUHIN0
  6
CONTINUOUS
 62
     4
 10
-170.0
 20
0.0
 30
0.0
 11
0.0
 21
0.0
 31
0.0
  0
ATTDEF
  5
39C
  8
SYS-BUHINCODE
 10
-14.0
 20
2.5
 30
0.0
 40
1.0
  1

 11
-14.0
 21
3.0
 31
0.0
  3
部品コード
  2
PCODE
 70
     0
 74
     2
1001
AcDbAttr
1070
     0
1070
     1
  0
ATTDEF
  5
39D
  8
SYS-BUHIN0
  6
CONTINUOUS
 62
     7
 10
-61.0
 20
2.0
 30
0.0
 40
2.0
  1

 11
-61.0
 21
3.0
 31
0.0
  3
備考
  2
NOTE
 70
     0
 74
     2
1001
AcDbAttr
1070
     0
1070
     1
  0
ATTDEF
  5
39E
  8
SYS-BUHIN0
  6
CONTINUOUS
 62
     7
 10
-67.5
 20
3.0
 30
0.0
 40
2.5
  1

 72
     4
 11
-67.5
 21
3.0
 31
0.0
  3
数量
  2
QTY
 70
     0
1001
AcDbAttr
1070
     0
1070
     1
  0
ATTDEF
  5
39F
  8
SYS-BUHIN0
  6
CONTINUOUS
 62
     7
 10
-97.595958160209875
 20
2.0
 30
0.0
 40
2.0
  1

 11
-97.595958160209875
 21
3.0
 31
0.0
  3
材質
  2
MATERIAL
 70
     0
 74
     2
1001
AcDbAttr
1070
     0
1070
     1
  0
ATTDEF
  5
3A0
  8
SYS-BUHIN0
  6
CONTINUOUS
 62
     7
 10
-159.0
 20
1.75
 30
0.0
 40
2.5
  1

 11
-159.0
 21
3.0
 31
0.0
  3
部品名
  2
DESCR
 70
     0
 74
     2
1001
AcDbAttr
1070
     0
1070
     1
  0
ATTDEF
  5
3A1
  8
SYS-BUHIN0
  6
CONTINUOUS
 62
     7
 10
-165.5
 20
3.0
 30
0.0
 40
2.5
  1

 72
     4
 11
-165.5
 21
3.0
 31
0.0
  3
項番
  2
ITEM
 70
     0
1001
AcDbAttr
1070
     0
1070
     1
  0
ENDBLK
  5
370
  8
0
  0
BLOCK
  8
0
  2
A$C1C06296A
 70
     2
 10
0.0
 20
0.0
 30
0.0
  3
A$C1C06296A
  1

  0
LINE
  5
204C
  8
AM_BOR
 10
198.86851880399371
 20
17.886744577931989
 30
0.0
 11
203.2337455721775
 21
13.521517809748619
 31
0.0
  0
LINE
  5
204D
  8
AM_BOR
 10
198.8685188039936
 20
17.866715351316039
 30
0.0
 11
198.86851880399399
 21
14.128964361178911
 31
0.0
  0
LINE
  5
204E
  8
AM_BOR
 10
204.7045172738834
 20
17.866715326469411
 30
0.0
 11
204.70451727388391
 21
14.181128845625549
 31
0.0
  0
LINE
  5
204F
  8
AM_BOR
 10
204.20428883360731
 20
17.793010290175861
 30
0.0
 11
204.204288833607
 21
14.69861035774108
 31
0.0
  0
LINE
  5
2050
  8
AM_BOR
 10
199.3687472442698
 20
17.176052465333349
 30
0.0
 11
199.36874724427059
 21
14.197800355103411
 31
0.0
  0
LINE
  5
2051
  8
AM_BOR
 10
200.43756462039269
 20
18.46533457095553
 30
0.0
 11
204.20428883360731
 21
14.69861035774052
 31
0.0
  0
LINE
  5
2052
  8
AM_BOR
 10
199.36874724426971
 20
17.17605246533255
 30
0.0
 11
203.02713287203409
 21
13.51766683756852
 31
0.0
  0
ARC
  5
2053
  8
AM_BOR
 10
198.36829036868701
 20
17.866715351316049
 30
0.0
 40
0.5002284402762121
 50
0.0
 51
50.265515568291427
  0
ARC
  5
2054
  8
AM_BOR
 10
198.36829034384081
 20
14.12896436117892
 30
0.0
 40
0.5002284402762121
 50
304.69759678405279
 51
0.0
  0
ARC
  5
2055
  8
AM_BOR
 10
205.20474573403669
 20
17.866715326469411
 30
0.0
 40
0.5002284402762121
 50
127.0284887689633
 51
180.00000500895629
  0
ARC
  5
2056
  8
AM_BOR
 10
203.53731756996689
 20
17.793010290175818
 30
0.0
 40
0.6669712537016159
 50
0.0
 51
74.714823568866152
  0
ARC
  5
2057
  8
AM_BOR
 10
200.03571849797169
 20
14.197800355103389
 30
0.0
 40
0.6669712537016159
 50
180.00000500895629
 51
256.4857883914604
  0
LINE
  5
2058
  8
AM_BOR
 10
210.95737277733619
 20
15.993445664994679
 30
0.0
 11
210.9224749062999
 21
16.211434571273589
 31
0.0
  0
LINE
  5
2059
  8
AM_BOR
 10
210.92247490629941
 20
16.211434571273411
 30
0.0
 11
210.8180468870608
 21
16.42776445035037
 31
0.0
  0
LINE
  5
205A
  8
AM_BOR
 10
210.8180468870604
 20
16.42776445035037
 30
0.0
 11
210.64488347990149
 21
16.640788901221669
 31
0.0
  0
LINE
  5
205B
  8
AM_BOR
 10
210.6448834799013
 20
16.640788901221619
 30
0.0
 11
210.40430256290981
 21
16.848886679188759
 31
0.0
  0
LINE
  5
205C
  8
AM_BOR
 10
210.40430256290949
 20
16.848886679189
 30
0.0
 11
210.0981351021297
 21
17.050474034508689
 31
0.0
  0
LINE
  5
205D
  8
AM_BOR
 10
210.09813510212999
 20
17.05047403450855
 30
0.0
 11
209.7287112168076
 21
17.244016765685139
 31
0.0
  0
LINE
  5
205E
  8
AM_BOR
 10
209.72871121680711
 20
17.24401676568521
 30
0.0
 11
209.29884244577369
 21
17.428041895669988
 31
0.0
  0
LINE
  5
205F
  8
AM_BOR
 10
209.29884244577369
 20
17.428041895670081
 30
0.0
 11
208.81180034993889
 21
17.601148882106369
 31
0.0
  0
LINE
  5
2060
  8
AM_BOR
 10
208.81180034993889
 20
17.60114888210644
 30
0.0
 11
208.27129161373591
 21
17.76202027630297
 31
0.0
  0
LINE
  5
2061
  8
AM_BOR
 10
208.27129161373611
 20
17.76202027630309
 30
0.0
 11
207.68142983501551
 21
17.909431749813081
 31
0.0
  0
LINE
  5
2062
  8
AM_BOR
 10
207.68142983501531
 20
17.90943174981297
 30
0.0
 11
207.04670421808169
 21
18.042261412313358
 31
0.0
  0
LINE
  5
2063
  8
AM_BOR
 10
207.04670421808169
 20
18.04226141231344
 30
0.0
 11
206.37194540813729
 21
18.15949834986797
 31
0.0
  0
LINE
  5
2064
  8
AM_BOR
 10
206.37194540813749
 20
18.159498349867881
 30
0.0
 11
205.66228872715681
 21
18.260250318592298
 31
0.0
  0
LINE
  5
2065
  8
AM_BOR
 10
205.66228872715661
 20
18.260250318592369
 30
0.0
 11
205.02242374599979
 21
18.33253416039674
 31
0.0
  0
LINE
  5
2066
  8
AM_BOR
 10
205.02242374599939
 20
18.332534160396779
 30
0.0
 11
204.92313509098369
 21
18.343750535168819
 31
0.0
  0
LINE
  5
2067
  8
AM_BOR
 10
204.92313509098369
 20
18.343750535168748
 30
0.0
 11
204.16010990510409
 21
18.409363512530259
 31
0.0
  0
LINE
  5
2068
  8
AM_BOR
 10
204.1601099051048
 20
18.409363512530259
 30
0.0
 11
203.71314686010501
 21
18.436387872932471
 31
0.0
  0
LINE
  5
2069
  8
AM_BOR
 10
200.43756462039249
 20
18.465334570955569
 30
0.0
 11
200.19401582596791
 21
18.45658989630088
 31
0.0
  0
LINE
  5
206A
  8
AM_BOR
 10
200.19401582596799
 20
18.456589896300901
 30
0.0
 11
199.41292617277259
 21
18.409363512530309
 31
0.0
  0
LINE
  5
206B
  8
AM_BOR
 10
199.41292617277259
 20
18.409363512530248
 30
0.0
 11
198.64990098689299
 21
18.343750535168759
 31
0.0
  0
LINE
  5
206C
  8
AM_BOR
 10
198.5506123731563
 20
18.332534165059979
 30
0.0
 11
197.9107473507209
 21
18.260250318592469
 31
0.0
  0
LINE
  5
206D
  8
AM_BOR
 10
198.64990098689299
 20
18.343750535168791
 30
0.0
 11
198.5506123731563
 21
18.332534165059919
 31
0.0
  0
LINE
  5
206E
  8
AM_BOR
 10
197.91074735072121
 20
18.26025031859243
 30
0.0
 11
197.20109066974049
 21
18.159498349868041
 31
0.0
  0
LINE
  5
206F
  8
AM_BOR
 10
197.20109066974041
 20
18.159498349868091
 30
0.0
 11
196.52633185979579
 21
18.042261412313529
 31
0.0
  0
LINE
  5
2070
  8
AM_BOR
 10
196.5263318597959
 20
18.042261412313589
 30
0.0
 11
195.89160624286239
 21
17.909431749813219
 31
0.0
  0
LINE
  5
2071
  8
AM_BOR
 10
195.89160624286171
 20
17.90943174981302
 30
0.0
 11
195.30174446414119
 21
17.762020276303058
 31
0.0
  0
LINE
  5
2072
  8
AM_BOR
 10
195.301744464141
 20
17.762020276303161
 30
0.0
 11
194.76123572793779
 21
17.60114888210661
 31
0.0
  0
LINE
  5
2073
  8
AM_BOR
 10
194.76123572793779
 20
17.60114888210656
 30
0.0
 11
194.27419363210299
 21
17.428041895670152
 31
0.0
  0
LINE
  5
2074
  8
AM_BOR
 10
194.27419363210339
 20
17.428041895670152
 30
0.0
 11
193.84432486106959
 21
17.244016765685259
 31
0.0
  0
LINE
  5
2075
  8
AM_BOR
 10
193.84432486106959
 20
17.24401676568521
 30
0.0
 11
193.4749009757472
 21
17.05047403450865
 31
0.0
  0
LINE
  5
2076
  8
AM_BOR
 10
193.4749009757472
 20
17.050474034508671
 30
0.0
 11
193.16873351496719
 21
16.848886679188929
 31
0.0
  0
LINE
  5
2077
  8
AM_BOR
 10
193.1687335149673
 20
16.848886679188951
 30
0.0
 11
192.92815259797499
 21
16.640788901221619
 31
0.0
  0
LINE
  5
2078
  8
AM_BOR
 10
192.9281525979753
 20
16.640788901221811
 30
0.0
 11
192.75498919081639
 21
16.42776445035042
 31
0.0
  0
LINE
  5
2079
  8
AM_BOR
 10
192.75498919081639
 20
16.427764450350349
 30
0.0
 11
192.65056117157769
 21
16.211434571273479
 31
0.0
  0
LINE
  5
207A
  8
AM_BOR
 10
192.65056117157789
 20
16.211434571273731
 30
0.0
 11
192.61566330054151
 21
15.993445664994679
 31
0.0
  0
LINE
  5
207B
  8
AM_BOR
 10
192.61566330054069
 20
15.99344566499464
 30
0.0
 11
192.65056117157721
 21
15.775456758715791
 31
0.0
  0
LINE
  5
207C
  8
AM_BOR
 10
192.65056117157769
 20
15.775456758715929
 30
0.0
 11
192.7549891908163
 21
15.55912687963913
 31
0.0
  0
LINE
  5
207D
  8
AM_BOR
 10
192.75498919081639
 20
15.559126879639029
 30
0.0
 11
192.9281525979753
 21
15.34610242876764
 31
0.0
  0
LINE
  5
207E
  8
AM_BOR
 10
192.9281525979751
 20
15.34610242876769
 30
0.0
 11
193.16873351496719
 21
15.1380046508005
 31
0.0
  0
LINE
  5
207F
  8
AM_BOR
 10
193.1687335149669
 20
15.1380046508005
 30
0.0
 11
193.47490097574689
 21
14.93641729548081
 31
0.0
  0
LINE
  5
2080
  8
AM_BOR
 10
193.47490097574729
 20
14.936417295480711
 30
0.0
 11
193.84432486106959
 21
14.742874564304079
 31
0.0
  0
LINE
  5
2081
  8
AM_BOR
 10
193.84432486106951
 20
14.74287456430417
 30
0.0
 11
194.27419363210271
 21
14.558849434319351
 31
0.0
  0
LINE
  5
2082
  8
AM_BOR
 10
194.27419363210319
 20
14.558849434319439
 30
0.0
 11
194.7612357279379
 21
14.38574244788296
 31
0.0
  0
LINE
  5
2083
  8
AM_BOR
 10
194.76123572793779
 20
14.38574244788277
 30
0.0
 11
195.301744464141
 21
14.22487105368617
 31
0.0
  0
LINE
  5
2084
  8
AM_BOR
 10
195.301744464141
 20
14.224871053686311
 30
0.0
 11
195.891606242862
 21
14.077459580176351
 31
0.0
  0
LINE
  5
2085
  8
AM_BOR
 10
195.89160624286191
 20
14.077459580176219
 30
0.0
 11
196.52633185979579
 21
13.94462991767579
 31
0.0
  0
LINE
  5
2086
  8
AM_BOR
 10
196.52633185979539
 20
13.944629917675821
 30
0.0
 11
197.2010906697397
 21
13.827392980121321
 31
0.0
  0
LINE
  5
2087
  8
AM_BOR
 10
197.20109066974049
 20
13.82739298012133
 30
0.0
 11
197.9107473507209
 21
13.726641011397049
 31
0.0
  0
LINE
  5
2088
  8
AM_BOR
 10
197.9107473507205
 20
13.72664101139711
 30
0.0
 11
198.5412166771807
 21
13.655418571666219
 31
0.0
  0
LINE
  5
2089
  8
AM_BOR
 10
198.54121667717999
 20
13.65541857166625
 30
0.0
 11
198.64990098689259
 21
13.643140794820731
 31
0.0
  0
LINE
  5
208A
  8
AM_BOR
 10
198.6499009868929
 20
13.643140794820679
 30
0.0
 11
199.41292617277259
 21
13.57752781745919
 31
0.0
  0
LINE
  5
208B
  8
AM_BOR
 10
199.41292617277259
 20
13.577527817459201
 30
0.0
 11
199.8798563250744
 21
13.54929620220682
 31
0.0
  0
LINE
  5
208C
  8
AM_BOR
 10
203.0271328720325
 20
13.51766683756999
 30
0.0
 11
203.37902025190911
 21
13.530301433688649
 31
0.0
  0
LINE
  5
208D
  8
AM_BOR
 10
203.3790202519092
 20
13.530301433688599
 30
0.0
 11
204.16010990510441
 21
13.57752781745919
 31
0.0
  0
LINE
  5
208E
  8
AM_BOR
 10
204.70451727388399
 20
13.624341722195579
 30
0.0
 11
204.9231350909844
 21
13.64314079482075
 31
0.0
  0
LINE
  5
208F
  8
AM_BOR
 10
204.16010990510441
 20
13.57752781745917
 30
0.0
 11
204.70451727388379
 21
13.62434172219551
 31
0.0
  0
LINE
  5
2090
  8
AM_BOR
 10
204.92313509098409
 20
13.643140794820759
 30
0.0
 11
205.66228872715669
 21
13.726641011397151
 31
0.0
  0
LINE
  5
2091
  8
AM_BOR
 10
205.66228872715661
 20
13.72664101139711
 30
0.0
 11
206.37194540813709
 21
13.827392980121401
 31
0.0
  0
LINE
  5
2092
  8
AM_BOR
 10
206.37194540813749
 20
13.82739298012145
 30
0.0
 11
207.04670421808191
 21
13.94462991767594
 31
0.0
  0
LINE
  5
2093
  8
AM_BOR
 10
207.04670421808169
 20
13.94462991767597
 30
0.0
 11
207.68142983501559
 21
14.07745958017637
 31
0.0
  0
LINE
  5
2094
  8
AM_BOR
 10
207.68142983501551
 20
14.07745958017629
 30
0.0
 11
208.27129161373611
 21
14.22487105368625
 31
0.0
  0
LINE
  5
2095
  8
AM_BOR
 10
208.2712916137362
 20
14.224871053686289
 30
0.0
 11
208.81180034993929
 21
14.38574244788289
 31
0.0
  0
LINE
  5
2096
  8
AM_BOR
 10
208.81180034993929
 20
14.385742447882921
 30
0.0
 11
209.29884244577411
 21
14.558849434319351
 31
0.0
  0
LINE
  5
2097
  8
AM_BOR
 10
209.298842445774
 20
14.55884943431932
 30
0.0
 11
209.72871121680751
 21
14.74287456430422
 31
0.0
  0
LINE
  5
2098
  8
AM_BOR
 10
209.72871121680711
 20
14.742874564304151
 30
0.0
 11
210.0981351021297
 21
14.93641729548083
 31
0.0
  0
LINE
  5
2099
  8
AM_BOR
 10
210.09813510212999
 20
14.93641729548081
 30
0.0
 11
210.40430256290989
 21
15.13800465080036
 31
0.0
  0
LINE
  5
209A
  8
AM_BOR
 10
210.40430256291
 20
15.13800465080055
 30
0.0
 11
210.64488347990201
 21
15.346102428767731
 31
0.0
  0
LINE
  5
209B
  8
AM_BOR
 10
210.64488347990169
 20
15.34610242876783
 30
0.0
 11
210.8180468870608
 21
15.559126879639029
 31
0.0
  0
LINE
  5
209C
  8
AM_BOR
 10
210.81804688706069
 20
15.559126879639059
 30
0.0
 11
210.92247490629899
 21
15.77545675871586
 31
0.0
  0
LINE
  5
209D
  8
AM_BOR
 10
210.92247490629981
 20
15.775456758715791
 30
0.0
 11
210.95737277733619
 21
15.993445664994621
 31
0.0
  0
LINE
  5
209E
  8
AM_BOR
 10
199.10514248704791
 20
18.382897015254191
 30
0.0
 11
203.92474251077411
 21
13.563296991527499
 31
0.0
  0
ARC
  5
209F
  8
AM_BOR
 10
205.2047457141602
 20
14.181128845625549
 30
0.0
 40
0.5002284402762121
 50
180.0
 51
244.5184856857075
  0
LINE
  5
20A0
  8
AM_BOR
 10
199.36521928176651
 20
18.405261169360589
 30
0.0
 11
204.19035209062989
 21
13.58012836049622
 31
0.0
  0
LINE
  5
20A1
  8
AM_BOR
 10
199.630408435547
 20
18.422512964405719
 30
0.0
 11
204.450428885349
 21
13.602492514602771
 31
0.0
  0
LINE
  5
20A2
  8
AM_BOR
 10
199.8967460324557
 20
18.438616316322719
 30
0.0
 11
204.70776895023289
 21
13.62759339854461
 31
0.0
  0
LINE
  5
20A3
  8
AM_BOR
 10
200.16308362936431
 20
18.454719668239761
 30
0.0
 11
204.9488987968831
 21
13.66890450072008
 31
0.0
  0
LINE
  5
20A4
  8
AM_BOR
 10
198.8450656923284
 20
18.36053286114759
 30
0.0
 11
203.6584049138651
 21
13.547193639610409
 31
0.0
  0
LINE
  5
20A5
  8
AM_BOR
 10
198.7943784573331
 20
18.12877914731807
 30
0.0
 11
203.39206731695711
 21
13.53109028769336
 31
0.0
  0
LINE
  5
20A6
  8
AM_BOR
 10
199.01830573664321
 20
18.375429872827009
 30
0.0
 11
199.01830573664321
 21
13.61146145716244
 31
0.0
  0
LINE
  5
20A7
  8
AM_BOR
 10
199.2180216468426
 20
18.39260355953768
 30
0.0
 11
199.2180216468426
 21
13.594287770451791
 31
0.0
  0
LINE
  5
20A8
  8
AM_BOR
 10
204.55473034123381
 20
18.375429872826999
 30
0.0
 11
204.55473034123381
 21
13.61146145716245
 31
0.0
  0
LINE
  5
20A9
  8
AM_BOR
 10
204.35501443103459
 20
18.39260355953764
 30
0.0
 11
204.35501443103459
 21
13.594287770451791
 31
0.0
  0
LINE
  5
20AA
  8
AM_BOR
 62
     4
 10
-0.0000001316067255
 20
15.000000173111291
 30
0.0
 11
190.49999986839319
 21
15.000000173111291
 31
0.0
  0
LINE
  5
20AB
  8
AM_BOR
 62
     4
 10
276.49999986839327
 20
28.000000173111289
 30
0.0
 11
276.49999986839327
 21
0.000000173111296
 31
0.0
  0
LINE
  5
20AC
  8
AM_BOR
 62
     4
 10
-0.0000001316067255
 20
15.000000173111291
 30
0.0
 11
-0.0000001316067255
 21
0.000000173111296
 31
0.0
  0
LINE
  5
20AD
  8
AM_BOR
 62
     4
 10
-0.0000001316067255
 20
28.000000173111289
 30
0.0
 11
276.49999986839327
 21
28.000000173111289
 31
0.0
  0
LINE
  5
20AE
  8
AM_BOR
 62
     4
 10
15.999999868393269
 20
15.000000173111291
 30
0.0
 11
15.999999868393269
 21
0.000000173111296
 31
0.0
  0
TEXT
  5
20AF
  8
AM_BOR
 62
     4
 10
215.17999986839331
 20
10.000000173111291
 30
0.0
 40
1.5
  1
NAKANISHI　INDUSTRIAL CO., LTD.
 41
1.5
  0
TEXT
  5
20B0
  8
AM_BOR
 62
     3
 10
213.19999986839329
 20
13.500000173111291
 30
0.0
 40
5.5
  1
中西産業株式会社
 41
1.1999999999999991
  0
TEXT
  5
20B1
  8
AM_BOR
 62
     4
 10
196.192787937406
 20
10.000000173111291
 30
0.0
 40
1.5
  1
Nakanishi
 41
1.1999999999999991
  0
TEXT
  5
20B2
  8
AM_BOR
 62
     7
 10
98.104999768257457
 20
15.650000185032219
 30
0.0
 40
1.0
  1
FINISH
 41
1.6000000000000001
  0
TEXT
  5
20B3
  8
AM_BOR
 62
     7
 10
96.979999708652798
 20
17.700000220795008
 30
0.0
 40
2.7999999999999989
  1
仕　　上
  0
TEXT
  5
20B4
  8
AM_BOR
 62
     7
 10
3.1549997801784002
 20
15.650000185032219
 30
0.0
 40
1.0
  1
MATERIAL
 41
1.6000000000000001
  0
TEXT
  5
20B5
  8
AM_BOR
 62
     7
 10
1.729999708652826
 20
17.700000220795008
 30
0.0
 40
2.7999999999999989
  1
材　　質
  0
LINE
  5
20B6
  8
AM_BOR
 62
     4
 10
190.49999986839319
 20
28.000000173111289
 30
0.0
 11
190.49999986839319
 21
0.000000173111296
 31
0.0
  0
LINE
  5
20B7
  8
AM_BOR
 62
     4
 10
-0.0000001316067255
 20
28.000000173111289
 30
0.0
 11
-0.0000001316067255
 21
15.000000173111291
 31
0.0
  0
LINE
  5
20B8
  8
AM_BOR
 62
     4
 10
-0.0000001316067255
 20
21.500000173111289
 30
0.0
 11
190.49999986839319
 21
21.500000173111289
 31
0.0
  0
LINE
  5
20B9
  8
AM_BOR
 62
     4
 10
15.999999868393269
 20
28.000000173111289
 30
0.0
 11
15.999999868393269
 21
15.000000173111291
 31
0.0
  0
TEXT
  5
20BA
  8
AM_BOR
 62
     7
 10
98.104999768257457
 20
22.150000185032219
 30
0.0
 40
1.0
  1
ART. NO.
 41
1.6000000000000001
  0
TEXT
  5
20BB
  8
AM_BOR
 62
     7
 10
96.979999708652684
 20
24.200000220795008
 30
0.0
 40
2.7999999999999989
  1
品　　番
  0
TEXT
  5
20BC
  8
AM_BOR
 62
     7
 10
3.1549997801784002
 20
22.150000185032219
 30
0.0
 40
1.0
  1
ARTICLE
 41
1.6000000000000001
  0
TEXT
  5
20BD
  8
AM_BOR
 62
     7
 10
1.7299997086527119
 20
24.200000220795008
 30
0.0
 40
2.7999999999999989
  1
品　　名
  0
LINE
  5
20BE
  8
AM_BOR
 62
     4
 10
-0.0000001316067255
 20
15.000000173111291
 30
0.0
 11
-0.0000001316067255
 21
0.0000001731112924
 31
0.0
  0
LINE
  5
20BF
  8
AM_BOR
 62
     4
 10
95.249999868393246
 20
28.000000173111289
 30
0.0
 11
95.249999868393246
 21
0.000000173111296
 31
0.0
  0
TEXT
  5
20C0
  8
AM_BOR
 62
     7
 10
3.1549997801784002
 20
9.1500001850322192
 30
0.0
 40
1.0
  1
REMARKS
 41
1.6000000000000001
  0
TEXT
  5
20C1
  8
AM_BOR
 62
     7
 10
1.7299997086527119
 20
11.20000022079501
 30
0.0
 40
2.7999999999999989
  1
備　　考
  0
LINE
  5
20C2
  8
AM_BOR
 62
     4
 10
111.2499998683932
 20
28.000000173111289
 30
0.0
 11
111.2499998683932
 21
0.000000173111296
 31
0.0
  0
LINE
  5
20C3
  8
AM_BOR
 62
     4
 10
-0.0000001316067255
 20
0.000000173111296
 30
0.0
 11
276.49999986839327
 21
0.000000173111296
 31
0.0
  0
TEXT
  5
20C4
  8
AM_BOR
 62
     7
 10
98.404999780178386
 20
9.1500001850322157
 30
0.0
 40
1.0
  1
SETS
 41
1.6000000000000001
  0
TEXT
  5
20C5
  8
AM_BOR
 62
     7
 10
96.979999708652684
 20
11.20000022079501
 30
0.0
 40
2.7999999999999989
  1
セット品
  0
ATTDEF
  5
20C6
  8
AM_BOR
 62
     7
 10
114.3107095753831
 20
0.5000001731112853
 30
0.0
 40
3.0
  1

 11
114.3107095753831
 21
2.0000001731112849
 31
0.0
  3
セット
  2
SETS｛20｝
 70
     0
 74
     2
1001
ACADANNOTATIVE
1000
AnnotativeData
1002
{
1070
     1
1070
     0
1002
}
1001
AcDbAttr
1070
     0
1070
     1
  0
ATTDEF
  5
20CA
  8
AM_BOR
 62
     7
 10
19.060709575383161
 20
0.5000001731112889
 30
0.0
 40
3.0
  1

 11
19.060709575383161
 21
2.000000173111288
 31
0.0
  3
備　　考
  2
REMARKS｛20｝
 70
     0
 74
     2
1001
ACADANNOTATIVE
1000
AnnotativeData
1002
{
1070
     1
1070
     0
1002
}
1001
AcDbAttr
1070
     0
1070
     1
  0
ATTDEF
  5
20CE
  8
AM_BOR
 62
     7
 10
114.3107095753831
 20
5.5000001731112853
 30
0.0
 40
3.0
  1

 11
114.3107095753831
 21
7.0000001731112853
 31
0.0
  3
セット
  2
SETS｛20｝
 70
     0
 74
     2
1001
ACADANNOTATIVE
1000
AnnotativeData
1002
{
1070
     1
1070
     0
1002
}
1001
AcDbAttr
1070
     0
1070
     1
  0
ATTDEF
  5
20D2
  8
AM_BOR
 62
     7
 10
19.060709575383161
 20
5.500000173111288
 30
0.0
 40
3.0
  1

 11
19.060709575383161
 21
7.000000173111288
 31
0.0
  3
備　　考
  2
REMARKS｛20｝
 70
     0
 74
     2
1001
ACADANNOTATIVE
1000
AnnotativeData
1002
{
1070
     1
1070
     0
1002
}
1001
AcDbAttr
1070
     0
1070
     1
  0
ATTDEF
  5
20D6
  8
AM_BOR
 62
     7
 10
114.3107095753831
 20
10.50000017311128
 30
0.0
 40
3.0
  1

 11
114.3107095753831
 21
12.00000017311128
 31
0.0
  3
セット
  2
SETS｛20｝
 70
     0
 74
     2
1001
ACADANNOTATIVE
1000
AnnotativeData
1002
{
1070
     1
1070
     0
1002
}
1001
AcDbAttr
1070
     0
1070
     1
  0
ATTDEF
  5
20DA
  8
AM_BOR
 62
     7
 10
19.060709575383161
 20
10.500000173111291
 30
0.0
 40
3.0
  1

 11
19.060709575383161
 21
12.000000173111291
 31
0.0
  3
備　　考
  2
REMARKS｛20｝
 70
     0
 74
     2
1001
ACADANNOTATIVE
1000
AnnotativeData
1002
{
1070
     1
1070
     0
1002
}
1001
AcDbAttr
1070
     0
1070
     1
  0
ATTDEF
  5
20DE
  8
AM_BOR
 62
     7
 10
114.2499998683932
 20
23.500000173111289
 30
0.0
 40
3.0
  1

 11
114.2499998683932
 21
25.000000173111289
 31
0.0
  3
品    番
  2
ART_NO｛20｝
 70
     0
 74
     2
1001
ACADANNOTATIVE
1000
AnnotativeData
1002
{
1070
     1
1070
     0
1002
}
1001
AcDbAttr
1070
     0
1070
     1
  0
ATTDEF
  5
20E2
  8
AM_BOR
 62
     7
 10
18.999999868393271
 20
23.500000173111289
 30
0.0
 40
3.0
  1

 11
18.999999868393271
 21
25.000000173111289
 31
0.0
  3
品    名
  2
ARTICLE｛20｝
 70
     0
 74
     2
1001
ACADANNOTATIVE
1000
AnnotativeData
1002
{
1070
     1
1070
     0
1002
}
1001
AcDbAttr
1070
     0
1070
     1
  0
ATTDEF
  5
20E6
  8
AM_BOR
 62
     7
 10
114.2499998683932
 20
17.000000173111289
 30
0.0
 40
3.0
  1

 11
114.2499998683932
 21
18.500000173111289
 31
0.0
  3
仕上
  2
FINISH｛20｝
 70
     0
 74
     2
1001
ACADANNOTATIVE
1000
AnnotativeData
1002
{
1070
     1
1070
     0
1002
}
1001
AcDbAttr
1070
     0
1070
     1
  0
ATTDEF
  5
20EA
  8
AM_BOR
 62
     7
 10
18.999999868393271
 20
17.000000173111289
 30
0.0
 40
3.0
  1

 11
18.999999868393271
 21
18.500000173111289
 31
0.0
  3
材　　質
  2
MATERIAK｛20｝
 70
     0
 74
     2
1001
ACADANNOTATIVE
1000
AnnotativeData
1002
{
1070
     1
1070
     0
1002
}
1001
AcDbAttr
1070
     0
1070
     1
  0
ENDBLK
  5
20F1
  8
0
  0
BLOCK
  8
0
  2
ZUWAKU-A3H
 70
     0
 10
0.0
 20
0.0
 30
0.0
  3
ZUWAKU-A3H
  1

  0
LINE
  5
29DD
  8
AM_BOR
 62
     3
 10
24.999999999999989
 20
284.99999999999977
 30
0.0
 11
24.999999999999979
 21
9.0
 31
0.0
  0
LINE
  5
29DE
  8
AM_BOR
 62
     3
 10
411.99999999999989
 20
284.99999999999989
 30
0.0
 11
25.0
 21
284.99999999999989
 31
0.0
  0
LINE
  5
29DF
  8
AM_BOR
 62
     3
 10
411.99999999999989
 20
284.99999999999989
 30
0.0
 11
411.99999999999989
 21
9.0
 31
0.0
  0
LINE
  5
29E0
  8
AM_BOR
 62
     3
 10
24.999999999999989
 20
8.9999999999999964
 30
0.0
 11
411.99999999999972
 21
8.9999999999999964
 31
0.0
  0
TEXT
  5
29E1
  8
SYS-TEISEI0
  6
CONTINUOUS
 62
     3
 10
144.38500001765789
 20
14.950000047683719
 30
0.0
 40
3.099999904632567
  1
 
  0
TEXT
  5
29E2
  8
SYS-TEISEI0
  6
CONTINUOUS
 62
     3
 10
169.88500004447991
 20
14.950000047683719
 30
0.0
 40
3.099999904632567
  1
 
  0
TEXT
  5
29E3
  8
SYS-TEISEI0
  6
CONTINUOUS
 62
     3
 10
229.24499995708459
 20
14.950000047683719
 30
0.0
 40
3.099999904632567
  1
 
  0
TEXT
  5
29E4
  8
SYS-TEISEI0
  6
CONTINUOUS
 62
     3
 10
236.9449999570846
 20
14.950000047683719
 30
0.0
 40
3.099999904632567
  1
 
  0
TEXT
  5
29E5
  8
SYS-TEISEI0
  6
CONTINUOUS
 62
     3
 10
144.38500001765789
 20
19.950000047683719
 30
0.0
 40
3.099999904632567
  1
 
  0
TEXT
  5
29E6
  8
SYS-TEISEI0
  6
CONTINUOUS
 62
     3
 10
169.88500004447991
 20
19.950000047683719
 30
0.0
 40
3.099999904632567
  1
 
  0
TEXT
  5
29E7
  8
SYS-TEISEI0
  6
CONTINUOUS
 62
     3
 10
229.24499995708459
 20
19.950000047683719
 30
0.0
 40
3.099999904632567
  1
 
  0
TEXT
  5
29E8
  8
SYS-TEISEI0
  6
CONTINUOUS
 62
     3
 10
236.9449999570846
 20
19.950000047683719
 30
0.0
 40
3.099999904632567
  1
 
  0
TEXT
  5
29E9
  8
SYS-TEISEI0
  6
CONTINUOUS
 62
     3
 10
144.38500001765789
 20
24.950000047683719
 30
0.0
 40
3.099999904632567
  1
 
  0
TEXT
  5
29EA
  8
SYS-TEISEI0
  6
CONTINUOUS
 62
     3
 10
169.88500004447991
 20
24.950000047683719
 30
0.0
 40
3.099999904632567
  1
 
  0
TEXT
  5
29EB
  8
SYS-TEISEI0
  6
CONTINUOUS
 62
     3
 10
229.24499995708459
 20
24.950000047683719
 30
0.0
 40
3.099999904632567
  1
 
  0
TEXT
  5
29EC
  8
SYS-TEISEI0
  6
CONTINUOUS
 62
     3
 10
236.9449999570846
 20
24.950000047683719
 30
0.0
 40
3.099999904632567
  1
 
  0
TEXT
  5
29ED
  8
AM_BOR
 10
24.999999999999989
 20
9.0
 30
0.0
 40
5.0
  1
!GENTITLE-LL
  0
TEXT
  5
29EE
  8
AM_BOR
 10
411.99999999999989
 20
9.0
 30
0.0
 40
5.0
  1
!GENTITLE-INSERT
  0
TEXT
  5
29EF
  8
AM_BOR
 10
411.99999999999989
 20
284.99999999999989
 30
0.0
 40
5.0
  1
!GENTITLE-RU
  0
TEXT
  5
29F0
  8
AM_BOR
 10
420.0
 20
297.0
 30
0.0
 40
5.0
  1
!GENTITLE-MAX
  0
ENDBLK
  5
29F2
  8
0
  0
BLOCK
  8
0
  2
_ACMFILLEDHALF
 70
     0
 10
0.0
 20
0.0
 30
0.0
  3
_ACMFILLEDHALF
  1

  0
TRACE
  5
4240
  8
0
 62
     0
 10
-0.8
 20
0.0
 30
0.0
 11
-1.0
 21
0.166666666
 31
0.0
 12
0.0
 22
0.0
 32
0.0
 13
0.0
 23
0.0
 33
0.0
  0
LINE
  5
4241
  8
0
 62
     0
 10
-1.0
 20
0.0
 30
0.0
 11
-0.8
 21
0.0
 31
0.0
  0
ENDBLK
  5
423F
  8
0
  0
BLOCK
  8
0
  2
_ACMFILLED
 70
     0
 10
0.0
 20
0.0
 30
0.0
  3
_ACMFILLED
  1

  0
TRACE
  5
424C
  8
0
 62
     0
 10
-1.0
 20
-0.166666666
 30
0.0
 11
-1.0
 21
0.166666666
 31
0.0
 12
0.0
 22
0.0
 32
0.0
 13
0.0
 23
0.0
 33
0.0
  0
ENDBLK
  5
424B
  8
0
  0
BLOCK
  8
0
  2
_ACMOPEN15
 70
     0
 10
0.0
 20
0.0
 30
0.0
  3
_ACMOPEN15
  1

  0
LINE
  5
4258
  8
0
 62
     0
 10
-1.0
 20
0.0
 30
0.0
 11
0.0
 21
0.0
 31
0.0
  0
LINE
  5
4259
  8
0
 62
     0
 10
-1.0
 20
-0.131652497
 30
0.0
 11
0.0
 21
0.0
 31
0.0
  0
LINE
  5
425A
  8
0
 62
     0
 10
0.0
 20
0.0
 30
0.0
 11
-1.0
 21
0.131652497
 31
0.0
  0
ENDBLK
  5
4257
  8
0
  0
BLOCK
  8
0
  2
_ACMFILLED15
 70
     0
 10
0.0
 20
0.0
 30
0.0
  3
_ACMFILLED15
  1

  0
TRACE
  5
4268
  8
0
 62
     0
 10
-1.0
 20
-0.131652497
 30
0.0
 11
-1.0
 21
0.131652497
 31
0.0
 12
0.0
 22
0.0
 32
0.0
 13
0.0
 23
0.0
 33
0.0
  0
ENDBLK
  5
4267
  8
0
  0
BLOCK
  8
0
  2
*D13
 70
     1
 10
0.0
 20
0.0
 30
0.0
  3
*D13
  1

  0
LINE
  5
4C8B
  8
AM_5
  6
CONTINUOUS
 62
     7
 10
104.9875758567559
 20
176.47904245399829
 30
0.0
 11
104.9875758567559
 21
189.4790424539984
 31
0.0
  0
LINE
  5
4C8C
  8
AM_5
  6
CONTINUOUS
 62
     7
 10
118.9875758567559
 20
176.47904245399829
 30
0.0
 11
118.9875758567559
 21
189.4790424539984
 31
0.0
  0
LINE
  5
4C8D
  8
AM_5
  6
CONTINUOUS
 62
     7
 10
107.4875758567559
 20
188.4790424539984
 30
0.0
 11
116.4875758567559
 21
188.4790424539984
 31
0.0
  0
INSERT
  5
4C8E
  8
AM_5
 62
     7
  2
_OPEN30
 10
104.9875758567559
 20
188.4790424539984
 30
0.0
 41
2.5
 42
2.5
 43
2.5
 50
180.0
  0
INSERT
  5
4C8F
  8
AM_5
 62
     7
  2
_OPEN30
 10
118.9875758567559
 20
188.4790424539984
 30
0.0
 41
2.5
 42
2.5
 43
2.5
  0
INSERT
  5
4C90
  8
0
  2
*U30
 10
0.0
 20
0.0
 30
0.0
  0
POINT
  5
4C91
  8
DEFPOINTS
 62
     0
 10
104.9875758567559
 20
175.47904245399829
 30
0.0
  0
POINT
  5
4C92
  8
DEFPOINTS
 62
     0
 10
118.9875758567559
 20
175.47904245399829
 30
0.0
  0
POINT
  5
4C93
  8
DEFPOINTS
 62
     0
 10
118.9875758567559
 20
188.4790424539984
 30
0.0
  0
ENDBLK
  5
4752
  8
0
  0
BLOCK
  8
0
  2
*D14
 70
     1
 10
0.0
 20
0.0
 30
0.0
  3
*D14
  1

  0
LINE
  5
4C94
  8
AM_5
  6
CONTINUOUS
 62
     7
 10
101.9875758567559
 20
178.47904245399829
 30
0.0
 11
101.9875758567559
 21
196.47904245399829
 31
0.0
  0
LINE
  5
4C95
  8
AM_5
  6
CONTINUOUS
 62
     7
 10
121.9875758567559
 20
178.47904245399829
 30
0.0
 11
121.9875758567559
 21
196.47904245399829
 31
0.0
  0
LINE
  5
4C96
  8
AM_5
  6
CONTINUOUS
 62
     7
 10
104.4875758567559
 20
195.47904245399829
 30
0.0
 11
119.487575856756
 21
195.47904245399829
 31
0.0
  0
INSERT
  5
4C97
  8
AM_5
 62
     7
  2
_OPEN30
 10
101.9875758567559
 20
195.47904245399829
 30
0.0
 41
2.5
 42
2.5
 43
2.5
 50
180.0
  0
INSERT
  5
4C98
  8
AM_5
 62
     7
  2
_OPEN30
 10
121.9875758567559
 20
195.47904245399829
 30
0.0
 41
2.5
 42
2.5
 43
2.5
  0
INSERT
  5
4C99
  8
0
  2
*U31
 10
0.0
 20
0.0
 30
0.0
  0
POINT
  5
4C9A
  8
DEFPOINTS
 62
     0
 10
101.9875758567559
 20
177.47904245399829
 30
0.0
  0
POINT
  5
4C9B
  8
DEFPOINTS
 62
     0
 10
121.9875758567559
 20
177.47904245399829
 30
0.0
  0
POINT
  5
4C9C
  8
DEFPOINTS
 62
     0
 10
121.9875758567559
 20
195.47904245399829
 30
0.0
  0
ENDBLK
  5
477C
  8
0
  0
BLOCK
  8
0
  2
*D15
 70
     1
 10
0.0
 20
0.0
 30
0.0
  3
*D15
  1

  0
LINE
  5
4C9D
  8
AM_5
  6
CONTINUOUS
 62
     7
 10
118.9875758567559
 20
176.47904245399829
 30
0.0
 11
150.2701528180234
 21
176.47904245399829
 31
0.0
  0
LINE
  5
4C9E
  8
AM_5
  6
CONTINUOUS
 62
     7
 10
118.9875758567559
 20
107.4790424539983
 30
0.0
 11
150.2701528180234
 21
107.4790424539983
 31
0.0
  0
LINE
  5
4C9F
  8
AM_5
  6
CONTINUOUS
 62
     7
 10
149.2701528180234
 20
173.97904245399829
 30
0.0
 11
149.2701528180234
 21
109.9790424539984
 31
0.0
  0
INSERT
  5
4CA0
  8
AM_5
 62
     7
  2
_OPEN30
 10
149.2701528180234
 20
176.47904245399829
 30
0.0
 41
2.5
 42
2.5
 43
2.5
 50
90.0
  0
INSERT
  5
4CA1
  8
AM_5
 62
     7
  2
_OPEN30
 10
149.2701528180234
 20
107.4790424539983
 30
0.0
 41
2.5
 42
2.5
 43
2.5
 50
270.0
  0
INSERT
  5
4CA2
  8
0
  2
*U32
 10
0.0
 20
0.0
 30
0.0
  0
POINT
  5
4CA3
  8
DEFPOINTS
 62
     0
 10
117.9875758567559
 20
176.47904245399829
 30
0.0
  0
POINT
  5
4CA4
  8
DEFPOINTS
 62
     0
 10
117.9875758567559
 20
107.4790424539983
 30
0.0
  0
POINT
  5
4CA5
  8
DEFPOINTS
 62
     0
 10
149.2701528180234
 20
107.4790424539983
 30
0.0
  0
ENDBLK
  5
47C1
  8
0
  0
BLOCK
  8
0
  2
*D16
 70
     1
 10
0.0
 20
0.0
 30
0.0
  3
*D16
  1

  0
LINE
  5
4F29
  8
AM_5
  6
CONTINUOUS
 62
     7
 10
120.9875758567559
 20
104.4790424539983
 30
0.0
 11
157.27015281802349
 21
104.4790424539983
 31
0.0
  0
LINE
  5
4F2A
  8
AM_5
  6
CONTINUOUS
 62
     7
 10
120.9875758567559
 20
179.47904245399829
 30
0.0
 11
157.27015281802349
 21
179.47904245399829
 31
0.0
  0
LINE
  5
4F2B
  8
AM_5
  6
CONTINUOUS
 62
     7
 10
156.27015281802349
 20
106.9790424539984
 30
0.0
 11
156.27015281802349
 21
176.9790424539984
 31
0.0
  0
INSERT
  5
4F2C
  8
AM_5
 62
     7
  2
_OPEN30
 10
156.27015281802349
 20
104.4790424539983
 30
0.0
 41
2.5
 42
2.5
 43
2.5
 50
270.0
  0
INSERT
  5
4F2D
  8
AM_5
 62
     7
  2
_OPEN30
 10
156.27015281802349
 20
179.47904245399829
 30
0.0
 41
2.5
 42
2.5
 43
2.5
 50
90.0
  0
INSERT
  5
4F2E
  8
0
  2
*U42
 10
0.0
 20
0.0
 30
0.0
  0
POINT
  5
4F2F
  8
DEFPOINTS
 62
     0
 10
119.9875758567559
 20
104.4790424539983
 30
0.0
  0
POINT
  5
4F30
  8
DEFPOINTS
 62
     0
 10
119.9875758567559
 20
179.47904245399829
 30
0.0
  0
POINT
  5
4F31
  8
DEFPOINTS
 62
     0
 10
156.27015281802349
 20
179.47904245399829
 30
0.0
  0
ENDBLK
  5
47EB
  8
0
  0
BLOCK
  8
0
  2
*D17
 70
     1
 10
0.0
 20
0.0
 30
0.0
  3
*D17
  1

  0
LINE
  5
4CF1
  8
AM_5
  6
CONTINUOUS
 62
     7
 10
221.50226570861739
 20
108.4790424539983
 30
0.0
 11
235.5022657086173
 21
108.4790424539982
 31
0.0
  0
LINE
  5
4CF2
  8
AM_5
  6
CONTINUOUS
 62
     7
 10
221.00226570861739
 20
175.4790424539982
 30
0.0
 11
235.5022657086173
 21
175.4790424539982
 31
0.0
  0
LINE
  5
4CF3
  8
AM_5
  6
CONTINUOUS
 62
     7
 10
234.50226570861739
 20
110.9790424539982
 30
0.0
 11
234.50226570861739
 21
172.9790424539982
 31
0.0
  0
INSERT
  5
4CF4
  8
AM_5
 62
     7
  2
_OPEN30
 10
234.50226570861739
 20
108.4790424539982
 30
0.0
 41
2.5
 42
2.5
 43
2.5
 50
270.0
  0
INSERT
  5
4CF5
  8
AM_5
 62
     7
  2
_OPEN30
 10
234.50226570861739
 20
175.4790424539982
 30
0.0
 41
2.5
 42
2.5
 43
2.5
 50
90.0
  0
INSERT
  5
4CF6
  8
0
  2
*U34
 10
0.0
 20
0.0
 30
0.0
  0
POINT
  5
4CF7
  8
DEFPOINTS
 62
     0
 10
220.5022657086173
 20
108.4790424539983
 30
0.0
  0
POINT
  5
4CF8
  8
DEFPOINTS
 62
     0
 10
220.00226570861739
 20
175.4790424539982
 30
0.0
  0
POINT
  5
4CF9
  8
DEFPOINTS
 62
     0
 10
234.50226570861739
 20
175.4790424539982
 30
0.0
  0
ENDBLK
  5
4842
  8
0
  0
BLOCK
  8
0
  2
*D18
 70
     1
 10
0.0
 20
0.0
 30
0.0
  3
*D18
  1

  0
LINE
  5
4CFA
  8
AM_5
  6
CONTINUOUS
 62
     7
 10
210.13957904770771
 20
176.97904245399869
 30
0.0
 11
242.5022657086175
 21
176.97904245399869
 31
0.0
  0
LINE
  5
4CFB
  8
AM_5
  6
CONTINUOUS
 62
     7
 10
210.13957904770771
 20
106.9790424539981
 30
0.0
 11
242.5022657086175
 21
106.9790424539981
 31
0.0
  0
LINE
  5
4CFC
  8
AM_5
  6
CONTINUOUS
 62
     7
 10
241.5022657086175
 20
174.47904245399869
 30
0.0
 11
241.5022657086175
 21
109.4790424539981
 31
0.0
  0
INSERT
  5
4CFD
  8
AM_5
 62
     7
  2
_OPEN30
 10
241.5022657086175
 20
176.97904245399869
 30
0.0
 41
2.5
 42
2.5
 43
2.5
 50
90.0
  0
INSERT
  5
4CFE
  8
AM_5
 62
     7
  2
_OPEN30
 10
241.5022657086175
 20
106.9790424539981
 30
0.0
 41
2.5
 42
2.5
 43
2.5
 50
270.0
  0
INSERT
  5
4CFF
  8
0
  2
*U35
 10
0.0
 20
0.0
 30
0.0
  0
POINT
  5
4D00
  8
DEFPOINTS
 62
     0
 10
209.13957904770771
 20
176.97904245399869
 30
0.0
  0
POINT
  5
4D01
  8
DEFPOINTS
 62
     0
 10
209.13957904770771
 20
106.9790424539981
 30
0.0
  0
POINT
  5
4D02
  8
DEFPOINTS
 62
     0
 10
241.5022657086175
 20
106.9790424539981
 30
0.0
  0
ENDBLK
  5
486C
  8
0
  0
BLOCK
  8
0
  2
*D19
 70
     1
 10
0.0
 20
0.0
 30
0.0
  3
*D19
  1

  0
LINE
  5
4D03
  8
AM_5
  6
CONTINUOUS
 62
     7
 10
218.13957904770859
 20
176.4790424539982
 30
0.0
 11
218.13957904770859
 21
194.4790424539982
 31
0.0
  0
LINE
  5
4D04
  8
AM_5
  6
CONTINUOUS
 62
     7
 10
209.139579047708
 20
180.4790424539982
 30
0.0
 11
209.139579047708
 21
194.4790424539982
 31
0.0
  0
LINE
  5
4D05
  8
AM_5
  6
CONTINUOUS
 62
     7
 10
215.63957904770859
 20
193.47904245399829
 30
0.0
 11
211.639579047708
 21
193.47904245399829
 31
0.0
  0
INSERT
  5
4D06
  8
AM_5
 62
     7
  2
_OPEN30
 10
218.13957904770859
 20
193.47904245399829
 30
0.0
 41
2.5
 42
2.5
 43
2.5
  0
INSERT
  5
4D07
  8
AM_5
 62
     7
  2
_OPEN30
 10
209.139579047708
 20
193.47904245399829
 30
0.0
 41
2.5
 42
2.5
 43
2.5
 50
180.0
  0
INSERT
  5
4D08
  8
0
  2
*U36
 10
0.0
 20
0.0
 30
0.0
  0
POINT
  5
4D09
  8
DEFPOINTS
 62
     0
 10
218.13957904770859
 20
175.4790424539982
 30
0.0
  0
POINT
  5
4D0A
  8
DEFPOINTS
 62
     0
 10
209.139579047708
 20
179.4790424539982
 30
0.0
  0
POINT
  5
4D0B
  8
DEFPOINTS
 62
     0
 10
209.139579047708
 20
193.47904245399829
 30
0.0
  0
ENDBLK
  5
488D
  8
0
  0
BLOCK
  8
0
  2
*D20
 70
     1
 10
0.0
 20
0.0
 30
0.0
  3
*D20
  1

  0
LINE
  5
50C1
  8
AM_5
  6
CONTINUOUS
 62
     7
 10
207.139579047708
 20
104.9790424539982
 30
0.0
 11
207.139579047708
 21
91.979042453998261
 31
0.0
  0
LINE
  5
50C2
  8
AM_5
  6
CONTINUOUS
 62
     7
 10
209.139579047708
 20
103.4790424539983
 30
0.0
 11
209.139579047708
 21
91.979042453998261
 31
0.0
  0
LINE
  5
50C3
  8
AM_5
  6
CONTINUOUS
 62
     7
 10
211.639579047708
 20
92.979042453998247
 30
0.0
 11
214.139579047708
 21
92.979042453998247
 31
0.0
  0
LINE
  5
50C4
  8
AM_5
  6
CONTINUOUS
 62
     7
 10
204.639579047708
 20
92.979042453998247
 30
0.0
 11
198.139579047708
 21
92.979042453998247
 31
0.0
  0
LINE
  5
50C5
  8
AM_5
  6
CONTINUOUS
 62
     7
 10
209.139579047708
 20
92.979042453998247
 30
0.0
 11
207.139579047708
 21
92.979042453998247
 31
0.0
  0
INSERT
  5
50C6
  8
AM_5
 62
     7
  2
GENDOT
 10
209.139579047708
 20
92.979042453998247
 30
0.0
 41
2.5
 42
2.5
 43
2.5
 50
180.0
  0
INSERT
  5
50C7
  8
AM_5
 62
     7
  2
_OPEN30
 10
207.139579047708
 20
92.979042453998247
 30
0.0
 41
2.5
 42
2.5
 43
2.5
  0
TEXT
  8
AM_5
  40
3
  5
511F
  62
7
  72
0
  71
0
 10
200.140
 20
91.5790
 30
0.000000
  1
2
  0
POINT
  5
50C9
  8
DEFPOINTS
 62
     0
 10
207.139579047708
 20
105.9790424539982
 30
0.0
  0
POINT
  5
50CA
  8
DEFPOINTS
 62
     0
 10
209.139579047708
 20
104.4790424539983
 30
0.0
  0
POINT
  5
50CB
  8
DEFPOINTS
 62
     0
 10
209.139579047708
 20
92.979042453998247
 30
0.0
  0
ENDBLK
  5
48DE
  8
0
  0
BLOCK
  8
0
  2
*D21
 70
     1
 10
0.0
 20
0.0
 30
0.0
  3
*D21
  1

  0
LINE
  5
50CC
  8
AM_5
  6
CONTINUOUS
 62
     7
 10
209.139579047708
 20
103.4790424539983
 30
0.0
 11
209.139579047708
 21
91.979042453998275
 31
0.0
  0
LINE
  5
50CD
  8
AM_5
  6
CONTINUOUS
 62
     7
 10
216.63957904770791
 20
120.5992339712118
 30
0.0
 11
216.63957904770791
 21
91.979042453998275
 31
0.0
  0
LINE
  5
50CE
  8
AM_5
  6
CONTINUOUS
 62
     7
 10
211.639579047708
 20
92.979042453998275
 30
0.0
 11
214.13957904770791
 21
92.979042453998275
 31
0.0
  0
LINE
  5
50CF
  8
AM_5
  6
CONTINUOUS
 62
     7
 10
216.63957904770791
 20
92.979042453998275
 30
0.0
 11
228.11797335633469
 21
92.979042453998275
 31
0.0
  0
INSERT
  5
50D0
  8
AM_5
 62
     7
  2
GENDOT
 10
209.139579047708
 20
92.979042453998275
 30
0.0
 41
2.5
 42
2.5
 43
2.5
 50
180.0
  0
INSERT
  5
50D1
  8
AM_5
 62
     7
  2
_OPEN30
 10
216.63957904770791
 20
92.979042453998275
 30
0.0
 41
2.5
 42
2.5
 43
2.5
  0
TEXT
  8
AM_5
  40
3
  5
5120
  62
7
  72
0
  71
0
 10
223.975
 20
91.5790
 30
0.000000
  1
7.5
  0
POINT
  5
50D3
  8
DEFPOINTS
 62
     0
 10
209.139579047708
 20
104.4790424539983
 30
0.0
  0
POINT
  5
50D4
  8
DEFPOINTS
 62
     0
 10
216.63957904770791
 20
121.5992339712118
 30
0.0
  0
POINT
  5
50D5
  8
DEFPOINTS
 62
     0
 10
216.63957904770791
 20
92.979042453998275
 30
0.0
  0
ENDBLK
  5
491B
  8
0
  0
BLOCK
  8
0
  2
GENDOT
 70
     0
 10
0.0
 20
0.0
 30
0.0
  3
GENDOT
  1

  0
LINE
  5
4934
  8
0
 10
0.0
 20
0.0
 30
0.0
 11
-1.0
 21
0.0
 31
0.0
  0
POLYLINE
  5
4935
  8
0
 66
     1
 10
0.0
 20
0.0
 30
0.0
 70
     1
 40
0.25
 41
0.25
  0
VERTEX
  5
50D6
  8
0
 10
-0.125
 20
0.0
 30
0.0
 42
1.0
  0
VERTEX
  5
50D7
  8
0
 10
0.125
 20
0.0
 30
0.0
 42
1.0
  0
SEQEND
  5
50D8
  8
0
  0
ENDBLK
  5
4937
  8
0
  0
BLOCK
  8
0
  2
*D23
 70
     1
 10
0.0
 20
0.0
 30
0.0
  3
*D23
  1

  0
LINE
  5
4CDF
  8
AM_5
  6
CONTINUOUS
 62
     7
 10
103.9875758567558
 20
234.2175511498252
 30
0.0
 11
103.9875758567558
 21
257.2175521498242
 31
0.0
  0
LINE
  5
4CE0
  8
AM_5
  6
CONTINUOUS
 62
     7
 10
119.9875758567559
 20
234.2175511498252
 30
0.0
 11
119.9875758567559
 21
257.2175521498242
 31
0.0
  0
LINE
  5
4CE1
  8
AM_5
  6
CONTINUOUS
 62
     7
 10
106.4875758567558
 20
256.21755214982431
 30
0.0
 11
117.4875758567559
 21
256.21755214982431
 31
0.0
  0
INSERT
  5
4CE2
  8
AM_5
 62
     7
  2
_OPEN30
 10
103.9875758567558
 20
256.21755214982431
 30
0.0
 41
2.5
 42
2.5
 43
2.5
 50
180.0
  0
INSERT
  5
4CE3
  8
AM_5
 62
     7
  2
_OPEN30
 10
119.9875758567559
 20
256.21755214982431
 30
0.0
 41
2.5
 42
2.5
 43
2.5
  0
INSERT
  5
4CE4
  8
0
  2
*U33
 10
0.0
 20
0.0
 30
0.0
  0
POINT
  5
4CE5
  8
DEFPOINTS
 62
     0
 10
103.9875758567558
 20
233.2175511498252
 30
0.0
  0
POINT
  5
4CE6
  8
DEFPOINTS
 62
     0
 10
119.9875758567559
 20
233.2175511498252
 30
0.0
  0
POINT
  5
4CE7
  8
DEFPOINTS
 62
     0
 10
119.9875758567559
 20
256.21755214982431
 30
0.0
  0
ENDBLK
  5
4971
  8
0
  0
BLOCK
  8
0
  2
*D24
 70
     1
 10
0.0
 20
0.0
 30
0.0
  3
*D24
  1

  0
LINE
  5
4D59
  8
AM_5
  6
CONTINUOUS
 62
     7
 10
304.13732906092599
 20
178.47904245399829
 30
0.0
 11
304.13732906092599
 21
187.8230271381498
 31
0.0
  0
LINE
  5
4D5A
  8
AM_5
  6
CONTINUOUS
 62
     7
 10
321.13732906092599
 20
178.47904245399829
 30
0.0
 11
321.13732906092599
 21
187.8230271381498
 31
0.0
  0
LINE
  5
4D5B
  8
AM_5
  6
CONTINUOUS
 62
     7
 10
306.63732906092599
 20
186.8230271381498
 30
0.0
 11
318.63732906092599
 21
186.8230271381498
 31
0.0
  0
INSERT
  5
4D5C
  8
AM_5
 62
     7
  2
_OPEN30
 10
304.13732906092599
 20
186.8230271381498
 30
0.0
 41
2.5
 42
2.5
 43
2.5
 50
180.0
  0
INSERT
  5
4D5D
  8
AM_5
 62
     7
  2
_OPEN30
 10
321.13732906092599
 20
186.8230271381498
 30
0.0
 41
2.5
 42
2.5
 43
2.5
  0
INSERT
  5
4D5E
  8
0
  2
*U38
 10
0.0
 20
0.0
 30
0.0
  0
POINT
  5
4D5F
  8
DEFPOINTS
 62
     0
 10
304.13732906092599
 20
177.47904245399829
 30
0.0
  0
POINT
  5
4D60
  8
DEFPOINTS
 62
     0
 10
321.13732906092599
 20
177.47904245399829
 30
0.0
  0
POINT
  5
4D61
  8
DEFPOINTS
 62
     0
 10
321.13732906092599
 20
186.8230271381498
 30
0.0
  0
ENDBLK
  5
4D31
  8
0
  0
BLOCK
  8
0
  2
*D25
 70
     1
 10
0.0
 20
0.0
 30
0.0
  3
*D25
  1

  0
LINE
  5
4D85
  8
AM_5
  6
CONTINUOUS
 62
     7
 10
360.01998035907673
 20
112.9790424539983
 30
0.0
 11
346.01998035907673
 21
112.9790424539984
 31
0.0
  0
LINE
  5
4D86
  8
AM_5
  6
CONTINUOUS
 62
     7
 10
360.01998035907673
 20
170.97904245399829
 30
0.0
 11
346.01998035907673
 21
170.97904245399829
 31
0.0
  0
LINE
  5
4D87
  8
AM_5
  6
CONTINUOUS
 62
     7
 10
347.01998035907673
 20
115.4790424539984
 30
0.0
 11
347.01998035907673
 21
168.4790424539984
 31
0.0
  0
INSERT
  5
4D88
  8
AM_5
 62
     7
  2
_OPEN30
 10
347.01998035907673
 20
112.9790424539984
 30
0.0
 41
2.5
 42
2.5
 43
2.5
 50
270.0
  0
INSERT
  5
4D89
  8
AM_5
 62
     7
  2
_OPEN30
 10
347.01998035907673
 20
170.97904245399829
 30
0.0
 41
2.5
 42
2.5
 43
2.5
 50
90.0
  0
INSERT
  5
4D8A
  8
0
  2
*U39
 10
0.0
 20
0.0
 30
0.0
  0
POINT
  5
4D8B
  8
DEFPOINTS
 62
     0
 10
361.01998035907673
 20
112.9790424539983
 30
0.0
  0
POINT
  5
4D8C
  8
DEFPOINTS
 62
     0
 10
361.01998035907673
 20
170.97904245399829
 30
0.0
  0
POINT
  5
4D8D
  8
DEFPOINTS
 62
     0
 10
347.01998035907673
 20
170.97904245399829
 30
0.0
  0
ENDBLK
  5
4D67
  8
0
  0
BLOCK
  8
0
  2
*D26
 70
     1
 10
0.0
 20
0.0
 30
0.0
  3
*D26
  1

  0
LINE
  5
4DA6
  8
AM_5
  6
CONTINUOUS
 62
     7
 10
352.01998035907673
 20
106.4790424539983
 30
0.0
 11
339.01998035907673
 21
106.4790424539984
 31
0.0
  0
LINE
  5
4DA7
  8
AM_5
  6
CONTINUOUS
 62
     7
 10
352.01998035907673
 20
177.47904245399829
 30
0.0
 11
339.01998035907678
 21
177.47904245399829
 31
0.0
  0
LINE
  5
4DA8
  8
AM_5
  6
CONTINUOUS
 62
     7
 10
340.01998035907673
 20
108.9790424539984
 30
0.0
 11
340.01998035907678
 21
174.9790424539984
 31
0.0
  0
INSERT
  5
4DA9
  8
AM_5
 62
     7
  2
_OPEN30
 10
340.01998035907673
 20
106.4790424539984
 30
0.0
 41
2.5
 42
2.5
 43
2.5
 50
270.0
  0
INSERT
  5
4DAA
  8
AM_5
 62
     7
  2
_OPEN30
 10
340.01998035907678
 20
177.47904245399829
 30
0.0
 41
2.5
 42
2.5
 43
2.5
 50
90.0
  0
INSERT
  5
4DAB
  8
0
  2
*U40
 10
0.0
 20
0.0
 30
0.0
  0
POINT
  5
4DAC
  8
DEFPOINTS
 62
     0
 10
353.01998035907673
 20
106.4790424539983
 30
0.0
  0
POINT
  5
4DAD
  8
DEFPOINTS
 62
     0
 10
353.01998035907673
 20
177.47904245399829
 30
0.0
  0
POINT
  5
4DAE
  8
DEFPOINTS
 62
     0
 10
340.01998035907678
 20
177.47904245399829
 30
0.0
  0
ENDBLK
  5
4D91
  8
0
  0
BLOCK
  8
0
  2
*D27
 70
     1
 10
0.0
 20
0.0
 30
0.0
  3
*D27
  1

  0
LINE
  5
4DFA
  8
AM_5
  6
CONTINUOUS
 62
     7
 10
361.01998035907673
 20
142.97904245399829
 30
0.0
 11
361.01998035907673
 21
151.44501736079019
 31
0.0
  0
LINE
  5
4DFB
  8
AM_5
  6
CONTINUOUS
 62
     7
 10
353.01998035907673
 20
142.97904245399829
 30
0.0
 11
353.01998035907673
 21
151.44501736079019
 31
0.0
  0
LINE
  5
4DFC
  8
AM_5
  6
CONTINUOUS
 62
     7
 10
358.51998035907673
 20
150.44501736079019
 30
0.0
 11
355.51998035907673
 21
150.44501736079019
 31
0.0
  0
INSERT
  5
4DFD
  8
AM_5
 62
     7
  2
_OPEN30
 10
361.01998035907673
 20
150.44501736079019
 30
0.0
 41
2.5
 42
2.5
 43
2.5
  0
INSERT
  5
4DFE
  8
AM_5
 62
     7
  2
_OPEN30
 10
353.01998035907673
 20
150.44501736079019
 30
0.0
 41
2.5
 42
2.5
 43
2.5
 50
180.0
  0
INSERT
  5
4DFF
  8
0
  2
*U41
 10
0.0
 20
0.0
 30
0.0
  0
POINT
  5
4E00
  8
DEFPOINTS
 62
     0
 10
361.01998035907673
 20
141.97904245399829
 30
0.0
  0
POINT
  5
4E01
  8
DEFPOINTS
 62
     0
 10
353.01998035907673
 20
141.97904245399829
 30
0.0
  0
POINT
  5
4E02
  8
DEFPOINTS
 62
     0
 10
353.01998035907673
 20
150.44501736079019
 30
0.0
  0
ENDBLK
  5
4DDC
  8
0
  0
BLOCK
  8
0
  2
*X29
 70
     1
 10
0.0
 20
0.0
 30
0.0
  3
*X29
  1

  0
LINE
  5
50DA
  8
0
 62
     0
 10
371.86559756683249
 20
91.979042453998346
 30
0.0
 11
373.01998035907673
 21
93.133425246242595
 31
0.0
  0
LINE
  5
50DB
  8
0
 62
     0
 10
362.88534144576329
 20
91.979042453998375
 30
0.0
 11
373.01998035907673
 21
102.1136813673117
 31
0.0
  0
LINE
  5
50DC
  8
0
 62
     0
 10
353.9050853246942
 20
91.979042453998346
 30
0.0
 11
373.01998035907673
 21
111.0939374883809
 31
0.0
  0
LINE
  5
50DD
  8
0
 62
     0
 10
353.01998035907673
 20
100.07419360945001
 30
0.0
 11
373.01998035907673
 21
120.07419360945001
 31
0.0
  0
LINE
  5
50DE
  8
0
 62
     0
 10
361.01998035907673
 20
117.0544497305191
 30
0.0
 11
373.01998035907673
 21
129.05444973051911
 31
0.0
  0
LINE
  5
50DF
  8
0
 62
     0
 10
361.01998035907673
 20
126.0347058515883
 30
0.0
 11
373.01998035907673
 21
138.03470585158831
 31
0.0
  0
LINE
  5
50E0
  8
0
 62
     0
 10
367.9840608404175
 20
141.97904245399829
 30
0.0
 11
373.01998035907673
 21
147.0149619726574
 31
0.0
  0
LINE
  5
50E1
  8
0
 62
     0
 10
361.01998035907673
 20
135.0149619726574
 30
0.0
 11
367.9840608404175
 21
141.97904245399829
 31
0.0
  0
LINE
  5
50E2
  8
0
 62
     0
 10
361.01998035907673
 20
143.99521809372661
 30
0.0
 11
373.01998035907673
 21
155.99521809372661
 31
0.0
  0
LINE
  5
50E3
  8
0
 62
     0
 10
361.01998035907673
 20
152.9754742147957
 30
0.0
 11
373.01998035907673
 21
164.9754742147957
 31
0.0
  0
LINE
  5
50E4
  8
0
 62
     0
 10
361.01998035907661
 20
161.9557303358649
 30
0.0
 11
373.01998035907673
 21
173.9557303358649
 31
0.0
  0
LINE
  5
50E5
  8
0
 62
     0
 10
361.01998035907673
 20
170.93598645693399
 30
0.0
 11
373.01998035907673
 21
182.93598645693399
 31
0.0
  0
LINE
  5
50E6
  8
0
 62
     0
 10
356.08911132514299
 20
174.98537354406949
 30
0.0
 11
373.01998035907673
 21
191.91624257800319
 31
0.0
  0
LINE
  5
50E7
  8
0
 62
     0
 10
353.01998035907673
 20
180.8964986990724
 30
0.0
 11
364.10252411400268
 21
191.9790424539984
 31
0.0
  0
LINE
  5
50E8
  8
0
 62
     0
 10
353.01998035907673
 20
189.87675482014151
 30
0.0
 11
355.12226799293347
 21
191.9790424539984
 31
0.0
  0
ENDBLK
  5
50EA
  8
0
  0
BLOCK
  8
0
  2
*U30
 70
     1
 10
0.0
 20
0.0
 30
0.0
  3
*U30
  1

  0
TEXT
  5
50EC
  8
AM_5
 62
     7
 10
109.7732901424702
 20
189.4790424539984
 30
0.0
 40
3.0
  1
14
  0
ENDBLK
  5
50EE
  8
0
  0
BLOCK
  8
0
  2
*U31
 70
     1
 10
0.0
 20
0.0
 30
0.0
  3
*U31
  1

  0
TEXT
  5
50F0
  8
AM_5
 62
     7
 10
109.55900442818449
 20
196.47904245399829
 30
0.0
 40
3.0
  1
20
  0
ENDBLK
  5
50F2
  8
0
  0
BLOCK
  8
0
  2
*U32
 70
     1
 10
0.0
 20
0.0
 30
0.0
  3
*U32
  1

  0
TEXT
  5
50F4
  8
AM_5
 62
     7
 10
148.2701528180234
 20
139.62189959685551
 30
0.0
 40
3.0
  1
69
 50
90.0
  0
ENDBLK
  5
50F6
  8
0
  0
BLOCK
  8
0
  2
*U33
 70
     1
 10
0.0
 20
0.0
 30
0.0
  3
*U33
  1

  0
TEXT
  5
50F8
  8
AM_5
 62
     7
 10
109.9161472853273
 20
257.2175521498242
 30
0.0
 40
3.0
  1
16
  0
ENDBLK
  5
50FA
  8
0
  0
BLOCK
  8
0
  2
*U34
 70
     1
 10
0.0
 20
0.0
 30
0.0
  3
*U34
  1

  0
TEXT
  5
50FC
  8
AM_5
 62
     7
 10
233.5022657086173
 20
139.5504710254269
 30
0.0
 40
3.0
  1
67
 50
90.0
  0
ENDBLK
  5
50FE
  8
0
  0
BLOCK
  8
0
  2
*U35
 70
     1
 10
0.0
 20
0.0
 30
0.0
  3
*U35
  1

  0
TEXT
  5
5100
  8
AM_5
 62
     7
 10
240.5022657086175
 20
139.55047102542699
 30
0.0
 40
3.0
  1
70
 50
90.0
  0
ENDBLK
  5
5102
  8
0
  0
BLOCK
  8
0
  2
*U36
 70
     1
 10
0.0
 20
0.0
 30
0.0
  3
*U36
  1

  0
TEXT
  5
5104
  8
AM_5
 62
     7
 10
212.71100761913689
 20
194.4790424539982
 30
0.0
 40
3.0
  1
9
  0
ENDBLK
  5
5106
  8
0
  0
BLOCK
  8
0
  2
*U37
 70
     1
 10
0.0
 20
0.0
 30
0.0
  3
*U37
  1

  0
TEXT
  5
5108
  8
AM_5
 10
328.1567468160199
 20
62.199271625907841
 30
0.0
 40
3.0
  1
切欠き図（木用）
  0
ENDBLK
  5
510A
  8
0
  0
BLOCK
  8
0
  2
*U38
 70
     1
 10
0.0
 20
0.0
 30
0.0
  3
*U38
  1

  0
TEXT
  5
510C
  8
AM_5
 62
     7
 10
310.49447191806883
 20
187.8230271381498
 30
0.0
 40
3.0
  1
17
  0
ENDBLK
  5
510E
  8
0
  0
BLOCK
  8
0
  2
*U39
 70
     1
 10
0.0
 20
0.0
 30
0.0
  3
*U39
  1

  0
TEXT
  5
5110
  8
AM_5
 62
     7
 10
346.01998035907673
 20
139.55047102542699
 30
0.0
 40
3.0
  1
58
 50
90.0
  0
ENDBLK
  5
5112
  8
0
  0
BLOCK
  8
0
  2
*U40
 70
     1
 10
0.0
 20
0.0
 30
0.0
  3
*U40
  1

  0
TEXT
  5
5114
  8
AM_5
 62
     7
 10
339.01998035907673
 20
140.1933281682841
 30
0.0
 40
3.0
  1
71
 50
90.0
  0
ENDBLK
  5
5116
  8
0
  0
BLOCK
  8
0
  2
*U41
 70
     1
 10
0.0
 20
0.0
 30
0.0
  3
*U41
  1

  0
TEXT
  5
5118
  8
AM_5
 62
     7
 10
356.01998035907673
 20
151.44501736079019
 30
0.0
 40
3.0
  1
8
  0
ENDBLK
  5
511A
  8
0
  0
BLOCK
  8
0
  2
*U42
 70
     1
 10
0.0
 20
0.0
 30
0.0
  3
*U42
  1

  0
TEXT
  5
511C
  8
AM_5
 62
     7
 10
155.27015281802349
 20
139.55047102542699
 30
0.0
 40
3.0
  1
75
 50
90.0
  0
ENDBLK
  5
511E
  8
0
  0
ENDSEC
  0
SECTION
  2
ENTITIES
  0
INSERT
  5
1BB5
  8
0
  2
ZUWAKU-A3H
 10
0.0
 20
0.0
 30
0.0
1001
GENIUS_GENOREF_13
1005
1C93
1001
GENIUS_GENOBJ-N-SDF_13
1002
{
1000
OWNER
1000
GEN
1002
}
1001
GENIUS_GENODEF_13
1002
{
1000
HIER
1070
     0
1002
}
1002
{
1000
MANEDIT
1070
     0
1002
}
1002
{
1000
NOSEL
1070
     0
1002
}
1002
{
1000
BEHIND
1070
     0
1002
}
1002
{
1000
OTHER
1070
     0
1002
}
1002
{
1000
REACTOR
1002
}
1001
GENIUS_GENSCREG_13
1040
1.0
1040
1.0
1011
24.999999999999979
1021
0.0
1031
0.0
1021
8.9999999999999964
1031
0.0
1011
411.99999999999989
1021
0.0
1031
0.0
1021
284.99999999999989
1031
0.0
1070
     3
  0
POINT
  5
1C93
  8
0
 10
0.0
 20
0.0
 30
0.0
1001
GENIUS_GENOENT_13
1002
{
1000
MYREF
1005
1C93
1002
}
1002
{
1000
GRP
1005
0
1002
}
1001
GENIUS_GENOBJ-N-TIT_13
1002
{
1000
OWNER
1000
GEN
1002
}
1001
GENIUS_GENODEF_13
1002
{
1000
HIER
1070
     1
1002
}
1002
{
1000
MANEDIT
1070
     1
1002
}
1002
{
1000
NOSEL
1070
     0
1002
}
1002
{
1000
BEHIND
1070
     0
1002
}
1002
{
1000
OTHER
1070
     0
1002
}
1002
{
1000
REACTOR
1002
}
1001
GENIUS_GENOLIS_13
1002
{
1000
ENT
1005
1BB5
1005
2A9C
1002
}
1001
GENIUS_GENTITLE_13
1002
{
1000
BORDER
1000
C:\Program Files\Autodesk\ACADM 2008\Acadm\gen\Dwg\Format\ZUWAKU-A3H
1002
}
1002
{
1000
TITLE
1000
C:\Program Files\Autodesk\ACADM 2008\Acadm\gen\Dwg\Title\N_Title
1002
}
1002
{
1000
ADDITIONAL1
1000

1002
}
1002
{
1000
ADDITIONAL2
1000

1002
}
1002
{
1000
SCALE
1000
1:1
1002
}
1002
{
1000
TITLESTD
1000
JIS
1002
}
1002
{
1000
HRA
1005
1BB5
1002
}
1002
{
1000
HTIT
1005
2A9C
1002
}
1002
{
1000
GENIUSID
1005
1C93
1002
}
1002
{
1000
INVTXTID
1005
0
1002
}
1002
{
1000
UNCHG
1002
{
1000
GEN-TITLE-SIZ
1000
GEN-TITLE-SCA
1002
}
1002
}
  0
INSERT
  5
20F2
  8
0
 66
     1
  2
A$C1C06296A
 10
135.5000001316065
 20
8.9999998268887005
 30
0.0
  0
ATTRIB
  5
20F3
  8
AM_BOR
 62
     7
 10
249.8107097069896
 20
9.4999999999999893
 30
0.0
 40
3.0
  1

 11
249.8107097069896
 21
10.999999999999989
 31
0.0
  2
SETS｛20｝
 70
     0
 74
     2
1001
AcDbAttr
1070
     0
1070
     1
  0
ATTRIB
  5
20F4
  8
AM_BOR
 62
     7
 10
154.5607097069896
 20
9.4999999999999893
 30
0.0
 40
3.0
  1

 11
154.5607097069896
 21
10.999999999999989
 31
0.0
  2
REMARKS｛20｝
 70
     0
 74
     2
1001
AcDbAttr
1070
     0
1070
     1
  0
ATTRIB
  5
20F5
  8
AM_BOR
 62
     7
 10
249.8107097069896
 20
14.499999999999989
 30
0.0
 40
3.0
  1

 11
249.8107097069896
 21
15.999999999999989
 31
0.0
  2
SETS｛20｝
 70
     0
 74
     2
1001
AcDbAttr
1070
     0
1070
     1
  0
ATTRIB
  5
20F6
  8
AM_BOR
 62
     7
 10
154.5607097069896
 20
14.499999999999989
 30
0.0
 40
3.0
  1

 11
154.5607097069896
 21
15.999999999999989
 31
0.0
  2
REMARKS｛20｝
 70
     0
 74
     2
1001
AcDbAttr
1070
     0
1070
     1
  0
ATTRIB
  5
20F7
  8
AM_BOR
 62
     7
 10
249.8107097069896
 20
19.499999999999989
 30
0.0
 40
3.0
  1

 11
249.8107097069896
 21
20.999999999999989
 31
0.0
  2
SETS｛20｝
 70
     0
 74
     2
1001
AcDbAttr
1070
     0
1070
     1
  0
ATTRIB
  5
20F8
  8
AM_BOR
 62
     7
 10
154.5607097069896
 20
19.499999999999989
 30
0.0
 40
3.0
  1

 11
154.5607097069896
 21
20.999999999999989
 31
0.0
  2
REMARKS｛20｝
 70
     0
 74
     2
1001
AcDbAttr
1070
     0
1070
     1
  0
ATTRIB
  5
20F9
  8
AM_BOR
 62
     7
 10
249.74999999999969
 20
32.499999999999993
 30
0.0
 40
3.0
  1
DC-00-75
 11
249.74999999999969
 21
33.999999999999993
 31
0.0
  2
ART_NO｛20｝
 70
     0
 74
     2
1001
AcDbAttr
1070
     0
1070
     1
  0
ATTRIB
  5
20FA
  8
AM_BOR
 62
     7
 10
154.49999999999969
 20
32.499999999999993
 30
0.0
 40
3.0
  1
彫込み引手
 11
154.49999999999969
 21
33.999999999999993
 31
0.0
  2
ARTICLE｛20｝
 70
     0
 74
     2
1001
AcDbAttr
1070
     0
1070
     1
  0
ATTRIB
  5
20FB
  8
AM_BOR
 62
     7
 10
249.74999999999969
 20
25.999999999999989
 30
0.0
 40
3.0
  1
光沢クロム
 11
249.74999999999969
 21
27.499999999999989
 31
0.0
  2
FINISH｛20｝
 70
     0
 74
     2
1001
AcDbAttr
1070
     0
1070
     1
  0
ATTRIB
  5
20FC
  8
AM_BOR
 62
     7
 10
154.49999999999969
 20
25.999999999999989
 30
0.0
 40
3.0
  1
亜鉛ダイカスト
 11
154.49999999999969
 21
27.499999999999989
 31
0.0
  2
MATERIAK｛20｝
 70
     0
 74
     2
1001
AcDbAttr
1070
     0
1070
     1
  0
SEQEND
  5
20FD
  8
0
  0
LINE
  5
45EC
  8
AM_7
 10
111.9875758567559
 20
182.47904245399829
 30
0.0
 11
111.9875758567559
 21
101.4790424539983
 31
0.0
  0
LINE
  5
45ED
  8
AM_7
 10
111.9875758567559
 20
228.88897883290241
 30
0.0
 11
111.9875758567559
 21
244.35773907779361
 31
0.0
  0
LINE
  5
45EE
  8
AM_7
 10
124.9875758567559
 20
141.97904245399829
 30
0.0
 11
98.987575856755953
 21
141.97904245399829
 31
0.0
  0
LINE
  5
45EF
  8
AM_7
 10
204.139579047708
 20
141.97904245399829
 30
0.0
 11
219.8395790477079
 21
141.97904245399829
 31
0.0
  0
LINE
  5
45F0
  8
0
 10
104.9875758567559
 20
175.47904245399829
 30
0.0
 11
104.9875758567559
 21
108.4790424539983
 31
0.0
  0
LINE
  5
45F1
  8
0
 10
118.9875758567559
 20
175.47904245399829
 30
0.0
 11
118.9875758567559
 21
108.4790424539983
 31
0.0
  0
LINE
  5
45F2
  8
0
 10
101.9875758567559
 20
177.47904245399829
 30
0.0
 11
101.9875758567559
 21
106.4790424539983
 31
0.0
  0
LINE
  5
45F3
  8
0
 10
121.9875758567559
 20
177.47904245399829
 30
0.0
 11
121.9875758567559
 21
106.4790424539983
 31
0.0
  0
LINE
  5
45F4
  8
0
 10
119.9875758567559
 20
179.47904245399829
 30
0.0
 11
103.9875758567559
 21
179.47904245399829
 31
0.0
  0
LINE
  5
45F5
  8
0
 10
119.9875758567559
 20
104.4790424539983
 30
0.0
 11
103.9875758567559
 21
104.4790424539983
 31
0.0
  0
LINE
  5
45F6
  8
0
 10
117.9875758567559
 20
176.47904245399829
 30
0.0
 11
105.987575856756
 21
176.47904245399829
 31
0.0
  0
LINE
  5
45F7
  8
0
 10
117.9875758567559
 20
107.4790424539983
 30
0.0
 11
105.987575856756
 21
107.4790424539983
 31
0.0
  0
ARC
  5
45F8
  8
0
 10
103.9875758567559
 20
106.4790424539983
 30
0.0
 40
2.0
 50
180.0
 51
270.0
  0
ARC
  5
45F9
  8
0
 10
119.9875758567559
 20
106.4790424539983
 30
0.0
 40
2.0
 50
270.0
 51
0.0
  0
ARC
  5
45FA
  8
0
 10
119.9875758567559
 20
177.47904245399829
 30
0.0
 40
2.0
 50
0.0
 51
90.0
  0
ARC
  5
45FB
  8
0
 10
103.9875758567559
 20
177.47904245399829
 30
0.0
 40
2.0
 50
90.0
 51
180.0
  0
LINE
  5
4600
  8
0
 10
117.4875758567559
 20
161.97904245399829
 30
0.0
 11
117.4875758567559
 21
121.97904245399771
 31
0.0
  0
LINE
  5
4601
  8
0
 10
106.4875758567559
 20
161.97904245399829
 30
0.0
 11
106.4875758567559
 21
121.9790424539987
 31
0.0
  0
LINE
  5
4602
  8
0
 10
106.4875758567559
 20
121.9790424539983
 30
0.0
 11
104.9875758567559
 21
109.4790424539983
 31
0.0
  0
LINE
  5
4603
  8
0
 10
117.4875758567559
 20
121.9790424539983
 30
0.0
 11
118.97305333842181
 21
109.7196233547317
 31
0.0
  0
LINE
  5
4604
  8
0
 10
117.4875758567559
 20
161.97904245399829
 30
0.0
 11
118.97305333842181
 21
174.2384615532649
 31
0.0
  0
LINE
  5
4605
  8
0
 10
106.4875758567559
 20
161.9790424539984
 30
0.0
 11
105.00209837509
 21
174.2384615532651
 31
0.0
  0
LINE
  5
4606
  8
0
 10
208.139579047708
 20
179.4790424539982
 30
0.0
 11
209.139579047708
 21
179.4790424539982
 31
0.0
  0
LINE
  5
4607
  8
0
 10
207.139579047708
 20
105.9790424539982
 30
0.0
 11
207.139579047708
 21
177.9790424539982
 31
0.0
  0
LINE
  5
4608
  8
AM_7
 10
208.08208272764199
 20
175.4790424539982
 30
0.0
 11
220.00226570861739
 21
175.4790424539982
 31
0.0
  0
LINE
  5
4609
  8
0
 10
208.13957904770791
 20
179.4790424539982
 30
0.0
 11
207.13957904770791
 21
177.9790424539982
 31
0.0
  0
LINE
  5
460A
  8
0
 10
218.13957904770791
 20
175.4790424539982
 30
0.0
 11
216.40752824013961
 21
176.4790424539982
 31
0.0
  0
LINE
  5
460B
  8
0
 10
218.13957904770791
 20
175.4790424539982
 30
0.0
 11
216.40752824014689
 21
174.4790424539982
 31
0.0
  0
LINE
  5
460C
  8
0
 10
216.40752824014689
 20
174.4790424539982
 30
0.0
 11
216.40752824013981
 21
176.47904245399809
 31
0.0
  0
LINE
  5
460F
  8
0
 10
218.13957904770791
 20
175.47904245399829
 30
0.0
 11
216.40752824014049
 21
175.7844497433307
 31
0.0
  0
LINE
  5
4610
  8
0
 10
218.13957904770791
 20
175.4790424539982
 30
0.0
 11
216.4075282401441
 21
175.17363516466699
 31
0.0
  0
LINE
  5
4611
  8
0
 10
216.40752824014041
 20
175.7844497433307
 30
0.0
 11
210.4409023557491
 21
175.9503471082551
 31
0.0
  0
LINE
  5
4612
  8
0
 10
216.4075282401441
 20
175.17363516466679
 30
0.0
 11
211.42447976718611
 21
175.0295381159828
 31
0.0
  0
LINE
  5
4613
  8
0
 10
208.139579047708
 20
104.4790424539983
 30
0.0
 11
209.139579047708
 21
104.4790424539983
 31
0.0
  0
LINE
  5
4614
  8
AM_7
 10
210.08302009628741
 20
108.4790424539983
 30
0.0
 11
220.5022657086173
 21
108.4790424539983
 31
0.0
  0
LINE
  5
4615
  8
0
 10
216.639579047708
 20
162.35885093678499
 30
0.0
 11
216.639579047708
 21
121.5992339712118
 31
0.0
  0
LINE
  5
4616
  8
0
 10
208.139579047708
 20
104.4790424539983
 30
0.0
 11
207.139579047708
 21
105.9790424539982
 31
0.0
  0
LINE
  5
4617
  8
0
 10
218.13957904770791
 20
108.4790424539983
 30
0.0
 11
216.40752824013981
 21
107.4790424539983
 31
0.0
  0
LINE
  5
4618
  8
0
 10
218.13957904770791
 20
108.4790424539983
 30
0.0
 11
216.40752824014689
 21
109.4790424539983
 31
0.0
  0
LINE
  5
4619
  8
0
 10
216.40752824014689
 20
109.4790424539981
 30
0.0
 11
216.40752824013981
 21
107.4790424539981
 31
0.0
  0
LINE
  5
461C
  8
0
 10
218.13957904770791
 20
108.4790424539983
 30
0.0
 11
216.40752824014049
 21
108.1736351646657
 31
0.0
  0
LINE
  5
461D
  8
0
 10
218.13957904770791
 20
108.4790424539983
 30
0.0
 11
216.4075282401441
 21
108.7844497433295
 31
0.0
  0
LINE
  5
4620
  8
0
 10
120.487575856756
 20
231.2175511498252
 30
0.0
 11
103.4875758567558
 21
231.2175511498252
 31
0.0
  0
LINE
  5
4621
  8
0
 10
121.9875758567559
 20
232.21755114982511
 30
0.0
 11
121.9875758567559
 21
233.2175511498252
 31
0.0
  0
LINE
  5
4622
  8
0
 10
121.987575856756
 20
232.21755114982511
 30
0.0
 11
120.4875758567559
 21
231.21755114982511
 31
0.0
  0
LINE
  5
4624
  8
0
 10
101.9875758567558
 20
232.21755114982511
 30
0.0
 11
101.9875758567558
 21
233.2175511498252
 31
0.0
  0
LINE
  5
4625
  8
0
 10
101.9875758567558
 20
232.2175511498252
 30
0.0
 11
103.4875758567558
 21
231.2175511498252
 31
0.0
  0
LINE
  5
4626
  8
0
 10
106.73860865014549
 20
240.7175511498252
 30
0.0
 11
111.1215504529732
 21
240.71755114982531
 31
0.0
  0
POINT
  5
462E
  8
0
 10
119.987575856756
 20
233.21755114982511
 30
0.0
  0
POINT
  5
462F
  8
0
 10
103.9875758567558
 20
233.2175511498252
 30
0.0
  0
LINE
  5
4632
  8
0
 10
209.139579047708
 20
104.4790424539983
 30
0.0
 11
209.139579047708
 21
179.4790424539982
 31
0.0
  0
ARC
  5
4633
  8
0
 10
198.63957904770791
 20
121.5992339712118
 30
0.0
 40
18.0
 50
305.68533471265101
 51
0.0
  0
ARC
  5
4634
  8
0
 10
198.63957904770791
 20
162.35885093678499
 30
0.0
 40
18.0
 50
0.0
 51
54.314665287349037
  0
LINE
  5
4637
  8
0
 10
101.9875758567558
 20
233.2175511498252
 30
0.0
 11
121.9875758567559
 21
233.2175511498252
 31
0.0
  0
LINE
  5
4742
  8
0
 10
111.9875758567573
 20
242.21755114982429
 30
0.0
 11
110.9875758567573
 21
240.4855003422559
 31
0.0
  0
LINE
  5
4743
  8
0
 10
111.9875758567573
 20
242.21755114982429
 30
0.0
 11
112.9875758567574
 21
240.48550034226309
 31
0.0
  0
LINE
  5
4744
  8
0
 10
112.9875758567574
 20
240.48550034226309
 30
0.0
 11
110.9875758567574
 21
240.48550034225599
 31
0.0
  0
LINE
  5
4747
  8
0
 10
111.9875758567572
 20
242.21755114982429
 30
0.0
 11
111.6821685674248
 21
240.48550034225681
 31
0.0
  0
LINE
  5
4748
  8
0
 10
111.9875758567573
 20
242.21755114982429
 30
0.0
 11
112.2929831460886
 21
240.48550034226039
 31
0.0
  0
LINE
  5
4749
  8
0
 10
111.6821685674249
 20
240.4855003422567
 30
0.0
 11
111.4929210641089
 21
233.67906883349809
 31
0.0
  0
LINE
  5
474A
  8
0
 10
112.2929831460887
 20
240.48550034226039
 30
0.0
 11
112.4898867793495
 21
233.67633694855539
 31
0.0
  0
LINE
  5
474C
  8
0
 10
112.8536012605452
 20
240.71755114982531
 30
0.0
 11
117.2365430633664
 21
240.7175511498252
 31
0.0
  0
LINE
  5
474D
  8
0
 10
110.5780485934156
 20
234.53265365630139
 30
0.0
 11
111.9875758567559
 21
233.2175511498252
 31
0.0
  0
LINE
  5
474E
  8
0
 10
111.9875758567559
 20
233.2175511498252
 30
0.0
 11
113.3988967639976
 21
234.5065814308121
 31
0.0
  0
DIMENSION
  5
474F
  8
AM_5
  2
*D13
 10
118.9875758567559
 20
188.4790424539984
 30
0.0
 11
111.9875758567559
 21
190.97904245399829
 31
0.0
 70
     0
 13
104.9875758567559
 23
175.47904245399829
 33
0.0
 14
118.9875758567559
 24
175.47904245399829
 34
0.0
1001
ACAD_DSTYLE_DIMINSPECT
1070
   396
1000
100%
1070
   395
1000

1070
   394
1070
    33
1070
   393
1070
     0
  0
DIMENSION
  5
4779
  8
AM_5
  2
*D14
 10
121.9875758567559
 20
195.47904245399829
 30
0.0
 11
111.9875758567559
 21
197.97904245399829
 31
0.0
 70
     0
 13
101.9875758567559
 23
177.47904245399829
 33
0.0
 14
121.9875758567559
 24
177.47904245399829
 34
0.0
1001
ACAD_DSTYLE_DIMINSPECT
1070
   396
1000
100%
1070
   395
1000

1070
   394
1070
    33
1070
   393
1070
     0
  0
DIMENSION
  5
47BE
  8
AM_5
  2
*D15
 10
149.2701528180234
 20
107.4790424539983
 30
0.0
 11
146.7701528180234
 21
141.9790424539984
 31
0.0
 70
     0
 13
117.9875758567559
 23
176.47904245399829
 33
0.0
 14
117.9875758567559
 24
107.4790424539983
 34
0.0
 50
90.0
1001
ACAD_DSTYLE_DIMINSPECT
1070
   396
1000
100%
1070
   395
1000

1070
   394
1070
    33
1070
   393
1070
     0
  0
DIMENSION
  5
47E8
  8
AM_5
  2
*D16
 10
156.27015281802349
 20
179.47904245399829
 30
0.0
 11
153.77015281802349
 21
141.9790424539984
 31
0.0
 70
     0
 13
119.9875758567559
 23
104.4790424539983
 33
0.0
 14
119.9875758567559
 24
179.47904245399829
 34
0.0
 50
90.0
1001
ACAD_DSTYLE_DIMINSPECT
1070
   396
1000
100%
1070
   395
1000

1070
   394
1070
    33
1070
   393
1070
     0
  0
DIMENSION
  5
483F
  8
AM_5
  2
*D17
 10
234.50226570861739
 20
175.4790424539982
 30
0.0
 11
232.0022657086173
 21
141.97904245399829
 31
0.0
 70
     0
 13
220.5022657086173
 23
108.4790424539983
 33
0.0
 14
220.00226570861739
 24
175.4790424539982
 34
0.0
 50
90.0
1001
ACAD_DSTYLE_DIMINSPECT
1070
   396
1000
100%
1070
   395
1000

1070
   394
1070
    33
1070
   393
1070
     0
  0
DIMENSION
  5
4869
  8
AM_5
  2
*D18
 10
241.5022657086175
 20
106.9790424539981
 30
0.0
 11
239.00226570861739
 21
141.9790424539984
 31
0.0
 70
     0
 13
209.13957904770771
 23
176.97904245399869
 33
0.0
 14
209.13957904770771
 24
106.9790424539981
 34
0.0
 50
90.0
1001
ACAD_DSTYLE_DIMINSPECT
1070
   396
1000
100%
1070
   395
1000

1070
   394
1070
    33
1070
   393
1070
     0
  0
DIMENSION
  5
488A
  8
AM_5
  2
*D19
 10
209.139579047708
 20
193.47904245399829
 30
0.0
 11
213.63957904770831
 21
195.9790424539982
 31
0.0
 70
     0
 13
218.13957904770859
 23
175.4790424539982
 33
0.0
 14
209.139579047708
 24
179.4790424539982
 34
0.0
1001
ACAD_DSTYLE_DIMINSPECT
1070
   396
1000
100%
1070
   395
1000

1070
   394
1070
    33
1070
   393
1070
     0
  0
DIMENSION
  5
48DB
  8
AM_5
  2
*D20
 10
209.139579047708
 20
92.979042453998247
 30
0.0
 11
200.139579047708
 21
92.979042453998247
 31
0.0
 70
   128
 13
207.139579047708
 23
105.9790424539982
 33
0.0
 14
209.139579047708
 24
104.4790424539983
 34
0.0
 50
0.0000000000001018
1001
ACAD_DSTYLE_DIMINSPECT
1070
   396
1000
100%
1070
   395
1000

1070
   394
1070
    33
1070
   393
1070
     0
1001
ACAD
1000
DSTYLE
1002
{
1070
   173
1070
     1
1070
   174
1070
     1
1070
     6
1000
OPEN30
1070
     7
1000
GENDOT
1002
}
  0
DIMENSION
  5
4918
  8
AM_5
  2
*D21
 10
216.63957904770791
 20
92.979042453998275
 30
0.0
 11
223.97511621347761
 21
92.979042453998275
 31
0.0
 70
   128
 13
209.139579047708
 23
104.4790424539983
 33
0.0
 14
216.63957904770791
 24
121.5992339712118
 34
0.0
1001
ACAD_DSTYLE_DIMINSPECT
1070
   396
1000
100%
1070
   395
1000

1070
   394
1070
    33
1070
   393
1070
     0
1001
ACAD
1000
DSTYLE
1002
{
1070
   173
1070
     1
1070
   174
1070
     1
1070
     6
1000
GENDOT
1070
     7
1000
OPEN30
1002
}
  0
DIMENSION
  5
496E
  8
AM_5
  2
*D23
 10
119.9875758567559
 20
256.21755214982431
 30
0.0
 11
111.9875758567559
 21
258.71755214982431
 31
0.0
 70
     0
 13
103.9875758567558
 23
233.2175511498252
 33
0.0
 14
119.9875758567559
 24
233.2175511498252
 34
0.0
1001
ACAD_DSTYLE_DIMINSPECT
1070
   396
1000
100%
1070
   395
1000

1070
   394
1070
    33
1070
   393
1070
     0
  0
LINE
  5
4A0A
  8
0
 10
119.2189988647317
 20
238.98187859000731
 30
0.0
 11
119.9875758567559
 21
233.2175511498252
 31
0.0
  0
ARC
  5
4A0B
  8
0
 10
117.2365430633664
 20
238.7175511498252
 30
0.0
 40
2.0
 50
7.5946433685912114
 51
89.999999999999801
1001
GENIUS_GENODEF_13
1002
{
1000
HIER
1070
     0
1002
}
1002
{
1000
MANEDIT
1070
     0
1002
}
1002
{
1000
NOSEL
1070
     0
1002
}
1002
{
1000
BEHIND
1070
     0
1002
}
1002
{
1000
OTHER
1070
     0
1002
}
1002
{
1000
REACTOR
1002
}
1001
GENIUS_GENOBJ-N-FIL_13
1002
{
1000
OWNER
1000
GEN
1002
}
  0
ARC
  5
4A0C
  8
0
 10
106.73860865014549
 20
238.7175511498252
 30
0.0
 40
2.0
 50
90.0
 51
172.40535663140881
1001
GENIUS_GENODEF_13
1002
{
1000
HIER
1070
     0
1002
}
1002
{
1000
MANEDIT
1070
     0
1002
}
1002
{
1000
NOSEL
1070
     0
1002
}
1002
{
1000
BEHIND
1070
     0
1002
}
1002
{
1000
OTHER
1070
     0
1002
}
1002
{
1000
REACTOR
1002
}
1001
GENIUS_GENOBJ-N-FIL_13
1002
{
1000
OWNER
1000
GEN
1002
}
  0
LINE
  5
4A0D
  8
0
 10
104.7561528487802
 20
238.98187859000731
 30
0.0
 11
103.987575856756
 21
233.2175511498252
 31
0.0
  0
ARC
  5
4A17
  8
0
 10
105.987575856756
 20
108.4790424539983
 30
0.0
 40
1.0
 50
180.0
 51
270.0
1001
GENIUS_GENODEF_13
1002
{
1000
HIER
1070
     0
1002
}
1002
{
1000
MANEDIT
1070
     0
1002
}
1002
{
1000
NOSEL
1070
     0
1002
}
1002
{
1000
BEHIND
1070
     0
1002
}
1002
{
1000
OTHER
1070
     0
1002
}
1002
{
1000
REACTOR
1002
}
1001
GENIUS_GENOBJ-N-FIL_13
1002
{
1000
OWNER
1000
GEN
1002
}
  0
ARC
  5
4A18
  8
0
 10
117.9875758567559
 20
108.4790424539983
 30
0.0
 40
1.0
 50
270.0
 51
0.0
1001
GENIUS_GENODEF_13
1002
{
1000
HIER
1070
     0
1002
}
1002
{
1000
MANEDIT
1070
     0
1002
}
1002
{
1000
NOSEL
1070
     0
1002
}
1002
{
1000
BEHIND
1070
     0
1002
}
1002
{
1000
OTHER
1070
     0
1002
}
1002
{
1000
REACTOR
1002
}
1001
GENIUS_GENOBJ-N-FIL_13
1002
{
1000
OWNER
1000
GEN
1002
}
  0
ARC
  5
4A19
  8
0
 10
105.987575856756
 20
175.47904245399829
 30
0.0
 40
1.0
 50
90.0
 51
180.0
1001
GENIUS_GENODEF_13
1002
{
1000
HIER
1070
     0
1002
}
1002
{
1000
MANEDIT
1070
     0
1002
}
1002
{
1000
NOSEL
1070
     0
1002
}
1002
{
1000
BEHIND
1070
     0
1002
}
1002
{
1000
OTHER
1070
     0
1002
}
1002
{
1000
REACTOR
1002
}
1001
GENIUS_GENOBJ-N-FIL_13
1002
{
1000
OWNER
1000
GEN
1002
}
  0
ARC
  5
4A1A
  8
0
 10
117.9875758567559
 20
175.47904245399829
 30
0.0
 40
1.0
 50
0.0
 51
90.0
1001
GENIUS_GENODEF_13
1002
{
1000
HIER
1070
     0
1002
}
1002
{
1000
MANEDIT
1070
     0
1002
}
1002
{
1000
NOSEL
1070
     0
1002
}
1002
{
1000
BEHIND
1070
     0
1002
}
1002
{
1000
OTHER
1070
     0
1002
}
1002
{
1000
REACTOR
1002
}
1001
GENIUS_GENOBJ-N-FIL_13
1002
{
1000
OWNER
1000
GEN
1002
}
  0
LINE
  5
4AC5
  8
0
 10
209.139579047708
 20
176.97904245399849
 30
0.0
 11
216.40752824013961
 21
176.47904245399809
 31
0.0
  0
LINE
  5
4AC6
  8
0
 10
212.20517224241061
 20
174.1899405432346
 30
0.0
 11
216.40752824013961
 21
174.47904245399829
 31
0.0
  0
LINE
  5
4AC7
  8
0
 10
216.40752824014041
 20
108.173635164666
 30
0.0
 11
210.4409023557491
 21
108.00773779974161
 31
0.0
  0
LINE
  5
4AC8
  8
0
 10
216.4075282401441
 20
108.7844497433299
 30
0.0
 11
211.42447976718611
 21
108.9285467920139
 31
0.0
  0
LINE
  5
4AC9
  8
0
 10
209.139579047708
 20
106.9790424539982
 30
0.0
 11
216.40752824013961
 21
107.4790424539985
 31
0.0
  0
LINE
  5
4ACA
  8
0
 10
212.20517224241061
 20
109.76814436476209
 30
0.0
 11
216.40752824013961
 21
109.4790424539984
 31
0.0
  0
LINE
  5
4ACB
  8
0
 10
110.5780485934156
 20
234.53265365630139
 30
0.0
 11
110.9875758567711
 21
240.4855003422627
 31
0.0
  0
LINE
  5
4ACC
  8
0
 10
113.3988967639976
 20
234.5065814308121
 30
0.0
 11
112.9875758567408
 21
240.4855003422627
 31
0.0
  0
LINE
  5
4B91
  8
0
 10
304.13732906092599
 20
177.47904245399829
 30
0.0
 11
321.13732906092599
 21
177.47904245399829
 31
0.0
  0
LINE
  5
4B92
  8
0
 10
321.13732906092599
 20
177.47904245399829
 30
0.0
 11
321.13732906092599
 21
106.4790424539983
 31
0.0
  0
LINE
  5
4B93
  8
0
 10
321.13732906092599
 20
106.4790424539983
 30
0.0
 11
304.13732906092599
 21
106.4790424539983
 31
0.0
  0
LINE
  5
4B94
  8
0
 10
304.13732906092599
 20
106.4790424539983
 30
0.0
 11
304.13732906092599
 21
177.47904245399829
 31
0.0
  0
LINE
  5
4B95
  8
AM_7
 10
288.04618692013901
 20
141.97904245399829
 30
0.0
 11
380.62174617947159
 21
141.97904245399829
 31
0.0
1001
GENIUS_GENOBJ-N-CEN_13
1002
{
1000
OWNER
1000
GEN
1002
}
1001
GENIUS_GENODEF_13
1002
{
1000
HIER
1070
     0
1002
}
1002
{
1000
MANEDIT
1070
     0
1002
}
1002
{
1000
NOSEL
1070
     0
1002
}
1002
{
1000
BEHIND
1070
     0
1002
}
1002
{
1000
OTHER
1070
     0
1002
}
1002
{
1000
REACTOR
1002
}
1001
GENIUS_GENCEN_19
1002
{
1040
3.0
1002
}
  0
LINE
  5
4B96
  8
0
 10
353.01998035907673
 20
191.97904245399829
 30
0.0
 11
353.01998035907673
 21
91.979042453998375
 31
0.0
  0
LINE
  5
4B98
  8
0
 10
361.01998035907673
 20
170.97904245399829
 30
0.0
 11
361.01998035907673
 21
112.9790424539983
 31
0.0
  0
LINE
  5
4B99
  8
0
 10
353.01998035907673
 20
177.47904245399829
 30
0.0
 11
361.01998035907673
 21
170.97904245399829
 31
0.0
  0
LINE
  5
4B9A
  8
0
 10
353.01998035907673
 20
106.4790424539983
 30
0.0
 11
361.01998035907673
 21
112.9790424539983
 31
0.0
  0
INSERT
  5
4C81
  8
AM_4
  6
CONTINUOUS
  2
*X29
 10
0.0
 20
0.0
 30
0.0
1001
GRADIENTCOLOR1ACI
1070
     5
1001
GRADIENTCOLOR2ACI
1070
     2
1001
ACAD
1000
HATCH
1002
{
1070
    19
1000
ANSI31
1040
2.0
1040
0.0
1000
R14_HATCH_DATA
1000
4C81
1011
1.0
1021
0.0
1031
0.0
1021
0.0
1031
0.0
1011
0.0
1021
0.0
1031
0.0
1021
1.0
1031
0.0
1011
0.0
1021
0.0
1031
0.0
1021
0.0
1031
1.0
1040
0.0
1010
0.0
1020
0.0
1030
1.0
1000
ANSI31
1070
     0
1070
     0
1071
        2
1071
        7
1070
     0
1070
     1
1071
        6
1040
373.01998035907673
1040
191.9790424539984
1040
353.01998035907673
1040
191.9790424539984
1040
353.01998035907673
1040
177.47904245399829
1040
361.01998035907673
1040
170.97904245399829
1040
361.01998035907673
1040
141.97904245399829
1040
373.01998035907673
1040
141.97904245399829
1071
        0
1071
        7
1070
     0
1070
     1
1071
        6
1040
373.01998035907673
1040
141.97904245399829
1040
361.01998035907673
1040
141.97904245399829
1040
361.01998035907673
1040
112.9790424539983
1040
353.01998035907673
1040
106.4790424539983
1040
353.01998035907673
1040
91.97904245399836
1040
373.01998035907673
1040
91.97904245399836
1071
        0
1070
     1
1070
     1
1040
0.0
1040
2.0
1070
     0
1070
     1
1040
0.7853981633974483
1040
-16.461896882447942
1040
0.0
1040
-4.490128060534575
1040
4.4901280605345759
1070
     0
1040
0.1424894635587237
1071
        2
1040
363.3899528420522
1040
176.9490479952039
1040
0.0
1040
368.66555213671018
1040
124.7979037694506
1040
0.0
1002
}
  0
LINE
  5
4D21
  8
AM_4
 10
273.74999999999977
 20
36.999999999999993
 30
0.0
 11
273.74999999999977
 21
284.99999999999989
 31
0.0
  0
INSERT
  5
4D24
  8
0
  2
*U37
 10
0.0
 20
0.0
 30
0.0
  0
DIMENSION
  5
4D2E
  8
AM_5
  2
*D24
 10
321.13732906092599
 20
186.8230271381498
 30
0.0
 11
312.63732906092599
 21
189.32302713814971
 31
0.0
 70
     0
 13
304.13732906092599
 23
177.47904245399829
 33
0.0
 14
321.13732906092599
 24
177.47904245399829
 34
0.0
1001
ACAD_DSTYLE_DIMINSPECT
1070
   396
1000
100%
1070
   395
1000

1070
   394
1070
    33
1070
   393
1070
     0
  0
LINE
  5
4D58
  8
AM_7
 10
312.63732906092599
 20
180.47904245399829
 30
0.0
 11
312.63732906092599
 21
103.4790424539983
 31
0.0
1001
GENIUS_GENODEF_13
1002
{
1000
HIER
1070
     0
1002
}
1002
{
1000
MANEDIT
1070
     0
1002
}
1002
{
1000
NOSEL
1070
     0
1002
}
1002
{
1000
BEHIND
1070
     0
1002
}
1002
{
1000
OTHER
1070
     0
1002
}
1002
{
1000
REACTOR
1002
}
1001
GENIUS_GENOBJ-N-CEN_13
1002
{
1000
OWNER
1000
GEN
1002
}
1001
GENIUS_GENCEN_19
1002
{
1040
3.0
1002
}
  0
LINE
  5
4D62
  8
0
 10
304.13732906092599
 20
170.97904245399829
 30
0.0
 11
321.13732906092599
 21
170.97904245399829
 31
0.0
  0
LINE
  5
4D63
  8
0
 10
304.13732906092599
 20
112.9790424539983
 30
0.0
 11
321.13732906092599
 21
112.9790424539983
 31
0.0
  0
DIMENSION
  5
4D64
  8
AM_5
  2
*D25
 10
347.01998035907673
 20
170.97904245399829
 30
0.0
 11
344.51998035907673
 21
141.9790424539984
 31
0.0
 70
     0
 13
361.01998035907673
 23
112.9790424539983
 33
0.0
 14
361.01998035907673
 24
170.97904245399829
 34
0.0
 50
90.000000000000028
1001
ACAD_DSTYLE_DIMINSPECT
1070
   396
1000
100%
1070
   395
1000

1070
   394
1070
    33
1070
   393
1070
     0
  0
DIMENSION
  5
4D8E
  8
AM_5
  2
*D26
 10
340.01998035907678
 20
177.47904245399829
 30
0.0
 11
337.51998035907673
 21
141.9790424539984
 31
0.0
 70
     0
 13
353.01998035907673
 23
106.4790424539983
 33
0.0
 14
353.01998035907673
 24
177.47904245399829
 34
0.0
 50
90.000000000000028
1001
ACAD_DSTYLE_DIMINSPECT
1070
   396
1000
100%
1070
   395
1000

1070
   394
1070
    33
1070
   393
1070
     0
  0
DIMENSION
  5
4DD9
  8
AM_5
  2
*D27
 10
353.01998035907673
 20
150.44501736079019
 30
0.0
 11
357.01998035907673
 21
152.94501736079019
 31
0.0
 70
     0
 13
361.01998035907673
 23
141.97904245399829
 33
0.0
 14
353.01998035907673
 24
141.97904245399829
 34
0.0
1001
ACAD_DSTYLE_DIMINSPECT
1070
   396
1000
100%
1070
   395
1000

1070
   394
1070
    33
1070
   393
1070
     0
  0
VIEWPORT
  5
95A
 67
     1
  8
0
  6
CONTINUOUS
 10
128.5
 20
97.5
 30
0.0
 40
386.73855140186919
 41
222.18000000000001
 68
     1
 69
     1
1001
ACAD
1000
MVIEW
1002
{
1070
    16
1010
0.0
1020
0.0
1030
0.0
1010
0.0
1020
0.0
1030
1.0
1040
0.0
1040
222.18000000000001
1040
128.5
1040
97.5
1040
50.0
1040
0.0
1040
0.0
1070
     0
1070
   100
1070
     1
1070
     1
1070
     0
1070
     0
1070
     0
1070
     0
1040
0.0
1040
0.0
1040
0.0
1040
10.0
1040
10.0
1040
10.0
1040
10.0
1070
     0
1002
{
1002
}
1002
}
  0
ENDSEC
  0
EOF
