  0
SECTION
  2
HEADER
  9
$ACADVER
  1
AC1009
  9
$INSBASE
 10
0.0
 20
0.0
 30
0.0
  9
$EXTMIN
 10
24.98819059830657
 20
8.9846509080475698
 30
-0.0015258207003583
  9
$EXTMAX
 10
412.0118112038026084
 20
285.0207562397163201
 30
0.0000000349246037
  9
$LIMMIN
 10
24.9999999999999787
 20
8.9999999999999964
  9
$LIMMAX
 10
411.9999999999998863
 20
284.9999999999998863
  9
$ORTHOMODE
 70
     1
  9
$REGENMODE
 70
     1
  9
$FILLMODE
 70
     1
  9
$QTEXTMODE
 70
     0
  9
$MIRRTEXT
 70
     1
  9
$DRAGMODE
 70
     2
  9
$LTSCALE
 40
5.0
  9
$OSMODE
 70
    53
  9
$ATTMODE
 70
     1
  9
$TEXTSIZE
 40
3.0
  9
$TRACEWID
 40
0.05
  9
$TEXTSTYLE
  7
STANDARD
  9
$CLAYER
  8
0
  9
$CELTYPE
  6
BYLAYER
  9
$CECOLOR
 62
   256
  9
$DIMSCALE
 40
1.0
  9
$DIMASZ
 40
2.5
  9
$DIMEXO
 40
1.0
  9
$DIMDLI
 40
7.0
  9
$DIMRND
 40
0.0
  9
$DIMDLE
 40
0.0
  9
$DIMEXE
 40
1.0
  9
$DIMTP
 40
0.1
  9
$DIMTM
 40
0.1
  9
$DIMTXT
 40
3.0
  9
$DIMCEN
 40
0.0
  9
$DIMTSZ
 40
0.0
  9
$DIMTOL
 70
     0
  9
$DIMLIM
 70
     0
  9
$DIMTIH
 70
     0
  9
$DIMTOH
 70
     0
  9
$DIMSE1
 70
     0
  9
$DIMSE2
 70
     0
  9
$DIMTAD
 70
     3
  9
$DIMZIN
 70
     8
  9
$DIMBLK
  1
OPEN30
  9
$DIMASO
 70
     1
  9
$DIMSHO
 70
     1
  9
$DIMPOST
  1

  9
$DIMAPOST
  1
"
  9
$DIMALT
 70
     0
  9
$DIMALTD
 70
     2
  9
$DIMALTF
 40
0.0393701
  9
$DIMLFAC
 40
1.0
  9
$DIMTOFL
 70
     1
  9
$DIMTVP
 40
0.0
  9
$DIMTIX
 70
     0
  9
$DIMSOXD
 70
     0
  9
$DIMSAH
 70
     0
  9
$DIMBLK1
  1

  9
$DIMBLK2
  1

  9
$DIMSTYLE
  2
AM_JIS
  9
$DIMCLRD
 70
     7
  9
$DIMCLRE
 70
     7
  9
$DIMCLRT
 70
     7
  9
$DIMTFAC
 40
0.71
  9
$DIMGAP
 40
1.0
  9
$LUNITS
 70
     2
  9
$LUPREC
 70
     4
  9
$SKETCHINC
 40
0.1
  9
$FILLETRAD
 40
2.0
  9
$AUNITS
 70
     0
  9
$AUPREC
 70
     0
  9
$MENU
  1
acad
  9
$ELEVATION
 40
0.0
  9
$PELEVATION
 40
0.0
  9
$THICKNESS
 40
0.0
  9
$LIMCHECK
 70
     0
  9
$BLIPMODE
 70
     0
  9
$CHAMFERA
 40
0.0
  9
$CHAMFERB
 40
0.0
  9
$SKPOLY
 70
     0
  9
$TDCREATE
 40
2455755.6568634258583188
  9
$TDUPDATE
 40
2459006.4089699080213904
  9
$TDINDWG
 40
0.317626956
  9
$TDUSRTIMER
 40
0.3176267708
  9
$USRTIMER
 70
     1
  9
$ANGBASE
 50
0.0
  9
$ANGDIR
 70
     0
  9
$PDMODE
 70
     0
  9
$PDSIZE
 40
0.0
  9
$PLINEWID
 40
0.0
  9
$COORDS
 70
     1
  9
$SPLFRAME
 70
     0
  9
$SPLINETYPE
 70
     6
  9
$SPLINESEGS
 70
     8
  9
$ATTDIA
 70
     1
  9
$ATTREQ
 70
     1
  9
$HANDLING
 70
     1
  9
$HANDSEED
  5
584E
  9
$SURFTAB1
 70
     6
  9
$SURFTAB2
 70
     6
  9
$SURFTYPE
 70
     6
  9
$SURFU
 70
     6
  9
$SURFV
 70
     6
  9
$UCSNAME
  2

  9
$UCSORG
 10
0.0
 20
0.0
 30
0.0
  9
$UCSXDIR
 10
1.0
 20
0.0
 30
0.0
  9
$UCSYDIR
 10
0.0
 20
1.0
 30
0.0
  9
$PUCSNAME
  2

  9
$PUCSORG
 10
0.0
 20
0.0
 30
0.0
  9
$PUCSXDIR
 10
1.0
 20
0.0
 30
0.0
  9
$PUCSYDIR
 10
0.0
 20
1.0
 30
0.0
  9
$USERI1
 70
     0
  9
$USERI2
 70
     0
  9
$USERI3
 70
     0
  9
$USERI4
 70
     0
  9
$USERI5
 70
     0
  9
$USERR1
 40
0.0
  9
$USERR2
 40
0.0
  9
$USERR3
 40
0.0
  9
$USERR4
 40
0.0
  9
$USERR5
 40
0.0
  9
$WORLDVIEW
 70
     1
  9
$SHADEDGE
 70
     3
  9
$SHADEDIF
 70
    70
  9
$TILEMODE
 70
     1
  9
$MAXACTVP
 70
    16
  9
$PLIMCHECK
 70
     0
  9
$PEXTMIN
 10
1.0000000000000000E+20
 20
1.0000000000000000E+20
 30
1.0000000000000000E+20
  9
$PEXTMAX
 10
-1.0000000000000000E+20
 20
-1.0000000000000000E+20
 30
-1.0000000000000000E+20
  9
$PLIMMIN
 10
-20.0
 20
-7.5
  9
$PLIMMAX
 10
277.0
 20
202.5
  9
$UNITMODE
 70
     0
  9
$VISRETAIN
 70
     0
  9
$PLINEGEN
 70
     1
  9
$PSLTSCALE
 70
     0
  0
ENDSEC
  0
SECTION
  2
TABLES
  0
TABLE
  2
VPORT
 70
     1
  0
VPORT
  2
*ACTIVE
 70
     0
 10
0.0
 20
0.0
 11
1.0
 21
1.0
 12
218.5000009010545909
 22
147.0027035738818881
 13
0.0
 23
0.0
 14
2.5
 24
2.5
 15
10.0
 25
10.0
 16
0.0
 26
0.0
 36
1.0
 17
0.0
 27
0.0
 37
0.0
 40
278.3080074331639935
 41
2.146978021978021
 42
50.0
 43
0.0
 44
0.0
 50
0.0
 51
0.0
 71
     0
 72
   100
 73
     1
 74
     3
 75
     0
 76
     0
 77
     0
 78
     1
  0
ENDTAB
  0
TABLE
  2
LTYPE
 70
    22
  0
LTYPE
  2
CONTINUOUS
 70
     0
  3
Solid line (NEC CAE2D for Win R7.2 : 2008.02.20
 72
    65
 73
     0
 40
0.0
  0
LTYPE
  2
HIDDEN
 70
     0
  3
Hidden __ __ __ __ __ __ __ __ __ __ __ __ __ _
 72
    65
 73
     2
 40
0.375
 49
0.25
 49
-0.125
  0
LTYPE
  2
PHANTOM2
 70
     0
  3
Phantom (.5x) ___ _ _ ___ _ _ ___ _ _ ___ _ _
 72
    65
 73
     6
 40
1.25
 49
0.625
 49
-0.125
 49
0.125
 49
-0.125
 49
0.125
 49
-0.125
  0
LTYPE
  2
CENTER
 70
     0
  3
Center ____ _ ____ _ ____ _ ____ _ ____ _ ____
 72
    65
 73
     4
 40
2.0
 49
1.25
 49
-0.25
 49
0.25
 49
-0.25
  0
LTYPE
  2
CENTER2
 70
     0
  3
Center (.5x) ___ _ ___ _ ___ _ ___ _ ___ _ ___
 72
    65
 73
     4
 40
1.125
 49
0.75
 49
-0.125
 49
0.125
 49
-0.125
  0
LTYPE
  2
HIDDEN2
 70
     0
  3
Hidden (.5x) _ _ _ _ _ _ _ _ _ _ _ _ _ _ _ _ _
 72
    65
 73
     2
 40
0.1875
 49
0.125
 49
-0.0625
  0
LTYPE
  2
ACANSTGB
 70
     0
  3
__ . . __ . .
 72
    65
 73
     6
 40
0.35433070866
 49
0.15748031496
 49
-0.03937007874
 49
0.03937007874
 49
-0.03937007874
 49
0.03937007874
 49
-0.03937007874
  0
LTYPE
  2
ACANSTGL
 70
     0
  3
_ _ _ _ _
 72
    65
 73
     2
 40
0.11811023622
 49
0.07874015748
 49
-0.03937007874
  0
LTYPE
  2
ACJISWELD
 70
     0
  3
_ _ _ _ _
 72
    65
 73
     2
 40
2.0
 49
2.0
 49
-1.0
  0
LTYPE
  2
ACJISTGB
 70
     0
  3
__ . . __ . .
 72
    65
 73
     6
 40
9.0
 49
4.0
 49
-1.0
 49
1.0
 49
-1.0
 49
1.0
 49
-1.0
  0
LTYPE
  2
ACJISTGL
 70
     0
  3
_ _ _ _ _
 72
    65
 73
     2
 40
3.0
 49
2.0
 49
-1.0
  0
LTYPE
  2
ACISOWELD
 70
     0
  3
_ _ _ _ _
 72
    65
 73
     2
 40
2.0
 49
2.0
 49
-1.0
  0
LTYPE
  2
ACISOTGB
 70
     0
  3
__ . . __ . .
 72
    65
 73
     6
 40
9.0
 49
4.0
 49
-1.0
 49
1.0
 49
-1.0
 49
1.0
 49
-1.0
  0
LTYPE
  2
ACISOTGL
 70
     0
  3
_ _ _ _ _
 72
    65
 73
     2
 40
3.0
 49
2.0
 49
-1.0
  0
LTYPE
  2
AM_ISO02W050
 70
     0
  3
__ __ __ __ __ __ __ __ __ __ __ __ __ __ __
 72
    65
 73
     2
 40
7.5
 49
6.0
 49
-1.5
  0
LTYPE
  2
AM_ISO08W050
 70
     0
  3
____ . ____ . ____ . ____ . ____ . ____ . ____
 72
    65
 73
     4
 40
18.0
 49
12.0
 49
-1.5
 49
3.0
 49
-1.5
  0
LTYPE
  2
AM_ISO09W050
 70
     0
  3
_____ . . _____ . . _____ . . ____ .. ____
 72
    65
 73
     6
 40
22.5
 49
12.0
 49
-1.5
 49
3.0
 49
-1.5
 49
3.0
 49
-1.5
  0
LTYPE
  2
AMCONSTR
 70
     0
  3
_______________________
 72
    65
 73
     2
 40
9999.0
 49
9999.0
 49
0.0
  0
LTYPE
  2
AM_ISO08W050X2
 70
     0
  3
__ . __ . __ . __ . __ . __
 72
    65
 73
     4
 40
9.0
 49
6.0
 49
-0.75
 49
1.5
 49
-0.75
  0
LTYPE
  2
AM_ISO02W050X2
 70
     0
  3
 _ _ _ _ _ _ _ _ _ _ _ _
 72
    65
 73
     2
 40
3.75
 49
3.0
 49
-0.75
  0
LTYPE
  2
AMZIGZAG
 70
     0
  3
/\/-/\/-/\/-/\/-/\/-/\/
 72
    65
 73
     2
 40
11.0000999999999998
 49
0.0001
 49
-11.0
  0
ENDTAB
  0
TABLE
  2
LAYER
 70
    23
  0
LAYER
  2
0
 70
     0
 62
     3
  6
CONTINUOUS
  0
LAYER
  2
AM_0
 70
     0
 62
     3
  6
CONTINUOUS
  0
LAYER
  2
DEFPOINTS
 70
     0
 62
     7
  6
CONTINUOUS
  0
LAYER
  2
AM_5
 70
     0
 62
     7
  6
CONTINUOUS
  0
LAYER
  2
AM_BOR
 70
     0
 62
     7
  6
CONTINUOUS
  0
LAYER
  2
AM_7
 70
     0
 62
     4
  6
CENTER
  0
LAYER
  2
AM_3
 70
     0
 62
     7
  6
HIDDEN
  0
LAYER
  2
AM_12
 70
     0
 62
   253
  6
CONTINUOUS
  0
LAYER
  2
AM_PAREF
 70
     0
 62
     4
  6
CONTINUOUS
  0
LAYER
  2
AM_6
 70
     0
 62
     7
  6
CONTINUOUS
  0
LAYER
  2
AM_8
 70
     0
 62
   253
  6
CONTINUOUS
  0
LAYER
  2
AM_4
 70
     0
 62
     6
  6
CONTINUOUS
  0
LAYER
  2
AM_10
 70
     0
 62
     7
  6
CONTINUOUS
  0
LAYER
  2
AM_CL
 70
     0
 62
     1
  6
CONTINUOUS
  0
LAYER
  2
AM_2
 70
     0
 62
     5
  6
PHANTOM2
  0
LAYER
  2
AM_1N
 70
     0
 62
    14
  6
CONTINUOUS
  0
LAYER
  2
AM_1
 70
     0
 62
    14
  6
PHANTOM2
  0
LAYER
  2
AM_9
 70
     0
 62
    -7
  6
CONTINUOUS
  0
LAYER
  2
SYS-TEISEI0
 70
     0
 62
     7
  6
CONTINUOUS
  0
ENDTAB
  0
TABLE
  2
STYLE
 70
    13
  0
STYLE
  2
STANDARD
 70
     0
 40
0.0
 41
1.0
 50
0.0
 71
     0
 42
3.0
  3
dim.shx
  4
extfont.shx
  0
STYLE
  2
R寸法
 70
     0
 40
2.0
 41
1.0
 50
0.0
 71
     0
 42
3.0
  3
dim.shx
  4
extfont.shx
  0
STYLE
  2
ACISOGDT
 70
     0
 40
0.0
 41
1.0
 50
0.0
 71
     0
 42
2.5
  3
amgdt.shx
  4

  0
STYLE
  2

 70
     1
 40
0.0
 41
1.0
 50
0.0
 71
     0
 42
3.0
  3
genltshp.shx
  4

  0
ENDTAB
  0
TABLE
  2
VIEW
 70
     6
  0
VIEW
  2
AM_VIEW1
 70
     0
 40
137.9999999999998863
 10
151.853137516688804
 20
215.9999999999998863
 41
253.7062750333776933
 11
0.0
 21
0.0
 31
1.0
 12
0.0
 22
0.0
 32
0.0
 42
50.0
 43
0.0
 44
0.0
 50
0.0
 71
     0
  0
VIEW
  2
AM_VIEW2
 70
     0
 40
137.9999999999998863
 10
285.146862483310997
 20
215.9999999999998863
 41
253.7062750333776933
 11
0.0
 21
0.0
 31
1.0
 12
0.0
 22
0.0
 32
0.0
 42
50.0
 43
0.0
 44
0.0
 50
0.0
 71
     0
  0
VIEW
  2
AM_VIEW3
 70
     0
 40
137.9999999999998863
 10
151.853137516688804
 20
77.9999999999999716
 41
253.7062750333776933
 11
0.0
 21
0.0
 31
1.0
 12
0.0
 22
0.0
 32
0.0
 42
50.0
 43
0.0
 44
0.0
 50
0.0
 71
     0
  0
VIEW
  2
AM_VIEW4
 70
     0
 40
137.9999999999998863
 10
285.146862483310997
 20
77.9999999999999716
 41
253.7062750333776933
 11
0.0
 21
0.0
 31
1.0
 12
0.0
 22
0.0
 32
0.0
 42
50.0
 43
0.0
 44
0.0
 50
0.0
 71
     0
  0
VIEW
  2
AM_VIEW5
 70
     0
 40
137.9999999999998863
 10
218.4999999999998863
 20
146.9999999999998863
 41
253.7062750333776933
 11
0.0
 21
0.0
 31
1.0
 12
0.0
 22
0.0
 32
0.0
 42
50.0
 43
0.0
 44
0.0
 50
0.0
 71
     0
  0
VIEW
  2
AM_VIEW6
 70
     0
 40
275.9972399999999197
 10
218.4999999999998863
 20
146.9999999999998863
 41
507.4074759412548019
 11
0.0
 21
0.0
 31
1.0
 12
0.0
 22
0.0
 32
0.0
 42
50.0
 43
0.0
 44
0.0
 50
0.0
 71
     0
  0
ENDTAB
  0
TABLE
  2
UCS
 70
     0
  0
ENDTAB
  0
TABLE
  2
APPID
 70
    65
  0
APPID
  2
ACAD
 70
     0
  0
APPID
  2
ACADANNOTATIVE
 70
     0
  0
APPID
  2
ACAD_MLEADERVER
 70
     0
  0
APPID
  2
MCAD_NO_VIS
 70
     0
  0
APPID
  2
ACAD_TEMP_GRAPHIC
 70
     0
  0
APPID
  2
AD_DRAW
 70
     0
  0
APPID
  2
ACATTRIBSERVICES
 70
     0
  0
APPID
  2
DESIGNERASSEMBLIES
 70
     0
  0
APPID
  2
ACADM_DIM_EDIT
 70
     0
  0
APPID
  2
AMDT_DM_ADJ
 70
     0
  0
APPID
  2
ACADANNOPO
 70
     0
  0
APPID
  2
ACAECLAYERSTANDARD
 70
     0
  0
APPID
  2
ACDBDYNAMICBLOCKGUID
 70
     0
  0
APPID
  2
ACDBBLOCKREPETAG
 70
     0
  0
APPID
  2
ACAUTHENVIRON
 70
     0
  0
APPID
  2
ACDBDYNAMICBLOCKTRUENAME
 70
     0
  0
APPID
  2
GENIUS_GENREC_14
 70
     0
  0
APPID
  2
GENIUS_GENOBJ-N-REC_13
 70
     0
  0
APPID
  2
GENIUS_GENODEF_13
 70
     0
  0
APPID
  2
ACAD_EXEMPT_FROM_CAD_STANDARDS
 70
     0
  0
APPID
  2
GENIUS_GENOBJ-N-CEN_13
 70
     0
  0
APPID
  2
GENIUS_GENCEN_19
 70
     0
  0
APPID
  2
ACAD_DSTYLE_DIMINSPECT
 70
     0
  0
APPID
  2
DCO15
 70
     0
  0
APPID
  2
ACAD_PSEXT
 70
     0
  0
APPID
  2
GENIUS_GENBH_13
 70
     0
  0
APPID
  2
GENIUS_GENOENT_13
 70
     0
  0
APPID
  2
GENIUS_GENOLIS_13
 70
     0
  0
APPID
  2
GENIUS_GENOBJ-NBEHI-BHF_13
 70
     0
  0
APPID
  2
GENIUS_GENOREF_13
 70
     0
  0
APPID
  2
GENIUS_GENOBJ-NBEHI-BHB_13
 70
     0
  0
APPID
  2
AMG_2DHIDE
 70
     0
  0
APPID
  2
AMG_2DSTRUCT_BTR
 70
     0
  0
APPID
  2
GENIUS_AMGTXT_16
 70
     0
  0
APPID
  2
GENIUS_GENOBJ-N-HTC_13
 70
     0
  0
APPID
  2
GENIUS_GENHATCH_13
 70
     0
  0
APPID
  2
GEVID1208849169
 70
     0
  0
APPID
  2
GEVDC
 70
     0
  0
APPID
  2
ACADM_2DVIEW_IGN_NOTIFY
 70
     0
  0
APPID
  2
GEVID1208849170
 70
     0
  0
APPID
  2
GEVID1208849171
 70
     0
  0
APPID
  2
GEVRADREF
 70
     0
  0
APPID
  2
ACAD_DSTYLE_DIMJAG
 70
     0
  0
APPID
  2
ACAD_DSTYLE_DIMTALN
 70
     0
  0
APPID
  2
GENIUS_GENDTOL_13
 70
     0
  0
APPID
  2
GENIUS_GENTRA_14
 70
     0
  0
APPID
  2
GENIUS_GENOBJ-N-TIT_13
 70
     0
  0
APPID
  2
GENIUS_GENTITLE_13
 70
     0
  0
APPID
  2
GENIUS_GENSCREG_15
 70
     0
  0
APPID
  2
GENIUS_GENOBJ-N-SDF_13
 70
     0
  0
APPID
  2
ACAD_DSTYLE_DIMRADIAL_EXTENSION
 70
     0
  0
APPID
  2
GENIUS_GENOBJ-N-FIL_13
 70
     0
  0
APPID
  2
GENIUS_GENOBJ-N-CRS_13
 70
     0
  0
APPID
  2
GENIUS_GENDIMSH_14
 70
     0
  0
APPID
  2
ACAD_DSTYLE_DIMANGULAR_EXT
 70
     0
  0
APPID
  2
ACAD_NAV_VCDISPLAY
 70
     0
  0
APPID
  2
ACAD_DSTYLE_DIMBREAK
 70
     0
  0
APPID
  2
GRADIENTCOLOR1ACI
 70
     0
  0
APPID
  2
GRADIENTCOLOR2ACI
 70
     0
  0
APPID
  2
ACAD_DSTYLE_DIMARC_LENGTH_
 70
     0
  0
APPID
  2
ACAD_DSTYLE_DIM_LINETYPE
 70
     0
  0
APPID
  2
ACAD_DSTYLE_DIM_EXT1_LINETYPE
 70
     0
  0
APPID
  2
ACAD_DSTYLE_DIM_EXT2_LINETYPE
 70
     0
  0
APPID
  2
ACDBATTR
 70
     0
  0
APPID
  2
GENIUS_GENSCREG_13
 70
     0
  0
ENDTAB
  0
TABLE
  2
DIMSTYLE
 70
    26
  0
DIMSTYLE
  2
STANDARD
 70
     0
  3

  4

  5

  6

  7

 40
1.0
 41
1.0
 42
0.8
 43
0.38
 44
1.0
 45
0.0
 46
0.0
 47
0.0
 48
0.0
140
3.1000000000000001
141
0.09
142
0.0
143
25.3999999999999986
144
1.0
145
0.5
146
1.0
147
0.09
 71
     0
 72
     0
 73
     0
 74
     0
 75
     0
 76
     0
 77
     1
 78
     0
170
     0
171
     2
172
     0
173
     0
174
     0
175
     0
176
     0
177
     0
178
     0
  0
DIMSTYLE
  2
AM_ANSI
 70
     0
  3

  4
mm
  5

  6

  7

 40
1.0
 41
0.1
 42
0.05
 43
0.5
 44
0.1
 45
0.0
 46
0.0
 47
0.1
 48
0.1
140
0.12
141
0.0
142
0.0
143
25.3999999999999986
144
1.0
145
0.0
146
0.71
147
0.06
 71
     0
 72
     0
 73
     1
 74
     1
 75
     0
 76
     0
 77
     0
 78
     7
170
     0
171
     2
172
     0
173
     0
174
     0
175
     0
176
   256
177
   256
178
     2
  0
DIMSTYLE
  2
AM_ANSI$3
 70
     0
  3

  4
mm
  5

  6

  7

 40
1.0
 41
0.1
 42
0.05
 43
0.5
 44
0.1
 45
0.0
 46
0.0
 47
0.1
 48
0.1
140
0.12
141
0.0
142
0.0
143
25.3999999999999986
144
1.0
145
0.0
146
0.71
147
0.06
 71
     0
 72
     0
 73
     1
 74
     1
 75
     0
 76
     0
 77
     0
 78
     7
170
     0
171
     2
172
     0
173
     0
174
     0
175
     0
176
   256
177
   256
178
     2
  0
DIMSTYLE
  2
AM_ANSI$4
 70
     0
  3

  4
mm
  5

  6

  7

 40
1.0
 41
0.1
 42
0.05
 43
0.5
 44
0.1
 45
0.0
 46
0.0
 47
0.1
 48
0.1
140
0.12
141
0.0
142
0.0
143
25.3999999999999986
144
1.0
145
0.0
146
0.71
147
0.06
 71
     0
 72
     0
 73
     1
 74
     1
 75
     0
 76
     0
 77
     0
 78
     7
170
     0
171
     2
172
     0
173
     0
174
     0
175
     0
176
   256
177
   256
178
     2
  0
DIMSTYLE
  2
AM_ANSI$7
 70
     0
  3

  4
mm
  5

  6

  7

 40
1.0
 41
0.1
 42
0.05
 43
0.5
 44
0.1
 45
0.0
 46
0.0
 47
0.1
 48
0.1
140
0.24
141
0.0
142
0.0
143
25.3999999999999986
144
1.0
145
0.0
146
0.71
147
0.06
 71
     0
 72
     0
 73
     1
 74
     1
 75
     0
 76
     0
 77
     0
 78
     7
170
     0
171
     2
172
     0
173
     0
174
     0
175
     0
176
   256
177
   256
178
     2
  0
DIMSTYLE
  2
AM_ANSI$SF
 70
     0
  3

  4
mm
  5

  6

  7

 40
1.0
 41
0.1
 42
0.05
 43
0.5
 44
0.1
 45
0.0
 46
0.0
 47
0.1
 48
0.1
140
0.12
141
0.0
142
0.0
143
25.3999999999999986
144
1.0
145
0.0
146
0.71
147
0.06
 71
     0
 72
     0
 73
     1
 74
     1
 75
     1
 76
     1
 77
     0
 78
     7
170
     0
171
     2
172
     0
173
     0
174
     0
175
     0
176
   256
177
   256
178
     2
  0
DIMSTYLE
  2
AM_ANSI$SH
 70
     0
  3

  4
mm
  5

  6
GENAXEH
  7

 40
1.0
 41
0.1
 42
0.05
 43
0.5
 44
0.1
 45
0.0
 46
0.0
 47
0.1
 48
0.1
140
0.12
141
0.0
142
0.0
143
25.3999999999999986
144
1.0
145
0.0
146
0.71
147
0.06
 71
     0
 72
     0
 73
     1
 74
     1
 75
     1
 76
     1
 77
     0
 78
     7
170
     0
171
     2
172
     0
173
     1
174
     0
175
     0
176
   256
177
   256
178
     2
  0
DIMSTYLE
  2
AM_JIS
 70
     0
  3

  4
"
  5
OPEN30
  6

  7

 40
1.0
 41
2.5
 42
1.0
 43
7.0
 44
1.0
 45
0.0
 46
0.0
 47
0.1
 48
0.1
140
3.0
141
0.0
142
0.0
143
0.0393701
144
1.0
145
0.0
146
0.71
147
1.0
 71
     0
 72
     0
 73
     0
 74
     0
 75
     0
 76
     0
 77
     3
 78
     8
170
     0
171
     2
172
     1
173
     0
174
     0
175
     0
176
     7
177
     7
178
     7
  0
DIMSTYLE
  2
AM_JIS$3
 70
     0
  3

  4
"
  5
OPEN30
  6

  7

 40
1.0
 41
2.5
 42
1.0
 43
10.0
 44
1.0
 45
0.0
 46
0.0
 47
0.1
 48
0.1
140
3.0
141
0.0
142
0.0
143
0.0393701
144
1.0
145
0.0
146
0.71
147
1.0
 71
     0
 72
     0
 73
     0
 74
     1
 75
     0
 76
     0
 77
     3
 78
     8
170
     0
171
     2
172
     0
173
     0
174
     0
175
     0
176
     7
177
     7
178
     7
  0
DIMSTYLE
  2
AM_JIS$4
 70
     0
  3

  4
"
  5
OPEN30
  6

  7

 40
1.0
 41
2.5
 42
1.0
 43
10.0
 44
1.0
 45
0.0
 46
0.0
 47
0.1
 48
0.1
140
2.0
141
0.0
142
0.0
143
0.0393701
144
1.0
145
0.0
146
0.71
147
1.0
 71
     0
 72
     0
 73
     0
 74
     0
 75
     0
 76
     0
 77
     3
 78
     8
170
     0
171
     2
172
     0
173
     0
174
     0
175
     0
176
     7
177
     7
178
     7
  0
DIMSTYLE
  2
AM_JIS$6
 70
     0
  3

  4
"
  5
OPEN30
  6

  7

 40
1.0
 41
2.5
 42
1.0
 43
10.0
 44
1.0
 45
0.0
 46
0.0
 47
0.1
 48
0.1
140
3.0
141
0.0
142
0.0
143
0.0393701
144
1.0
145
0.0
146
0.71
147
1.0
 71
     0
 72
     0
 73
     0
 74
     0
 75
     0
 76
     0
 77
     0
 78
     8
170
     0
171
     2
172
     1
173
     0
174
     0
175
     0
176
   256
177
     7
178
     7
  0
DIMSTYLE
  2
AM_JIS$7
 70
     0
  3

  4
"
  5
OPEN30
  6

  7

 40
1.0
 41
2.5
 42
1.0
 43
10.0
 44
1.0
 45
0.0
 46
0.0
 47
0.1
 48
0.1
140
3.0
141
0.0
142
0.0
143
0.0393701
144
1.0
145
0.0
146
0.71
147
1.0
 71
     0
 72
     0
 73
     0
 74
     0
 75
     0
 76
     0
 77
     3
 78
     8
170
     0
171
     2
172
     1
173
     0
174
     0
175
     0
176
     7
177
   256
178
     7
  0
DIMSTYLE
  2
AM_JIS$SF
 70
     0
  3

  4
"
  5
OPEN30
  6

  7

 40
1.0
 41
2.5
 42
1.0
 43
7.0
 44
1.0
 45
0.0
 46
0.0
 47
0.1
 48
0.1
140
3.0
141
0.0
142
0.0
143
0.0393701
144
1.0
145
0.0
146
0.71
147
1.0
 71
     0
 72
     0
 73
     0
 74
     0
 75
     1
 76
     1
 77
     3
 78
     8
170
     0
171
     2
172
     1
173
     0
174
     0
175
     0
176
     7
177
   256
178
     7
  0
DIMSTYLE
  2
AM_JIS$SH
 70
     0
  3

  4
"
  5

  6
GENAXEH
  7
OPEN30
 40
1.0
 41
2.5
 42
1.0
 43
7.0
 44
1.0
 45
0.0
 46
0.0
 47
0.1
 48
0.1
140
3.0
141
0.0
142
0.0
143
0.0393701
144
2.0
145
0.0
146
0.71
147
1.0
 71
     0
 72
     0
 73
     0
 74
     0
 75
     1
 76
     1
 77
     3
 78
     8
170
     0
171
     2
172
     1
173
     1
174
     0
175
     0
176
     7
177
   256
178
     7
  0
DIMSTYLE
  2
AM_JIS$2
 70
     0
  3

  4
"
  5
OPEN30
  6

  7

 40
1.0
 41
2.5
 42
1.0
 43
7.0
 44
1.0
 45
0.0
 46
0.0
 47
0.1
 48
0.1
140
3.0
141
0.0
142
0.0
143
0.0393701
144
1.0
145
0.0
146
0.71
147
1.0
 71
     0
 72
     0
 73
     0
 74
     0
 75
     0
 76
     0
 77
     3
 78
     8
170
     0
171
     2
172
     1
173
     0
174
     0
175
     0
176
     7
177
     7
178
     7
  0
DIMSTYLE
  2
AM_JIS$0
 70
     0
  3

  4
"
  5
OPEN30
  6

  7

 40
1.0
 41
2.5
 42
1.0
 43
7.0
 44
1.0
 45
0.0
 46
0.0
 47
0.1
 48
0.1
140
3.0
141
0.0
142
0.0
143
0.0393701
144
1.0
145
0.0
146
0.71
147
1.0
 71
     0
 72
     0
 73
     0
 74
     0
 75
     0
 76
     0
 77
     3
 78
     8
170
     0
171
     2
172
     1
173
     0
174
     0
175
     0
176
     7
177
     7
178
     7
  0
DIMSTYLE
  2
STANDARD$0
 70
     0
  3

  4

  5

  6

  7

 40
1.0
 41
1.0
 42
0.8
 43
0.38
 44
1.0
 45
0.0
 46
0.0
 47
0.0
 48
0.0
140
3.1000000000000001
141
0.09
142
0.0
143
25.3999999999999986
144
1.0
145
0.5
146
1.0
147
0.09
 71
     0
 72
     0
 73
     0
 74
     0
 75
     0
 76
     0
 77
     1
 78
     0
170
     0
171
     2
172
     0
173
     0
174
     0
175
     0
176
     0
177
     0
178
     0
  0
DIMSTYLE
  2
ANNOTATIVE
 70
     0
  3

  4

  5

  6

  7

 40
1.0
 41
0.18
 42
0.0625
 43
0.38
 44
0.18
 45
0.0
 46
0.0
 47
0.0
 48
0.0
140
0.18
141
0.09
142
0.0
143
25.3999999999999986
144
1.0
145
0.0
146
1.0
147
0.09
 71
     0
 72
     0
 73
     1
 74
     1
 75
     0
 76
     0
 77
     0
 78
     0
170
     0
171
     2
172
     0
173
     0
174
     0
175
     0
176
     0
177
     0
178
     0
  0
DIMSTYLE
  2
AM_ISO
 70
     0
  3

  4
"
  5

  6

  7

 40
1.0
 41
2.5
 42
1.0
 43
10.0
 44
1.0
 45
0.0
 46
0.0
 47
0.1
 48
0.1
140
3.5
141
0.0
142
0.0
143
0.0393701
144
1.0
145
0.0
146
0.71
147
1.5
 71
     0
 72
     0
 73
     0
 74
     0
 75
     0
 76
     0
 77
     1
 78
     8
170
     0
171
     2
172
     1
173
     0
174
     0
175
     0
176
   256
177
   256
178
     2
  0
DIMSTYLE
  2
AM_ISO$3
 70
     0
  3

  4
"
  5

  6

  7

 40
1.0
 41
2.5
 42
1.0
 43
10.0
 44
1.0
 45
0.0
 46
0.0
 47
0.1
 48
0.1
140
3.5
141
0.0
142
0.0
143
0.0393701
144
1.0
145
0.0
146
0.71
147
1.5
 71
     0
 72
     0
 73
     0
 74
     1
 75
     0
 76
     0
 77
     1
 78
     8
170
     0
171
     2
172
     0
173
     0
174
     0
175
     0
176
   256
177
   256
178
     2
  0
DIMSTYLE
  2
AM_ISO$4
 70
     0
  3

  4
"
  5

  6

  7

 40
1.0
 41
2.5
 42
1.0
 43
10.0
 44
1.0
 45
0.0
 46
0.0
 47
0.1
 48
0.1
140
3.5
141
0.0
142
0.0
143
0.0393701
144
1.0
145
0.0
146
0.71
147
1.5
 71
     0
 72
     0
 73
     0
 74
     1
 75
     0
 76
     0
 77
     1
 78
     8
170
     0
171
     2
172
     0
173
     0
174
     0
175
     0
176
   256
177
   256
178
     2
  0
DIMSTYLE
  2
AM_ISO$6
 70
     0
  3

  4
"
  5

  6

  7

 40
1.0
 41
2.5
 42
1.0
 43
10.0
 44
1.0
 45
0.0
 46
0.0
 47
0.1
 48
0.1
140
3.5
141
0.0
142
0.0
143
0.0393701
144
1.0
145
0.0
146
0.71
147
1.5
 71
     0
 72
     0
 73
     0
 74
     0
 75
     0
 76
     0
 77
     0
 78
     8
170
     0
171
     2
172
     1
173
     0
174
     0
175
     0
176
   256
177
   256
178
     2
  0
DIMSTYLE
  2
AM_ISO$7
 70
     0
  3

  4
"
  5

  6

  7

 40
1.0
 41
2.5
 42
1.0
 43
10.0
 44
1.0
 45
0.0
 46
0.0
 47
0.1
 48
0.1
140
5.0
141
0.0
142
0.0
143
0.0393701
144
1.0
145
0.0
146
0.71
147
1.5
 71
     0
 72
     0
 73
     0
 74
     0
 75
     0
 76
     0
 77
     1
 78
     8
170
     0
171
     2
172
     1
173
     0
174
     0
175
     0
176
   256
177
   256
178
     2
  0
DIMSTYLE
  2
AM_ISO$SF
 70
     0
  3

  4
"
  5

  6

  7

 40
1.0
 41
2.5
 42
1.0
 43
10.0
 44
1.0
 45
0.0
 46
0.0
 47
0.1
 48
0.1
140
3.5
141
0.0
142
0.0
143
0.0393701
144
1.0
145
0.0
146
0.71
147
1.5
 71
     0
 72
     0
 73
     0
 74
     0
 75
     1
 76
     1
 77
     1
 78
     8
170
     0
171
     2
172
     1
173
     0
174
     0
175
     0
176
   256
177
   256
178
     2
  0
DIMSTYLE
  2
AM_ISO$SH
 70
     0
  3

  4
"
  5

  6
GENAXEH
  7

 40
1.0
 41
2.5
 42
1.0
 43
10.0
 44
1.0
 45
0.0
 46
0.0
 47
0.1
 48
0.1
140
3.5
141
0.0
142
0.0
143
0.0393701
144
2.0
145
0.0
146
0.71
147
1.5
 71
     0
 72
     0
 73
     0
 74
     0
 75
     1
 76
     1
 77
     1
 78
     8
170
     0
171
     2
172
     1
173
     1
174
     0
175
     0
176
   256
177
   256
178
     2
  0
ENDTAB
  0
ENDSEC
  0
SECTION
  2
BLOCKS
  0
BLOCK
  8
0
  2
$MODEL_SPACE
 70
     0
 10
0.0
 20
0.0
 30
0.0
  3
$MODEL_SPACE
  1

  0
ENDBLK
  5
1D3
  8
0
  0
BLOCK
 67
     1
  8
0
  2
$PAPER_SPACE
 70
     0
 10
0.0
 20
0.0
 30
0.0
  3
$PAPER_SPACE
  1

  0
ENDBLK
  5
1D1
 67
     1
  8
0
  0
BLOCK
  8
0
  2
GENAXEH
 70
     0
 10
0.0
 20
0.0
 30
0.0
  3
GENAXEH
  1

  0
LINE
  5
264
  8
0
 10
-1.0
 20
0.0
 30
0.0
 11
1.0
 21
0.0
 31
0.0
  0
ENDBLK
  5
266
  8
0
  0
BLOCK
  8
0
  2
_OPEN30
 70
     0
 10
0.0
 20
0.0
 30
0.0
  3
_OPEN30
  1

  0
LINE
  5
2FA
  8
0
  6
BYBLOCK
 62
     0
 10
-1.0
 20
0.26794919
 30
0.0
 11
0.0
 21
0.0
 31
0.0
  0
LINE
  5
2FB
  8
0
  6
BYBLOCK
 62
     0
 10
0.0
 20
0.0
 30
0.0
 11
-1.0
 21
-0.26794919
 31
0.0
  0
LINE
  5
2FC
  8
0
  6
BYBLOCK
 62
     0
 10
0.0
 20
0.0
 30
0.0
 11
-1.0
 21
0.0
 31
0.0
  0
ENDBLK
  5
2FE
  8
0
  0
BLOCK
  8
0
  2
A$C1C06296A
 70
     2
 10
0.0
 20
0.0
 30
0.0
  3
A$C1C06296A
  1

  0
LINE
  5
204C
  8
AM_BOR
 10
198.8685188039937088
 20
17.8867445779319887
 30
0.0
 11
203.2337455721774973
 21
13.5215178097486195
 31
0.0
  0
LINE
  5
204D
  8
AM_BOR
 10
198.8685188039935952
 20
17.8667153513160386
 30
0.0
 11
198.8685188039939931
 21
14.1289643611789106
 31
0.0
  0
LINE
  5
204E
  8
AM_BOR
 10
204.7045172738833969
 20
17.8667153264694107
 30
0.0
 11
204.7045172738839085
 21
14.1811288456255493
 31
0.0
  0
LINE
  5
204F
  8
AM_BOR
 10
204.2042888336073077
 20
17.7930102901758609
 30
0.0
 11
204.204288833606995
 21
14.6986103577410798
 31
0.0
  0
LINE
  5
2050
  8
AM_BOR
 10
199.3687472442697981
 20
17.1760524653333491
 30
0.0
 11
199.3687472442705939
 21
14.1978003551034107
 31
0.0
  0
LINE
  5
2051
  8
AM_BOR
 10
200.4375646203926919
 20
18.4653345709555303
 30
0.0
 11
204.2042888336073077
 21
14.6986103577405203
 31
0.0
  0
LINE
  5
2052
  8
AM_BOR
 10
199.3687472442697128
 20
17.1760524653325497
 30
0.0
 11
203.0271328720340875
 21
13.5176668375685196
 31
0.0
  0
ARC
  5
2053
  8
AM_BOR
 10
198.3682903686870134
 20
17.8667153513160493
 30
0.0
 40
0.500228440276212
 50
0.0
 51
50.265515568291427
  0
ARC
  5
2054
  8
AM_BOR
 10
198.3682903438408118
 20
14.1289643611789195
 30
0.0
 40
0.500228440276212
 50
304.6975967840527915
 51
0.0
  0
ARC
  5
2055
  8
AM_BOR
 10
205.2047457340366918
 20
17.8667153264694107
 30
0.0
 40
0.500228440276212
 50
127.0284887689632995
 51
180.0000050089562933
  0
ARC
  5
2056
  8
AM_BOR
 10
203.5373175699668877
 20
17.7930102901758183
 30
0.0
 40
0.6669712537016159
 50
0.0
 51
74.7148235688661515
  0
ARC
  5
2057
  8
AM_BOR
 10
200.0357184979716862
 20
14.1978003551033893
 30
0.0
 40
0.6669712537016159
 50
180.0000050089562933
 51
256.4857883914604031
  0
LINE
  5
2058
  8
AM_BOR
 10
210.9573727773361895
 20
15.9934456649946792
 30
0.0
 11
210.9224749062998967
 21
16.211434571273589
 31
0.0
  0
LINE
  5
2059
  8
AM_BOR
 10
210.9224749062994135
 20
16.2114345712734114
 30
0.0
 11
210.8180468870608024
 21
16.4277644503503701
 31
0.0
  0
LINE
  5
205A
  8
AM_BOR
 10
210.8180468870604045
 20
16.4277644503503701
 30
0.0
 11
210.6448834799014946
 21
16.6407889012216685
 31
0.0
  0
LINE
  5
205B
  8
AM_BOR
 10
210.6448834799012957
 20
16.6407889012216188
 30
0.0
 11
210.4043025629098054
 21
16.8488866791887588
 31
0.0
  0
LINE
  5
205C
  8
AM_BOR
 10
210.4043025629094927
 20
16.8488866791890004
 30
0.0
 11
210.098135102129703
 21
17.0504740345086887
 31
0.0
  0
LINE
  5
205D
  8
AM_BOR
 10
210.0981351021299872
 20
17.0504740345085501
 30
0.0
 11
209.7287112168075964
 21
17.2440167656851386
 31
0.0
  0
LINE
  5
205E
  8
AM_BOR
 10
209.7287112168071133
 20
17.2440167656852097
 30
0.0
 11
209.2988424457736869
 21
17.4280418956699883
 31
0.0
  0
LINE
  5
205F
  8
AM_BOR
 10
209.2988424457736869
 20
17.4280418956700807
 30
0.0
 11
208.8118003499388919
 21
17.6011488821063686
 31
0.0
  0
LINE
  5
2060
  8
AM_BOR
 10
208.8118003499388919
 20
17.6011488821064397
 30
0.0
 11
208.2712916137359116
 21
17.7620202763029695
 31
0.0
  0
LINE
  5
2061
  8
AM_BOR
 10
208.2712916137361105
 20
17.7620202763030903
 30
0.0
 11
207.681429835015507
 21
17.9094317498130806
 31
0.0
  0
LINE
  5
2062
  8
AM_BOR
 10
207.6814298350153081
 20
17.9094317498129705
 30
0.0
 11
207.0467042180816861
 21
18.0422614123133584
 31
0.0
  0
LINE
  5
2063
  8
AM_BOR
 10
207.0467042180816861
 20
18.0422614123134402
 30
0.0
 11
206.371945408137293
 21
18.1594983498679703
 31
0.0
  0
LINE
  5
2064
  8
AM_BOR
 10
206.371945408137492
 20
18.1594983498678815
 30
0.0
 11
205.6622887271568061
 21
18.2602503185922984
 31
0.0
  0
LINE
  5
2065
  8
AM_BOR
 10
205.6622887271566071
 20
18.2602503185923695
 30
0.0
 11
205.022423745999788
 21
18.3325341603967402
 31
0.0
  0
LINE
  5
2066
  8
AM_BOR
 10
205.0224237459993901
 20
18.3325341603967793
 30
0.0
 11
204.923135090983692
 21
18.3437505351688195
 31
0.0
  0
LINE
  5
2067
  8
AM_BOR
 10
204.923135090983692
 20
18.3437505351687484
 30
0.0
 11
204.1601099051040933
 21
18.409363512530259
 31
0.0
  0
LINE
  5
2068
  8
AM_BOR
 10
204.1601099051048038
 20
18.409363512530259
 30
0.0
 11
203.713146860105013
 21
18.4363878729324711
 31
0.0
  0
LINE
  5
2069
  8
AM_BOR
 10
200.437564620392493
 20
18.4653345709555694
 30
0.0
 11
200.1940158259679094
 21
18.4565898963008799
 31
0.0
  0
LINE
  5
206A
  8
AM_BOR
 10
200.1940158259679947
 20
18.4565898963009012
 30
0.0
 11
199.4129261727725861
 21
18.4093635125303088
 31
0.0
  0
LINE
  5
206B
  8
AM_BOR
 10
199.4129261727725861
 20
18.4093635125302484
 30
0.0
 11
198.6499009868929875
 21
18.3437505351687591
 31
0.0
  0
LINE
  5
206C
  8
AM_BOR
 10
198.550612373156298
 20
18.3325341650599789
 30
0.0
 11
197.9107473507208965
 21
18.2602503185924689
 31
0.0
  0
LINE
  5
206D
  8
AM_BOR
 10
198.6499009868929875
 20
18.3437505351687911
 30
0.0
 11
198.550612373156298
 21
18.3325341650599185
 31
0.0
  0
LINE
  5
206E
  8
AM_BOR
 10
197.9107473507212092
 20
18.2602503185924299
 30
0.0
 11
197.2010906697404948
 21
18.1594983498680413
 31
0.0
  0
LINE
  5
206F
  8
AM_BOR
 10
197.2010906697404096
 20
18.1594983498680911
 30
0.0
 11
196.5263318597957891
 21
18.042261412313529
 31
0.0
  0
LINE
  5
2070
  8
AM_BOR
 10
196.5263318597959028
 20
18.0422614123135894
 30
0.0
 11
195.8916062428623945
 21
17.9094317498132192
 31
0.0
  0
LINE
  5
2071
  8
AM_BOR
 10
195.8916062428617124
 20
17.9094317498130202
 30
0.0
 11
195.3017444641411942
 21
17.7620202763030584
 31
0.0
  0
LINE
  5
2072
  8
AM_BOR
 10
195.3017444641409952
 20
17.7620202763031614
 30
0.0
 11
194.7612357279377875
 21
17.6011488821066102
 31
0.0
  0
LINE
  5
2073
  8
AM_BOR
 10
194.7612357279377875
 20
17.6011488821065605
 30
0.0
 11
194.2741936321029925
 21
17.4280418956701517
 31
0.0
  0
LINE
  5
2074
  8
AM_BOR
 10
194.2741936321033904
 20
17.4280418956701517
 30
0.0
 11
193.8443248610695946
 21
17.2440167656852594
 31
0.0
  0
LINE
  5
2075
  8
AM_BOR
 10
193.8443248610695946
 20
17.2440167656852097
 30
0.0
 11
193.4749009757472038
 21
17.0504740345086496
 31
0.0
  0
LINE
  5
2076
  8
AM_BOR
 10
193.4749009757472038
 20
17.0504740345086709
 30
0.0
 11
193.1687335149671867
 21
16.8488866791889293
 31
0.0
  0
LINE
  5
2077
  8
AM_BOR
 10
193.1687335149673004
 20
16.8488866791889507
 30
0.0
 11
192.9281525979749858
 21
16.6407889012216188
 31
0.0
  0
LINE
  5
2078
  8
AM_BOR
 10
192.9281525979752985
 20
16.6407889012218106
 30
0.0
 11
192.7549891908163886
 21
16.4277644503504199
 31
0.0
  0
LINE
  5
2079
  8
AM_BOR
 10
192.7549891908163886
 20
16.4277644503503488
 30
0.0
 11
192.6505611715776922
 21
16.2114345712734789
 31
0.0
  0
LINE
  5
207A
  8
AM_BOR
 10
192.6505611715778912
 20
16.2114345712737311
 30
0.0
 11
192.6156633005415131
 21
15.9934456649946792
 31
0.0
  0
LINE
  5
207B
  8
AM_BOR
 10
192.6156633005406889
 20
15.9934456649946402
 30
0.0
 11
192.6505611715772091
 21
15.7754567587157908
 31
0.0
  0
LINE
  5
207C
  8
AM_BOR
 10
192.6505611715776922
 20
15.7754567587159293
 30
0.0
 11
192.7549891908163033
 21
15.5591268796391304
 31
0.0
  0
LINE
  5
207D
  8
AM_BOR
 10
192.7549891908163886
 20
15.5591268796390292
 30
0.0
 11
192.9281525979752985
 21
15.3461024287676402
 31
0.0
  0
LINE
  5
207E
  8
AM_BOR
 10
192.9281525979750995
 20
15.3461024287676899
 30
0.0
 11
193.1687335149671867
 21
15.1380046508005002
 31
0.0
  0
LINE
  5
207F
  8
AM_BOR
 10
193.1687335149669025
 20
15.1380046508005002
 30
0.0
 11
193.4749009757468912
 21
14.9364172954808101
 31
0.0
  0
LINE
  5
2080
  8
AM_BOR
 10
193.4749009757472891
 20
14.9364172954807106
 30
0.0
 11
193.8443248610695946
 21
14.7428745643040795
 31
0.0
  0
LINE
  5
2081
  8
AM_BOR
 10
193.8443248610695093
 20
14.7428745643041701
 30
0.0
 11
194.2741936321027083
 21
14.5588494343193506
 31
0.0
  0
LINE
  5
2082
  8
AM_BOR
 10
194.2741936321031915
 20
14.5588494343194395
 30
0.0
 11
194.7612357279379012
 21
14.3857424478829596
 31
0.0
  0
LINE
  5
2083
  8
AM_BOR
 10
194.7612357279377875
 20
14.3857424478827696
 30
0.0
 11
195.3017444641409952
 21
14.2248710536861704
 31
0.0
  0
LINE
  5
2084
  8
AM_BOR
 10
195.3017444641409952
 20
14.2248710536863108
 30
0.0
 11
195.8916062428619966
 21
14.0774595801763507
 31
0.0
  0
LINE
  5
2085
  8
AM_BOR
 10
195.8916062428619114
 20
14.0774595801762192
 30
0.0
 11
196.5263318597957891
 21
13.9446299176757904
 31
0.0
  0
LINE
  5
2086
  8
AM_BOR
 10
196.5263318597953912
 20
13.9446299176758206
 30
0.0
 11
197.201090669739699
 21
13.8273929801213207
 31
0.0
  0
LINE
  5
2087
  8
AM_BOR
 10
197.2010906697404948
 20
13.8273929801213296
 30
0.0
 11
197.9107473507208965
 21
13.7266410113970494
 31
0.0
  0
LINE
  5
2088
  8
AM_BOR
 10
197.9107473507204986
 20
13.7266410113971098
 30
0.0
 11
198.5412166771806994
 21
13.6554185716662193
 31
0.0
  0
LINE
  5
2089
  8
AM_BOR
 10
198.5412166771799889
 20
13.6554185716662495
 30
0.0
 11
198.6499009868925896
 21
13.6431407948207308
 31
0.0
  0
LINE
  5
208A
  8
AM_BOR
 10
198.6499009868929022
 20
13.6431407948206793
 30
0.0
 11
199.4129261727725861
 21
13.57752781745919
 31
0.0
  0
LINE
  5
208B
  8
AM_BOR
 10
199.4129261727725861
 20
13.5775278174592007
 30
0.0
 11
199.8798563250743996
 21
13.5492962022068202
 31
0.0
  0
LINE
  5
208C
  8
AM_BOR
 10
203.0271328720324959
 20
13.5176668375699904
 30
0.0
 11
203.379020251909111
 21
13.5303014336886491
 31
0.0
  0
LINE
  5
208D
  8
AM_BOR
 10
203.3790202519091963
 20
13.5303014336885994
 30
0.0
 11
204.1601099051044059
 21
13.57752781745919
 31
0.0
  0
LINE
  5
208E
  8
AM_BOR
 10
204.7045172738839938
 20
13.6243417221955792
 30
0.0
 11
204.9231350909844025
 21
13.6431407948207504
 31
0.0
  0
LINE
  5
208F
  8
AM_BOR
 10
204.1601099051044059
 20
13.5775278174591705
 30
0.0
 11
204.7045172738837948
 21
13.6243417221955099
 31
0.0
  0
LINE
  5
2090
  8
AM_BOR
 10
204.9231350909840899
 20
13.6431407948207593
 30
0.0
 11
205.6622887271566924
 21
13.7266410113971506
 31
0.0
  0
LINE
  5
2091
  8
AM_BOR
 10
205.6622887271566071
 20
13.7266410113971098
 30
0.0
 11
206.3719454081370941
 21
13.8273929801214006
 31
0.0
  0
LINE
  5
2092
  8
AM_BOR
 10
206.371945408137492
 20
13.8273929801214503
 30
0.0
 11
207.0467042180819135
 21
13.9446299176759396
 31
0.0
  0
LINE
  5
2093
  8
AM_BOR
 10
207.0467042180816861
 20
13.9446299176759698
 30
0.0
 11
207.6814298350155923
 21
14.0774595801763702
 31
0.0
  0
LINE
  5
2094
  8
AM_BOR
 10
207.681429835015507
 20
14.0774595801762903
 30
0.0
 11
208.2712916137361105
 21
14.2248710536862504
 31
0.0
  0
LINE
  5
2095
  8
AM_BOR
 10
208.2712916137361958
 20
14.2248710536862895
 30
0.0
 11
208.8118003499392898
 21
14.3857424478828904
 31
0.0
  0
LINE
  5
2096
  8
AM_BOR
 10
208.8118003499392898
 20
14.3857424478829206
 30
0.0
 11
209.2988424457741132
 21
14.5588494343193506
 31
0.0
  0
LINE
  5
2097
  8
AM_BOR
 10
209.2988424457739995
 20
14.5588494343193204
 30
0.0
 11
209.7287112168075112
 21
14.7428745643042198
 31
0.0
  0
LINE
  5
2098
  8
AM_BOR
 10
209.7287112168071133
 20
14.7428745643041506
 30
0.0
 11
210.098135102129703
 21
14.9364172954808296
 31
0.0
  0
LINE
  5
2099
  8
AM_BOR
 10
210.0981351021299872
 20
14.9364172954808101
 30
0.0
 11
210.4043025629098906
 21
15.1380046508003598
 31
0.0
  0
LINE
  5
209A
  8
AM_BOR
 10
210.4043025629100043
 20
15.1380046508005499
 30
0.0
 11
210.6448834799020062
 21
15.3461024287677308
 31
0.0
  0
LINE
  5
209B
  8
AM_BOR
 10
210.6448834799016936
 20
15.3461024287678303
 30
0.0
 11
210.8180468870608024
 21
15.5591268796390292
 31
0.0
  0
LINE
  5
209C
  8
AM_BOR
 10
210.8180468870606887
 20
15.5591268796390594
 30
0.0
 11
210.9224749062989872
 21
15.7754567587158601
 31
0.0
  0
LINE
  5
209D
  8
AM_BOR
 10
210.9224749062998114
 20
15.7754567587157908
 30
0.0
 11
210.9573727773361895
 21
15.9934456649946206
 31
0.0
  0
LINE
  5
209E
  8
AM_BOR
 10
199.1051424870479138
 20
18.3828970152541906
 30
0.0
 11
203.9247425107741094
 21
13.5632969915274995
 31
0.0
  0
ARC
  5
209F
  8
AM_BOR
 10
205.2047457141601967
 20
14.1811288456255493
 30
0.0
 40
0.500228440276212
 50
180.0
 51
244.5184856857075033
  0
LINE
  5
20A0
  8
AM_BOR
 10
199.3652192817665139
 20
18.405261169360589
 30
0.0
 11
204.1903520906298866
 21
13.5801283604962197
 31
0.0
  0
LINE
  5
20A1
  8
AM_BOR
 10
199.6304084355469968
 20
18.4225129644057191
 30
0.0
 11
204.4504288853489982
 21
13.6024925146027709
 31
0.0
  0
LINE
  5
20A2
  8
AM_BOR
 10
199.8967460324556953
 20
18.4386163163227188
 30
0.0
 11
204.7077689502328894
 21
13.6275933985446098
 31
0.0
  0
LINE
  5
20A3
  8
AM_BOR
 10
200.1630836293643085
 20
18.4547196682397612
 30
0.0
 11
204.9488987968830997
 21
13.66890450072008
 31
0.0
  0
LINE
  5
20A4
  8
AM_BOR
 10
198.8450656923284043
 20
18.3605328611475898
 30
0.0
 11
203.6584049138650983
 21
13.5471936396104091
 31
0.0
  0
LINE
  5
20A5
  8
AM_BOR
 10
198.7943784573330959
 20
18.1287791473180704
 30
0.0
 11
203.3920673169571103
 21
13.5310902876933596
 31
0.0
  0
LINE
  5
20A6
  8
AM_BOR
 10
199.0183057366432138
 20
18.3754298728270093
 30
0.0
 11
199.0183057366432138
 21
13.6114614571624397
 31
0.0
  0
LINE
  5
20A7
  8
AM_BOR
 10
199.2180216468426011
 20
18.3926035595376796
 30
0.0
 11
199.2180216468426011
 21
13.5942877704517908
 31
0.0
  0
LINE
  5
20A8
  8
AM_BOR
 10
204.5547303412338067
 20
18.3754298728269987
 30
0.0
 11
204.5547303412338067
 21
13.6114614571624504
 31
0.0
  0
LINE
  5
20A9
  8
AM_BOR
 10
204.35501443103459
 20
18.3926035595376405
 30
0.0
 11
204.35501443103459
 21
13.5942877704517908
 31
0.0
  0
LINE
  5
20AA
  8
AM_BOR
 62
     4
 10
-0.0000001316067255
 20
15.0000001731112906
 30
0.0
 11
190.4999998683931892
 21
15.0000001731112906
 31
0.0
  0
LINE
  5
20AB
  8
AM_BOR
 62
     4
 10
276.4999998683932745
 20
28.0000001731112889
 30
0.0
 11
276.4999998683932745
 21
0.000000173111296
 31
0.0
  0
LINE
  5
20AC
  8
AM_BOR
 62
     4
 10
-0.0000001316067255
 20
15.0000001731112906
 30
0.0
 11
-0.0000001316067255
 21
0.000000173111296
 31
0.0
  0
LINE
  5
20AD
  8
AM_BOR
 62
     4
 10
-0.0000001316067255
 20
28.0000001731112889
 30
0.0
 11
276.4999998683932745
 21
28.0000001731112889
 31
0.0
  0
LINE
  5
20AE
  8
AM_BOR
 62
     4
 10
15.9999998683932692
 20
15.0000001731112906
 30
0.0
 11
15.9999998683932692
 21
0.000000173111296
 31
0.0
  0
TEXT
  5
20AF
  8
AM_BOR
 62
     4
 10
215.1799998683933097
 20
10.0000001731112906
 30
0.0
 40
1.5
  1
NAKANISHI　INDUSTRIAL CO., LTD.
 41
1.5
  0
TEXT
  5
20B0
  8
AM_BOR
 62
     3
 10
213.1999998683932915
 20
13.5000001731112906
 30
0.0
 40
5.5
  1
中西産業株式会社
 41
1.1999999999999991
  0
TEXT
  5
20B1
  8
AM_BOR
 62
     4
 10
196.1927879374059955
 20
10.0000001731112906
 30
0.0
 40
1.5
  1
Nakanishi
 41
1.1999999999999991
  0
TEXT
  5
20B2
  8
AM_BOR
 62
     7
 10
98.104999768257457
 20
15.6500001850322192
 30
0.0
 40
1.0
  1
FINISH
 41
1.6000000000000001
  0
TEXT
  5
20B3
  8
AM_BOR
 62
     7
 10
96.9799997086527981
 20
17.7000002207950082
 30
0.0
 40
2.7999999999999989
  1
仕　　上
  0
TEXT
  5
20B4
  8
AM_BOR
 62
     7
 10
3.1549997801784002
 20
15.6500001850322192
 30
0.0
 40
1.0
  1
MATERIAL
 41
1.6000000000000001
  0
TEXT
  5
20B5
  8
AM_BOR
 62
     7
 10
1.729999708652826
 20
17.7000002207950082
 30
0.0
 40
2.7999999999999989
  1
材　　質
  0
LINE
  5
20B6
  8
AM_BOR
 62
     4
 10
190.4999998683931892
 20
28.0000001731112889
 30
0.0
 11
190.4999998683931892
 21
0.000000173111296
 31
0.0
  0
LINE
  5
20B7
  8
AM_BOR
 62
     4
 10
-0.0000001316067255
 20
28.0000001731112889
 30
0.0
 11
-0.0000001316067255
 21
15.0000001731112906
 31
0.0
  0
LINE
  5
20B8
  8
AM_BOR
 62
     4
 10
-0.0000001316067255
 20
21.5000001731112889
 30
0.0
 11
190.4999998683931892
 21
21.5000001731112889
 31
0.0
  0
LINE
  5
20B9
  8
AM_BOR
 62
     4
 10
15.9999998683932692
 20
28.0000001731112889
 30
0.0
 11
15.9999998683932692
 21
15.0000001731112906
 31
0.0
  0
TEXT
  5
20BA
  8
AM_BOR
 62
     7
 10
98.104999768257457
 20
22.1500001850322192
 30
0.0
 40
1.0
  1
ART. NO.
 41
1.6000000000000001
  0
TEXT
  5
20BB
  8
AM_BOR
 62
     7
 10
96.9799997086526844
 20
24.2000002207950082
 30
0.0
 40
2.7999999999999989
  1
品　　番
  0
TEXT
  5
20BC
  8
AM_BOR
 62
     7
 10
3.1549997801784002
 20
22.1500001850322192
 30
0.0
 40
1.0
  1
ARTICLE
 41
1.6000000000000001
  0
TEXT
  5
20BD
  8
AM_BOR
 62
     7
 10
1.7299997086527119
 20
24.2000002207950082
 30
0.0
 40
2.7999999999999989
  1
品　　名
  0
LINE
  5
20BE
  8
AM_BOR
 62
     4
 10
-0.0000001316067255
 20
15.0000001731112906
 30
0.0
 11
-0.0000001316067255
 21
0.0000001731112924
 31
0.0
  0
LINE
  5
20BF
  8
AM_BOR
 62
     4
 10
95.2499998683932461
 20
28.0000001731112889
 30
0.0
 11
95.2499998683932461
 21
0.000000173111296
 31
0.0
  0
TEXT
  5
20C0
  8
AM_BOR
 62
     7
 10
3.1549997801784002
 20
9.1500001850322192
 30
0.0
 40
1.0
  1
REMARKS
 41
1.6000000000000001
  0
TEXT
  5
20C1
  8
AM_BOR
 62
     7
 10
1.7299997086527119
 20
11.20000022079501
 30
0.0
 40
2.7999999999999989
  1
備　　考
  0
LINE
  5
20C2
  8
AM_BOR
 62
     4
 10
111.2499998683932034
 20
28.0000001731112889
 30
0.0
 11
111.2499998683932034
 21
0.000000173111296
 31
0.0
  0
LINE
  5
20C3
  8
AM_BOR
 62
     4
 10
-0.0000001316067255
 20
0.000000173111296
 30
0.0
 11
276.4999998683932745
 21
0.000000173111296
 31
0.0
  0
TEXT
  5
20C4
  8
AM_BOR
 62
     7
 10
98.404999780178386
 20
9.1500001850322157
 30
0.0
 40
1.0
  1
SETS
 41
1.6000000000000001
  0
TEXT
  5
20C5
  8
AM_BOR
 62
     7
 10
96.9799997086526844
 20
11.20000022079501
 30
0.0
 40
2.7999999999999989
  1
セット品
  0
ATTDEF
  5
20C6
  8
AM_BOR
 62
     7
 10
114.3107095753831004
 20
0.5000001731112853
 30
0.0
 40
3.0
  1

 11
114.3107095753831004
 21
2.0000001731112849
 31
0.0
  3
セット
  2
SETS｛20｝
 70
     0
 74
     2
1001
ACADANNOTATIVE
1000
AnnotativeData
1002
{
1070
     1
1070
     0
1002
}
1001
ACDBATTR
1070
     0
1070
     1
  0
ATTDEF
  5
20CA
  8
AM_BOR
 62
     7
 10
19.0607095753831608
 20
0.5000001731112889
 30
0.0
 40
3.0
  1

 11
19.0607095753831608
 21
2.000000173111288
 31
0.0
  3
備　　考
  2
REMARKS｛20｝
 70
     0
 74
     2
1001
ACADANNOTATIVE
1000
AnnotativeData
1002
{
1070
     1
1070
     0
1002
}
1001
ACDBATTR
1070
     0
1070
     1
  0
ATTDEF
  5
20CE
  8
AM_BOR
 62
     7
 10
114.3107095753831004
 20
5.5000001731112853
 30
0.0
 40
3.0
  1

 11
114.3107095753831004
 21
7.0000001731112853
 31
0.0
  3
セット
  2
SETS｛20｝
 70
     0
 74
     2
1001
ACADANNOTATIVE
1000
AnnotativeData
1002
{
1070
     1
1070
     0
1002
}
1001
ACDBATTR
1070
     0
1070
     1
  0
ATTDEF
  5
20D2
  8
AM_BOR
 62
     7
 10
19.0607095753831608
 20
5.500000173111288
 30
0.0
 40
3.0
  1

 11
19.0607095753831608
 21
7.000000173111288
 31
0.0
  3
備　　考
  2
REMARKS｛20｝
 70
     0
 74
     2
1001
ACADANNOTATIVE
1000
AnnotativeData
1002
{
1070
     1
1070
     0
1002
}
1001
ACDBATTR
1070
     0
1070
     1
  0
ATTDEF
  5
20D6
  8
AM_BOR
 62
     7
 10
114.3107095753831004
 20
10.50000017311128
 30
0.0
 40
3.0
  1

 11
114.3107095753831004
 21
12.00000017311128
 31
0.0
  3
セット
  2
SETS｛20｝
 70
     0
 74
     2
1001
ACADANNOTATIVE
1000
AnnotativeData
1002
{
1070
     1
1070
     0
1002
}
1001
ACDBATTR
1070
     0
1070
     1
  0
ATTDEF
  5
20DA
  8
AM_BOR
 62
     7
 10
19.0607095753831608
 20
10.5000001731112906
 30
0.0
 40
3.0
  1

 11
19.0607095753831608
 21
12.0000001731112906
 31
0.0
  3
備　　考
  2
REMARKS｛20｝
 70
     0
 74
     2
1001
ACADANNOTATIVE
1000
AnnotativeData
1002
{
1070
     1
1070
     0
1002
}
1001
ACDBATTR
1070
     0
1070
     1
  0
ATTDEF
  5
20DE
  8
AM_BOR
 62
     7
 10
114.2499998683932034
 20
23.5000001731112889
 30
0.0
 40
3.0
  1

 11
114.2499998683932034
 21
25.0000001731112889
 31
0.0
  3
品    番
  2
ART_NO｛20｝
 70
     0
 74
     2
1001
ACADANNOTATIVE
1000
AnnotativeData
1002
{
1070
     1
1070
     0
1002
}
1001
ACDBATTR
1070
     0
1070
     1
  0
ATTDEF
  5
20E2
  8
AM_BOR
 62
     7
 10
18.9999998683932709
 20
23.5000001731112889
 30
0.0
 40
3.0
  1

 11
18.9999998683932709
 21
25.0000001731112889
 31
0.0
  3
品    名
  2
ARTICLE｛20｝
 70
     0
 74
     2
1001
ACADANNOTATIVE
1000
AnnotativeData
1002
{
1070
     1
1070
     0
1002
}
1001
ACDBATTR
1070
     0
1070
     1
  0
ATTDEF
  5
20E6
  8
AM_BOR
 62
     7
 10
114.2499998683932034
 20
17.0000001731112889
 30
0.0
 40
3.0
  1

 11
114.2499998683932034
 21
18.5000001731112889
 31
0.0
  3
仕上
  2
FINISH｛20｝
 70
     0
 74
     2
1001
ACADANNOTATIVE
1000
AnnotativeData
1002
{
1070
     1
1070
     0
1002
}
1001
ACDBATTR
1070
     0
1070
     1
  0
ATTDEF
  5
20EA
  8
AM_BOR
 62
     7
 10
18.9999998683932709
 20
17.0000001731112889
 30
0.0
 40
3.0
  1

 11
18.9999998683932709
 21
18.5000001731112889
 31
0.0
  3
材　　質
  2
MATERIAK｛20｝
 70
     0
 74
     2
1001
ACADANNOTATIVE
1000
AnnotativeData
1002
{
1070
     1
1070
     0
1002
}
1001
ACDBATTR
1070
     0
1070
     1
  0
ENDBLK
  5
20F1
  8
0
  0
BLOCK
  8
0
  2
ZUWAKU-A3H
 70
     0
 10
0.0
 20
0.0
 30
0.0
  3
ZUWAKU-A3H
  1

  0
LINE
  5
29DD
  8
AM_BOR
 62
     3
 10
24.9999999999999893
 20
284.9999999999997726
 30
0.0
 11
24.9999999999999787
 21
9.0
 31
0.0
  0
LINE
  5
29DE
  8
AM_BOR
 62
     3
 10
411.9999999999998863
 20
284.9999999999998863
 30
0.0
 11
25.0
 21
284.9999999999998863
 31
0.0
  0
LINE
  5
29DF
  8
AM_BOR
 62
     3
 10
411.9999999999998863
 20
284.9999999999998863
 30
0.0
 11
411.9999999999998863
 21
9.0
 31
0.0
  0
LINE
  5
29E0
  8
AM_BOR
 62
     3
 10
24.9999999999999893
 20
8.9999999999999964
 30
0.0
 11
411.9999999999997158
 21
8.9999999999999964
 31
0.0
  0
TEXT
  5
29E1
  8
SYS-TEISEI0
  6
CONTINUOUS
 62
     3
 10
144.3850000176578874
 20
14.9500000476837194
 30
0.0
 40
3.099999904632567
  1
 
  0
TEXT
  5
29E2
  8
SYS-TEISEI0
  6
CONTINUOUS
 62
     3
 10
169.8850000444799093
 20
14.9500000476837194
 30
0.0
 40
3.099999904632567
  1
 
  0
TEXT
  5
29E3
  8
SYS-TEISEI0
  6
CONTINUOUS
 62
     3
 10
229.2449999570845875
 20
14.9500000476837194
 30
0.0
 40
3.099999904632567
  1
 
  0
TEXT
  5
29E4
  8
SYS-TEISEI0
  6
CONTINUOUS
 62
     3
 10
236.9449999570846046
 20
14.9500000476837194
 30
0.0
 40
3.099999904632567
  1
 
  0
TEXT
  5
29E5
  8
SYS-TEISEI0
  6
CONTINUOUS
 62
     3
 10
144.3850000176578874
 20
19.9500000476837194
 30
0.0
 40
3.099999904632567
  1
 
  0
TEXT
  5
29E6
  8
SYS-TEISEI0
  6
CONTINUOUS
 62
     3
 10
169.8850000444799093
 20
19.9500000476837194
 30
0.0
 40
3.099999904632567
  1
 
  0
TEXT
  5
29E7
  8
SYS-TEISEI0
  6
CONTINUOUS
 62
     3
 10
229.2449999570845875
 20
19.9500000476837194
 30
0.0
 40
3.099999904632567
  1
 
  0
TEXT
  5
29E8
  8
SYS-TEISEI0
  6
CONTINUOUS
 62
     3
 10
236.9449999570846046
 20
19.9500000476837194
 30
0.0
 40
3.099999904632567
  1
 
  0
TEXT
  5
29E9
  8
SYS-TEISEI0
  6
CONTINUOUS
 62
     3
 10
144.3850000176578874
 20
24.9500000476837194
 30
0.0
 40
3.099999904632567
  1
 
  0
TEXT
  5
29EA
  8
SYS-TEISEI0
  6
CONTINUOUS
 62
     3
 10
169.8850000444799093
 20
24.9500000476837194
 30
0.0
 40
3.099999904632567
  1
 
  0
TEXT
  5
29EB
  8
SYS-TEISEI0
  6
CONTINUOUS
 62
     3
 10
229.2449999570845875
 20
24.9500000476837194
 30
0.0
 40
3.099999904632567
  1
 
  0
TEXT
  5
29EC
  8
SYS-TEISEI0
  6
CONTINUOUS
 62
     3
 10
236.9449999570846046
 20
24.9500000476837194
 30
0.0
 40
3.099999904632567
  1
 
  0
TEXT
  5
29ED
  8
AM_BOR
 10
24.9999999999999893
 20
9.0
 30
0.0
 40
5.0
  1
!GENTITLE-LL
  0
TEXT
  5
29EE
  8
AM_BOR
 10
411.9999999999998863
 20
9.0
 30
0.0
 40
5.0
  1
!GENTITLE-INSERT
  0
TEXT
  5
29EF
  8
AM_BOR
 10
411.9999999999998863
 20
284.9999999999998863
 30
0.0
 40
5.0
  1
!GENTITLE-RU
  0
TEXT
  5
29F0
  8
AM_BOR
 10
420.0
 20
297.0
 30
0.0
 40
5.0
  1
!GENTITLE-MAX
  0
ENDBLK
  5
29F2
  8
0
  0
BLOCK
  8
0
  2
*D10
 70
     1
 10
0.0
 20
0.0
 30
0.0
  3
*D10
  1

  0
LINE
  5
5312
  8
AM_5
  6
CONTINUOUS
 62
     7
 10
89.9359058651614589
 20
191.4790424539982894
 30
0.0
 11
89.9359058651614589
 21
204.4790424539984031
 31
0.0
  0
LINE
  5
5313
  8
AM_5
  6
CONTINUOUS
 62
     7
 10
108.9359058651614021
 20
191.4790424539982894
 30
0.0
 11
108.9359058651614021
 21
204.4790424539984031
 31
0.0
  0
LINE
  5
5314
  8
AM_5
  6
CONTINUOUS
 62
     7
 10
92.4359058651614589
 20
203.4790424539984031
 30
0.0
 11
106.4359058651614021
 21
203.4790424539984031
 31
0.0
  0
INSERT
  5
5315
  8
AM_5
 62
     7
  2
_OPEN30
 10
89.9359058651614589
 20
203.4790424539984031
 30
0.0
 41
2.5
 42
2.5
 43
2.5
 50
180.0
  0
INSERT
  5
5316
  8
AM_5
 62
     7
  2
_OPEN30
 10
108.9359058651614021
 20
203.4790424539984031
 30
0.0
 41
2.5
 42
2.5
 43
2.5
  0
INSERT
  5
5317
  8
0
  2
*U38
 10
0.0
 20
0.0
 30
0.0
  0
POINT
  5
5318
  8
DEFPOINTS
 62
     0
 10
89.9359058651614589
 20
190.4790424539982894
 30
0.0
  0
POINT
  5
5319
  8
DEFPOINTS
 62
     0
 10
108.9359058651614021
 20
190.4790424539982894
 30
0.0
  0
POINT
  5
531A
  8
DEFPOINTS
 62
     0
 10
108.9359058651614021
 20
203.4790424539984031
 30
0.0
  0
ENDBLK
  5
4752
  8
0
  0
BLOCK
  8
0
  2
*D11
 70
     1
 10
0.0
 20
0.0
 30
0.0
  3
*D11
  1

  0
LINE
  5
531B
  8
AM_5
  6
CONTINUOUS
 62
     7
 10
86.9359058651614589
 20
193.4790424539984031
 30
0.0
 11
86.9359058651614589
 21
211.4790424539982894
 31
0.0
  0
LINE
  5
531C
  8
AM_5
  6
CONTINUOUS
 62
     7
 10
111.9359058651614021
 20
193.4790424539984031
 30
0.0
 11
111.9359058651614021
 21
211.4790424539982894
 31
0.0
  0
LINE
  5
531D
  8
AM_5
  6
CONTINUOUS
 62
     7
 10
89.4359058651614589
 20
210.4790424539982894
 30
0.0
 11
109.4359058651614021
 21
210.4790424539982894
 31
0.0
  0
INSERT
  5
531E
  8
AM_5
 62
     7
  2
_OPEN30
 10
86.9359058651614589
 20
210.4790424539982894
 30
0.0
 41
2.5
 42
2.5
 43
2.5
 50
180.0
  0
INSERT
  5
531F
  8
AM_5
 62
     7
  2
_OPEN30
 10
111.9359058651614021
 20
210.4790424539982894
 30
0.0
 41
2.5
 42
2.5
 43
2.5
  0
INSERT
  5
5320
  8
0
  2
*U39
 10
0.0
 20
0.0
 30
0.0
  0
POINT
  5
5321
  8
DEFPOINTS
 62
     0
 10
86.9359058651614589
 20
192.4790424539984031
 30
0.0
  0
POINT
  5
5322
  8
DEFPOINTS
 62
     0
 10
111.9359058651614021
 20
192.4790424539984031
 30
0.0
  0
POINT
  5
5323
  8
DEFPOINTS
 62
     0
 10
111.9359058651614021
 20
210.4790424539982894
 30
0.0
  0
ENDBLK
  5
477C
  8
0
  0
BLOCK
  8
0
  2
*D12
 70
     1
 10
0.0
 20
0.0
 30
0.0
  3
*D12
  1

  0
LINE
  5
5324
  8
AM_5
  6
CONTINUOUS
 62
     7
 10
108.9359058651614021
 20
191.4790424539982894
 30
0.0
 11
140.2184828264288967
 21
191.4790424539982894
 31
0.0
  0
LINE
  5
5325
  8
AM_5
  6
CONTINUOUS
 62
     7
 10
108.9359058651614021
 20
92.4790424539983746
 30
0.0
 11
140.2184828264288967
 21
92.4790424539983746
 31
0.0
  0
LINE
  5
5326
  8
AM_5
  6
CONTINUOUS
 62
     7
 10
139.2184828264288967
 20
188.9790424539982894
 30
0.0
 11
139.2184828264288967
 21
94.9790424539983746
 31
0.0
  0
INSERT
  5
5327
  8
AM_5
 62
     7
  2
_OPEN30
 10
139.2184828264288967
 20
191.4790424539982894
 30
0.0
 41
2.5
 42
2.5
 43
2.5
 50
90.0
  0
INSERT
  5
5328
  8
AM_5
 62
     7
  2
_OPEN30
 10
139.2184828264288967
 20
92.4790424539983746
 30
0.0
 41
2.5
 42
2.5
 43
2.5
 50
270.0
  0
INSERT
  5
5329
  8
0
  2
*U40
 10
0.0
 20
0.0
 30
0.0
  0
POINT
  5
532A
  8
DEFPOINTS
 62
     0
 10
107.9359058651614021
 20
191.4790424539982894
 30
0.0
  0
POINT
  5
532B
  8
DEFPOINTS
 62
     0
 10
107.9359058651614021
 20
92.4790424539983746
 30
0.0
  0
POINT
  5
532C
  8
DEFPOINTS
 62
     0
 10
139.2184828264288967
 20
92.4790424539983746
 30
0.0
  0
ENDBLK
  5
47C1
  8
0
  0
BLOCK
  8
0
  2
*D13
 70
     1
 10
0.0
 20
0.0
 30
0.0
  3
*D13
  1

  0
LINE
  5
532D
  8
AM_5
  6
CONTINUOUS
 62
     7
 10
110.9359058651614021
 20
89.4790424539983746
 30
0.0
 11
147.2184828264290104
 21
89.4790424539983746
 31
0.0
  0
LINE
  5
532E
  8
AM_5
  6
CONTINUOUS
 62
     7
 10
110.9359058651614021
 20
194.4790424539984031
 30
0.0
 11
147.2184828264290104
 21
194.4790424539984031
 31
0.0
  0
LINE
  5
532F
  8
AM_5
  6
CONTINUOUS
 62
     7
 10
146.2184828264290104
 20
91.9790424539983746
 30
0.0
 11
146.2184828264290104
 21
191.9790424539984031
 31
0.0
  0
INSERT
  5
5330
  8
AM_5
 62
     7
  2
_OPEN30
 10
146.2184828264290104
 20
89.4790424539983746
 30
0.0
 41
2.5
 42
2.5
 43
2.5
 50
270.0
  0
INSERT
  5
5331
  8
AM_5
 62
     7
  2
_OPEN30
 10
146.2184828264290104
 20
194.4790424539984031
 30
0.0
 41
2.5
 42
2.5
 43
2.5
 50
90.0
  0
INSERT
  5
5332
  8
0
  2
*U41
 10
0.0
 20
0.0
 30
0.0
  0
POINT
  5
5333
  8
DEFPOINTS
 62
     0
 10
109.9359058651614021
 20
89.4790424539983746
 30
0.0
  0
POINT
  5
5334
  8
DEFPOINTS
 62
     0
 10
109.9359058651614021
 20
194.4790424539984031
 30
0.0
  0
POINT
  5
5335
  8
DEFPOINTS
 62
     0
 10
146.2184828264290104
 20
194.4790424539984031
 30
0.0
  0
ENDBLK
  5
47EB
  8
0
  0
BLOCK
  8
0
  2
GENDOT
 70
     0
 10
0.0
 20
0.0
 30
0.0
  3
GENDOT
  1

  0
LINE
  5
4934
  8
0
 10
0.0
 20
0.0
 30
0.0
 11
-1.0
 21
0.0
 31
0.0
  0
POLYLINE
  5
4935
  8
0
 66
     1
 10
0.0
 20
0.0
 30
0.0
 70
     1
 40
0.25
 41
0.25
  0
VERTEX
  5
57E9
  8
0
 10
-0.125
 20
0.0
 30
0.0
 42
1.0
  0
VERTEX
  5
57EA
  8
0
 10
0.125
 20
0.0
 30
0.0
 42
1.0
  0
SEQEND
  5
57EB
  8
0
  0
ENDBLK
  5
4937
  8
0
  0
BLOCK
  8
0
  2
*D20
 70
     1
 10
0.0
 20
0.0
 30
0.0
  3
*D20
  1

  0
LINE
  5
52AC
  8
AM_5
  6
CONTINUOUS
 62
     7
 10
301.3873290609259925
 20
193.7290424539984031
 30
0.0
 11
301.3873290609259925
 21
203.0730271381497971
 31
0.0
  0
LINE
  5
52AD
  8
AM_5
  6
CONTINUOUS
 62
     7
 10
323.8873290609259925
 20
193.7290424539984031
 30
0.0
 11
323.8873290609259925
 21
203.0730271381497971
 31
0.0
  0
LINE
  5
52AE
  8
AM_5
  6
CONTINUOUS
 62
     7
 10
303.8873290609259925
 20
202.0730271381497971
 30
0.0
 11
321.3873290609259925
 21
202.0730271381497971
 31
0.0
  0
INSERT
  5
52AF
  8
AM_5
 62
     7
  2
_OPEN30
 10
301.3873290609259925
 20
202.0730271381497971
 30
0.0
 41
2.5
 42
2.5
 43
2.5
 50
180.0
  0
INSERT
  5
52B0
  8
AM_5
 62
     7
  2
_OPEN30
 10
323.8873290609259925
 20
202.0730271381497971
 30
0.0
 41
2.5
 42
2.5
 43
2.5
  0
INSERT
  5
52B1
  8
0
  2
*U34
 10
0.0
 20
0.0
 30
0.0
  0
POINT
  5
52B2
  8
DEFPOINTS
 62
     0
 10
301.3873290609259925
 20
192.7290424539982894
 30
0.0
  0
POINT
  5
52B3
  8
DEFPOINTS
 62
     0
 10
323.8873290609259925
 20
192.7290424539982894
 30
0.0
  0
POINT
  5
52B4
  8
DEFPOINTS
 62
     0
 10
323.8873290609259925
 20
202.0730271381497971
 30
0.0
  0
ENDBLK
  5
4D31
  8
0
  0
BLOCK
  8
0
  2
*D21
 70
     1
 10
0.0
 20
0.0
 30
0.0
  3
*D21
  1

  0
LINE
  5
52FD
  8
AM_5
  6
CONTINUOUS
 62
     7
 10
366.7695241698643258
 20
98.5217571908104333
 30
0.0
 11
348.769980359076726
 21
98.5217571908104617
 31
0.0
  0
LINE
  5
52FE
  8
AM_5
  6
CONTINUOUS
 62
     7
 10
366.7695241698643258
 20
185.5217571908104048
 30
0.0
 11
348.769980359076726
 21
185.5217571908104048
 31
0.0
  0
LINE
  5
52FF
  8
AM_5
  6
CONTINUOUS
 62
     7
 10
349.769980359076726
 20
101.0217571908104048
 30
0.0
 11
349.769980359076726
 21
183.0217571908104048
 31
0.0
  0
INSERT
  5
5300
  8
AM_5
 62
     7
  2
_OPEN30
 10
349.769980359076726
 20
98.5217571908104617
 30
0.0
 41
2.5
 42
2.5
 43
2.5
 50
270.0
  0
INSERT
  5
5301
  8
AM_5
 62
     7
  2
_OPEN30
 10
349.769980359076726
 20
185.5217571908104048
 30
0.0
 41
2.5
 42
2.5
 43
2.5
 50
90.0
  0
INSERT
  5
5302
  8
0
  2
*U36
 10
0.0
 20
0.0
 30
0.0
  0
POINT
  5
5303
  8
DEFPOINTS
 62
     0
 10
367.7695241698643258
 20
98.5217571908104333
 30
0.0
  0
POINT
  5
5304
  8
DEFPOINTS
 62
     0
 10
367.7695241698643258
 20
185.5217571908104048
 30
0.0
  0
POINT
  5
5305
  8
DEFPOINTS
 62
     0
 10
349.769980359076726
 20
185.5217571908104048
 30
0.0
  0
ENDBLK
  5
4D67
  8
0
  0
BLOCK
  8
0
  2
*D22
 70
     1
 10
0.0
 20
0.0
 30
0.0
  3
*D22
  1

  0
LINE
  5
52D9
  8
AM_5
  6
CONTINUOUS
 62
     7
 10
354.769980359076726
 20
91.2290424539983746
 30
0.0
 11
341.769980359076726
 21
91.2290424539983889
 31
0.0
  0
LINE
  5
52DA
  8
AM_5
  6
CONTINUOUS
 62
     7
 10
354.769980359076726
 20
192.7290424539982894
 30
0.0
 11
341.7699803590767829
 21
192.7290424539982894
 31
0.0
  0
LINE
  5
52DB
  8
AM_5
  6
CONTINUOUS
 62
     7
 10
342.769980359076726
 20
93.7290424539983889
 30
0.0
 11
342.7699803590767829
 21
190.2290424539984031
 31
0.0
  0
INSERT
  5
52DC
  8
AM_5
 62
     7
  2
_OPEN30
 10
342.769980359076726
 20
91.2290424539983889
 30
0.0
 41
2.5
 42
2.5
 43
2.5
 50
270.0
  0
INSERT
  5
52DD
  8
AM_5
 62
     7
  2
_OPEN30
 10
342.7699803590767829
 20
192.7290424539982894
 30
0.0
 41
2.5
 42
2.5
 43
2.5
 50
90.0
  0
INSERT
  5
52DE
  8
0
  2
*U35
 10
0.0
 20
0.0
 30
0.0
  0
POINT
  5
52DF
  8
DEFPOINTS
 62
     0
 10
355.769980359076726
 20
91.2290424539983746
 30
0.0
  0
POINT
  5
52E0
  8
DEFPOINTS
 62
     0
 10
355.769980359076726
 20
192.7290424539982894
 30
0.0
  0
POINT
  5
52E1
  8
DEFPOINTS
 62
     0
 10
342.7699803590767829
 20
192.7290424539982894
 30
0.0
  0
ENDBLK
  5
4D91
  8
0
  0
BLOCK
  8
0
  2
*D23
 70
     1
 10
0.0
 20
0.0
 30
0.0
  3
*D23
  1

  0
LINE
  5
5306
  8
AM_5
  6
CONTINUOUS
 62
     7
 10
367.7695241698643258
 20
143.0217571908104048
 30
0.0
 11
367.7695241698643258
 21
151.4877320976021906
 31
0.0
  0
LINE
  5
5307
  8
AM_5
  6
CONTINUOUS
 62
     7
 10
355.769980359076726
 20
142.9790424539982894
 30
0.0
 11
355.769980359076726
 21
151.4877320976021906
 31
0.0
  0
LINE
  5
5308
  8
AM_5
  6
CONTINUOUS
 62
     7
 10
365.2695241698643258
 20
150.4877320976021906
 30
0.0
 11
358.269980359076726
 21
150.4877320976021906
 31
0.0
  0
INSERT
  5
5309
  8
AM_5
 62
     7
  2
_OPEN30
 10
367.7695241698643258
 20
150.4877320976021906
 30
0.0
 41
2.5
 42
2.5
 43
2.5
  0
INSERT
  5
530A
  8
AM_5
 62
     7
  2
_OPEN30
 10
355.769980359076726
 20
150.4877320976021906
 30
0.0
 41
2.5
 42
2.5
 43
2.5
 50
180.0
  0
INSERT
  5
530B
  8
0
  2
*U37
 10
0.0
 20
0.0
 30
0.0
  0
POINT
  5
530C
  8
DEFPOINTS
 62
     0
 10
367.7695241698643258
 20
142.0217571908104048
 30
0.0
  0
POINT
  5
530D
  8
DEFPOINTS
 62
     0
 10
355.769980359076726
 20
141.9790424539982894
 30
0.0
  0
POINT
  5
530E
  8
DEFPOINTS
 62
     0
 10
355.769980359076726
 20
150.4877320976021906
 30
0.0
  0
ENDBLK
  5
4DDC
  8
0
  0
BLOCK
  8
0
  2
*D24
 70
     1
 10
0.0
 20
0.0
 30
0.0
  3
*D24
  1

  0
LINE
  5
543C
  8
AM_5
  6
CONTINUOUS
 62
     7
 10
88.4359058651614163
 20
232.2175511498247999
 30
0.0
 11
88.4359058651614163
 21
255.2175521498238027
 31
0.0
  0
LINE
  5
543D
  8
AM_5
  6
CONTINUOUS
 62
     7
 10
110.4359058651615015
 20
232.2175511498247999
 30
0.0
 11
110.4359058651615015
 21
255.2175521498238027
 31
0.0
  0
LINE
  5
543E
  8
AM_5
  6
CONTINUOUS
 62
     7
 10
90.9359058651614163
 20
254.2175521498238027
 30
0.0
 11
107.9359058651615015
 21
254.2175521498238027
 31
0.0
  0
INSERT
  5
543F
  8
AM_5
 62
     7
  2
_OPEN30
 10
88.4359058651614163
 20
254.2175521498238027
 30
0.0
 41
2.5
 42
2.5
 43
2.5
 50
180.0
  0
INSERT
  5
5440
  8
AM_5
 62
     7
  2
_OPEN30
 10
110.4359058651615015
 20
254.2175521498238027
 30
0.0
 41
2.5
 42
2.5
 43
2.5
  0
INSERT
  5
5441
  8
0
  2
*U42
 10
0.0
 20
0.0
 30
0.0
  0
POINT
  5
5442
  8
DEFPOINTS
 62
     0
 10
88.4359058651614163
 20
231.2175511498247999
 30
0.0
  0
POINT
  5
5443
  8
DEFPOINTS
 62
     0
 10
110.4359058651615015
 20
231.2175511498247999
 30
0.0
  0
POINT
  5
5444
  8
DEFPOINTS
 62
     0
 10
110.4359058651615015
 20
254.2175521498238027
 30
0.0
  0
ENDBLK
  5
5416
  8
0
  0
BLOCK
  8
0
  2
*D26
 70
     1
 10
0.0
 20
0.0
 30
0.0
  3
*D26
  1

  0
LINE
  5
5716
  8
AM_5
  6
CONTINUOUS
 62
     7
 10
197.5879090561138867
 20
192.479042453998801
 30
0.0
 11
234.9505957170239014
 21
192.479042453998801
 31
0.0
  0
LINE
  5
5717
  8
AM_5
  6
CONTINUOUS
 62
     7
 10
197.5879090561138867
 20
91.4790424539981757
 30
0.0
 11
234.9505957170239014
 21
91.4790424539982041
 31
0.0
  0
LINE
  5
5718
  8
AM_5
  6
CONTINUOUS
 62
     7
 10
233.9505957170239014
 20
189.979042453998801
 30
0.0
 11
233.9505957170239014
 21
93.9790424539982041
 31
0.0
  0
INSERT
  5
5719
  8
AM_5
 62
     7
  2
_OPEN30
 10
233.9505957170239014
 20
192.479042453998801
 30
0.0
 41
2.5
 42
2.5
 43
2.5
 50
90.0
  0
INSERT
  5
571A
  8
AM_5
 62
     7
  2
_OPEN30
 10
233.9505957170239014
 20
91.4790424539982041
 30
0.0
 41
2.5
 42
2.5
 43
2.5
 50
270.0
  0
INSERT
  5
571B
  8
0
  2
*U44
 10
0.0
 20
0.0
 30
0.0
  0
POINT
  5
571C
  8
DEFPOINTS
 62
     0
 10
196.5879090561138867
 20
192.479042453998801
 30
0.0
  0
POINT
  5
571D
  8
DEFPOINTS
 62
     0
 10
196.5879090561138867
 20
91.4790424539981757
 30
0.0
  0
POINT
  5
571E
  8
DEFPOINTS
 62
     0
 10
233.9505957170239014
 20
91.4790424539982041
 30
0.0
  0
ENDBLK
  5
5670
  8
0
  0
BLOCK
  8
0
  2
*D27
 70
     1
 10
0.0
 20
0.0
 30
0.0
  3
*D27
  1

  0
LINE
  5
570D
  8
AM_5
  6
CONTINUOUS
 62
     7
 10
213.9505957170235888
 20
94.4790424539982894
 30
0.0
 11
227.9505957170237025
 21
94.4790424539983036
 31
0.0
  0
LINE
  5
570E
  8
AM_5
  6
CONTINUOUS
 62
     7
 10
213.4505957170235888
 20
189.4790424539982894
 30
0.0
 11
227.9505957170237025
 21
189.4790424539982894
 31
0.0
  0
LINE
  5
570F
  8
AM_5
  6
CONTINUOUS
 62
     7
 10
226.9505957170237025
 20
96.979042453998332
 30
0.0
 11
226.9505957170237025
 21
186.9790424539982894
 31
0.0
  0
INSERT
  5
5710
  8
AM_5
 62
     7
  2
_OPEN30
 10
226.9505957170237025
 20
94.4790424539983036
 30
0.0
 41
2.5
 42
2.5
 43
2.5
 50
270.0
  0
INSERT
  5
5711
  8
AM_5
 62
     7
  2
_OPEN30
 10
226.9505957170237025
 20
189.4790424539982894
 30
0.0
 41
2.5
 42
2.5
 43
2.5
 50
90.0
  0
INSERT
  5
5712
  8
0
  2
*U43
 10
0.0
 20
0.0
 30
0.0
  0
POINT
  5
5713
  8
DEFPOINTS
 62
     0
 10
212.9505957170235035
 20
94.4790424539982894
 30
0.0
  0
POINT
  5
5714
  8
DEFPOINTS
 62
     0
 10
212.4505957170235888
 20
189.4790424539982894
 30
0.0
  0
POINT
  5
5715
  8
DEFPOINTS
 62
     0
 10
226.9505957170237025
 20
189.4790424539982894
 30
0.0
  0
ENDBLK
  5
567C
  8
0
  0
BLOCK
  8
0
  2
*D28
 70
     1
 10
0.0
 20
0.0
 30
0.0
  3
*D28
  1

  0
LINE
  5
571F
  8
AM_5
  6
CONTINUOUS
 62
     7
 10
210.5879090561147109
 20
190.4790424539982041
 30
0.0
 11
210.5879090561147109
 21
209.4790424539982041
 31
0.0
  0
LINE
  5
5720
  8
AM_5
  6
CONTINUOUS
 62
     7
 10
196.587909056114114
 20
195.4790424539982041
 30
0.0
 11
196.587909056114114
 21
209.4790424539982041
 31
0.0
  0
LINE
  5
5721
  8
AM_5
  6
CONTINUOUS
 62
     7
 10
208.0879090561147109
 20
208.4790424539982894
 30
0.0
 11
199.087909056114114
 21
208.4790424539982894
 31
0.0
  0
INSERT
  5
5722
  8
AM_5
 62
     7
  2
_OPEN30
 10
210.5879090561147109
 20
208.4790424539982894
 30
0.0
 41
2.5
 42
2.5
 43
2.5
  0
INSERT
  5
5723
  8
AM_5
 62
     7
  2
_OPEN30
 10
196.587909056114114
 20
208.4790424539982894
 30
0.0
 41
2.5
 42
2.5
 43
2.5
 50
180.0
  0
INSERT
  5
5724
  8
0
  2
*U45
 10
0.0
 20
0.0
 30
0.0
  0
POINT
  5
5725
  8
DEFPOINTS
 62
     0
 10
210.5879090561147109
 20
189.4790424539982041
 30
0.0
  0
POINT
  5
5726
  8
DEFPOINTS
 62
     0
 10
196.587909056114114
 20
194.4790424539982041
 30
0.0
  0
POINT
  5
5727
  8
DEFPOINTS
 62
     0
 10
196.587909056114114
 20
208.4790424539982894
 30
0.0
  0
ENDBLK
  5
5691
  8
0
  0
BLOCK
  8
0
  2
*D29
 70
     1
 10
0.0
 20
0.0
 30
0.0
  3
*D29
  1

  0
LINE
  5
5828
  8
AM_5
  6
CONTINUOUS
 62
     7
 10
194.5879090561140004
 20
89.979042453998261
 30
0.0
 11
194.5879090561140004
 21
76.979042453998261
 31
0.0
  0
LINE
  5
5829
  8
AM_5
  6
CONTINUOUS
 62
     7
 10
196.5879090561140004
 20
88.479042453998261
 30
0.0
 11
196.5879090561140004
 21
76.979042453998261
 31
0.0
  0
LINE
  5
582A
  8
AM_5
  6
CONTINUOUS
 62
     7
 10
199.0879090561140004
 20
77.979042453998261
 30
0.0
 11
201.587909056114114
 21
77.979042453998261
 31
0.0
  0
LINE
  5
582B
  8
AM_5
  6
CONTINUOUS
 62
     7
 10
192.0879090561140004
 20
77.979042453998261
 30
0.0
 11
185.5879090561140004
 21
77.979042453998261
 31
0.0
  0
LINE
  5
582C
  8
AM_5
  6
CONTINUOUS
 62
     7
 10
196.5879090561140004
 20
77.979042453998261
 30
0.0
 11
194.5879090561140004
 21
77.979042453998261
 31
0.0
  0
INSERT
  5
582D
  8
AM_5
 62
     7
  2
GENDOT
 10
196.5879090561140004
 20
77.979042453998261
 30
0.0
 41
2.5
 42
2.5
 43
2.5
 50
180.0
  0
INSERT
  5
582E
  8
AM_5
 62
     7
  2
_OPEN30
 10
194.5879090561140004
 20
77.979042453998261
 30
0.0
 41
2.5
 42
2.5
 43
2.5
  0
TEXT
  8
AM_5
  40
3
  5
584C
  62
7
  72
0
  71
0
 10
187.588
 20
76.5790
 30
0.000000
  1
2
  0
POINT
  5
5830
  8
DEFPOINTS
 62
     0
 10
194.5879090561140004
 20
90.979042453998261
 30
0.0
  0
POINT
  5
5831
  8
DEFPOINTS
 62
     0
 10
196.5879090561140004
 20
89.479042453998261
 30
0.0
  0
POINT
  5
5832
  8
DEFPOINTS
 62
     0
 10
196.5879090561140004
 20
77.979042453998261
 30
0.0
  0
ENDBLK
  5
569D
  8
0
  0
BLOCK
  8
0
  2
*D30
 70
     1
 10
0.0
 20
0.0
 30
0.0
  3
*D30
  1

  0
LINE
  5
5833
  8
AM_5
  6
CONTINUOUS
 62
     7
 10
196.5879090561140004
 20
88.479042453998261
 30
0.0
 11
196.5879090561140004
 21
76.9790424539982041
 31
0.0
  0
LINE
  5
5834
  8
AM_5
  6
CONTINUOUS
 62
     7
 10
208.587909056114114
 20
106.4723890015399945
 30
0.0
 11
208.587909056114114
 21
76.9790424539982041
 31
0.0
  0
LINE
  5
5835
  8
AM_5
  6
CONTINUOUS
 62
     7
 10
199.0879090561140004
 20
77.9790424539982041
 30
0.0
 11
206.087909056114114
 21
77.9790424539982041
 31
0.0
  0
LINE
  5
5836
  8
AM_5
  6
CONTINUOUS
 62
     7
 10
208.587909056114114
 20
77.9790424539982041
 30
0.0
 11
220.516480484685502
 21
77.9790424539982041
 31
0.0
  0
INSERT
  5
5837
  8
AM_5
 62
     7
  2
GENDOT
 10
196.5879090561140004
 20
77.9790424539982041
 30
0.0
 41
2.5
 42
2.5
 43
2.5
 50
180.0
  0
INSERT
  5
5838
  8
AM_5
 62
     7
  2
_OPEN30
 10
208.587909056114114
 20
77.9790424539982041
 30
0.0
 41
2.5
 42
2.5
 43
2.5
  0
TEXT
  8
AM_5
  40
3
  5
584D
  62
7
  72
0
  71
0
 10
217.374
 20
76.5790
 30
0.000000
  1
12
  0
POINT
  5
583A
  8
DEFPOINTS
 62
     0
 10
196.5879090561140004
 20
89.479042453998261
 30
0.0
  0
POINT
  5
583B
  8
DEFPOINTS
 62
     0
 10
208.587909056114114
 20
107.4723890015399945
 30
0.0
  0
POINT
  5
583C
  8
DEFPOINTS
 62
     0
 10
208.587909056114114
 20
77.9790424539982041
 30
0.0
  0
ENDBLK
  5
56AB
  8
0
  0
BLOCK
  8
0
  2
*X32
 70
     1
 10
0.0
 20
0.0
 30
0.0
  3
*X32
  1

  0
LINE
  5
57ED
  8
0
 62
     0
 10
371.1021953466233754
 20
84.5088111598137459
 30
0.0
 11
377.7699803590767829
 21
91.176596172267125
 31
0.0
  0
LINE
  5
57EE
  8
0
 62
     0
 10
362.1044694303532765
 20
84.4913413646128504
 30
0.0
 11
377.7699803590767829
 21
100.1568522933362999
 31
0.0
  0
LINE
  5
57EF
  8
0
 62
     0
 10
367.7695241698644963
 20
99.1366522251930604
 30
0.0
 11
377.7699803590767829
 21
109.1371084144054038
 31
0.0
  0
LINE
  5
57F0
  8
0
 62
     0
 10
355.769980359076726
 20
87.1371084144053896
 30
0.0
 11
366.2019168086994227
 21
97.5690448640279726
 31
0.0
  0
LINE
  5
57F1
  8
0
 62
     0
 10
367.7695241698643827
 20
108.1169083462620932
 30
0.0
 11
377.769980359076726
 21
118.1173645354744934
 31
0.0
  0
LINE
  5
57F2
  8
0
 62
     0
 10
367.7695241698644963
 20
117.0971644673312966
 30
0.0
 11
377.7699803590767829
 21
127.0976206565436968
 31
0.0
  0
LINE
  5
57F3
  8
0
 62
     0
 10
367.7695241698643827
 20
126.0774205884004999
 30
0.0
 11
377.7699803590767829
 21
136.0778767776128007
 31
0.0
  0
LINE
  5
57F4
  8
0
 62
     0
 10
374.7039856327608049
 20
141.9921381723659977
 30
0.0
 11
377.7699803590767829
 21
145.058132898682004
 31
0.0
  0
LINE
  5
57F5
  8
0
 62
     0
 10
367.7695241698643827
 20
135.0576767094696038
 30
0.0
 11
374.7039856327608049
 21
141.9921381723659977
 31
0.0
  0
LINE
  5
57F6
  8
0
 62
     0
 10
367.7695241698643258
 20
144.0379328305388071
 30
0.0
 11
377.769980359076726
 21
154.0383890197510937
 31
0.0
  0
LINE
  5
57F7
  8
0
 62
     0
 10
367.7695241698643258
 20
153.0181889516078968
 30
0.0
 11
377.769980359076726
 21
163.018645140820297
 31
0.0
  0
LINE
  5
57F8
  8
0
 62
     0
 10
367.7695241698643258
 20
161.9984450726769865
 30
0.0
 11
377.769980359076726
 21
171.9989012618893867
 31
0.0
  0
LINE
  5
57F9
  8
0
 62
     0
 10
367.7695241698643258
 20
170.9787011937461898
 30
0.0
 11
377.769980359076726
 21
180.9791573829585047
 31
0.0
  0
LINE
  5
57FA
  8
0
 62
     0
 10
367.7695241698644963
 20
179.9589573148153931
 30
0.0
 11
377.769980359076726
 21
189.9594135040277081
 31
0.0
  0
LINE
  5
57FB
  8
0
 62
     0
 10
365.6344546184940896
 20
186.8041438845143034
 30
0.0
 11
377.769980359076726
 21
198.9396696250969114
 31
0.0
  0
LINE
  5
57FC
  8
0
 62
     0
 10
360.0240034429343154
 20
190.1739488300235905
 30
0.0
 11
369.355474376063512
 21
199.505419763152787
 31
0.0
  0
LINE
  5
57FD
  8
0
 62
     0
 10
355.769980359076726
 20
194.9001818672352044
 30
0.0
 11
360.3577484597934131
 21
199.4879499679518915
 31
0.0
  0
ENDBLK
  5
57FF
  8
0
  0
BLOCK
  8
0
  2
*U33
 70
     1
 10
0.0
 20
0.0
 30
0.0
  3
*U33
  1

  0
TEXT
  5
5801
  8
AM_5
 10
323.4686723544878078
 20
67.6645649489987591
 30
0.0
 40
3.0
  1
切欠き図（木用）
  0
ENDBLK
  5
5803
  8
0
  0
BLOCK
  8
0
  2
*U34
 70
     1
 10
0.0
 20
0.0
 30
0.0
  3
*U34
  1

  0
TEXT
  5
5805
  8
AM_5
 62
     7
 10
308.0659004894973805
 20
203.0730271381497971
 30
0.0
 40
3.0
  1
22.5
  0
ENDBLK
  5
5807
  8
0
  0
BLOCK
  8
0
  2
*U35
 70
     1
 10
0.0
 20
0.0
 30
0.0
  3
*U35
  1

  0
TEXT
  5
5809
  8
AM_5
 62
     7
 10
341.769980359076726
 20
136.5504710254269867
 30
0.0
 40
3.0
  1
101.5
 50
90.0
  0
ENDBLK
  5
580B
  8
0
  0
BLOCK
  8
0
  2
*U36
 70
     1
 10
0.0
 20
0.0
 30
0.0
  3
*U36
  1

  0
TEXT
  5
580D
  8
AM_5
 62
     7
 10
348.769980359076726
 20
139.5931857622389884
 30
0.0
 40
3.0
  1
87
 50
90.0
  0
ENDBLK
  5
580F
  8
0
  0
BLOCK
  8
0
  2
*U37
 70
     1
 10
0.0
 20
0.0
 30
0.0
  3
*U37
  1

  0
TEXT
  5
5811
  8
AM_5
 62
     7
 10
359.6268951216134155
 20
151.4877320976021906
 30
0.0
 40
3.0
  1
12
  0
ENDBLK
  5
5813
  8
0
  0
BLOCK
  8
0
  2
*U38
 70
     1
 10
0.0
 20
0.0
 30
0.0
  3
*U38
  1

  0
TEXT
  5
5815
  8
AM_5
 62
     7
 10
97.3644772937328753
 20
204.4790424539984031
 30
0.0
 40
3.0
  1
19
  0
ENDBLK
  5
5817
  8
0
  0
BLOCK
  8
0
  2
*U39
 70
     1
 10
0.0
 20
0.0
 30
0.0
  3
*U39
  1

  0
TEXT
  5
5819
  8
AM_5
 62
     7
 10
97.0073344365900425
 20
211.4790424539982894
 30
0.0
 40
3.0
  1
25
  0
ENDBLK
  5
581B
  8
0
  0
BLOCK
  8
0
  2
*U40
 70
     1
 10
0.0
 20
0.0
 30
0.0
  3
*U40
  1

  0
TEXT
  5
581D
  8
AM_5
 62
     7
 10
138.2184828264288967
 20
139.6218995968555134
 30
0.0
 40
3.0
  1
99
 50
90.0
  0
ENDBLK
  5
581F
  8
0
  0
BLOCK
  8
0
  2
*U41
 70
     1
 10
0.0
 20
0.0
 30
0.0
  3
*U41
  1

  0
TEXT
  5
5821
  8
AM_5
 62
     7
 10
145.2184828264288967
 20
138.407613882569791
 30
0.0
 40
3.0
  1
105
 50
90.0
  0
ENDBLK
  5
5823
  8
0
  0
BLOCK
  8
0
  2
*U42
 70
     1
 10
0.0
 20
0.0
 30
0.0
  3
*U42
  1

  0
TEXT
  5
5825
  8
AM_5
 62
     7
 10
97.0073344365900425
 20
255.2175521498238027
 30
0.0
 40
3.0
  1
22
  0
ENDBLK
  5
5827
  8
0
  0
BLOCK
  8
0
  2
*U43
 70
     1
 10
0.0
 20
0.0
 30
0.0
  3
*U43
  1

  0
TEXT
  5
5841
  8
AM_5
 62
     7
 10
225.9505957170237025
 20
139.5504710254267877
 30
0.0
 40
3.0
  1
95
 50
90.0
  0
ENDBLK
  5
5843
  8
0
  0
BLOCK
  8
0
  2
*U44
 70
     1
 10
0.0
 20
0.0
 30
0.0
  3
*U44
  1

  0
TEXT
  5
5845
  8
AM_5
 62
     7
 10
232.9505957170239014
 20
139.0504710254269867
 30
0.0
 40
3.0
  1
101
 50
90.0
  0
ENDBLK
  5
5847
  8
0
  0
BLOCK
  8
0
  2
*U45
 70
     1
 10
0.0
 20
0.0
 30
0.0
  3
*U45
  1

  0
TEXT
  5
5849
  8
AM_5
 62
     7
 10
201.3736233418287043
 20
209.4790424539982041
 30
0.0
 40
3.0
  1
14
  0
ENDBLK
  5
584B
  8
0
  0
ENDSEC
  0
SECTION
  2
ENTITIES
  0
INSERT
  5
1BB5
  8
0
  2
ZUWAKU-A3H
 10
0.0
 20
0.0
 30
0.0
1001
GENIUS_GENOREF_13
1005
1C93
1001
GENIUS_GENOBJ-N-SDF_13
1002
{
1000
OWNER
1000
GEN
1002
}
1001
GENIUS_GENODEF_13
1002
{
1000
HIER
1070
     0
1002
}
1002
{
1000
MANEDIT
1070
     0
1002
}
1002
{
1000
NOSEL
1070
     0
1002
}
1002
{
1000
BEHIND
1070
     0
1002
}
1002
{
1000
OTHER
1070
     0
1002
}
1002
{
1000
REACTOR
1002
}
1001
GENIUS_GENSCREG_13
1040
1.0
1040
1.0
1011
24.9999999999999787
1021
0.0
1031
0.0
1021
8.9999999999999964
1031
0.0
1011
411.9999999999998863
1021
0.0
1031
0.0
1021
284.9999999999998863
1031
0.0
1070
     3
  0
POINT
  5
1C93
  8
0
 10
0.0
 20
0.0
 30
0.0
1001
GENIUS_GENOENT_13
1002
{
1000
MYREF
1005
1C93
1002
}
1002
{
1000
GRP
1005
0
1002
}
1001
GENIUS_GENOBJ-N-TIT_13
1002
{
1000
OWNER
1000
GEN
1002
}
1001
GENIUS_GENODEF_13
1002
{
1000
HIER
1070
     1
1002
}
1002
{
1000
MANEDIT
1070
     1
1002
}
1002
{
1000
NOSEL
1070
     0
1002
}
1002
{
1000
BEHIND
1070
     0
1002
}
1002
{
1000
OTHER
1070
     0
1002
}
1002
{
1000
REACTOR
1002
}
1001
GENIUS_GENOLIS_13
1002
{
1000
ENT
1005
1BB5
1005
2A9C
1002
}
1001
GENIUS_GENTITLE_13
1002
{
1000
BORDER
1000
C:\Program Files\Autodesk\ACADM 2008\Acadm\gen\Dwg\Format\ZUWAKU-A3H
1002
}
1002
{
1000
TITLE
1000
C:\Program Files\Autodesk\ACADM 2008\Acadm\gen\Dwg\Title\N_Title
1002
}
1002
{
1000
ADDITIONAL1
1000

1002
}
1002
{
1000
ADDITIONAL2
1000

1002
}
1002
{
1000
SCALE
1000
1:1
1002
}
1002
{
1000
TITLESTD
1000
JIS
1002
}
1002
{
1000
HRA
1005
1BB5
1002
}
1002
{
1000
HTIT
1005
2A9C
1002
}
1002
{
1000
GENIUSID
1005
1C93
1002
}
1002
{
1000
INVTXTID
1005
0
1002
}
1002
{
1000
UNCHG
1002
{
1000
GEN-TITLE-SIZ
1000
GEN-TITLE-SCA
1002
}
1002
}
  0
INSERT
  5
20F2
  8
0
 66
     1
  2
A$C1C06296A
 10
135.5000001316064981
 20
8.9999998268887005
 30
0.0
  0
ATTRIB
  5
20F3
  8
AM_BOR
 62
     7
 10
249.8107097069895985
 20
9.4999999999999893
 30
0.0
 40
3.0
  1

 11
249.8107097069895985
 21
10.9999999999999893
 31
0.0
  2
SETS｛20｝
 70
     0
 74
     2
1001
ACDBATTR
1070
     0
1070
     1
  0
ATTRIB
  5
20F4
  8
AM_BOR
 62
     7
 10
154.5607097069895985
 20
9.4999999999999893
 30
0.0
 40
3.0
  1

 11
154.5607097069895985
 21
10.9999999999999893
 31
0.0
  2
REMARKS｛20｝
 70
     0
 74
     2
1001
ACDBATTR
1070
     0
1070
     1
  0
ATTRIB
  5
20F5
  8
AM_BOR
 62
     7
 10
249.8107097069895985
 20
14.4999999999999893
 30
0.0
 40
3.0
  1

 11
249.8107097069895985
 21
15.9999999999999893
 31
0.0
  2
SETS｛20｝
 70
     0
 74
     2
1001
ACDBATTR
1070
     0
1070
     1
  0
ATTRIB
  5
20F6
  8
AM_BOR
 62
     7
 10
154.5607097069895985
 20
14.4999999999999893
 30
0.0
 40
3.0
  1

 11
154.5607097069895985
 21
15.9999999999999893
 31
0.0
  2
REMARKS｛20｝
 70
     0
 74
     2
1001
ACDBATTR
1070
     0
1070
     1
  0
ATTRIB
  5
20F7
  8
AM_BOR
 62
     7
 10
249.8107097069895985
 20
19.4999999999999893
 30
0.0
 40
3.0
  1

 11
249.8107097069895985
 21
20.9999999999999893
 31
0.0
  2
SETS｛20｝
 70
     0
 74
     2
1001
ACDBATTR
1070
     0
1070
     1
  0
ATTRIB
  5
20F8
  8
AM_BOR
 62
     7
 10
154.5607097069895985
 20
19.4999999999999893
 30
0.0
 40
3.0
  1

 11
154.5607097069895985
 21
20.9999999999999893
 31
0.0
  2
REMARKS｛20｝
 70
     0
 74
     2
1001
ACDBATTR
1070
     0
1070
     1
  0
ATTRIB
  5
20F9
  8
AM_BOR
 62
     7
 10
249.7499999999996874
 20
32.4999999999999929
 30
0.0
 40
3.0
  1
DC-00-105
 11
249.7499999999996874
 21
33.9999999999999929
 31
0.0
  2
ART_NO｛20｝
 70
     0
 74
     2
1001
ACDBATTR
1070
     0
1070
     1
  0
ATTRIB
  5
20FA
  8
AM_BOR
 62
     7
 10
154.4999999999996874
 20
32.4999999999999929
 30
0.0
 40
3.0
  1
彫込み引手
 11
154.4999999999996874
 21
33.9999999999999929
 31
0.0
  2
ARTICLE｛20｝
 70
     0
 74
     2
1001
ACDBATTR
1070
     0
1070
     1
  0
ATTRIB
  5
20FB
  8
AM_BOR
 62
     7
 10
249.7499999999996874
 20
25.9999999999999893
 30
0.0
 40
3.0
  1
光沢クロム
 11
249.7499999999996874
 21
27.4999999999999893
 31
0.0
  2
FINISH｛20｝
 70
     0
 74
     2
1001
ACDBATTR
1070
     0
1070
     1
  0
ATTRIB
  5
20FC
  8
AM_BOR
 62
     7
 10
154.4999999999996874
 20
25.9999999999999893
 30
0.0
 40
3.0
  1
亜鉛ダイカスト
 11
154.4999999999996874
 21
27.4999999999999893
 31
0.0
  2
MATERIAK｛20｝
 70
     0
 74
     2
1001
ACDBATTR
1070
     0
1070
     1
  0
SEQEND
  5
20FD
  8
0
  0
LINE
  5
45EC
  8
AM_7
 10
99.4359058651614589
 20
197.4790424539984031
 30
0.0
 11
99.4359058651614589
 21
86.4790424539983746
 31
0.0
  0
LINE
  5
45EE
  8
AM_7
 10
114.9359058651614021
 20
141.9790424539982894
 30
0.0
 11
83.9359058651614447
 21
141.9790424539982894
 31
0.0
  0
LINE
  5
45F0
  8
0
 10
89.9359058651614589
 20
190.4790424539982894
 30
0.0
 11
89.9359058651614589
 21
93.4790424539983746
 31
0.0
  0
LINE
  5
45F1
  8
0
 10
108.9359058651614021
 20
190.4790424539982894
 30
0.0
 11
108.9359058651614021
 21
93.4790424539983746
 31
0.0
  0
LINE
  5
45F2
  8
0
 10
86.9359058651614589
 20
192.4790424539984031
 30
0.0
 11
86.9359058651614589
 21
91.4790424539983746
 31
0.0
  0
LINE
  5
45F3
  8
0
 10
111.9359058651614021
 20
192.4790424539984031
 30
0.0
 11
111.9359058651614021
 21
91.4790424539983746
 31
0.0
  0
LINE
  5
45F4
  8
0
 10
109.9359058651614021
 20
194.4790424539984031
 30
0.0
 11
88.9359058651614447
 21
194.4790424539984031
 31
0.0
  0
LINE
  5
45F5
  8
0
 10
109.9359058651614021
 20
89.4790424539983746
 30
0.0
 11
88.9359058651614447
 21
89.4790424539983746
 31
0.0
  0
LINE
  5
45F6
  8
0
 10
107.9359058651614021
 20
191.4790424539982894
 30
0.0
 11
90.9359058651614589
 21
191.4790424539982894
 31
0.0
  0
LINE
  5
45F7
  8
0
 10
107.9359058651614021
 20
92.4790424539983746
 30
0.0
 11
90.9359058651614589
 21
92.4790424539983746
 31
0.0
  0
ARC
  5
45F8
  8
0
 10
88.9359058651614447
 20
91.4790424539983746
 30
0.0
 40
2.0
 50
180.0
 51
270.0
  0
ARC
  5
45F9
  8
0
 10
109.9359058651614021
 20
91.4790424539983746
 30
0.0
 40
2.0
 50
270.0
 51
0.0
  0
ARC
  5
45FA
  8
0
 10
109.9359058651614021
 20
192.4790424539984031
 30
0.0
 40
2.0
 50
0.0
 51
90.0
  0
ARC
  5
45FB
  8
0
 10
88.9359058651614447
 20
192.4790424539984031
 30
0.0
 40
2.0
 50
90.0
 51
180.0
  0
LINE
  5
4600
  8
0
 10
107.4359058651614021
 20
176.9790424539984031
 30
0.0
 11
107.4359058651614021
 21
106.9790424539977067
 31
0.0
  0
LINE
  5
4601
  8
0
 10
91.4359058651614447
 20
176.9790424539984031
 30
0.0
 11
91.4359058651614447
 21
106.9790424539987015
 31
0.0
  0
LINE
  5
4602
  8
0
 10
91.4359058651614447
 20
106.9790424539984031
 30
0.0
 11
89.9359058651614589
 21
94.4790424539983746
 31
0.0
  0
LINE
  5
4603
  8
0
 10
107.4359058651614021
 20
106.9790424539984031
 30
0.0
 11
108.9213833468272981
 21
94.7196233547317661
 31
0.0
  0
LINE
  5
4604
  8
0
 10
107.4359058651614021
 20
176.9790424539984031
 30
0.0
 11
108.9213833468272981
 21
189.2384615532648979
 31
0.0
  0
LINE
  5
4605
  8
0
 10
91.4359058651614447
 20
176.9790424539984031
 30
0.0
 11
89.9504283834955629
 21
189.2384615532650116
 31
0.0
  0
DIMENSION
  5
474F
  8
AM_5
  2
*D10
 10
108.9359058651614021
 20
203.4790424539984031
 30
0.0
 11
99.4359058651614589
 21
205.9790424539984031
 31
0.0
 70
     0
 13
89.9359058651614589
 23
190.4790424539982894
 33
0.0
 14
108.9359058651614021
 24
190.4790424539982894
 34
0.0
1001
ACAD_DSTYLE_DIMINSPECT
1070
   396
1000
100%
1070
   395
1000

1070
   394
1070
    33
1070
   393
1070
     0
  0
DIMENSION
  5
4779
  8
AM_5
  2
*D11
 10
111.9359058651614021
 20
210.4790424539982894
 30
0.0
 11
99.4359058651614589
 21
212.9790424539982894
 31
0.0
 70
     0
 13
86.9359058651614589
 23
192.4790424539984031
 33
0.0
 14
111.9359058651614021
 24
192.4790424539984031
 34
0.0
1001
ACAD_DSTYLE_DIMINSPECT
1070
   396
1000
100%
1070
   395
1000

1070
   394
1070
    33
1070
   393
1070
     0
  0
DIMENSION
  5
47BE
  8
AM_5
  2
*D12
 10
139.2184828264288967
 20
92.4790424539983746
 30
0.0
 11
136.7184828264288967
 21
141.9790424539984031
 31
0.0
 70
     0
 13
107.9359058651614021
 23
191.4790424539982894
 33
0.0
 14
107.9359058651614021
 24
92.4790424539983746
 34
0.0
 50
90.0
1001
ACAD_DSTYLE_DIMINSPECT
1070
   396
1000
100%
1070
   395
1000

1070
   394
1070
    33
1070
   393
1070
     0
  0
DIMENSION
  5
47E8
  8
AM_5
  2
*D13
 10
146.2184828264290104
 20
194.4790424539984031
 30
0.0
 11
143.7184828264290104
 21
141.9790424539984031
 31
0.0
 70
     0
 13
109.9359058651614021
 23
89.4790424539983746
 33
0.0
 14
109.9359058651614021
 24
194.4790424539984031
 34
0.0
 50
90.0
1001
ACAD_DSTYLE_DIMINSPECT
1070
   396
1000
100%
1070
   395
1000

1070
   394
1070
    33
1070
   393
1070
     0
  0
ARC
  5
4A17
  8
0
 10
90.9359058651614589
 20
93.4790424539983746
 30
0.0
 40
1.0
 50
180.0
 51
270.0
1001
GENIUS_GENODEF_13
1002
{
1000
HIER
1070
     0
1002
}
1002
{
1000
MANEDIT
1070
     0
1002
}
1002
{
1000
NOSEL
1070
     0
1002
}
1002
{
1000
BEHIND
1070
     0
1002
}
1002
{
1000
OTHER
1070
     0
1002
}
1002
{
1000
REACTOR
1002
}
1001
GENIUS_GENOBJ-N-FIL_13
1002
{
1000
OWNER
1000
GEN
1002
}
  0
ARC
  5
4A18
  8
0
 10
107.9359058651614021
 20
93.4790424539983746
 30
0.0
 40
1.0
 50
270.0
 51
0.0
1001
GENIUS_GENODEF_13
1002
{
1000
HIER
1070
     0
1002
}
1002
{
1000
MANEDIT
1070
     0
1002
}
1002
{
1000
NOSEL
1070
     0
1002
}
1002
{
1000
BEHIND
1070
     0
1002
}
1002
{
1000
OTHER
1070
     0
1002
}
1002
{
1000
REACTOR
1002
}
1001
GENIUS_GENOBJ-N-FIL_13
1002
{
1000
OWNER
1000
GEN
1002
}
  0
ARC
  5
4A19
  8
0
 10
90.9359058651614589
 20
190.4790424539982894
 30
0.0
 40
1.0
 50
90.0
 51
180.0
1001
GENIUS_GENODEF_13
1002
{
1000
HIER
1070
     0
1002
}
1002
{
1000
MANEDIT
1070
     0
1002
}
1002
{
1000
NOSEL
1070
     0
1002
}
1002
{
1000
BEHIND
1070
     0
1002
}
1002
{
1000
OTHER
1070
     0
1002
}
1002
{
1000
REACTOR
1002
}
1001
GENIUS_GENOBJ-N-FIL_13
1002
{
1000
OWNER
1000
GEN
1002
}
  0
ARC
  5
4A1A
  8
0
 10
107.9359058651614021
 20
190.4790424539982894
 30
0.0
 40
1.0
 50
0.0
 51
90.0
1001
GENIUS_GENODEF_13
1002
{
1000
HIER
1070
     0
1002
}
1002
{
1000
MANEDIT
1070
     0
1002
}
1002
{
1000
NOSEL
1070
     0
1002
}
1002
{
1000
BEHIND
1070
     0
1002
}
1002
{
1000
OTHER
1070
     0
1002
}
1002
{
1000
REACTOR
1002
}
1001
GENIUS_GENOBJ-N-FIL_13
1002
{
1000
OWNER
1000
GEN
1002
}
  0
LINE
  5
4B91
  8
0
 10
301.3873290609259925
 20
192.7290424539982894
 30
0.0
 11
323.8873290609259925
 21
192.7290424539982894
 31
0.0
  0
LINE
  5
4B92
  8
0
 10
323.8873290609259925
 20
192.7290424539982894
 30
0.0
 11
323.8873290609259925
 21
91.2290424539983746
 31
0.0
  0
LINE
  5
4B93
  8
0
 10
323.8873290609259925
 20
91.2290424539983746
 30
0.0
 11
301.3873290609259925
 21
91.2290424539983746
 31
0.0
  0
LINE
  5
4B94
  8
0
 10
301.3873290609259925
 20
91.2290424539983746
 30
0.0
 11
301.3873290609259925
 21
192.7290424539982894
 31
0.0
  0
LINE
  5
4B95
  8
AM_7
 10
287.0461869201390073
 20
141.9790424539982894
 30
0.0
 11
383.3717461794714723
 21
141.9790424539982894
 31
0.0
1001
GENIUS_GENOBJ-N-CEN_13
1002
{
1000
OWNER
1000
GEN
1002
}
1001
GENIUS_GENODEF_13
1002
{
1000
HIER
1070
     0
1002
}
1002
{
1000
MANEDIT
1070
     0
1002
}
1002
{
1000
NOSEL
1070
     0
1002
}
1002
{
1000
BEHIND
1070
     0
1002
}
1002
{
1000
OTHER
1070
     0
1002
}
1002
{
1000
REACTOR
1002
}
1001
GENIUS_GENCEN_19
1002
{
1040
3.0
1002
}
  0
LINE
  5
4B96
  8
0
 10
355.769980359076726
 20
199.4790424539982894
 30
0.0
 11
355.769980359076726
 21
84.4790424539983746
 31
0.0
  0
LINE
  5
4B98
  8
0
 10
367.7695241698643258
 20
185.5217571908104048
 30
0.0
 11
367.7695241698643258
 21
98.5217571908104333
 31
0.0
  0
LINE
  5
4B99
  8
0
 10
355.769980359076726
 20
192.7290424539982894
 30
0.0
 11
367.7695241698643258
 21
185.5217571908104048
 31
0.0
  0
LINE
  5
4B9A
  8
0
 10
355.769980359076726
 20
91.2290424539983746
 30
0.0
 11
367.7695241698643258
 21
98.5217571908104333
 31
0.0
  0
INSERT
  5
4C81
  8
AM_4
  6
CONTINUOUS
  2
*X32
 10
0.0
 20
0.0
 30
0.0
1001
GRADIENTCOLOR1ACI
1070
     5
1001
GRADIENTCOLOR2ACI
1070
     2
1001
ACAD
1000
HATCH
1002
{
1070
    19
1000
ANSI31
1040
2.0
1040
0.0
1000
R14_HATCH_DATA
1000
4C81
1011
1.0
1021
0.0
1031
0.0
1021
0.0
1031
0.0
1011
0.0
1021
0.0
1031
0.0
1021
1.0
1031
0.0
1011
0.0
1021
0.0
1031
0.0
1021
0.0
1031
1.0
1040
0.0
1010
0.0
1020
0.0
1030
1.0
1000
ANSI31
1070
     0
1070
     0
1071
        2
1071
        1
1071
        6
1070
     1
1040
377.769980359076726
1040
199.5217571908104048
1040
355.769980359076726
1040
199.4790424539982894
1070
     1
1040
355.769980359076726
1040
199.4790424539982894
1040
355.769980359076726
1040
192.7290424539982894
1070
     1
1040
355.769980359076726
1040
192.7290424539982894
1040
367.7695241698643258
1040
185.5217571908104048
1070
     1
1040
367.7695241698643258
1040
185.5217571908104048
1040
367.7695241698643258
1040
142.0217571908104048
1070
     1
1040
367.7695241698643258
1040
142.0217571908104048
1040
377.769980359076726
1040
141.9790424539982894
1070
     1
1040
377.769980359076726
1040
141.9790424539982894
1040
377.769980359076726
1040
199.5217571908104048
1071
        0
1071
        1
1071
        6
1070
     1
1040
377.769980359076726
1040
141.9790424539982894
1040
367.7695241698643258
1040
142.0217571908104048
1070
     1
1040
367.7695241698643258
1040
142.0217571908104048
1040
367.7695241698643258
1040
98.5217571908104333
1070
     1
1040
367.7695241698643258
1040
98.5217571908104333
1040
355.769980359076726
1040
91.2290424539983746
1070
     1
1040
355.769980359076726
1040
91.2290424539983746
1040
355.769980359076726
1040
84.4790424539983746
1070
     1
1040
355.769980359076726
1040
84.4790424539983746
1040
377.769980359076726
1040
84.521757190810419
1070
     1
1040
377.769980359076726
1040
84.521757190810419
1040
377.769980359076726
1040
141.9790424539982894
1071
        0
1070
     1
1070
     1
1040
0.0
1040
2.0
1070
     0
1070
     1
1040
0.7853981633974483
1040
-9.7123530716603454
1040
0.0427147368120586
1040
-4.490128060534575
1040
4.4901280605345759
1070
     0
1071
        2
1040
370.1394966528399095
1040
176.9917627320160136
1040
0.0
1040
375.4150959474977753
1040
124.8406185062626008
1040
0.0
1002
}
  0
LINE
  5
4D21
  8
AM_4
 10
273.7499999999997726
 20
36.9999999999999929
 30
0.0
 11
273.7499999999997726
 21
284.9999999999998863
 31
0.0
  0
INSERT
  5
4D24
  8
0
  2
*U33
 10
0.0
 20
0.0
 30
0.0
  0
DIMENSION
  5
4D2E
  8
AM_5
  2
*D20
 10
323.8873290609259925
 20
202.0730271381497971
 30
0.0
 11
312.6373290609259925
 21
204.5730271381497118
 31
0.0
 70
     0
 13
301.3873290609259925
 23
192.7290424539982894
 33
0.0
 14
323.8873290609259925
 24
192.7290424539982894
 34
0.0
1001
ACAD_DSTYLE_DIMINSPECT
1070
   396
1000
100%
1070
   395
1000

1070
   394
1070
    33
1070
   393
1070
     0
  0
LINE
  5
4D58
  8
AM_7
 10
312.6373290609259925
 20
195.7290424539984031
 30
0.0
 11
312.6373290609259925
 21
88.2290424539983746
 31
0.0
1001
GENIUS_GENODEF_13
1002
{
1000
HIER
1070
     0
1002
}
1002
{
1000
MANEDIT
1070
     0
1002
}
1002
{
1000
NOSEL
1070
     0
1002
}
1002
{
1000
BEHIND
1070
     0
1002
}
1002
{
1000
OTHER
1070
     0
1002
}
1002
{
1000
REACTOR
1002
}
1001
GENIUS_GENOBJ-N-CEN_13
1002
{
1000
OWNER
1000
GEN
1002
}
1001
GENIUS_GENCEN_19
1002
{
1040
3.0
1002
}
  0
LINE
  5
4D62
  8
0
 10
301.387329060925822
 20
185.5217571908104048
 30
0.0
 11
323.887329060925822
 21
185.5217571908104048
 31
0.0
  0
LINE
  5
4D63
  8
0
 10
301.3873290609258788
 20
98.5217571908104333
 30
0.0
 11
323.8873290609258788
 21
98.5217571908104333
 31
0.0
  0
DIMENSION
  5
4D64
  8
AM_5
  2
*D21
 10
349.769980359076726
 20
185.5217571908104048
 30
0.0
 11
347.269980359076726
 21
142.0217571908104901
 31
0.0
 70
     0
 13
367.7695241698643258
 23
98.5217571908104333
 33
0.0
 14
367.7695241698643258
 24
185.5217571908104048
 34
0.0
 50
90.0000000000000284
1001
ACAD_DSTYLE_DIMINSPECT
1070
   396
1000
100%
1070
   395
1000

1070
   394
1070
    33
1070
   393
1070
     0
  0
DIMENSION
  5
4D8E
  8
AM_5
  2
*D22
 10
342.7699803590767829
 20
192.7290424539982894
 30
0.0
 11
340.269980359076726
 21
141.9790424539984031
 31
0.0
 70
     0
 13
355.769980359076726
 23
91.2290424539983746
 33
0.0
 14
355.769980359076726
 24
192.7290424539982894
 34
0.0
 50
90.0000000000000284
1001
ACAD_DSTYLE_DIMINSPECT
1070
   396
1000
100%
1070
   395
1000

1070
   394
1070
    33
1070
   393
1070
     0
  0
DIMENSION
  5
4DD9
  8
AM_5
  2
*D23
 10
355.769980359076726
 20
150.4877320976021906
 30
0.0
 11
361.7697522644705259
 21
152.9877320976021906
 31
0.0
 70
     0
 13
367.7695241698643258
 23
142.0217571908104048
 33
0.0
 14
355.769980359076726
 24
141.9790424539982894
 34
0.0
1001
ACAD_DSTYLE_DIMINSPECT
1070
   396
1000
100%
1070
   395
1000

1070
   394
1070
    33
1070
   393
1070
     0
  0
LINE
  5
53F7
  8
AM_7
 10
99.4359058651614873
 20
226.8889788329020121
 30
0.0
 11
99.4359058651615157
 21
247.3577390777930987
 31
0.0
  0
LINE
  5
53F8
  8
0
 10
110.435905865161601
 20
229.2175511498247999
 30
0.0
 11
88.4359058651613736
 21
229.2175511498247999
 31
0.0
  0
LINE
  5
53F9
  8
0
 10
111.9359058651615015
 20
230.217551149824601
 30
0.0
 11
111.9359058651615015
 21
231.2175511498247999
 31
0.0
  0
LINE
  5
53FA
  8
0
 10
111.935905865161601
 20
230.217551149824601
 30
0.0
 11
110.4359058651615015
 21
229.2175511498246863
 31
0.0
  0
LINE
  5
53FB
  8
0
 10
86.9359058651614021
 20
230.2175511498246863
 30
0.0
 11
86.9359058651614021
 21
231.2175511498247999
 31
0.0
  0
LINE
  5
53FC
  8
0
 10
86.9359058651614021
 20
230.2175511498247999
 30
0.0
 11
88.4359058651614305
 21
229.2175511498247999
 31
0.0
  0
LINE
  5
53FD
  8
0
 10
91.119300938941393
 20
242.7175511498247999
 30
0.0
 11
98.4071922220305453
 21
242.7175511498247999
 31
0.0
  0
LINE
  5
53FE
  8
0
 10
100.4646767815824973
 20
242.7175511498247999
 30
0.0
 11
107.7525107913815958
 21
242.7175511498247999
 31
0.0
  0
ARC
  5
53FF
  8
0
 10
107.7525107913815958
 20
240.7175511498247999
 30
0.0
 40
2.0
 50
4.0840093149069618
 51
90.0
1001
GENIUS_GENOBJ-N-FIL_13
1002
{
1000
OWNER
1000
GEN
1002
}
1001
GENIUS_GENODEF_13
1002
{
1000
HIER
1070
     0
1002
}
1002
{
1000
MANEDIT
1070
     0
1002
}
1002
{
1000
NOSEL
1070
     0
1002
}
1002
{
1000
BEHIND
1070
     0
1002
}
1002
{
1000
OTHER
1070
     0
1002
}
1002
{
1000
REACTOR
1002
}
  0
POINT
  5
5400
  8
0
 10
110.4359058651615015
 20
231.2175511498246863
 30
0.0
 50
360.0
  0
POINT
  5
5401
  8
0
 10
88.4359058651614163
 20
231.2175511498247999
 30
0.0
 50
360.0
  0
LINE
  5
5402
  8
0
 10
86.9359058651614021
 20
231.2175511498247999
 30
0.0
 11
111.9359058651615015
 21
231.2175511498247999
 31
0.0
  0
LINE
  5
5403
  8
0
 10
99.4359058651629368
 20
245.2175511498238052
 30
0.0
 11
98.4359058651629368
 21
243.4855003422555058
 31
0.0
  0
LINE
  5
5404
  8
0
 10
99.4359058651629368
 20
245.2175511498238052
 30
0.0
 11
100.4359058651629937
 21
243.4855003422626964
 31
0.0
  0
LINE
  5
5405
  8
0
 10
100.4359058651629937
 20
243.4855003422626964
 30
0.0
 11
98.4359058651629937
 21
243.485500342255591
 31
0.0
  0
LINE
  5
5406
  8
0
 10
99.4359058651628231
 20
245.2175511498238052
 30
0.0
 11
99.130498575830444
 21
243.4855003422563868
 31
0.0
  0
LINE
  5
5407
  8
0
 10
99.4359058651629368
 20
245.2175511498238052
 30
0.0
 11
99.741313154494236
 21
243.4855003422599964
 31
0.0
  0
LINE
  5
5408
  8
0
 10
99.1304985758305008
 20
243.4855003422563016
 30
0.0
 11
98.9806150322185232
 21
234.1348364712019929
 31
0.0
  0
LINE
  5
5409
  8
0
 10
99.7413131544943496
 20
243.4855003422599964
 30
0.0
 11
99.8972808447317817
 21
234.1314426864844904
 31
0.0
  0
LINE
  5
540A
  8
0
 10
98.0263786018214347
 20
235.025148247373096
 30
0.0
 11
99.4359058651617431
 21
233.7100457408969021
 31
0.0
  0
LINE
  5
540B
  8
0
 10
99.4359058651617431
 20
233.7100457408969021
 30
0.0
 11
100.8472267724034026
 21
234.9990760218838943
 31
0.0
  0
DIMENSION
  5
540C
  8
AM_5
  2
*D24
 10
110.4359058651615015
 20
254.2175521498238027
 30
0.0
 11
99.4359058651614589
 21
256.7175521498238027
 31
0.0
 70
     0
 13
88.4359058651614163
 23
231.2175511498247999
 33
0.0
 14
110.4359058651615015
 24
231.2175511498247999
 34
0.0
1001
ACAD_DSTYLE_DIMINSPECT
1070
   396
1000
100%
1070
   395
1000

1070
   394
1070
    33
1070
   393
1070
     0
  0
LINE
  5
540F
  8
0
 10
109.7474321880094976
 20
240.8599892812235908
 30
0.0
 11
110.4359058651615015
 21
231.2175511498247999
 31
0.0
  0
LINE
  5
5410
  8
0
 10
89.1243795423135481
 20
240.8599892812237044
 30
0.0
 11
88.4359058651615726
 21
231.2175511498247999
 31
0.0
  0
ARC
  5
5411
  8
0
 10
91.119300938941393
 20
240.7175511498247999
 30
0.0
 40
2.0
 50
90.0
 51
175.915990685092595
1001
GENIUS_GENOBJ-N-FIL_13
1002
{
1000
OWNER
1000
GEN
1002
}
1001
GENIUS_GENODEF_13
1002
{
1000
HIER
1070
     0
1002
}
1002
{
1000
MANEDIT
1070
     0
1002
}
1002
{
1000
NOSEL
1070
     0
1002
}
1002
{
1000
BEHIND
1070
     0
1002
}
1002
{
1000
OTHER
1070
     0
1002
}
1002
{
1000
REACTOR
1002
}
  0
LINE
  5
5412
  8
0
 10
98.0263786018214347
 20
235.025148247373096
 30
0.0
 11
98.4359058651766361
 21
243.4855003422622985
 31
0.0
  0
LINE
  5
5413
  8
0
 10
100.8472267724034026
 20
234.9990760218838943
 30
0.0
 11
100.4359058651463954
 21
243.4855003422622133
 31
0.0
  0
LINE
  5
5643
  8
AM_7
 10
191.5879090561140004
 20
141.9790424539982894
 30
0.0
 11
211.287909056113989
 21
141.9790424539982894
 31
0.0
  0
LINE
  5
5644
  8
0
 10
195.5879090561140004
 20
194.4790424539982041
 30
0.0
 11
196.5879090561140004
 21
194.4790424539982041
 31
0.0
  0
LINE
  5
5645
  8
0
 10
194.5879090561140004
 20
90.979042453998261
 30
0.0
 11
194.5879090561140004
 21
192.9790424539982041
 31
0.0
  0
LINE
  5
5646
  8
AM_7
 10
195.5304127360481061
 20
189.4790424539982041
 30
0.0
 11
212.4505957170235035
 21
189.4790424539982041
 31
0.0
  0
LINE
  5
5647
  8
0
 10
195.5879090561140004
 20
194.4790424539982041
 30
0.0
 11
194.5879090561140004
 21
192.9790424539982041
 31
0.0
  0
LINE
  5
5648
  8
0
 10
210.587909056114114
 20
189.4790424539982041
 30
0.0
 11
208.8558582485457009
 21
190.4790424539982041
 31
0.0
  0
LINE
  5
5649
  8
0
 10
210.587909056114114
 20
189.4790424539982041
 30
0.0
 11
208.8558582485528916
 21
188.4790424539982041
 31
0.0
  0
LINE
  5
564A
  8
0
 10
208.8558582485528916
 20
188.4790424539982041
 30
0.0
 11
208.8558582485457862
 21
190.4790424539982041
 31
0.0
  0
LINE
  5
564B
  8
0
 10
210.587909056114114
 20
189.4790424539984031
 30
0.0
 11
208.8558582485466104
 21
189.7844497433306969
 31
0.0
  0
LINE
  5
564C
  8
0
 10
210.587909056114114
 20
189.4790424539982041
 30
0.0
 11
208.8558582485501915
 21
189.173635164666905
 31
0.0
  0
LINE
  5
564D
  8
0
 10
208.8558582485464967
 20
189.7844497433306969
 30
0.0
 11
200.3069010481449084
 21
189.9127180665093988
 31
0.0
  0
LINE
  5
564E
  8
0
 10
208.8558582485501915
 20
189.1736351646667913
 30
0.0
 11
201.2602930684442128
 21
189.0658827388598127
 31
0.0
  0
LINE
  5
564F
  8
0
 10
195.5879090561140004
 20
89.479042453998261
 30
0.0
 11
196.5879090561140004
 21
89.479042453998261
 31
0.0
  0
LINE
  5
5650
  8
AM_7
 10
197.5313501046935016
 20
94.479042453998261
 30
0.0
 11
212.9505957170235035
 21
94.479042453998261
 31
0.0
  0
LINE
  5
5651
  8
0
 10
208.587909056114114
 20
174.5977357286373888
 30
0.0
 11
208.587909056114114
 21
109.3603491793593037
 31
0.0
  0
LINE
  5
5652
  8
0
 10
195.5879090561140004
 20
89.479042453998261
 30
0.0
 11
194.5879090561140004
 21
90.979042453998261
 31
0.0
  0
LINE
  5
5653
  8
0
 10
210.5879090561140004
 20
94.479042453998261
 30
0.0
 11
208.8558582485457862
 21
93.479042453998261
 31
0.0
  0
LINE
  5
5654
  8
0
 10
210.587909056114114
 20
94.479042453998261
 30
0.0
 11
208.8558582485528916
 21
95.4790424539982467
 31
0.0
  0
LINE
  5
5655
  8
0
 10
208.8558582485528916
 20
95.4790424539982041
 30
0.0
 11
208.8558582485457862
 21
93.4790424539982041
 31
0.0
  0
LINE
  5
5656
  8
0
 10
210.587909056114114
 20
94.479042453998261
 30
0.0
 11
208.8558582485466104
 21
94.1736351646657681
 31
0.0
  0
LINE
  5
5657
  8
0
 10
210.5879090561140004
 20
94.479042453998261
 30
0.0
 11
208.8558582485501915
 21
94.7844497433295743
 31
0.0
  0
LINE
  5
5658
  8
0
 10
196.5879090561140004
 20
89.479042453998261
 30
0.0
 11
196.5879090561140004
 21
194.4790424539982041
 31
0.0
  0
ARC
  5
5659
  8
0
 10
185.0343526663037039
 20
112.1997452231893959
 30
0.0
 40
23.7240845661469599
 50
299.1433889811175959
 51
353.1261277367760272
  0
ARC
  5
565A
  8
0
 10
185.0343526663037039
 20
171.758339684807396
 30
0.0
 40
23.7240845661469386
 50
6.8738722632239782
 51
60.8566110188824112
  0
DIMENSION
  5
565B
  8
AM_5
  2
*D27
 10
226.9505957170237025
 20
189.4790424539982894
 30
0.0
 11
224.4505957170237025
 21
141.9790424539982041
 31
0.0
 70
     0
 13
212.9505957170235035
 23
94.479042453998261
 33
0.0
 14
212.4505957170235035
 24
189.4790424539982041
 34
0.0
 50
90.0
1001
ACAD_DSTYLE_DIMINSPECT
1070
   396
1000
100%
1070
   395
1000

1070
   394
1070
    33
1070
   393
1070
     0
  0
DIMENSION
  5
565E
  8
AM_5
  2
*D26
 10
233.9505957170239014
 20
91.4790424539982041
 30
0.0
 11
231.4505957170239014
 21
141.9790424539984031
 31
0.0
 70
     0
 13
196.5879090561138014
 23
192.4790424539986873
 33
0.0
 14
196.5879090561138014
 24
91.4790424539981331
 34
0.0
 50
90.0
1001
ACAD_DSTYLE_DIMINSPECT
1070
   396
1000
100%
1070
   395
1000

1070
   394
1070
    33
1070
   393
1070
     0
  0
DIMENSION
  5
565F
  8
AM_5
  2
*D28
 10
196.587909056114114
 20
208.4790424539982894
 30
0.0
 11
203.5879090561143983
 21
210.9790424539982894
 31
0.0
 70
     0
 13
210.5879090561147109
 23
189.4790424539982041
 33
0.0
 14
196.587909056114114
 24
194.4790424539982041
 34
0.0
1001
ACAD_DSTYLE_DIMINSPECT
1070
   396
1000
100%
1070
   395
1000

1070
   394
1070
    33
1070
   393
1070
     0
  0
DIMENSION
  5
5662
  8
AM_5
  2
*D29
 10
196.5879090561140004
 20
77.979042453998261
 30
0.0
 11
187.5879090561140004
 21
77.979042453998261
 31
0.0
 70
   128
 13
194.5879090561140004
 23
90.979042453998261
 33
0.0
 14
196.5879090561140004
 24
89.479042453998261
 34
0.0
1001
ACAD_DSTYLE_DIMINSPECT
1070
   396
1000
100%
1070
   395
1000

1070
   394
1070
    33
1070
   393
1070
     0
1001
ACAD
1000
DSTYLE
1002
{
1070
   173
1070
     1
1070
   174
1070
     1
1070
     6
1000
OPEN30
1070
     7
1000
GENDOT
1002
}
  0
DIMENSION
  5
5665
  8
AM_5
  2
*D30
 10
208.587909056114114
 20
77.9790424539982041
 30
0.0
 11
217.3736233418283064
 21
77.9790424539982041
 31
0.0
 70
   128
 13
196.5879090561140004
 23
89.479042453998261
 33
0.0
 14
208.587909056114114
 24
107.4723890015399945
 34
0.0
1001
ACAD_DSTYLE_DIMINSPECT
1070
   396
1000
100%
1070
   395
1000

1070
   394
1070
    33
1070
   393
1070
     0
1001
ACAD
1000
DSTYLE
1002
{
1070
   173
1070
     1
1070
   174
1070
     1
1070
     6
1000
GENDOT
1070
     7
1000
OPEN30
1002
}
  0
LINE
  5
5668
  8
0
 10
199.0804036471861878
 20
190.8774568282358928
 30
0.0
 11
208.8558582485457009
 21
190.4790424539982041
 31
0.0
  0
LINE
  5
5669
  8
0
 10
202.0678268409008922
 20
188.2717568370815968
 30
0.0
 11
208.8558582485457009
 21
188.4790424539982894
 31
0.0
  0
LINE
  5
566A
  8
0
 10
208.8558582485464967
 20
94.1736351646660665
 30
0.0
 11
200.3069010481447947
 21
94.0453668414872368
 31
0.0
  0
LINE
  5
566B
  8
0
 10
208.8558582485501915
 20
94.7844497433299011
 30
0.0
 11
201.2602930684440992
 21
94.8922021691369082
 31
0.0
  0
LINE
  5
566C
  8
0
 10
199.0804036471861025
 20
93.0806280797607997
 30
0.0
 11
208.8558582485457009
 21
93.4790424539985452
 31
0.0
  0
LINE
  5
566D
  8
0
 10
202.0678268409008069
 20
95.686328070915124
 30
0.0
 11
208.8558582485457009
 21
95.4790424539984315
 31
0.0
  0
VIEWPORT
  5
95A
 67
     1
  8
0
  6
CONTINUOUS
 10
128.5
 20
97.5
 30
0.0
 40
386.7385514018691879
 41
222.1800000000000068
 68
     1
 69
     1
1001
ACAD
1000
MVIEW
1002
{
1070
    16
1010
0.0
1020
0.0
1030
0.0
1010
0.0
1020
0.0
1030
1.0
1040
0.0
1040
222.1800000000000068
1040
128.5
1040
97.5
1040
50.0
1040
0.0
1040
0.0
1070
     0
1070
   100
1070
     1
1070
     1
1070
     0
1070
     0
1070
     0
1070
     0
1040
0.0
1040
0.0
1040
0.0
1040
10.0
1040
10.0
1040
10.0
1040
10.0
1070
     0
1002
{
1002
}
1002
}
1001
GENIUS_GENOBJ-N-SDF_13
1002
{
1000
OWNER
1000
GEN
1002
}
1001
GENIUS_GENODEF_13
1002
{
1000
HIER
1070
     0
1002
}
1002
{
1000
MANEDIT
1070
     0
1002
}
1002
{
1000
NOSEL
1070
     0
1002
}
1002
{
1000
BEHIND
1070
     0
1002
}
1002
{
1000
OTHER
1070
     0
1002
}
1002
{
1000
REACTOR
1002
}
1001
GENIUS_GENSCREG_15
1000
PF
1040
1.0
1000
DF
1040
1.0
1000
MIN
1011
-64.8692757009345655
1021
0.0
1031
0.0
1021
-13.5899999999999999
1031
0.0
1000
MAX
1011
321.8692757009346224
1021
0.0
1031
0.0
1021
208.5900000000000034
1031
0.0
1000
FLAGS
1070
     4
  0
ENDSEC
  0
EOF
