  0
SECTION
  2
HEADER
  9
$ACADVER
  1
AC1009
  9
$INSBASE
 10
0.0
 20
0.0
 30
0.0
  9
$EXTMIN
 10
24.982289231708371
 20
8.9873690644740236
 30
-0.0000000000000058
  9
$EXTMAX
 10
412.01771797711359
 20
285.01263607670109
 30
0.0000000000000104
  9
$LIMMIN
 10
24.999999999999979
 20
8.9999999999999964
  9
$LIMMAX
 10
411.99999999999989
 20
284.99999999999989
  9
$ORTHOMODE
 70
     1
  9
$REGENMODE
 70
     1
  9
$FILLMODE
 70
     1
  9
$QTEXTMODE
 70
     0
  9
$MIRRTEXT
 70
     1
  9
$DRAGMODE
 70
     2
  9
$LTSCALE
 40
5.0
  9
$OSMODE
 70
    39
  9
$ATTMODE
 70
     1
  9
$TEXTSIZE
 40
3.0
  9
$TRACEWID
 40
0.05
  9
$TEXTSTYLE
  7
STANDARD
  9
$CLAYER
  8
0
  9
$CELTYPE
  6
BYLAYER
  9
$CECOLOR
 62
   256
  9
$DIMSCALE
 40
1.0
  9
$DIMASZ
 40
2.5
  9
$DIMEXO
 40
1.0
  9
$DIMDLI
 40
7.0
  9
$DIMRND
 40
0.0
  9
$DIMDLE
 40
0.0
  9
$DIMEXE
 40
1.0
  9
$DIMTP
 40
0.1
  9
$DIMTM
 40
0.1
  9
$DIMTXT
 40
3.0
  9
$DIMCEN
 40
0.0
  9
$DIMTSZ
 40
0.0
  9
$DIMTOL
 70
     0
  9
$DIMLIM
 70
     0
  9
$DIMTIH
 70
     0
  9
$DIMTOH
 70
     0
  9
$DIMSE1
 70
     0
  9
$DIMSE2
 70
     0
  9
$DIMTAD
 70
     3
  9
$DIMZIN
 70
     8
  9
$DIMBLK
  1
OPEN30
  9
$DIMASO
 70
     1
  9
$DIMSHO
 70
     1
  9
$DIMPOST
  1

  9
$DIMAPOST
  1
"
  9
$DIMALT
 70
     0
  9
$DIMALTD
 70
     2
  9
$DIMALTF
 40
0.0393701
  9
$DIMLFAC
 40
1.0
  9
$DIMTOFL
 70
     1
  9
$DIMTVP
 40
0.0
  9
$DIMTIX
 70
     0
  9
$DIMSOXD
 70
     0
  9
$DIMSAH
 70
     0
  9
$DIMBLK1
  1

  9
$DIMBLK2
  1

  9
$DIMSTYLE
  2
AM_JIS
  9
$DIMCLRD
 70
     7
  9
$DIMCLRE
 70
     7
  9
$DIMCLRT
 70
     7
  9
$DIMTFAC
 40
0.71
  9
$DIMGAP
 40
1.0
  9
$LUNITS
 70
     2
  9
$LUPREC
 70
     4
  9
$SKETCHINC
 40
0.1
  9
$FILLETRAD
 40
0.0
  9
$AUNITS
 70
     0
  9
$AUPREC
 70
     0
  9
$MENU
  1
acad
  9
$ELEVATION
 40
0.0
  9
$PELEVATION
 40
0.0
  9
$THICKNESS
 40
0.0
  9
$LIMCHECK
 70
     0
  9
$BLIPMODE
 70
     0
  9
$CHAMFERA
 40
0.0
  9
$CHAMFERB
 40
0.0
  9
$SKPOLY
 70
     0
  9
$TDCREATE
 40
2455755.6568701151
  9
$TDUPDATE
 40
2457185.5836866898
  9
$TDINDWG
 40
0.4333721065
  9
$TDUSRTIMER
 40
0.4333719213
  9
$USRTIMER
 70
     1
  9
$ANGBASE
 50
0.0
  9
$ANGDIR
 70
     0
  9
$PDMODE
 70
     0
  9
$PDSIZE
 40
0.0
  9
$PLINEWID
 40
0.0
  9
$COORDS
 70
     1
  9
$SPLFRAME
 70
     0
  9
$SPLINETYPE
 70
     6
  9
$SPLINESEGS
 70
     8
  9
$ATTDIA
 70
     1
  9
$ATTREQ
 70
     1
  9
$HANDLING
 70
     1
  9
$HANDSEED
  5
48C6
  9
$SURFTAB1
 70
     6
  9
$SURFTAB2
 70
     6
  9
$SURFTYPE
 70
     6
  9
$SURFU
 70
     6
  9
$SURFV
 70
     6
  9
$UCSNAME
  2

  9
$UCSORG
 10
0.0
 20
0.0
 30
0.0
  9
$UCSXDIR
 10
1.0
 20
0.0
 30
0.0
  9
$UCSYDIR
 10
0.0
 20
1.0
 30
0.0
  9
$PUCSNAME
  2

  9
$PUCSORG
 10
0.0
 20
0.0
 30
0.0
  9
$PUCSXDIR
 10
1.0
 20
0.0
 30
0.0
  9
$PUCSYDIR
 10
0.0
 20
1.0
 30
0.0
  9
$USERI1
 70
     0
  9
$USERI2
 70
     0
  9
$USERI3
 70
     0
  9
$USERI4
 70
     0
  9
$USERI5
 70
     0
  9
$USERR1
 40
0.0
  9
$USERR2
 40
0.0
  9
$USERR3
 40
0.0
  9
$USERR4
 40
0.0
  9
$USERR5
 40
0.0
  9
$WORLDVIEW
 70
     1
  9
$SHADEDGE
 70
     3
  9
$SHADEDIF
 70
    70
  9
$TILEMODE
 70
     1
  9
$MAXACTVP
 70
    16
  9
$PLIMCHECK
 70
     0
  9
$PEXTMIN
 10
1.0000000000000000E+020
 20
1.0000000000000000E+020
 30
1.0000000000000000E+020
  9
$PEXTMAX
 10
-1.0000000000000000E+020
 20
-1.0000000000000000E+020
 30
-1.0000000000000000E+020
  9
$PLIMMIN
 10
-20.0
 20
-7.5
  9
$PLIMMAX
 10
277.0
 20
202.5
  9
$UNITMODE
 70
     0
  9
$VISRETAIN
 70
     0
  9
$PLINEGEN
 70
     1
  9
$PSLTSCALE
 70
     0
  0
ENDSEC
  0
SECTION
  2
TABLES
  0
TABLE
  2
VPORT
 70
     1
  0
VPORT
  2
*ACTIVE
 70
     0
 10
0.0
 20
0.0
 11
1.0
 21
1.0
 12
218.50000360441101
 22
147.00000257058761
 13
0.0
 23
0.0
 14
2.5
 24
2.5
 15
10.0
 25
10.0
 16
0.0
 26
0.0
 36
1.0
 17
0.0
 27
0.0
 37
0.0
 40
278.36915360636038
 41
2.172073342736248
 42
50.0
 43
0.0
 44
0.0
 50
0.0
 51
0.0
 71
     0
 72
   100
 73
     1
 74
     3
 75
     0
 76
     0
 77
     0
 78
     1
  0
ENDTAB
  0
TABLE
  2
LTYPE
 70
    22
  0
LTYPE
  2
CONTINUOUS
 70
     0
  3
Solid line (NEC CAE2D for Win R7.2 : 2008.02.20
 72
    65
 73
     0
 40
0.0
  0
LTYPE
  2
HIDDEN
 70
     0
  3
Hidden __ __ __ __ __ __ __ __ __ __ __ __ __ _
 72
    65
 73
     2
 40
0.375
 49
0.25
 49
-0.125
  0
LTYPE
  2
PHANTOM2
 70
     0
  3
Phantom (.5x) ___ _ _ ___ _ _ ___ _ _ ___ _ _
 72
    65
 73
     6
 40
1.25
 49
0.625
 49
-0.125
 49
0.125
 49
-0.125
 49
0.125
 49
-0.125
  0
LTYPE
  2
CENTER
 70
     0
  3
Center ____ _ ____ _ ____ _ ____ _ ____ _ ____
 72
    65
 73
     4
 40
2.0
 49
1.25
 49
-0.25
 49
0.25
 49
-0.25
  0
LTYPE
  2
CENTER2
 70
     0
  3
Center (.5x) ___ _ ___ _ ___ _ ___ _ ___ _ ___
 72
    65
 73
     4
 40
1.125
 49
0.75
 49
-0.125
 49
0.125
 49
-0.125
  0
LTYPE
  2
HIDDEN2
 70
     0
  3
Hidden (.5x) _ _ _ _ _ _ _ _ _ _ _ _ _ _ _ _ _
 72
    65
 73
     2
 40
0.1875
 49
0.125
 49
-0.0625
  0
LTYPE
  2
ACANSTGB
 70
     0
  3
__ . . __ . .
 72
    65
 73
     6
 40
0.35433070866
 49
0.15748031496
 49
-0.03937007874
 49
0.03937007874
 49
-0.03937007874
 49
0.03937007874
 49
-0.03937007874
  0
LTYPE
  2
ACANSTGL
 70
     0
  3
_ _ _ _ _
 72
    65
 73
     2
 40
0.11811023622
 49
0.07874015748
 49
-0.03937007874
  0
LTYPE
  2
ACJISWELD
 70
     0
  3
_ _ _ _ _
 72
    65
 73
     2
 40
2.0
 49
2.0
 49
-1.0
  0
LTYPE
  2
ACJISTGB
 70
     0
  3
__ . . __ . .
 72
    65
 73
     6
 40
9.0
 49
4.0
 49
-1.0
 49
1.0
 49
-1.0
 49
1.0
 49
-1.0
  0
LTYPE
  2
ACJISTGL
 70
     0
  3
_ _ _ _ _
 72
    65
 73
     2
 40
3.0
 49
2.0
 49
-1.0
  0
LTYPE
  2
ACISOWELD
 70
     0
  3
_ _ _ _ _
 72
    65
 73
     2
 40
2.0
 49
2.0
 49
-1.0
  0
LTYPE
  2
ACISOTGB
 70
     0
  3
__ . . __ . .
 72
    65
 73
     6
 40
9.0
 49
4.0
 49
-1.0
 49
1.0
 49
-1.0
 49
1.0
 49
-1.0
  0
LTYPE
  2
ACISOTGL
 70
     0
  3
_ _ _ _ _
 72
    65
 73
     2
 40
3.0
 49
2.0
 49
-1.0
  0
LTYPE
  2
PHANTOM
 70
     0
  3
____ _ _ ____ _ _ ____ _ _ ____ _ _ ____
 72
    65
 73
     6
 40
2.5
 49
1.25
 49
-0.25
 49
0.25
 49
-0.25
 49
0.25
 49
-0.25
  0
LTYPE
  2
AM_ISO02W050
 70
     0
  3
__ __ __ __ __ __ __ __ __ __ __ __ __ __ __
 72
    65
 73
     2
 40
7.5
 49
6.0
 49
-1.5
  0
LTYPE
  2
AM_ISO08W050
 70
     0
  3
____ . ____ . ____ . ____ . ____ . ____ . ____
 72
    65
 73
     4
 40
18.0
 49
12.0
 49
-1.5
 49
3.0
 49
-1.5
  0
LTYPE
  2
AM_ISO09W050
 70
     0
  3
_____ . . _____ . . _____ . . ____ .. ____
 72
    65
 73
     6
 40
22.5
 49
12.0
 49
-1.5
 49
3.0
 49
-1.5
 49
3.0
 49
-1.5
  0
LTYPE
  2
AMCONSTR
 70
     0
  3
_______________________
 72
    65
 73
     2
 40
9999.0
 49
9999.0
 49
0.0
  0
LTYPE
  2
AM_ISO08W050X2
 70
     0
  3
__ . __ . __ . __ . __ . __
 72
    65
 73
     4
 40
9.0
 49
6.0
 49
-0.75
 49
1.5
 49
-0.75
  0
LTYPE
  2
AM_ISO02W050X2
 70
     0
  3
 _ _ _ _ _ _ _ _ _ _ _ _
 72
    65
 73
     2
 40
3.75
 49
3.0
 49
-0.75
  0
LTYPE
  2
AMZIGZAG
 70
     0
  3
/\/-/\/-/\/-/\/-/\/-/\/
 72
    65
 73
     2
 40
11.0001
 49
0.0001
 49
-11.0
  0
ENDTAB
  0
TABLE
  2
LAYER
 70
    21
  0
LAYER
  2
0
 70
     0
 62
     3
  6
CONTINUOUS
  0
LAYER
  2
SYS-BUHIN0
 70
     0
 62
     7
  6
CONTINUOUS
  0
LAYER
  2
AM_0
 70
     0
 62
     3
  6
CONTINUOUS
  0
LAYER
  2
DEFPOINTS
 70
     0
 62
     7
  6
CONTINUOUS
  0
LAYER
  2
AM_5
 70
     0
 62
     7
  6
CONTINUOUS
  0
LAYER
  2
AM_BOR
 70
     0
 62
     7
  6
CONTINUOUS
  0
LAYER
  2
SYS-BUHINCODE
 70
     0
 62
     7
  6
CONTINUOUS
  0
LAYER
  2
AM_7
 70
     0
 62
     4
  6
CENTER
  0
LAYER
  2
AM_3
 70
     0
 62
     7
  6
HIDDEN
  0
LAYER
  2
AM_12
 70
     0
 62
   253
  6
CONTINUOUS
  0
LAYER
  2
AM_PAREF
 70
     0
 62
     4
  6
CONTINUOUS
  0
LAYER
  2
AM_6
 70
     0
 62
     7
  6
CONTINUOUS
  0
LAYER
  2
AM_8
 70
     0
 62
   253
  6
CONTINUOUS
  0
LAYER
  2
AM_4
 70
     0
 62
     6
  6
CONTINUOUS
  0
LAYER
  2
AM_10
 70
     0
 62
     7
  6
CONTINUOUS
  0
LAYER
  2
AM_CL
 70
     0
 62
     1
  6
CONTINUOUS
  0
LAYER
  2
AM_2
 70
     0
 62
     5
  6
PHANTOM2
  0
LAYER
  2
AM_1N
 70
     0
 62
    14
  6
CONTINUOUS
  0
LAYER
  2
AM_1
 70
     0
 62
    14
  6
PHANTOM2
  0
LAYER
  2
AM_9
 70
     0
 62
    -7
  6
CONTINUOUS
  0
LAYER
  2
SYS-TEISEI0
 70
     0
 62
     7
  6
CONTINUOUS
  0
ENDTAB
  0
TABLE
  2
STYLE
 70
    14
  0
STYLE
  2
STANDARD
 70
     0
 40
0.0
 41
1.0
 50
0.0
 71
     0
 42
3.0
  3
dim.shx
  4
extfont.shx
  0
STYLE
  2
KNJYOKO
 70
     0
 40
0.0
 41
1.0
 50
0.0
 71
     0
 42
3.099999904632567
  3
TXT.shx
  4
extfont.shx
  0
STYLE
  2
ACANSTS
 70
     0
 40
1.0
 41
1.0
 50
0.0
 71
     0
 42
0.2
  3
romans.shx
  4
extfont.shx
  0
STYLE
  2
ACANSGDT
 70
     0
 40
0.0
 41
1.0
 50
0.0
 71
     0
 42
0.2
  3
amgdt.shx
  4

  0
STYLE
  2
ACJISTS
 70
     0
 40
1.0
 41
1.0
 50
0.0
 71
     0
 42
0.2
  3
isocp.shx
  4
extfont.shx
  0
STYLE
  2
ACJISGDT
 70
     0
 40
0.0
 41
1.0
 50
0.0
 71
     0
 42
0.2
  3
amgdt.shx
  4

  0
STYLE
  2
MINNTYOU
 70
     0
 40
0.0
 41
1.0
 50
0.0
 71
     0
 42
3.0
  3
txt
  4

  0
STYLE
  2
R寸法
 70
     0
 40
2.0
 41
1.0
 50
0.0
 71
     0
 42
3.0
  3
dim.shx
  4
extfont.shx
  0
STYLE
  2
ANKTATE
 70
     4
 40
0.0
 41
1.0
 50
0.0
 71
     0
 42
3.099999904632567
  3
TXT
  4

  0
STYLE
  2
KNJTATE
 70
     4
 40
0.0
 41
1.0
 50
0.0
 71
     0
 42
3.099999904632567
  3
TXT
  4
BIGFONT
  0
STYLE
  2
ACISOTS
 70
     0
 40
1.0
 41
1.0
 50
0.0
 71
     0
 42
2.5
  3
isocp.shx
  4
extfont.shx
  0
STYLE
  2
ACISOGDT
 70
     0
 40
0.0
 41
1.0
 50
0.0
 71
     0
 42
2.5
  3
amgdt.shx
  4

  0
STYLE
  2

 70
     1
 40
0.0
 41
1.0
 50
0.0
 71
     0
 42
3.0
  3
genltshp.shx
  4

  0
ENDTAB
  0
TABLE
  2
VIEW
 70
     7
  0
VIEW
  2
AM_VIEW1
 70
     0
 40
137.99999999999989
 10
151.8531375166888
 20
215.99999999999989
 41
253.70627503337769
 11
0.0
 21
0.0
 31
1.0
 12
0.0
 22
0.0
 32
0.0
 42
50.0
 43
0.0
 44
0.0
 50
0.0
 71
     0
  0
VIEW
  2
AM_VIEW2
 70
     0
 40
137.99999999999989
 10
285.146862483311
 20
215.99999999999989
 41
253.70627503337769
 11
0.0
 21
0.0
 31
1.0
 12
0.0
 22
0.0
 32
0.0
 42
50.0
 43
0.0
 44
0.0
 50
0.0
 71
     0
  0
VIEW
  2
AM_VIEW3
 70
     0
 40
137.99999999999989
 10
151.8531375166888
 20
77.999999999999972
 41
253.70627503337769
 11
0.0
 21
0.0
 31
1.0
 12
0.0
 22
0.0
 32
0.0
 42
50.0
 43
0.0
 44
0.0
 50
0.0
 71
     0
  0
VIEW
  2
AM_VIEW4
 70
     0
 40
137.99999999999989
 10
285.146862483311
 20
77.999999999999972
 41
253.70627503337769
 11
0.0
 21
0.0
 31
1.0
 12
0.0
 22
0.0
 32
0.0
 42
50.0
 43
0.0
 44
0.0
 50
0.0
 71
     0
  0
VIEW
  2
AM_VIEW5
 70
     0
 40
137.99999999999989
 10
218.49999999999989
 20
146.99999999999989
 41
253.70627503337769
 11
0.0
 21
0.0
 31
1.0
 12
0.0
 22
0.0
 32
0.0
 42
50.0
 43
0.0
 44
0.0
 50
0.0
 71
     0
  0
VIEW
  2
AM_VIEW6
 70
     0
 40
275.99723999999992
 10
218.49999999999989
 20
146.99999999999989
 41
507.4074759412548
 11
0.0
 21
0.0
 31
1.0
 12
0.0
 22
0.0
 32
0.0
 42
50.0
 43
0.0
 44
0.0
 50
0.0
 71
     0
  0
ENDTAB
  0
TABLE
  2
UCS
 70
     0
  0
ENDTAB
  0
TABLE
  2
APPID
 70
    60
  0
APPID
  2
ACAD
 70
     0
  0
APPID
  2
ACADANNOTATIVE
 70
     0
  0
APPID
  2
ACAD_MLEADERVER
 70
     0
  0
APPID
  2
MCAD_NO_VIS
 70
     0
  0
APPID
  2
ACAD_TEMP_GRAPHIC
 70
     0
  0
APPID
  2
AD_DRAW
 70
     0
  0
APPID
  2
ACATTRIBSERVICES
 70
     0
  0
APPID
  2
DESIGNERASSEMBLIES
 70
     0
  0
APPID
  2
ACADM_DIM_EDIT
 70
     0
  0
APPID
  2
AMDT_DM_ADJ
 70
     0
  0
APPID
  2
ACADANNOPO
 70
     0
  0
APPID
  2
ACAECLAYERSTANDARD
 70
     0
  0
APPID
  2
ACDBDYNAMICBLOCKGUID
 70
     0
  0
APPID
  2
ACDBBLOCKREPETAG
 70
     0
  0
APPID
  2
ACAUTHENVIRON
 70
     0
  0
APPID
  2
ACDBDYNAMICBLOCKTRUENAME
 70
     0
  0
APPID
  2
GENIUS_GENREC_14
 70
     0
  0
APPID
  2
GENIUS_GENOBJ-N-REC_13
 70
     0
  0
APPID
  2
GENIUS_GENODEF_13
 70
     0
  0
APPID
  2
ACAD_EXEMPT_FROM_CAD_STANDARDS
 70
     0
  0
APPID
  2
GENIUS_GENOBJ-N-CEN_13
 70
     0
  0
APPID
  2
GENIUS_GENCEN_19
 70
     0
  0
APPID
  2
ACAD_DSTYLE_DIMINSPECT
 70
     0
  0
APPID
  2
DCO15
 70
     0
  0
APPID
  2
ACAD_PSEXT
 70
     0
  0
APPID
  2
GENIUS_GENBH_13
 70
     0
  0
APPID
  2
GENIUS_GENOENT_13
 70
     0
  0
APPID
  2
GENIUS_GENOLIS_13
 70
     0
  0
APPID
  2
GENIUS_GENOBJ-NBEHI-BHF_13
 70
     0
  0
APPID
  2
GENIUS_GENOREF_13
 70
     0
  0
APPID
  2
GENIUS_GENOBJ-NBEHI-BHB_13
 70
     0
  0
APPID
  2
AMG_2DHIDE
 70
     0
  0
APPID
  2
AMG_2DSTRUCT_BTR
 70
     0
  0
APPID
  2
GENIUS_AMGTXT_16
 70
     0
  0
APPID
  2
GENIUS_GENOBJ-N-HTC_13
 70
     0
  0
APPID
  2
GENIUS_GENHATCH_13
 70
     0
  0
APPID
  2
GEVID1208849169
 70
     0
  0
APPID
  2
GEVDC
 70
     0
  0
APPID
  2
ACADM_2DVIEW_IGN_NOTIFY
 70
     0
  0
APPID
  2
GEVID1208849170
 70
     0
  0
APPID
  2
GEVID1208849171
 70
     0
  0
APPID
  2
GEVRADREF
 70
     0
  0
APPID
  2
ACAD_DSTYLE_DIMJAG
 70
     0
  0
APPID
  2
ACAD_DSTYLE_DIMTALN
 70
     0
  0
APPID
  2
GENIUS_GENDTOL_13
 70
     0
  0
APPID
  2
GENIUS_GENTRA_14
 70
     0
  0
APPID
  2
GENIUS_GENOBJ-N-TIT_13
 70
     0
  0
APPID
  2
GENIUS_GENTITLE_13
 70
     0
  0
APPID
  2
GENIUS_GENSCREG_15
 70
     0
  0
APPID
  2
GENIUS_GENOBJ-N-SDF_13
 70
     0
  0
APPID
  2
ACAD_DSTYLE_DIMRADIAL_EXTENSION
 70
     0
  0
APPID
  2
GENIUS_GENOBJ-N-FIL_13
 70
     0
  0
APPID
  2
GENIUS_GENOBJ-N-CRS_13
 70
     0
  0
APPID
  2
GENIUS_GENDIMSH_14
 70
     0
  0
APPID
  2
ACAD_DSTYLE_DIMANGULAR_EXT
 70
     0
  0
APPID
  2
ACAD_NAV_VCDISPLAY
 70
     0
  0
APPID
  2
ACAD_DSTYLE_DIMBREAK
 70
     0
  0
APPID
  2
GENIUS_GENSCREG_13
 70
     0
  0
APPID
  2
CONTENTBLOCKICON
 70
     0
  0
APPID
  2
AcDbAttr
 70
     0
  0
ENDTAB
  0
TABLE
  2
DIMSTYLE
 70
    26
  0
DIMSTYLE
  2
STANDARD
 70
     0
  3

  4

  5

  6

  7

 40
1.0
 41
1.0
 42
0.8
 43
0.38
 44
1.0
 45
0.0
 46
0.0
 47
0.0
 48
0.0
140
3.1000000000000001
141
0.09
142
0.0
143
25.399999999999999
144
1.0
145
0.5
146
1.0
147
0.09
 71
     0
 72
     0
 73
     0
 74
     0
 75
     0
 76
     0
 77
     1
 78
     0
170
     0
171
     2
172
     0
173
     0
174
     0
175
     0
176
     0
177
     0
178
     0
  0
DIMSTYLE
  2
AM_ANSI
 70
     0
  3

  4
mm
  5

  6

  7

 40
1.0
 41
0.1
 42
0.05
 43
0.5
 44
0.1
 45
0.0
 46
0.0
 47
0.1
 48
0.1
140
0.12
141
0.0
142
0.0
143
25.399999999999999
144
1.0
145
0.0
146
0.71
147
0.06
 71
     0
 72
     0
 73
     1
 74
     1
 75
     0
 76
     0
 77
     0
 78
     7
170
     0
171
     2
172
     0
173
     0
174
     0
175
     0
176
   256
177
   256
178
     2
  0
DIMSTYLE
  2
AM_ANSI$3
 70
     0
  3

  4
mm
  5

  6

  7

 40
1.0
 41
0.1
 42
0.05
 43
0.5
 44
0.1
 45
0.0
 46
0.0
 47
0.1
 48
0.1
140
0.12
141
0.0
142
0.0
143
25.399999999999999
144
1.0
145
0.0
146
0.71
147
0.06
 71
     0
 72
     0
 73
     1
 74
     1
 75
     0
 76
     0
 77
     0
 78
     7
170
     0
171
     2
172
     0
173
     0
174
     0
175
     0
176
   256
177
   256
178
     2
  0
DIMSTYLE
  2
AM_ANSI$4
 70
     0
  3

  4
mm
  5

  6

  7

 40
1.0
 41
0.1
 42
0.05
 43
0.5
 44
0.1
 45
0.0
 46
0.0
 47
0.1
 48
0.1
140
0.12
141
0.0
142
0.0
143
25.399999999999999
144
1.0
145
0.0
146
0.71
147
0.06
 71
     0
 72
     0
 73
     1
 74
     1
 75
     0
 76
     0
 77
     0
 78
     7
170
     0
171
     2
172
     0
173
     0
174
     0
175
     0
176
   256
177
   256
178
     2
  0
DIMSTYLE
  2
AM_ANSI$7
 70
     0
  3

  4
mm
  5

  6

  7

 40
1.0
 41
0.1
 42
0.05
 43
0.5
 44
0.1
 45
0.0
 46
0.0
 47
0.1
 48
0.1
140
0.24
141
0.0
142
0.0
143
25.399999999999999
144
1.0
145
0.0
146
0.71
147
0.06
 71
     0
 72
     0
 73
     1
 74
     1
 75
     0
 76
     0
 77
     0
 78
     7
170
     0
171
     2
172
     0
173
     0
174
     0
175
     0
176
   256
177
   256
178
     2
  0
DIMSTYLE
  2
AM_ANSI$SF
 70
     0
  3

  4
mm
  5

  6

  7

 40
1.0
 41
0.1
 42
0.05
 43
0.5
 44
0.1
 45
0.0
 46
0.0
 47
0.1
 48
0.1
140
0.12
141
0.0
142
0.0
143
25.399999999999999
144
1.0
145
0.0
146
0.71
147
0.06
 71
     0
 72
     0
 73
     1
 74
     1
 75
     1
 76
     1
 77
     0
 78
     7
170
     0
171
     2
172
     0
173
     0
174
     0
175
     0
176
   256
177
   256
178
     2
  0
DIMSTYLE
  2
AM_ANSI$SH
 70
     0
  3

  4
mm
  5

  6
GENAXEH
  7

 40
1.0
 41
0.1
 42
0.05
 43
0.5
 44
0.1
 45
0.0
 46
0.0
 47
0.1
 48
0.1
140
0.12
141
0.0
142
0.0
143
25.399999999999999
144
1.0
145
0.0
146
0.71
147
0.06
 71
     0
 72
     0
 73
     1
 74
     1
 75
     1
 76
     1
 77
     0
 78
     7
170
     0
171
     2
172
     0
173
     1
174
     0
175
     0
176
   256
177
   256
178
     2
  0
DIMSTYLE
  2
AM_JIS
 70
     0
  3

  4
"
  5
OPEN30
  6

  7

 40
1.0
 41
2.5
 42
1.0
 43
7.0
 44
1.0
 45
0.0
 46
0.0
 47
0.1
 48
0.1
140
3.0
141
0.0
142
0.0
143
0.0393701
144
1.0
145
0.0
146
0.71
147
1.0
 71
     0
 72
     0
 73
     0
 74
     0
 75
     0
 76
     0
 77
     3
 78
     8
170
     0
171
     2
172
     1
173
     0
174
     0
175
     0
176
     7
177
     7
178
     7
  0
DIMSTYLE
  2
AM_JIS$3
 70
     0
  3

  4
"
  5
OPEN30
  6

  7

 40
1.0
 41
2.5
 42
1.0
 43
10.0
 44
1.0
 45
0.0
 46
0.0
 47
0.1
 48
0.1
140
3.0
141
0.0
142
0.0
143
0.0393701
144
1.0
145
0.0
146
0.71
147
1.0
 71
     0
 72
     0
 73
     0
 74
     1
 75
     0
 76
     0
 77
     3
 78
     8
170
     0
171
     2
172
     0
173
     0
174
     0
175
     0
176
     7
177
     7
178
     7
  0
DIMSTYLE
  2
AM_JIS$4
 70
     0
  3

  4
"
  5
OPEN30
  6

  7

 40
1.0
 41
2.5
 42
1.0
 43
10.0
 44
1.0
 45
0.0
 46
0.0
 47
0.1
 48
0.1
140
2.0
141
0.0
142
0.0
143
0.0393701
144
1.0
145
0.0
146
0.71
147
1.0
 71
     0
 72
     0
 73
     0
 74
     0
 75
     0
 76
     0
 77
     3
 78
     8
170
     0
171
     2
172
     0
173
     0
174
     0
175
     0
176
     7
177
     7
178
     7
  0
DIMSTYLE
  2
AM_JIS$6
 70
     0
  3

  4
"
  5
OPEN30
  6

  7

 40
1.0
 41
2.5
 42
1.0
 43
10.0
 44
1.0
 45
0.0
 46
0.0
 47
0.1
 48
0.1
140
3.0
141
0.0
142
0.0
143
0.0393701
144
1.0
145
0.0
146
0.71
147
1.0
 71
     0
 72
     0
 73
     0
 74
     0
 75
     0
 76
     0
 77
     0
 78
     8
170
     0
171
     2
172
     1
173
     0
174
     0
175
     0
176
   256
177
     7
178
     7
  0
DIMSTYLE
  2
AM_JIS$7
 70
     0
  3

  4
"
  5
OPEN30
  6

  7

 40
1.0
 41
2.5
 42
1.0
 43
10.0
 44
1.0
 45
0.0
 46
0.0
 47
0.1
 48
0.1
140
3.0
141
0.0
142
0.0
143
0.0393701
144
1.0
145
0.0
146
0.71
147
1.0
 71
     0
 72
     0
 73
     0
 74
     0
 75
     0
 76
     0
 77
     3
 78
     8
170
     0
171
     2
172
     1
173
     0
174
     0
175
     0
176
     7
177
   256
178
     7
  0
DIMSTYLE
  2
AM_JIS$SF
 70
     0
  3

  4
"
  5
OPEN30
  6

  7

 40
1.0
 41
2.5
 42
1.0
 43
7.0
 44
1.0
 45
0.0
 46
0.0
 47
0.1
 48
0.1
140
3.0
141
0.0
142
0.0
143
0.0393701
144
1.0
145
0.0
146
0.71
147
1.0
 71
     0
 72
     0
 73
     0
 74
     0
 75
     1
 76
     1
 77
     3
 78
     8
170
     0
171
     2
172
     1
173
     0
174
     0
175
     0
176
     7
177
   256
178
     7
  0
DIMSTYLE
  2
AM_JIS$SH
 70
     0
  3

  4
"
  5

  6
GENAXEH
  7
OPEN30
 40
1.0
 41
2.5
 42
1.0
 43
7.0
 44
1.0
 45
0.0
 46
0.0
 47
0.1
 48
0.1
140
3.0
141
0.0
142
0.0
143
0.0393701
144
2.0
145
0.0
146
0.71
147
1.0
 71
     0
 72
     0
 73
     0
 74
     0
 75
     1
 76
     1
 77
     3
 78
     8
170
     0
171
     2
172
     1
173
     1
174
     0
175
     0
176
     7
177
   256
178
     7
  0
DIMSTYLE
  2
AM_JIS$2
 70
     0
  3

  4
"
  5
OPEN30
  6

  7

 40
1.0
 41
2.5
 42
1.0
 43
7.0
 44
1.0
 45
0.0
 46
0.0
 47
0.1
 48
0.1
140
3.0
141
0.0
142
0.0
143
0.0393701
144
1.0
145
0.0
146
0.71
147
1.0
 71
     0
 72
     0
 73
     0
 74
     0
 75
     0
 76
     0
 77
     3
 78
     8
170
     0
171
     2
172
     1
173
     0
174
     0
175
     0
176
     7
177
     7
178
     7
  0
DIMSTYLE
  2
AM_JIS$0
 70
     0
  3

  4
"
  5
OPEN30
  6

  7

 40
1.0
 41
2.5
 42
1.0
 43
7.0
 44
1.0
 45
0.0
 46
0.0
 47
0.1
 48
0.1
140
3.0
141
0.0
142
0.0
143
0.0393701
144
1.0
145
0.0
146
0.71
147
1.0
 71
     0
 72
     0
 73
     0
 74
     0
 75
     0
 76
     0
 77
     3
 78
     8
170
     0
171
     2
172
     1
173
     0
174
     0
175
     0
176
     7
177
     7
178
     7
  0
DIMSTYLE
  2
STANDARD$0
 70
     0
  3

  4

  5

  6

  7

 40
1.0
 41
1.0
 42
0.8
 43
0.38
 44
1.0
 45
0.0
 46
0.0
 47
0.0
 48
0.0
140
3.1000000000000001
141
0.09
142
0.0
143
25.399999999999999
144
1.0
145
0.5
146
1.0
147
0.09
 71
     0
 72
     0
 73
     0
 74
     0
 75
     0
 76
     0
 77
     1
 78
     0
170
     0
171
     2
172
     0
173
     0
174
     0
175
     0
176
     0
177
     0
178
     0
  0
DIMSTYLE
  2
ANNOTATIVE
 70
     0
  3

  4

  5

  6

  7

 40
1.0
 41
0.18
 42
0.0625
 43
0.38
 44
0.18
 45
0.0
 46
0.0
 47
0.0
 48
0.0
140
0.18
141
0.09
142
0.0
143
25.399999999999999
144
1.0
145
0.0
146
1.0
147
0.09
 71
     0
 72
     0
 73
     1
 74
     1
 75
     0
 76
     0
 77
     0
 78
     0
170
     0
171
     2
172
     0
173
     0
174
     0
175
     0
176
     0
177
     0
178
     0
  0
DIMSTYLE
  2
AM_ISO
 70
     0
  3

  4
"
  5

  6

  7

 40
1.0
 41
2.5
 42
1.0
 43
10.0
 44
1.0
 45
0.0
 46
0.0
 47
0.1
 48
0.1
140
3.5
141
0.0
142
0.0
143
0.0393701
144
1.0
145
0.0
146
0.71
147
1.5
 71
     0
 72
     0
 73
     0
 74
     0
 75
     0
 76
     0
 77
     1
 78
     8
170
     0
171
     2
172
     1
173
     0
174
     0
175
     0
176
   256
177
   256
178
     2
  0
DIMSTYLE
  2
AM_ISO$3
 70
     0
  3

  4
"
  5

  6

  7

 40
1.0
 41
2.5
 42
1.0
 43
10.0
 44
1.0
 45
0.0
 46
0.0
 47
0.1
 48
0.1
140
3.5
141
0.0
142
0.0
143
0.0393701
144
1.0
145
0.0
146
0.71
147
1.5
 71
     0
 72
     0
 73
     0
 74
     1
 75
     0
 76
     0
 77
     1
 78
     8
170
     0
171
     2
172
     0
173
     0
174
     0
175
     0
176
   256
177
   256
178
     2
  0
DIMSTYLE
  2
AM_ISO$4
 70
     0
  3

  4
"
  5

  6

  7

 40
1.0
 41
2.5
 42
1.0
 43
10.0
 44
1.0
 45
0.0
 46
0.0
 47
0.1
 48
0.1
140
3.5
141
0.0
142
0.0
143
0.0393701
144
1.0
145
0.0
146
0.71
147
1.5
 71
     0
 72
     0
 73
     0
 74
     1
 75
     0
 76
     0
 77
     1
 78
     8
170
     0
171
     2
172
     0
173
     0
174
     0
175
     0
176
   256
177
   256
178
     2
  0
DIMSTYLE
  2
AM_ISO$6
 70
     0
  3

  4
"
  5

  6

  7

 40
1.0
 41
2.5
 42
1.0
 43
10.0
 44
1.0
 45
0.0
 46
0.0
 47
0.1
 48
0.1
140
3.5
141
0.0
142
0.0
143
0.0393701
144
1.0
145
0.0
146
0.71
147
1.5
 71
     0
 72
     0
 73
     0
 74
     0
 75
     0
 76
     0
 77
     0
 78
     8
170
     0
171
     2
172
     1
173
     0
174
     0
175
     0
176
   256
177
   256
178
     2
  0
DIMSTYLE
  2
AM_ISO$7
 70
     0
  3

  4
"
  5

  6

  7

 40
1.0
 41
2.5
 42
1.0
 43
10.0
 44
1.0
 45
0.0
 46
0.0
 47
0.1
 48
0.1
140
5.0
141
0.0
142
0.0
143
0.0393701
144
1.0
145
0.0
146
0.71
147
1.5
 71
     0
 72
     0
 73
     0
 74
     0
 75
     0
 76
     0
 77
     1
 78
     8
170
     0
171
     2
172
     1
173
     0
174
     0
175
     0
176
   256
177
   256
178
     2
  0
DIMSTYLE
  2
AM_ISO$SF
 70
     0
  3

  4
"
  5

  6

  7

 40
1.0
 41
2.5
 42
1.0
 43
10.0
 44
1.0
 45
0.0
 46
0.0
 47
0.1
 48
0.1
140
3.5
141
0.0
142
0.0
143
0.0393701
144
1.0
145
0.0
146
0.71
147
1.5
 71
     0
 72
     0
 73
     0
 74
     0
 75
     1
 76
     1
 77
     1
 78
     8
170
     0
171
     2
172
     1
173
     0
174
     0
175
     0
176
   256
177
   256
178
     2
  0
DIMSTYLE
  2
AM_ISO$SH
 70
     0
  3

  4
"
  5

  6
GENAXEH
  7

 40
1.0
 41
2.5
 42
1.0
 43
10.0
 44
1.0
 45
0.0
 46
0.0
 47
0.1
 48
0.1
140
3.5
141
0.0
142
0.0
143
0.0393701
144
2.0
145
0.0
146
0.71
147
1.5
 71
     0
 72
     0
 73
     0
 74
     0
 75
     1
 76
     1
 77
     1
 78
     8
170
     0
171
     2
172
     1
173
     1
174
     0
175
     0
176
   256
177
   256
178
     2
  0
ENDTAB
  0
ENDSEC
  0
SECTION
  2
BLOCKS
  0
BLOCK
  8
0
  2
$MODEL_SPACE
 70
     0
 10
0.0
 20
0.0
 30
0.0
  3
$MODEL_SPACE
  1

  0
ENDBLK
  5
1D3
  8
0
  0
BLOCK
 67
     1
  8
0
  2
$PAPER_SPACE
 70
     0
 10
0.0
 20
0.0
 30
0.0
  3
$PAPER_SPACE
  1

  0
ENDBLK
  5
1D1
 67
     1
  8
0
  0
BLOCK
  8
0
  2
GENAXEH
 70
     0
 10
0.0
 20
0.0
 30
0.0
  3
GENAXEH
  1

  0
LINE
  5
264
  8
0
 10
-1.0
 20
0.0
 30
0.0
 11
1.0
 21
0.0
 31
0.0
  0
ENDBLK
  5
266
  8
0
  0
BLOCK
  8
0
  2
_OPEN30
 70
     0
 10
0.0
 20
0.0
 30
0.0
  3
_OPEN30
  1

  0
LINE
  5
2FA
  8
0
  6
BYBLOCK
 62
     0
 10
-1.0
 20
0.26794919
 30
0.0
 11
0.0
 21
0.0
 31
0.0
  0
LINE
  5
2FB
  8
0
  6
BYBLOCK
 62
     0
 10
0.0
 20
0.0
 30
0.0
 11
-1.0
 21
-0.26794919
 31
0.0
  0
LINE
  5
2FC
  8
0
  6
BYBLOCK
 62
     0
 10
0.0
 20
0.0
 30
0.0
 11
-1.0
 21
0.0
 31
0.0
  0
ENDBLK
  5
2FE
  8
0
  0
BLOCK
  8
0
  2
MYPLIST0
 70
     2
 10
0.0
 20
0.0
 30
0.0
  3
MYPLIST0
  1

  0
LINE
  5
346
  8
SYS-BUHIN0
  6
CONTINUOUS
 62
     4
 10
-170.0
 20
7.0
 30
0.0
 11
0.0
 21
7.0
 31
0.0
  0
LINE
  5
347
  8
SYS-BUHIN0
  6
CONTINUOUS
 62
     4
 10
-170.0
 20
-0.0000000000030695
 30
0.0
 11
0.0
 21
-0.0000000000001137
 31
0.0
  0
LINE
  5
348
  8
SYS-BUHIN0
  6
CONTINUOUS
 62
     4
 10
-170.0
 20
7.0
 30
0.0
 11
-170.0
 21
0.0
 31
0.0
  0
LINE
  5
349
  8
SYS-BUHIN0
  6
CONTINUOUS
 62
     4
 10
0.0
 20
7.0
 30
0.0
 11
0.0
 21
0.0
 31
0.0
  0
LINE
  5
34A
  8
SYS-BUHIN0
  6
CONTINUOUS
 62
     4
 10
-161.0
 20
7.0
 30
0.0
 11
-161.0
 21
0.0
 31
0.0
  0
LINE
  5
34B
  8
SYS-BUHIN0
  6
CONTINUOUS
 62
     4
 10
-99.0
 20
7.0
 30
0.0
 11
-99.0
 21
0.0
 31
0.0
  0
LINE
  5
34C
  8
SYS-BUHIN0
  6
CONTINUOUS
 62
     4
 10
-72.0
 20
7.0
 30
0.0
 11
-72.0
 21
0.0
 31
0.0
  0
LINE
  5
34D
  8
SYS-BUHIN0
  6
CONTINUOUS
 62
     4
 10
-63.0
 20
7.0
 30
0.0
 11
-63.0
 21
0.0
 31
0.0
  0
LINE
  5
34E
  8
SYS-BUHIN0
  6
CONTINUOUS
 62
     4
 10
-16.0
 20
7.0
 30
0.0
 11
-16.0
 21
0.0
 31
0.0
  0
TEXT
  5
34F
  8
SYS-BUHIN0
  6
CONTINUOUS
 62
     7
 10
-13.61264708219346
 20
0.6000000119208835
 30
0.0
 40
1.1000000000000001
  1
PARTS NO.
 41
1.3
  0
TEXT
  5
350
  8
SYS-BUHIN0
  6
CONTINUOUS
 62
     7
 10
-14.36429419116018
 20
3.0691472933651762
 30
0.0
 40
2.2000000000000002
  1
部品コード
  0
TEXT
  5
351
  8
SYS-BUHIN0
  6
CONTINUOUS
 62
     7
 10
-43.852454807937526
 20
0.6000000119208835
 30
0.0
 40
1.1000000000000001
  1
REMARKS
 41
1.3
  0
TEXT
  5
352
  8
SYS-BUHIN0
  6
CONTINUOUS
 62
     7
 10
-47.370000243186951
 20
2.7500000476836699
 30
0.0
 40
2.7999999999999989
  1
備    考
  0
TEXT
  5
353
  8
SYS-BUHIN0
  6
CONTINUOUS
 62
     7
 10
-69.144963642251696
 20
0.6000000119208835
 30
0.0
 40
1.1000000000000001
  1
UNIT
  0
TEXT
  5
354
  8
SYS-BUHIN0
  6
CONTINUOUS
 62
     7
 10
-70.272262370934413
 20
2.6949072988287521
 30
0.0
 40
2.7999999999999989
  1
数量
  0
TEXT
  5
355
  8
SYS-BUHIN0
  6
CONTINUOUS
 62
     7
 10
-90.559234383463263
 20
0.6000000119208835
 30
0.0
 40
1.1000000000000001
  1
MATERIAL
 41
1.3
  0
TEXT
  5
357
  8
SYS-BUHIN0
  6
CONTINUOUS
 62
     7
 10
-138.9093619295486
 20
0.6000000119208835
 30
0.0
 40
1.1000000000000001
  1
  DESCRIPTION
 41
1.3
  0
TEXT
  5
358
  8
SYS-BUHIN0
  6
CONTINUOUS
 62
     7
 10
-142.0050003230572
 20
2.7500000476836699
 30
0.0
 40
2.7999999999999989
  1
 部  品  名
  0
TEXT
  5
359
  8
SYS-BUHIN0
  6
CONTINUOUS
 62
     7
 10
-166.63404873957319
 20
0.6000000119208835
 30
0.0
 40
1.1000000000000001
  1
NO.
  0
TEXT
  5
35A
  8
SYS-BUHIN0
  6
CONTINUOUS
 62
     7
 10
-168.29000008106229
 20
2.7500000476836699
 30
0.0
 40
2.7999999999999989
  1
項番
  0
ATTDEF
  5
35B
  8
AM_0
 62
     7
 10
-168.79000008106229
 20
3.5
 30
0.0
 40
3.1000000000000001
  1

  3

  2
ITEM
 70
     1
1001
AcDbAttr
1070
     0
1070
     1
  0
TEXT
  5
C0B
  8
AM_BOR
 62
     7
 10
-91.770000159740434
 20
2.7000000476837149
 30
0.0
 40
2.7999999999999989
  1
材　　質
  0
ENDBLK
  5
35C
  8
0
  0
BLOCK
  8
0
  2
MYPLIST1
 70
     2
 10
0.0
 20
0.0
 30
0.0
  3
MYPLIST1
  1

  0
LINE
  5
393
  8
SYS-BUHIN0
  6
CONTINUOUS
 62
     4
 10
-170.0
 20
6.0
 30
0.0
 11
0.0
 21
6.0
 31
0.0
  0
LINE
  5
394
  8
SYS-BUHIN0
  6
CONTINUOUS
 62
     4
 10
-170.0
 20
0.0
 30
0.0
 11
-170.0
 21
6.0
 31
0.0
  0
LINE
  5
395
  8
SYS-BUHIN0
  6
CONTINUOUS
 62
     4
 10
-161.0
 20
0.0
 30
0.0
 11
-161.0
 21
6.0
 31
0.0
  0
LINE
  5
396
  8
SYS-BUHIN0
  6
CONTINUOUS
 62
     4
 10
-99.0
 20
0.0
 30
0.0
 11
-99.0
 21
6.0
 31
0.0
  0
LINE
  5
397
  8
SYS-BUHIN0
  6
CONTINUOUS
 62
     4
 10
-72.0
 20
0.0
 30
0.0
 11
-72.0
 21
6.0
 31
0.0
  0
LINE
  5
398
  8
SYS-BUHIN0
  6
CONTINUOUS
 62
     4
 10
-63.0
 20
0.0
 30
0.0
 11
-63.0
 21
6.0
 31
0.0
  0
LINE
  5
399
  8
SYS-BUHIN0
  6
CONTINUOUS
 62
     4
 10
-16.0
 20
0.0
 30
0.0
 11
-16.0
 21
6.0
 31
0.0
  0
LINE
  5
39A
  8
SYS-BUHIN0
  6
CONTINUOUS
 62
     4
 10
0.0
 20
0.0
 30
0.0
 11
0.0
 21
6.0
 31
0.0
  0
LINE
  5
39B
  8
SYS-BUHIN0
  6
CONTINUOUS
 62
     4
 10
-170.0
 20
0.0
 30
0.0
 11
0.0
 21
0.0
 31
0.0
  0
ATTDEF
  5
39C
  8
SYS-BUHINCODE
 10
-14.0
 20
2.5
 30
0.0
 40
1.0
  1

 11
-14.0
 21
3.0
 31
0.0
  3
部品コード
  2
PCODE
 70
     0
 74
     2
1001
AcDbAttr
1070
     0
1070
     1
  0
ATTDEF
  5
39D
  8
SYS-BUHIN0
  6
CONTINUOUS
 62
     7
 10
-61.0
 20
2.0
 30
0.0
 40
2.0
  1

 11
-61.0
 21
3.0
 31
0.0
  3
備考
  2
NOTE
 70
     0
 74
     2
1001
AcDbAttr
1070
     0
1070
     1
  0
ATTDEF
  5
39E
  8
SYS-BUHIN0
  6
CONTINUOUS
 62
     7
 10
-67.5
 20
3.0
 30
0.0
 40
2.5
  1

 72
     4
 11
-67.5
 21
3.0
 31
0.0
  3
数量
  2
QTY
 70
     0
1001
AcDbAttr
1070
     0
1070
     1
  0
ATTDEF
  5
39F
  8
SYS-BUHIN0
  6
CONTINUOUS
 62
     7
 10
-97.595958160209875
 20
2.0
 30
0.0
 40
2.0
  1

 11
-97.595958160209875
 21
3.0
 31
0.0
  3
材質
  2
MATERIAL
 70
     0
 74
     2
1001
AcDbAttr
1070
     0
1070
     1
  0
ATTDEF
  5
3A0
  8
SYS-BUHIN0
  6
CONTINUOUS
 62
     7
 10
-159.0
 20
1.75
 30
0.0
 40
2.5
  1

 11
-159.0
 21
3.0
 31
0.0
  3
部品名
  2
DESCR
 70
     0
 74
     2
1001
AcDbAttr
1070
     0
1070
     1
  0
ATTDEF
  5
3A1
  8
SYS-BUHIN0
  6
CONTINUOUS
 62
     7
 10
-165.5
 20
3.0
 30
0.0
 40
2.5
  1

 72
     4
 11
-165.5
 21
3.0
 31
0.0
  3
項番
  2
ITEM
 70
     0
1001
AcDbAttr
1070
     0
1070
     1
  0
ENDBLK
  5
370
  8
0
  0
BLOCK
  8
0
  2
A$C1C06296A
 70
     2
 10
0.0
 20
0.0
 30
0.0
  3
A$C1C06296A
  1

  0
LINE
  5
204C
  8
AM_BOR
 10
198.86851880399371
 20
17.886744577931989
 30
0.0
 11
203.2337455721775
 21
13.521517809748619
 31
0.0
  0
LINE
  5
204D
  8
AM_BOR
 10
198.8685188039936
 20
17.866715351316039
 30
0.0
 11
198.86851880399399
 21
14.128964361178911
 31
0.0
  0
LINE
  5
204E
  8
AM_BOR
 10
204.7045172738834
 20
17.866715326469411
 30
0.0
 11
204.70451727388391
 21
14.181128845625549
 31
0.0
  0
LINE
  5
204F
  8
AM_BOR
 10
204.20428883360731
 20
17.793010290175861
 30
0.0
 11
204.204288833607
 21
14.69861035774108
 31
0.0
  0
LINE
  5
2050
  8
AM_BOR
 10
199.3687472442698
 20
17.176052465333349
 30
0.0
 11
199.36874724427059
 21
14.197800355103411
 31
0.0
  0
LINE
  5
2051
  8
AM_BOR
 10
200.43756462039269
 20
18.46533457095553
 30
0.0
 11
204.20428883360731
 21
14.69861035774052
 31
0.0
  0
LINE
  5
2052
  8
AM_BOR
 10
199.36874724426971
 20
17.17605246533255
 30
0.0
 11
203.02713287203409
 21
13.51766683756852
 31
0.0
  0
ARC
  5
2053
  8
AM_BOR
 10
198.36829036868701
 20
17.866715351316049
 30
0.0
 40
0.5002284402762121
 50
0.0
 51
50.265515568291427
  0
ARC
  5
2054
  8
AM_BOR
 10
198.36829034384081
 20
14.12896436117892
 30
0.0
 40
0.5002284402762121
 50
304.69759678405279
 51
0.0
  0
ARC
  5
2055
  8
AM_BOR
 10
205.20474573403669
 20
17.866715326469411
 30
0.0
 40
0.5002284402762121
 50
127.0284887689633
 51
180.00000500895629
  0
ARC
  5
2056
  8
AM_BOR
 10
203.53731756996689
 20
17.793010290175818
 30
0.0
 40
0.6669712537016159
 50
0.0
 51
74.714823568866152
  0
ARC
  5
2057
  8
AM_BOR
 10
200.03571849797169
 20
14.197800355103389
 30
0.0
 40
0.6669712537016159
 50
180.00000500895629
 51
256.4857883914604
  0
LINE
  5
2058
  8
AM_BOR
 10
210.95737277733619
 20
15.993445664994679
 30
0.0
 11
210.9224749062999
 21
16.211434571273589
 31
0.0
  0
LINE
  5
2059
  8
AM_BOR
 10
210.92247490629941
 20
16.211434571273411
 30
0.0
 11
210.8180468870608
 21
16.42776445035037
 31
0.0
  0
LINE
  5
205A
  8
AM_BOR
 10
210.8180468870604
 20
16.42776445035037
 30
0.0
 11
210.64488347990149
 21
16.640788901221669
 31
0.0
  0
LINE
  5
205B
  8
AM_BOR
 10
210.6448834799013
 20
16.640788901221619
 30
0.0
 11
210.40430256290981
 21
16.848886679188759
 31
0.0
  0
LINE
  5
205C
  8
AM_BOR
 10
210.40430256290949
 20
16.848886679189
 30
0.0
 11
210.0981351021297
 21
17.050474034508689
 31
0.0
  0
LINE
  5
205D
  8
AM_BOR
 10
210.09813510212999
 20
17.05047403450855
 30
0.0
 11
209.7287112168076
 21
17.244016765685139
 31
0.0
  0
LINE
  5
205E
  8
AM_BOR
 10
209.72871121680711
 20
17.24401676568521
 30
0.0
 11
209.29884244577369
 21
17.428041895669988
 31
0.0
  0
LINE
  5
205F
  8
AM_BOR
 10
209.29884244577369
 20
17.428041895670081
 30
0.0
 11
208.81180034993889
 21
17.601148882106369
 31
0.0
  0
LINE
  5
2060
  8
AM_BOR
 10
208.81180034993889
 20
17.60114888210644
 30
0.0
 11
208.27129161373591
 21
17.76202027630297
 31
0.0
  0
LINE
  5
2061
  8
AM_BOR
 10
208.27129161373611
 20
17.76202027630309
 30
0.0
 11
207.68142983501551
 21
17.909431749813081
 31
0.0
  0
LINE
  5
2062
  8
AM_BOR
 10
207.68142983501531
 20
17.90943174981297
 30
0.0
 11
207.04670421808169
 21
18.042261412313358
 31
0.0
  0
LINE
  5
2063
  8
AM_BOR
 10
207.04670421808169
 20
18.04226141231344
 30
0.0
 11
206.37194540813729
 21
18.15949834986797
 31
0.0
  0
LINE
  5
2064
  8
AM_BOR
 10
206.37194540813749
 20
18.159498349867881
 30
0.0
 11
205.66228872715681
 21
18.260250318592298
 31
0.0
  0
LINE
  5
2065
  8
AM_BOR
 10
205.66228872715661
 20
18.260250318592369
 30
0.0
 11
205.02242374599979
 21
18.33253416039674
 31
0.0
  0
LINE
  5
2066
  8
AM_BOR
 10
205.02242374599939
 20
18.332534160396779
 30
0.0
 11
204.92313509098369
 21
18.343750535168819
 31
0.0
  0
LINE
  5
2067
  8
AM_BOR
 10
204.92313509098369
 20
18.343750535168748
 30
0.0
 11
204.16010990510409
 21
18.409363512530259
 31
0.0
  0
LINE
  5
2068
  8
AM_BOR
 10
204.1601099051048
 20
18.409363512530259
 30
0.0
 11
203.71314686010501
 21
18.436387872932471
 31
0.0
  0
LINE
  5
2069
  8
AM_BOR
 10
200.43756462039249
 20
18.465334570955569
 30
0.0
 11
200.19401582596791
 21
18.45658989630088
 31
0.0
  0
LINE
  5
206A
  8
AM_BOR
 10
200.19401582596799
 20
18.456589896300901
 30
0.0
 11
199.41292617277259
 21
18.409363512530309
 31
0.0
  0
LINE
  5
206B
  8
AM_BOR
 10
199.41292617277259
 20
18.409363512530248
 30
0.0
 11
198.64990098689299
 21
18.343750535168759
 31
0.0
  0
LINE
  5
206C
  8
AM_BOR
 10
198.5506123731563
 20
18.332534165059979
 30
0.0
 11
197.9107473507209
 21
18.260250318592469
 31
0.0
  0
LINE
  5
206D
  8
AM_BOR
 10
198.64990098689299
 20
18.343750535168791
 30
0.0
 11
198.5506123731563
 21
18.332534165059919
 31
0.0
  0
LINE
  5
206E
  8
AM_BOR
 10
197.91074735072121
 20
18.26025031859243
 30
0.0
 11
197.20109066974049
 21
18.159498349868041
 31
0.0
  0
LINE
  5
206F
  8
AM_BOR
 10
197.20109066974041
 20
18.159498349868091
 30
0.0
 11
196.52633185979579
 21
18.042261412313529
 31
0.0
  0
LINE
  5
2070
  8
AM_BOR
 10
196.5263318597959
 20
18.042261412313589
 30
0.0
 11
195.89160624286239
 21
17.909431749813219
 31
0.0
  0
LINE
  5
2071
  8
AM_BOR
 10
195.89160624286171
 20
17.90943174981302
 30
0.0
 11
195.30174446414119
 21
17.762020276303058
 31
0.0
  0
LINE
  5
2072
  8
AM_BOR
 10
195.301744464141
 20
17.762020276303161
 30
0.0
 11
194.76123572793779
 21
17.60114888210661
 31
0.0
  0
LINE
  5
2073
  8
AM_BOR
 10
194.76123572793779
 20
17.60114888210656
 30
0.0
 11
194.27419363210299
 21
17.428041895670152
 31
0.0
  0
LINE
  5
2074
  8
AM_BOR
 10
194.27419363210339
 20
17.428041895670152
 30
0.0
 11
193.84432486106959
 21
17.244016765685259
 31
0.0
  0
LINE
  5
2075
  8
AM_BOR
 10
193.84432486106959
 20
17.24401676568521
 30
0.0
 11
193.4749009757472
 21
17.05047403450865
 31
0.0
  0
LINE
  5
2076
  8
AM_BOR
 10
193.4749009757472
 20
17.050474034508671
 30
0.0
 11
193.16873351496719
 21
16.848886679188929
 31
0.0
  0
LINE
  5
2077
  8
AM_BOR
 10
193.1687335149673
 20
16.848886679188951
 30
0.0
 11
192.92815259797499
 21
16.640788901221619
 31
0.0
  0
LINE
  5
2078
  8
AM_BOR
 10
192.9281525979753
 20
16.640788901221811
 30
0.0
 11
192.75498919081639
 21
16.42776445035042
 31
0.0
  0
LINE
  5
2079
  8
AM_BOR
 10
192.75498919081639
 20
16.427764450350349
 30
0.0
 11
192.65056117157769
 21
16.211434571273479
 31
0.0
  0
LINE
  5
207A
  8
AM_BOR
 10
192.65056117157789
 20
16.211434571273731
 30
0.0
 11
192.61566330054151
 21
15.993445664994679
 31
0.0
  0
LINE
  5
207B
  8
AM_BOR
 10
192.61566330054069
 20
15.99344566499464
 30
0.0
 11
192.65056117157721
 21
15.775456758715791
 31
0.0
  0
LINE
  5
207C
  8
AM_BOR
 10
192.65056117157769
 20
15.775456758715929
 30
0.0
 11
192.7549891908163
 21
15.55912687963913
 31
0.0
  0
LINE
  5
207D
  8
AM_BOR
 10
192.75498919081639
 20
15.559126879639029
 30
0.0
 11
192.9281525979753
 21
15.34610242876764
 31
0.0
  0
LINE
  5
207E
  8
AM_BOR
 10
192.9281525979751
 20
15.34610242876769
 30
0.0
 11
193.16873351496719
 21
15.1380046508005
 31
0.0
  0
LINE
  5
207F
  8
AM_BOR
 10
193.1687335149669
 20
15.1380046508005
 30
0.0
 11
193.47490097574689
 21
14.93641729548081
 31
0.0
  0
LINE
  5
2080
  8
AM_BOR
 10
193.47490097574729
 20
14.936417295480711
 30
0.0
 11
193.84432486106959
 21
14.742874564304079
 31
0.0
  0
LINE
  5
2081
  8
AM_BOR
 10
193.84432486106951
 20
14.74287456430417
 30
0.0
 11
194.27419363210271
 21
14.558849434319351
 31
0.0
  0
LINE
  5
2082
  8
AM_BOR
 10
194.27419363210319
 20
14.558849434319439
 30
0.0
 11
194.7612357279379
 21
14.38574244788296
 31
0.0
  0
LINE
  5
2083
  8
AM_BOR
 10
194.76123572793779
 20
14.38574244788277
 30
0.0
 11
195.301744464141
 21
14.22487105368617
 31
0.0
  0
LINE
  5
2084
  8
AM_BOR
 10
195.301744464141
 20
14.224871053686311
 30
0.0
 11
195.891606242862
 21
14.077459580176351
 31
0.0
  0
LINE
  5
2085
  8
AM_BOR
 10
195.89160624286191
 20
14.077459580176219
 30
0.0
 11
196.52633185979579
 21
13.94462991767579
 31
0.0
  0
LINE
  5
2086
  8
AM_BOR
 10
196.52633185979539
 20
13.944629917675821
 30
0.0
 11
197.2010906697397
 21
13.827392980121321
 31
0.0
  0
LINE
  5
2087
  8
AM_BOR
 10
197.20109066974049
 20
13.82739298012133
 30
0.0
 11
197.9107473507209
 21
13.726641011397049
 31
0.0
  0
LINE
  5
2088
  8
AM_BOR
 10
197.9107473507205
 20
13.72664101139711
 30
0.0
 11
198.5412166771807
 21
13.655418571666219
 31
0.0
  0
LINE
  5
2089
  8
AM_BOR
 10
198.54121667717999
 20
13.65541857166625
 30
0.0
 11
198.64990098689259
 21
13.643140794820731
 31
0.0
  0
LINE
  5
208A
  8
AM_BOR
 10
198.6499009868929
 20
13.643140794820679
 30
0.0
 11
199.41292617277259
 21
13.57752781745919
 31
0.0
  0
LINE
  5
208B
  8
AM_BOR
 10
199.41292617277259
 20
13.577527817459201
 30
0.0
 11
199.8798563250744
 21
13.54929620220682
 31
0.0
  0
LINE
  5
208C
  8
AM_BOR
 10
203.0271328720325
 20
13.51766683756999
 30
0.0
 11
203.37902025190911
 21
13.530301433688649
 31
0.0
  0
LINE
  5
208D
  8
AM_BOR
 10
203.3790202519092
 20
13.530301433688599
 30
0.0
 11
204.16010990510441
 21
13.57752781745919
 31
0.0
  0
LINE
  5
208E
  8
AM_BOR
 10
204.70451727388399
 20
13.624341722195579
 30
0.0
 11
204.9231350909844
 21
13.64314079482075
 31
0.0
  0
LINE
  5
208F
  8
AM_BOR
 10
204.16010990510441
 20
13.57752781745917
 30
0.0
 11
204.70451727388379
 21
13.62434172219551
 31
0.0
  0
LINE
  5
2090
  8
AM_BOR
 10
204.92313509098409
 20
13.643140794820759
 30
0.0
 11
205.66228872715669
 21
13.726641011397151
 31
0.0
  0
LINE
  5
2091
  8
AM_BOR
 10
205.66228872715661
 20
13.72664101139711
 30
0.0
 11
206.37194540813709
 21
13.827392980121401
 31
0.0
  0
LINE
  5
2092
  8
AM_BOR
 10
206.37194540813749
 20
13.82739298012145
 30
0.0
 11
207.04670421808191
 21
13.94462991767594
 31
0.0
  0
LINE
  5
2093
  8
AM_BOR
 10
207.04670421808169
 20
13.94462991767597
 30
0.0
 11
207.68142983501559
 21
14.07745958017637
 31
0.0
  0
LINE
  5
2094
  8
AM_BOR
 10
207.68142983501551
 20
14.07745958017629
 30
0.0
 11
208.27129161373611
 21
14.22487105368625
 31
0.0
  0
LINE
  5
2095
  8
AM_BOR
 10
208.2712916137362
 20
14.224871053686289
 30
0.0
 11
208.81180034993929
 21
14.38574244788289
 31
0.0
  0
LINE
  5
2096
  8
AM_BOR
 10
208.81180034993929
 20
14.385742447882921
 30
0.0
 11
209.29884244577411
 21
14.558849434319351
 31
0.0
  0
LINE
  5
2097
  8
AM_BOR
 10
209.298842445774
 20
14.55884943431932
 30
0.0
 11
209.72871121680751
 21
14.74287456430422
 31
0.0
  0
LINE
  5
2098
  8
AM_BOR
 10
209.72871121680711
 20
14.742874564304151
 30
0.0
 11
210.0981351021297
 21
14.93641729548083
 31
0.0
  0
LINE
  5
2099
  8
AM_BOR
 10
210.09813510212999
 20
14.93641729548081
 30
0.0
 11
210.40430256290989
 21
15.13800465080036
 31
0.0
  0
LINE
  5
209A
  8
AM_BOR
 10
210.40430256291
 20
15.13800465080055
 30
0.0
 11
210.64488347990201
 21
15.346102428767731
 31
0.0
  0
LINE
  5
209B
  8
AM_BOR
 10
210.64488347990169
 20
15.34610242876783
 30
0.0
 11
210.8180468870608
 21
15.559126879639029
 31
0.0
  0
LINE
  5
209C
  8
AM_BOR
 10
210.81804688706069
 20
15.559126879639059
 30
0.0
 11
210.92247490629899
 21
15.77545675871586
 31
0.0
  0
LINE
  5
209D
  8
AM_BOR
 10
210.92247490629981
 20
15.775456758715791
 30
0.0
 11
210.95737277733619
 21
15.993445664994621
 31
0.0
  0
LINE
  5
209E
  8
AM_BOR
 10
199.10514248704791
 20
18.382897015254191
 30
0.0
 11
203.92474251077411
 21
13.563296991527499
 31
0.0
  0
ARC
  5
209F
  8
AM_BOR
 10
205.2047457141602
 20
14.181128845625549
 30
0.0
 40
0.5002284402762121
 50
180.0
 51
244.5184856857075
  0
LINE
  5
20A0
  8
AM_BOR
 10
199.36521928176651
 20
18.405261169360589
 30
0.0
 11
204.19035209062989
 21
13.58012836049622
 31
0.0
  0
LINE
  5
20A1
  8
AM_BOR
 10
199.630408435547
 20
18.422512964405719
 30
0.0
 11
204.450428885349
 21
13.602492514602771
 31
0.0
  0
LINE
  5
20A2
  8
AM_BOR
 10
199.8967460324557
 20
18.438616316322719
 30
0.0
 11
204.70776895023289
 21
13.62759339854461
 31
0.0
  0
LINE
  5
20A3
  8
AM_BOR
 10
200.16308362936431
 20
18.454719668239761
 30
0.0
 11
204.9488987968831
 21
13.66890450072008
 31
0.0
  0
LINE
  5
20A4
  8
AM_BOR
 10
198.8450656923284
 20
18.36053286114759
 30
0.0
 11
203.6584049138651
 21
13.547193639610409
 31
0.0
  0
LINE
  5
20A5
  8
AM_BOR
 10
198.7943784573331
 20
18.12877914731807
 30
0.0
 11
203.39206731695711
 21
13.53109028769336
 31
0.0
  0
LINE
  5
20A6
  8
AM_BOR
 10
199.01830573664321
 20
18.375429872827009
 30
0.0
 11
199.01830573664321
 21
13.61146145716244
 31
0.0
  0
LINE
  5
20A7
  8
AM_BOR
 10
199.2180216468426
 20
18.39260355953768
 30
0.0
 11
199.2180216468426
 21
13.594287770451791
 31
0.0
  0
LINE
  5
20A8
  8
AM_BOR
 10
204.55473034123381
 20
18.375429872826999
 30
0.0
 11
204.55473034123381
 21
13.61146145716245
 31
0.0
  0
LINE
  5
20A9
  8
AM_BOR
 10
204.35501443103459
 20
18.39260355953764
 30
0.0
 11
204.35501443103459
 21
13.594287770451791
 31
0.0
  0
LINE
  5
20AA
  8
AM_BOR
 62
     4
 10
-0.0000001316067255
 20
15.000000173111291
 30
0.0
 11
190.49999986839319
 21
15.000000173111291
 31
0.0
  0
LINE
  5
20AB
  8
AM_BOR
 62
     4
 10
276.49999986839327
 20
28.000000173111289
 30
0.0
 11
276.49999986839327
 21
0.000000173111296
 31
0.0
  0
LINE
  5
20AC
  8
AM_BOR
 62
     4
 10
-0.0000001316067255
 20
15.000000173111291
 30
0.0
 11
-0.0000001316067255
 21
0.000000173111296
 31
0.0
  0
LINE
  5
20AD
  8
AM_BOR
 62
     4
 10
-0.0000001316067255
 20
28.000000173111289
 30
0.0
 11
276.49999986839327
 21
28.000000173111289
 31
0.0
  0
LINE
  5
20AE
  8
AM_BOR
 62
     4
 10
15.999999868393269
 20
15.000000173111291
 30
0.0
 11
15.999999868393269
 21
0.000000173111296
 31
0.0
  0
TEXT
  5
20AF
  8
AM_BOR
 62
     4
 10
215.17999986839331
 20
10.000000173111291
 30
0.0
 40
1.5
  1
NAKANISHI　INDUSTRIAL CO., LTD.
 41
1.5
  0
TEXT
  5
20B0
  8
AM_BOR
 62
     3
 10
213.19999986839329
 20
13.500000173111291
 30
0.0
 40
5.5
  1
中西産業株式会社
 41
1.1999999999999991
  0
TEXT
  5
20B1
  8
AM_BOR
 62
     4
 10
196.192787937406
 20
10.000000173111291
 30
0.0
 40
1.5
  1
Nakanishi
 41
1.1999999999999991
  0
TEXT
  5
20B2
  8
AM_BOR
 62
     7
 10
98.104999768257457
 20
15.650000185032219
 30
0.0
 40
1.0
  1
FINISH
 41
1.6000000000000001
  0
TEXT
  5
20B3
  8
AM_BOR
 62
     7
 10
96.979999708652798
 20
17.700000220795008
 30
0.0
 40
2.7999999999999989
  1
仕　　上
  0
TEXT
  5
20B4
  8
AM_BOR
 62
     7
 10
3.1549997801784002
 20
15.650000185032219
 30
0.0
 40
1.0
  1
MATERIAL
 41
1.6000000000000001
  0
TEXT
  5
20B5
  8
AM_BOR
 62
     7
 10
1.729999708652826
 20
17.700000220795008
 30
0.0
 40
2.7999999999999989
  1
材　　質
  0
LINE
  5
20B6
  8
AM_BOR
 62
     4
 10
190.49999986839319
 20
28.000000173111289
 30
0.0
 11
190.49999986839319
 21
0.000000173111296
 31
0.0
  0
LINE
  5
20B7
  8
AM_BOR
 62
     4
 10
-0.0000001316067255
 20
28.000000173111289
 30
0.0
 11
-0.0000001316067255
 21
15.000000173111291
 31
0.0
  0
LINE
  5
20B8
  8
AM_BOR
 62
     4
 10
-0.0000001316067255
 20
21.500000173111289
 30
0.0
 11
190.49999986839319
 21
21.500000173111289
 31
0.0
  0
LINE
  5
20B9
  8
AM_BOR
 62
     4
 10
15.999999868393269
 20
28.000000173111289
 30
0.0
 11
15.999999868393269
 21
15.000000173111291
 31
0.0
  0
TEXT
  5
20BA
  8
AM_BOR
 62
     7
 10
98.104999768257457
 20
22.150000185032219
 30
0.0
 40
1.0
  1
ART. NO.
 41
1.6000000000000001
  0
TEXT
  5
20BB
  8
AM_BOR
 62
     7
 10
96.979999708652684
 20
24.200000220795008
 30
0.0
 40
2.7999999999999989
  1
品　　番
  0
TEXT
  5
20BC
  8
AM_BOR
 62
     7
 10
3.1549997801784002
 20
22.150000185032219
 30
0.0
 40
1.0
  1
ARTICLE
 41
1.6000000000000001
  0
TEXT
  5
20BD
  8
AM_BOR
 62
     7
 10
1.7299997086527119
 20
24.200000220795008
 30
0.0
 40
2.7999999999999989
  1
品　　名
  0
LINE
  5
20BE
  8
AM_BOR
 62
     4
 10
-0.0000001316067255
 20
15.000000173111291
 30
0.0
 11
-0.0000001316067255
 21
0.0000001731112924
 31
0.0
  0
LINE
  5
20BF
  8
AM_BOR
 62
     4
 10
95.249999868393246
 20
28.000000173111289
 30
0.0
 11
95.249999868393246
 21
0.000000173111296
 31
0.0
  0
TEXT
  5
20C0
  8
AM_BOR
 62
     7
 10
3.1549997801784002
 20
9.1500001850322192
 30
0.0
 40
1.0
  1
REMARKS
 41
1.6000000000000001
  0
TEXT
  5
20C1
  8
AM_BOR
 62
     7
 10
1.7299997086527119
 20
11.20000022079501
 30
0.0
 40
2.7999999999999989
  1
備　　考
  0
LINE
  5
20C2
  8
AM_BOR
 62
     4
 10
111.2499998683932
 20
28.000000173111289
 30
0.0
 11
111.2499998683932
 21
0.000000173111296
 31
0.0
  0
LINE
  5
20C3
  8
AM_BOR
 62
     4
 10
-0.0000001316067255
 20
0.000000173111296
 30
0.0
 11
276.49999986839327
 21
0.000000173111296
 31
0.0
  0
TEXT
  5
20C4
  8
AM_BOR
 62
     7
 10
98.404999780178386
 20
9.1500001850322157
 30
0.0
 40
1.0
  1
SETS
 41
1.6000000000000001
  0
TEXT
  5
20C5
  8
AM_BOR
 62
     7
 10
96.979999708652684
 20
11.20000022079501
 30
0.0
 40
2.7999999999999989
  1
セット品
  0
ATTDEF
  5
20C6
  8
AM_BOR
 62
     7
 10
114.3107095753831
 20
0.5000001731112853
 30
0.0
 40
3.0
  1

 11
114.3107095753831
 21
2.0000001731112849
 31
0.0
  3
セット
  2
SETS｛20｝
 70
     0
 74
     2
1001
ACADANNOTATIVE
1000
AnnotativeData
1002
{
1070
     1
1070
     0
1002
}
1001
AcDbAttr
1070
     0
1070
     1
  0
ATTDEF
  5
20CA
  8
AM_BOR
 62
     7
 10
19.060709575383161
 20
0.5000001731112889
 30
0.0
 40
3.0
  1

 11
19.060709575383161
 21
2.000000173111288
 31
0.0
  3
備　　考
  2
REMARKS｛20｝
 70
     0
 74
     2
1001
ACADANNOTATIVE
1000
AnnotativeData
1002
{
1070
     1
1070
     0
1002
}
1001
AcDbAttr
1070
     0
1070
     1
  0
ATTDEF
  5
20CE
  8
AM_BOR
 62
     7
 10
114.3107095753831
 20
5.5000001731112853
 30
0.0
 40
3.0
  1

 11
114.3107095753831
 21
7.0000001731112853
 31
0.0
  3
セット
  2
SETS｛20｝
 70
     0
 74
     2
1001
ACADANNOTATIVE
1000
AnnotativeData
1002
{
1070
     1
1070
     0
1002
}
1001
AcDbAttr
1070
     0
1070
     1
  0
ATTDEF
  5
20D2
  8
AM_BOR
 62
     7
 10
19.060709575383161
 20
5.500000173111288
 30
0.0
 40
3.0
  1

 11
19.060709575383161
 21
7.000000173111288
 31
0.0
  3
備　　考
  2
REMARKS｛20｝
 70
     0
 74
     2
1001
ACADANNOTATIVE
1000
AnnotativeData
1002
{
1070
     1
1070
     0
1002
}
1001
AcDbAttr
1070
     0
1070
     1
  0
ATTDEF
  5
20D6
  8
AM_BOR
 62
     7
 10
114.3107095753831
 20
10.50000017311128
 30
0.0
 40
3.0
  1

 11
114.3107095753831
 21
12.00000017311128
 31
0.0
  3
セット
  2
SETS｛20｝
 70
     0
 74
     2
1001
ACADANNOTATIVE
1000
AnnotativeData
1002
{
1070
     1
1070
     0
1002
}
1001
AcDbAttr
1070
     0
1070
     1
  0
ATTDEF
  5
20DA
  8
AM_BOR
 62
     7
 10
19.060709575383161
 20
10.500000173111291
 30
0.0
 40
3.0
  1

 11
19.060709575383161
 21
12.000000173111291
 31
0.0
  3
備　　考
  2
REMARKS｛20｝
 70
     0
 74
     2
1001
ACADANNOTATIVE
1000
AnnotativeData
1002
{
1070
     1
1070
     0
1002
}
1001
AcDbAttr
1070
     0
1070
     1
  0
ATTDEF
  5
20DE
  8
AM_BOR
 62
     7
 10
114.2499998683932
 20
23.500000173111289
 30
0.0
 40
3.0
  1

 11
114.2499998683932
 21
25.000000173111289
 31
0.0
  3
品    番
  2
ART_NO｛20｝
 70
     0
 74
     2
1001
ACADANNOTATIVE
1000
AnnotativeData
1002
{
1070
     1
1070
     0
1002
}
1001
AcDbAttr
1070
     0
1070
     1
  0
ATTDEF
  5
20E2
  8
AM_BOR
 62
     7
 10
18.999999868393271
 20
23.500000173111289
 30
0.0
 40
3.0
  1

 11
18.999999868393271
 21
25.000000173111289
 31
0.0
  3
品    名
  2
ARTICLE｛20｝
 70
     0
 74
     2
1001
ACADANNOTATIVE
1000
AnnotativeData
1002
{
1070
     1
1070
     0
1002
}
1001
AcDbAttr
1070
     0
1070
     1
  0
ATTDEF
  5
20E6
  8
AM_BOR
 62
     7
 10
114.2499998683932
 20
17.000000173111289
 30
0.0
 40
3.0
  1

 11
114.2499998683932
 21
18.500000173111289
 31
0.0
  3
仕上
  2
FINISH｛20｝
 70
     0
 74
     2
1001
ACADANNOTATIVE
1000
AnnotativeData
1002
{
1070
     1
1070
     0
1002
}
1001
AcDbAttr
1070
     0
1070
     1
  0
ATTDEF
  5
20EA
  8
AM_BOR
 62
     7
 10
18.999999868393271
 20
17.000000173111289
 30
0.0
 40
3.0
  1

 11
18.999999868393271
 21
18.500000173111289
 31
0.0
  3
材　　質
  2
MATERIAK｛20｝
 70
     0
 74
     2
1001
ACADANNOTATIVE
1000
AnnotativeData
1002
{
1070
     1
1070
     0
1002
}
1001
AcDbAttr
1070
     0
1070
     1
  0
ENDBLK
  5
20F1
  8
0
  0
BLOCK
  8
0
  2
ZUWAKU-A3H
 70
     0
 10
0.0
 20
0.0
 30
0.0
  3
ZUWAKU-A3H
  1

  0
LINE
  5
29DD
  8
AM_BOR
 62
     3
 10
24.999999999999989
 20
284.99999999999977
 30
0.0
 11
24.999999999999979
 21
9.0
 31
0.0
  0
LINE
  5
29DE
  8
AM_BOR
 62
     3
 10
411.99999999999989
 20
284.99999999999989
 30
0.0
 11
25.0
 21
284.99999999999989
 31
0.0
  0
LINE
  5
29DF
  8
AM_BOR
 62
     3
 10
411.99999999999989
 20
284.99999999999989
 30
0.0
 11
411.99999999999989
 21
9.0
 31
0.0
  0
LINE
  5
29E0
  8
AM_BOR
 62
     3
 10
24.999999999999989
 20
8.9999999999999964
 30
0.0
 11
411.99999999999972
 21
8.9999999999999964
 31
0.0
  0
TEXT
  5
29E1
  8
SYS-TEISEI0
  6
CONTINUOUS
 62
     3
 10
144.38500001765789
 20
14.950000047683719
 30
0.0
 40
3.099999904632567
  1
 
  0
TEXT
  5
29E2
  8
SYS-TEISEI0
  6
CONTINUOUS
 62
     3
 10
169.88500004447991
 20
14.950000047683719
 30
0.0
 40
3.099999904632567
  1
 
  0
TEXT
  5
29E3
  8
SYS-TEISEI0
  6
CONTINUOUS
 62
     3
 10
229.24499995708459
 20
14.950000047683719
 30
0.0
 40
3.099999904632567
  1
 
  0
TEXT
  5
29E4
  8
SYS-TEISEI0
  6
CONTINUOUS
 62
     3
 10
236.9449999570846
 20
14.950000047683719
 30
0.0
 40
3.099999904632567
  1
 
  0
TEXT
  5
29E5
  8
SYS-TEISEI0
  6
CONTINUOUS
 62
     3
 10
144.38500001765789
 20
19.950000047683719
 30
0.0
 40
3.099999904632567
  1
 
  0
TEXT
  5
29E6
  8
SYS-TEISEI0
  6
CONTINUOUS
 62
     3
 10
169.88500004447991
 20
19.950000047683719
 30
0.0
 40
3.099999904632567
  1
 
  0
TEXT
  5
29E7
  8
SYS-TEISEI0
  6
CONTINUOUS
 62
     3
 10
229.24499995708459
 20
19.950000047683719
 30
0.0
 40
3.099999904632567
  1
 
  0
TEXT
  5
29E8
  8
SYS-TEISEI0
  6
CONTINUOUS
 62
     3
 10
236.9449999570846
 20
19.950000047683719
 30
0.0
 40
3.099999904632567
  1
 
  0
TEXT
  5
29E9
  8
SYS-TEISEI0
  6
CONTINUOUS
 62
     3
 10
144.38500001765789
 20
24.950000047683719
 30
0.0
 40
3.099999904632567
  1
 
  0
TEXT
  5
29EA
  8
SYS-TEISEI0
  6
CONTINUOUS
 62
     3
 10
169.88500004447991
 20
24.950000047683719
 30
0.0
 40
3.099999904632567
  1
 
  0
TEXT
  5
29EB
  8
SYS-TEISEI0
  6
CONTINUOUS
 62
     3
 10
229.24499995708459
 20
24.950000047683719
 30
0.0
 40
3.099999904632567
  1
 
  0
TEXT
  5
29EC
  8
SYS-TEISEI0
  6
CONTINUOUS
 62
     3
 10
236.9449999570846
 20
24.950000047683719
 30
0.0
 40
3.099999904632567
  1
 
  0
TEXT
  5
29ED
  8
AM_BOR
 10
24.999999999999989
 20
9.0
 30
0.0
 40
5.0
  1
!GENTITLE-LL
  0
TEXT
  5
29EE
  8
AM_BOR
 10
411.99999999999989
 20
9.0
 30
0.0
 40
5.0
  1
!GENTITLE-INSERT
  0
TEXT
  5
29EF
  8
AM_BOR
 10
411.99999999999989
 20
284.99999999999989
 30
0.0
 40
5.0
  1
!GENTITLE-RU
  0
TEXT
  5
29F0
  8
AM_BOR
 10
420.0
 20
297.0
 30
0.0
 40
5.0
  1
!GENTITLE-MAX
  0
ENDBLK
  5
29F2
  8
0
  0
BLOCK
  8
0
  2
_ACMFILLEDHALF
 70
     0
 10
0.0
 20
0.0
 30
0.0
  3
_ACMFILLEDHALF
  1

  0
TRACE
  5
32A5
  8
0
 62
     0
 10
-0.8
 20
0.0
 30
0.0
 11
-1.0
 21
0.166666666
 31
0.0
 12
0.0
 22
0.0
 32
0.0
 13
0.0
 23
0.0
 33
0.0
  0
LINE
  5
32A6
  8
0
 62
     0
 10
-1.0
 20
0.0
 30
0.0
 11
-0.8
 21
0.0
 31
0.0
  0
ENDBLK
  5
32A4
  8
0
  0
BLOCK
  8
0
  2
_ACMFILLED
 70
     0
 10
0.0
 20
0.0
 30
0.0
  3
_ACMFILLED
  1

  0
TRACE
  5
32B1
  8
0
 62
     0
 10
-1.0
 20
-0.166666666
 30
0.0
 11
-1.0
 21
0.166666666
 31
0.0
 12
0.0
 22
0.0
 32
0.0
 13
0.0
 23
0.0
 33
0.0
  0
ENDBLK
  5
32B0
  8
0
  0
BLOCK
  8
0
  2
_ACMOPEN15
 70
     0
 10
0.0
 20
0.0
 30
0.0
  3
_ACMOPEN15
  1

  0
LINE
  5
32BB
  8
0
 62
     0
 10
-1.0
 20
0.0
 30
0.0
 11
0.0
 21
0.0
 31
0.0
  0
LINE
  5
32BC
  8
0
 62
     0
 10
-1.0
 20
-0.131652497
 30
0.0
 11
0.0
 21
0.0
 31
0.0
  0
LINE
  5
32BD
  8
0
 62
     0
 10
0.0
 20
0.0
 30
0.0
 11
-1.0
 21
0.131652497
 31
0.0
  0
ENDBLK
  5
32BA
  8
0
  0
BLOCK
  8
0
  2
_ACMFILLED15
 70
     0
 10
0.0
 20
0.0
 30
0.0
  3
_ACMFILLED15
  1

  0
TRACE
  5
32C9
  8
0
 62
     0
 10
-1.0
 20
-0.131652497
 30
0.0
 11
-1.0
 21
0.131652497
 31
0.0
 12
0.0
 22
0.0
 32
0.0
 13
0.0
 23
0.0
 33
0.0
  0
ENDBLK
  5
32C8
  8
0
  0
BLOCK
  8
0
  2
*D13
 70
     1
 10
0.0
 20
0.0
 30
0.0
  3
*D13
  1

  0
LINE
  5
466A
  8
AM_5
  6
CONTINUOUS
 62
     7
 10
256.05085698466718
 20
239.92790007350871
 30
0.0
 11
286.57356981889762
 21
239.92790007350871
 31
0.0
  0
LINE
  5
466B
  8
AM_5
  6
CONTINUOUS
 62
     7
 10
256.05085698466092
 20
248.92790007350871
 30
0.0
 11
286.57356981889762
 21
248.92790007350871
 31
0.0
  0
LINE
  5
466C
  8
AM_5
  6
CONTINUOUS
 62
     7
 10
285.57356981889762
 20
242.42790007350871
 30
0.0
 11
285.57356981889762
 21
246.42790007350871
 31
0.0
  0
INSERT
  5
466D
  8
AM_5
 62
     7
  2
_OPEN30
 10
285.57356981889762
 20
239.92790007350871
 30
0.0
 41
2.5
 42
2.5
 43
2.5
 50
270.0
  0
INSERT
  5
466E
  8
AM_5
 62
     7
  2
_OPEN30
 10
285.57356981889762
 20
248.92790007350871
 30
0.0
 41
2.5
 42
2.5
 43
2.5
 50
90.0
  0
INSERT
  5
466F
  8
0
  2
*U44
 10
0.0
 20
0.0
 30
0.0
  0
POINT
  5
4670
  8
DEFPOINTS
 62
     0
 10
255.05085698466721
 20
239.92790007350871
 30
0.0
  0
POINT
  5
4671
  8
DEFPOINTS
 62
     0
 10
255.0508569846609
 20
248.92790007350871
 30
0.0
  0
POINT
  5
4672
  8
DEFPOINTS
 62
     0
 10
285.57356981889762
 20
248.92790007350871
 30
0.0
  0
ENDBLK
  5
413B
  8
0
  0
BLOCK
  8
0
  2
*D14
 70
     1
 10
0.0
 20
0.0
 30
0.0
  3
*D14
  1

  0
LINE
  5
4673
  8
AM_5
  6
CONTINUOUS
 62
     7
 10
261.0508569847517
 20
234.42790007350871
 30
0.0
 11
293.57356981889768
 21
234.42790007350871
 31
0.0
  0
LINE
  5
4674
  8
AM_5
  6
CONTINUOUS
 62
     7
 10
261.0508569847517
 20
254.42790007350871
 30
0.0
 11
293.57356981889768
 21
254.42790007350871
 31
0.0
  0
LINE
  5
4675
  8
AM_5
  6
CONTINUOUS
 62
     7
 10
292.57356981889768
 20
236.92790007350871
 30
0.0
 11
292.57356981889768
 21
251.92790007350871
 31
0.0
  0
INSERT
  5
4676
  8
AM_5
 62
     7
  2
_OPEN30
 10
292.57356981889768
 20
234.42790007350871
 30
0.0
 41
2.5
 42
2.5
 43
2.5
 50
270.0
  0
INSERT
  5
4677
  8
AM_5
 62
     7
  2
_OPEN30
 10
292.57356981889768
 20
254.42790007350871
 30
0.0
 41
2.5
 42
2.5
 43
2.5
 50
90.0
  0
INSERT
  5
4678
  8
0
  2
*U45
 10
0.0
 20
0.0
 30
0.0
  0
POINT
  5
4679
  8
DEFPOINTS
 62
     0
 10
260.0508569847517
 20
234.42790007350871
 30
0.0
  0
POINT
  5
467A
  8
DEFPOINTS
 62
     0
 10
260.0508569847517
 20
254.42790007350871
 30
0.0
  0
POINT
  5
467B
  8
DEFPOINTS
 62
     0
 10
292.57356981889768
 20
254.42790007350871
 30
0.0
  0
ENDBLK
  5
4165
  8
0
  0
BLOCK
  8
0
  2
*D15
 70
     1
 10
0.0
 20
0.0
 30
0.0
  3
*D15
  1

  0
LINE
  5
467C
  8
AM_5
  6
CONTINUOUS
 62
     7
 10
212.55085698453891
 20
231.42790007350871
 30
0.0
 11
185.5988377792132
 21
231.42790007350871
 31
0.0
  0
LINE
  5
467D
  8
AM_5
  6
CONTINUOUS
 62
     7
 10
212.55085698453891
 20
257.42790007350868
 30
0.0
 11
185.5988377792132
 21
257.42790007350868
 31
0.0
  0
LINE
  5
467E
  8
AM_5
  6
CONTINUOUS
 62
     7
 10
186.5988377792132
 20
233.92790007350871
 30
0.0
 11
186.5988377792132
 21
254.92790007350871
 31
0.0
  0
INSERT
  5
467F
  8
AM_5
 62
     7
  2
_OPEN30
 10
186.5988377792132
 20
231.42790007350871
 30
0.0
 41
2.5
 42
2.5
 43
2.5
 50
270.0
  0
INSERT
  5
4680
  8
AM_5
 62
     7
  2
_OPEN30
 10
186.5988377792132
 20
257.42790007350868
 30
0.0
 41
2.5
 42
2.5
 43
2.5
 50
90.0
  0
INSERT
  5
4681
  8
0
  2
*U46
 10
0.0
 20
0.0
 30
0.0
  0
POINT
  5
4682
  8
DEFPOINTS
 62
     0
 10
213.55085698453891
 20
231.42790007350871
 30
0.0
  0
POINT
  5
4683
  8
DEFPOINTS
 62
     0
 10
213.55085698453891
 20
257.42790007350868
 30
0.0
  0
POINT
  5
4684
  8
DEFPOINTS
 62
     0
 10
186.5988377792132
 20
257.42790007350868
 30
0.0
  0
ENDBLK
  5
4186
  8
0
  0
BLOCK
  8
0
  2
*D16
 70
     1
 10
0.0
 20
0.0
 30
0.0
  3
*D16
  1

  0
LINE
  5
4685
  8
AM_5
  6
CONTINUOUS
 62
     7
 10
217.05085698453891
 20
217.92790007350871
 30
0.0
 11
217.05085698453891
 21
211.59678259829749
 31
0.0
  0
LINE
  5
4686
  8
AM_5
  6
CONTINUOUS
 62
     7
 10
240.05085698453891
 20
237.81915025260881
 30
0.0
 11
240.05085698453891
 21
211.59678259829749
 31
0.0
  0
LINE
  5
4687
  8
AM_5
  6
CONTINUOUS
 62
     7
 10
219.55085698453891
 20
212.59678259829749
 30
0.0
 11
237.55085698453891
 21
212.59678259829749
 31
0.0
  0
INSERT
  5
4688
  8
AM_5
 62
     7
  2
_OPEN30
 10
217.05085698453891
 20
212.59678259829749
 30
0.0
 41
2.5
 42
2.5
 43
2.5
 50
180.0
  0
INSERT
  5
4689
  8
AM_5
 62
     7
  2
_OPEN30
 10
240.05085698453891
 20
212.59678259829749
 30
0.0
 41
2.5
 42
2.5
 43
2.5
  0
INSERT
  5
468A
  8
0
  2
*U47
 10
0.0
 20
0.0
 30
0.0
  0
POINT
  5
468B
  8
DEFPOINTS
 62
     0
 10
217.05085698453891
 20
218.92790007350871
 30
0.0
  0
POINT
  5
468C
  8
DEFPOINTS
 62
     0
 10
240.05085698453891
 20
238.81915025260881
 30
0.0
  0
POINT
  5
468D
  8
DEFPOINTS
 62
     0
 10
240.05085698453891
 20
212.59678259829749
 30
0.0
  0
ENDBLK
  5
41FB
  8
0
  0
BLOCK
  8
0
  2
*D17
 70
     1
 10
0.0
 20
0.0
 30
0.0
  3
*D17
  1

  0
LINE
  5
468E
  8
AM_5
  6
CONTINUOUS
 62
     7
 10
205.55085698453891
 20
243.42790007350871
 30
0.0
 11
205.55085698453891
 21
204.59678259829781
 31
0.0
  0
LINE
  5
468F
  8
AM_5
  6
CONTINUOUS
 62
     7
 10
217.05085698453891
 20
217.92790007350871
 30
0.0
 11
217.05085698453891
 21
204.59678259829781
 31
0.0
  0
LINE
  5
4690
  8
AM_5
  6
CONTINUOUS
 62
     7
 10
208.050856984539
 20
205.59678259829781
 30
0.0
 11
214.55085698453891
 21
205.59678259829781
 31
0.0
  0
INSERT
  5
4691
  8
AM_5
 62
     7
  2
_OPEN30
 10
205.55085698453891
 20
205.59678259829781
 30
0.0
 41
2.5
 42
2.5
 43
2.5
 50
180.0
  0
INSERT
  5
4692
  8
AM_5
 62
     7
  2
_OPEN30
 10
217.05085698453891
 20
205.59678259829781
 30
0.0
 41
2.5
 42
2.5
 43
2.5
  0
INSERT
  5
4693
  8
0
  2
*U48
 10
0.0
 20
0.0
 30
0.0
  0
POINT
  5
4694
  8
DEFPOINTS
 62
     0
 10
205.55085698453891
 20
244.42790007350871
 30
0.0
  0
POINT
  5
4695
  8
DEFPOINTS
 62
     0
 10
217.05085698453891
 20
218.92790007350871
 30
0.0
  0
POINT
  5
4696
  8
DEFPOINTS
 62
     0
 10
217.05085698453891
 20
205.59678259829781
 30
0.0
  0
ENDBLK
  5
4225
  8
0
  0
BLOCK
  8
0
  2
*D18
 70
     1
 10
0.0
 20
0.0
 30
0.0
  3
*D18
  1

  0
LINE
  5
4697
  8
AM_5
  6
CONTINUOUS
 62
     7
 10
217.05085698453891
 20
217.92790007350871
 30
0.0
 11
217.05085698453891
 21
204.59678259829781
 31
0.0
  0
LINE
  5
4698
  8
AM_5
  6
CONTINUOUS
 62
     7
 10
252.0508569845388
 20
236.84211363588179
 30
0.0
 11
252.0508569845388
 21
204.59678259829781
 31
0.0
  0
LINE
  5
4699
  8
AM_5
  6
CONTINUOUS
 62
     7
 10
219.55085698453891
 20
205.59678259829781
 30
0.0
 11
249.5508569845388
 21
205.59678259829781
 31
0.0
  0
INSERT
  5
469A
  8
AM_5
 62
     7
  2
_OPEN30
 10
217.05085698453891
 20
205.59678259829781
 30
0.0
 41
2.5
 42
2.5
 43
2.5
 50
180.0
  0
INSERT
  5
469B
  8
AM_5
 62
     7
  2
_OPEN30
 10
252.0508569845388
 20
205.59678259829781
 30
0.0
 41
2.5
 42
2.5
 43
2.5
  0
INSERT
  5
469C
  8
0
  2
*U49
 10
0.0
 20
0.0
 30
0.0
  0
POINT
  5
469D
  8
DEFPOINTS
 62
     0
 10
217.05085698453891
 20
218.92790007350871
 30
0.0
  0
POINT
  5
469E
  8
DEFPOINTS
 62
     0
 10
252.0508569845388
 20
237.84211363588179
 30
0.0
  0
POINT
  5
469F
  8
DEFPOINTS
 62
     0
 10
252.0508569845388
 20
205.59678259829781
 30
0.0
  0
ENDBLK
  5
4258
  8
0
  0
BLOCK
  8
0
  2
*D19
 70
     1
 10
0.0
 20
0.0
 30
0.0
  3
*D19
  1

  0
LINE
  5
485B
  8
AM_5
  6
CONTINUOUS
 62
     7
 10
260.0508569847517
 20
169.5204199656356
 30
0.0
 11
260.0508569847517
 21
173.80532693062969
 31
0.0
  0
LINE
  5
485C
  8
AM_5
  6
CONTINUOUS
 62
     7
 10
255.0508569847517
 20
168.5204199656356
 30
0.0
 11
255.0508569847517
 21
173.80532693062969
 31
0.0
  0
LINE
  5
485D
  8
AM_5
  6
CONTINUOUS
 62
     7
 10
262.5508569847517
 20
172.80532693062969
 30
0.0
 11
265.0508569847517
 21
172.80532693062969
 31
0.0
  0
LINE
  5
485E
  8
AM_5
  6
CONTINUOUS
 62
     7
 10
252.5508569847517
 20
172.80532693062969
 30
0.0
 11
250.0508569847517
 21
172.80532693062969
 31
0.0
  0
LINE
  5
485F
  8
AM_5
  6
CONTINUOUS
 62
     7
 10
260.0508569847517
 20
172.80532693062969
 30
0.0
 11
255.0508569847517
 21
172.80532693062969
 31
0.0
  0
INSERT
  5
4860
  8
AM_5
 62
     7
  2
_OPEN30
 10
260.0508569847517
 20
172.80532693062969
 30
0.0
 41
2.5
 42
2.5
 43
2.5
 50
180.0
  0
INSERT
  5
4861
  8
AM_5
 62
     7
  2
GENDOT
 10
255.0508569847517
 20
172.80532693062969
 30
0.0
 41
2.5
 42
2.5
 43
2.5
  0
TEXT
  8
AM_5
  40
3
  5
48C4
  62
7
  72
0
  71
0
 10
257.551
 20
171.405
 30
0.000000
  1
5
  0
POINT
  5
4863
  8
DEFPOINTS
 62
     0
 10
260.0508569847517
 20
168.5204199656356
 30
0.0
  0
POINT
  5
4864
  8
DEFPOINTS
 62
     0
 10
255.0508569847517
 20
167.5204199656356
 30
0.0
  0
POINT
  5
4865
  8
DEFPOINTS
 62
     0
 10
255.0508569847517
 20
172.80532693062969
 30
0.0
  0
ENDBLK
  5
42AF
  8
0
  0
BLOCK
  8
0
  2
*D20
 70
     1
 10
0.0
 20
0.0
 30
0.0
  3
*D20
  1

  0
LINE
  5
4866
  8
AM_5
  6
CONTINUOUS
 62
     7
 10
255.0508569847517
 20
168.5204199656356
 30
0.0
 11
255.0508569847517
 21
173.80532693062969
 31
0.0
  0
LINE
  5
4867
  8
AM_5
  6
CONTINUOUS
 62
     7
 10
247.0508569847517
 20
146.52041996563551
 30
0.0
 11
247.0508569847517
 21
173.80532693062969
 31
0.0
  0
LINE
  5
4868
  8
AM_5
  6
CONTINUOUS
 62
     7
 10
252.5508569847517
 20
172.80532693062969
 30
0.0
 11
249.5508569847517
 21
172.80532693062969
 31
0.0
  0
INSERT
  5
4869
  8
AM_5
 62
     7
  2
GENDOT
 10
255.0508569847517
 20
172.80532693062969
 30
0.0
 41
2.5
 42
2.5
 43
2.5
  0
INSERT
  5
486A
  8
AM_5
 62
     7
  2
_OPEN30
 10
247.0508569847517
 20
172.80532693062969
 30
0.0
 41
2.5
 42
2.5
 43
2.5
 50
180.0
  0
TEXT
  8
AM_5
  40
3
  5
48C5
  62
7
  72
0
  71
0
 10
251.051
 20
171.405
 30
0.000000
  1
8
  0
POINT
  5
486C
  8
DEFPOINTS
 62
     0
 10
255.0508569847517
 20
167.5204199656356
 30
0.0
  0
POINT
  5
486D
  8
DEFPOINTS
 62
     0
 10
247.0508569847517
 20
145.52041996563551
 30
0.0
  0
POINT
  5
486E
  8
DEFPOINTS
 62
     0
 10
247.0508569847517
 20
172.80532693062969
 30
0.0
  0
ENDBLK
  5
42EC
  8
0
  0
BLOCK
  8
0
  2
GENDOT
 70
     0
 10
0.0
 20
0.0
 30
0.0
  3
GENDOT
  1

  0
LINE
  5
4302
  8
0
 10
0.0
 20
0.0
 30
0.0
 11
-1.0
 21
0.0
 31
0.0
  0
POLYLINE
  5
4303
  8
0
 66
     1
 10
0.0
 20
0.0
 30
0.0
 70
     1
 40
0.25
 41
0.25
  0
VERTEX
  5
486F
  8
0
 10
-0.125
 20
0.0
 30
0.0
 42
1.0
  0
VERTEX
  5
4870
  8
0
 10
0.125
 20
0.0
 30
0.0
 42
1.0
  0
SEQEND
  5
4871
  8
0
  0
ENDBLK
  5
4305
  8
0
  0
BLOCK
  8
0
  2
*D22
 70
     1
 10
0.0
 20
0.0
 30
0.0
  3
*D22
  1

  0
LINE
  5
4658
  8
AM_5
  6
CONTINUOUS
 62
     7
 10
260.0508569847517
 20
169.5204199656356
 30
0.0
 11
260.0508569847517
 21
180.8053269306296
 31
0.0
  0
LINE
  5
4659
  8
AM_5
  6
CONTINUOUS
 62
     7
 10
241.0508569847517
 20
151.41939945120191
 30
0.0
 11
241.0508569847517
 21
180.8053269306296
 31
0.0
  0
LINE
  5
465A
  8
AM_5
  6
CONTINUOUS
 62
     7
 10
257.5508569847517
 20
179.8053269306296
 30
0.0
 11
243.5508569847517
 21
179.8053269306296
 31
0.0
  0
INSERT
  5
465B
  8
AM_5
 62
     7
  2
_OPEN30
 10
260.0508569847517
 20
179.8053269306296
 30
0.0
 41
2.5
 42
2.5
 43
2.5
  0
INSERT
  5
465C
  8
AM_5
 62
     7
  2
_OPEN30
 10
241.0508569847517
 20
179.8053269306296
 30
0.0
 41
2.5
 42
2.5
 43
2.5
 50
180.0
  0
INSERT
  5
465D
  8
0
  2
*U43
 10
0.0
 20
0.0
 30
0.0
  0
POINT
  5
465E
  8
DEFPOINTS
 62
     0
 10
260.0508569847517
 20
168.5204199656356
 30
0.0
  0
POINT
  5
465F
  8
DEFPOINTS
 62
     0
 10
241.0508569847517
 20
150.41939945120191
 30
0.0
  0
POINT
  5
4660
  8
DEFPOINTS
 62
     0
 10
241.0508569847517
 20
179.8053269306296
 30
0.0
  0
ENDBLK
  5
4326
  8
0
  0
BLOCK
  8
0
  2
*D23
 70
     1
 10
0.0
 20
0.0
 30
0.0
  3
*D23
  1

  0
LINE
  5
4619
  8
AM_5
  6
CONTINUOUS
 62
     7
 10
260.0508569847517
 20
169.5204199656356
 30
0.0
 11
260.0508569847517
 21
187.8053269306296
 31
0.0
  0
LINE
  5
461A
  8
AM_5
  6
CONTINUOUS
 62
     7
 10
217.05085698453891
 20
153.1448755477891
 30
0.0
 11
217.05085698453891
 21
187.8053269306296
 31
0.0
  0
LINE
  5
461B
  8
AM_5
  6
CONTINUOUS
 62
     7
 10
257.5508569847517
 20
186.8053269306296
 30
0.0
 11
219.55085698453891
 21
186.8053269306296
 31
0.0
  0
INSERT
  5
461C
  8
AM_5
 62
     7
  2
_OPEN30
 10
260.0508569847517
 20
186.8053269306296
 30
0.0
 41
2.5
 42
2.5
 43
2.5
  0
INSERT
  5
461D
  8
AM_5
 62
     7
  2
_OPEN30
 10
217.05085698453891
 20
186.8053269306296
 30
0.0
 41
2.5
 42
2.5
 43
2.5
 50
180.0
  0
INSERT
  5
461E
  8
0
  2
*U37
 10
0.0
 20
0.0
 30
0.0
  0
POINT
  5
461F
  8
DEFPOINTS
 62
     0
 10
260.0508569847517
 20
168.5204199656356
 30
0.0
  0
POINT
  5
4620
  8
DEFPOINTS
 62
     0
 10
217.05085698453891
 20
152.1448755477891
 30
0.0
  0
POINT
  5
4621
  8
DEFPOINTS
 62
     0
 10
217.05085698453891
 20
186.8053269306296
 30
0.0
  0
ENDBLK
  5
4350
  8
0
  0
BLOCK
  8
0
  2
*D24
 70
     1
 10
0.0
 20
0.0
 30
0.0
  3
*D24
  1

  0
LINE
  5
4622
  8
AM_5
  6
CONTINUOUS
 62
     7
 10
193.55085698453891
 20
89.144875547789127
 30
0.0
 11
168.69431220193201
 21
89.144875547789127
 31
0.0
  0
LINE
  5
4623
  8
AM_5
  6
CONTINUOUS
 62
     7
 10
201.7394345249885
 20
141.14487554778901
 30
0.0
 11
168.69431220193201
 21
141.1448755477891
 31
0.0
  0
LINE
  5
4624
  8
AM_5
  6
CONTINUOUS
 62
     7
 10
169.69431220193201
 20
91.644875547789127
 30
0.0
 11
169.69431220193201
 21
138.6448755477891
 31
0.0
  0
INSERT
  5
4625
  8
AM_5
 62
     7
  2
_OPEN30
 10
169.69431220193201
 20
89.144875547789127
 30
0.0
 41
2.5
 42
2.5
 43
2.5
 50
270.0
  0
INSERT
  5
4626
  8
AM_5
 62
     7
  2
_OPEN30
 10
169.69431220193201
 20
141.1448755477891
 30
0.0
 41
2.5
 42
2.5
 43
2.5
 50
90.0
  0
INSERT
  5
4627
  8
0
  2
*U38
 10
0.0
 20
0.0
 30
0.0
  0
POINT
  5
4628
  8
DEFPOINTS
 62
     0
 10
194.55085698453891
 20
89.144875547789127
 30
0.0
  0
POINT
  5
4629
  8
DEFPOINTS
 62
     0
 10
202.73943452498861
 20
141.14487554778901
 30
0.0
  0
POINT
  5
462A
  8
DEFPOINTS
 62
     0
 10
169.69431220193201
 20
141.1448755477891
 30
0.0
  0
ENDBLK
  5
4383
  8
0
  0
BLOCK
  8
0
  2
*D25
 70
     1
 10
0.0
 20
0.0
 30
0.0
  3
*D25
  1

  0
LINE
  5
462B
  8
AM_5
  6
CONTINUOUS
 62
     7
 10
288.9802444794725
 20
121.14487554782539
 30
0.0
 11
302.9802444794725
 21
121.14487554782539
 31
0.0
  0
LINE
  5
462C
  8
AM_5
  6
CONTINUOUS
 62
     7
 10
288.9802444794725
 20
161.14487554755351
 30
0.0
 11
302.98024447947262
 21
161.14487554755351
 31
0.0
  0
LINE
  5
462D
  8
AM_5
  6
CONTINUOUS
 62
     7
 10
301.9802444794725
 20
123.64487554782539
 30
0.0
 11
301.98024447947262
 21
158.6448755475536
 31
0.0
  0
INSERT
  5
462E
  8
AM_5
 62
     7
  2
_OPEN30
 10
301.9802444794725
 20
121.14487554782539
 30
0.0
 41
2.5
 42
2.5
 43
2.5
 50
270.0
  0
INSERT
  5
462F
  8
AM_5
 62
     7
  2
_OPEN30
 10
301.98024447947262
 20
161.14487554755351
 30
0.0
 41
2.5
 42
2.5
 43
2.5
 50
90.0
  0
INSERT
  5
4630
  8
0
  2
*U39
 10
0.0
 20
0.0
 30
0.0
  0
POINT
  5
4631
  8
DEFPOINTS
 62
     0
 10
287.98024447947262
 20
121.14487554782539
 30
0.0
  0
POINT
  5
4632
  8
DEFPOINTS
 62
     0
 10
287.98024447947262
 20
161.14487554755351
 30
0.0
  0
POINT
  5
4633
  8
DEFPOINTS
 62
     0
 10
301.98024447947262
 20
161.14487554755351
 30
0.0
  0
ENDBLK
  5
43AD
  8
0
  0
BLOCK
  8
0
  2
*D26
 70
     1
 10
0.0
 20
0.0
 30
0.0
  3
*D26
  1

  0
LINE
  5
4634
  8
AM_5
  6
CONTINUOUS
 62
     7
 10
261.05085698475409
 20
114.5204199656356
 30
0.0
 11
309.98024447947267
 21
114.5204199656355
 31
0.0
  0
LINE
  5
4635
  8
AM_5
  6
CONTINUOUS
 62
     7
 10
261.0508569847517
 20
168.5204199656356
 30
0.0
 11
309.98024447947267
 21
168.5204199656356
 31
0.0
  0
LINE
  5
4636
  8
AM_5
  6
CONTINUOUS
 62
     7
 10
308.98024447947267
 20
117.0204199656355
 30
0.0
 11
308.98024447947267
 21
166.02041996563551
 31
0.0
  0
INSERT
  5
4637
  8
AM_5
 62
     7
  2
_OPEN30
 10
308.98024447947267
 20
114.5204199656355
 30
0.0
 41
2.5
 42
2.5
 43
2.5
 50
270.0
  0
INSERT
  5
4638
  8
AM_5
 62
     7
  2
_OPEN30
 10
308.98024447947267
 20
168.5204199656356
 30
0.0
 41
2.5
 42
2.5
 43
2.5
 50
90.0
  0
INSERT
  5
4639
  8
0
  2
*U40
 10
0.0
 20
0.0
 30
0.0
  0
POINT
  5
463A
  8
DEFPOINTS
 62
     0
 10
260.0508569847542
 20
114.5204199656356
 30
0.0
  0
POINT
  5
463B
  8
DEFPOINTS
 62
     0
 10
260.0508569847517
 20
168.5204199656356
 30
0.0
  0
POINT
  5
463C
  8
DEFPOINTS
 62
     0
 10
308.98024447947267
 20
168.5204199656356
 30
0.0
  0
ENDBLK
  5
43CE
  8
0
  0
BLOCK
  8
0
  2
*D27
 70
     1
 10
0.0
 20
0.0
 30
0.0
  3
*D27
  1

  0
LINE
  5
464F
  8
AM_5
  6
CONTINUOUS
 62
     7
 10
251.0508569847517
 20
121.14487554782529
 30
0.0
 11
247.66494387643391
 21
121.14487554782529
 31
0.0
  0
LINE
  5
4650
  8
AM_5
  6
CONTINUOUS
 62
     7
 10
240.55085698453891
 20
89.144875547789056
 30
0.0
 11
249.66494387643391
 21
89.144875547789056
 31
0.0
  0
LINE
  5
4651
  8
AM_5
  6
CONTINUOUS
 62
     7
 10
248.66494387643391
 20
118.64487554782529
 30
0.0
 11
248.66494387643391
 21
91.644875547789056
 31
0.0
  0
INSERT
  5
4652
  8
AM_5
 62
     7
  2
_OPEN30
 10
248.66494387643391
 20
121.14487554782529
 30
0.0
 41
2.5
 42
2.5
 43
2.5
 50
90.0
  0
INSERT
  5
4653
  8
AM_5
 62
     7
  2
_OPEN30
 10
248.66494387643391
 20
89.144875547789056
 30
0.0
 41
2.5
 42
2.5
 43
2.5
 50
270.0
  0
INSERT
  5
4654
  8
0
  2
*U42
 10
0.0
 20
0.0
 30
0.0
  0
POINT
  5
4655
  8
DEFPOINTS
 62
     0
 10
252.05085698475179
 20
121.14487554782529
 30
0.0
  0
POINT
  5
4656
  8
DEFPOINTS
 62
     0
 10
239.55085698453891
 20
89.144875547789056
 30
0.0
  0
POINT
  5
4657
  8
DEFPOINTS
 62
     0
 10
248.66494387643391
 20
89.144875547789056
 30
0.0
  0
ENDBLK
  5
43EF
  8
0
  0
BLOCK
  8
0
  2
*D28
 70
     1
 10
0.0
 20
0.0
 30
0.0
  3
*D28
  1

  0
LINE
  5
4646
  8
AM_5
  6
CONTINUOUS
 62
     7
 10
194.5508569845388
 20
88.144875547789141
 30
0.0
 11
194.5508569845388
 21
53.927070785877511
 31
0.0
  0
LINE
  5
4647
  8
AM_5
  6
CONTINUOUS
 62
     7
 10
239.55085698453891
 20
88.144875547789056
 30
0.0
 11
239.55085698453891
 21
53.927070785877511
 31
0.0
  0
LINE
  5
4648
  8
AM_5
  6
CONTINUOUS
 62
     7
 10
197.0508569845388
 20
54.927070785877497
 30
0.0
 11
237.050856984539
 21
54.927070785877497
 31
0.0
  0
INSERT
  5
4649
  8
AM_5
 62
     7
  2
_OPEN30
 10
194.5508569845388
 20
54.927070785877497
 30
0.0
 41
2.5
 42
2.5
 43
2.5
 50
180.0
  0
INSERT
  5
464A
  8
AM_5
 62
     7
  2
_OPEN30
 10
239.55085698453891
 20
54.927070785877497
 30
0.0
 41
2.5
 42
2.5
 43
2.5
  0
INSERT
  5
464B
  8
0
  2
*U41
 10
0.0
 20
0.0
 30
0.0
  0
POINT
  5
464C
  8
DEFPOINTS
 62
     0
 10
194.5508569845388
 20
89.144875547789127
 30
0.0
  0
POINT
  5
464D
  8
DEFPOINTS
 62
     0
 10
239.55085698453891
 20
89.144875547789056
 30
0.0
  0
POINT
  5
464E
  8
DEFPOINTS
 62
     0
 10
239.55085698453891
 20
54.927070785877497
 30
0.0
  0
ENDBLK
  5
4423
  8
0
  0
BLOCK
  8
0
  2
*S30
 70
     1
 10
0.0
 20
0.0
 30
0.0
  3
*S30
  1

  0
LINE
  5
47BF
  8
AM_5
  6
CONTINUOUS
 62
     7
 10
180.1650931614287
 20
72.888794935104215
 30
0.0
 11
186.2550931614287
 21
72.888794935104215
 31
0.0
  0
LINE
  5
47C0
  8
AM_5
  6
CONTINUOUS
 62
     7
 10
186.2550931614287
 20
72.888794935104215
 30
0.0
 11
190.85364582883261
 21
85.116363414794776
 31
0.0
  0
LINE
  5
47C1
  8
AM_5
  6
CONTINUOUS
 62
     7
 10
190.85364582883261
 20
85.116363414794776
 30
0.0
 11
191.96247769494579
 21
88.064751430760793
 31
0.0
  0
LINE
  5
47C2
  8
AM_5
  6
CONTINUOUS
 62
     7
 10
191.2418084732594
 20
84.970382930867828
 30
0.0
 11
191.96247769494579
 21
88.064751430760793
 31
0.0
  0
LINE
  5
47C3
  8
AM_5
  6
CONTINUOUS
 62
     7
 10
191.96247769494579
 20
88.064751430760793
 30
0.0
 11
190.4654831844058
 21
85.262343898721767
 31
0.0
  0
INSERT
  5
47C4
  8
0
  2
*U50
 10
0.0
 20
0.0
 30
0.0
  0
ENDBLK
  5
47C6
  8
0
  0
BLOCK
  8
0
  2
*S31
 70
     1
 10
0.0
 20
0.0
 30
0.0
  3
*S31
  1

  0
LINE
  5
47C9
  8
AM_5
  6
CONTINUOUS
 62
     7
 10
287.85596760434049
 20
61.938343334015151
 30
0.0
 11
255.41028413284201
 21
61.938343334015151
 31
0.0
  0
LINE
  5
47CA
  8
AM_5
  6
CONTINUOUS
 62
     7
 10
255.41028413284201
 20
61.938343334015151
 30
0.0
 11
229.16637283447361
 21
71.021551306122547
 31
0.0
  0
LINE
  5
47CB
  8
AM_5
  6
CONTINUOUS
 62
     7
 10
229.16637283447361
 20
71.021551306122547
 30
0.0
 11
226.1896238300296
 21
72.051825718374857
 31
0.0
  0
LINE
  5
47CC
  8
AM_5
  6
CONTINUOUS
 62
     7
 10
229.3020110334418
 20
71.413447745499866
 30
0.0
 11
226.1896238300296
 21
72.051825718374857
 31
0.0
  0
LINE
  5
47CD
  8
AM_5
  6
CONTINUOUS
 62
     7
 10
226.1896238300296
 20
72.051825718374857
 30
0.0
 11
229.03073463550541
 21
70.629654866745241
 31
0.0
  0
INSERT
  5
47CE
  8
0
  2
*U51
 10
0.0
 20
0.0
 30
0.0
  0
ENDBLK
  5
47D0
  8
0
  0
BLOCK
  8
0
  2
*S32
 70
     1
 10
0.0
 20
0.0
 30
0.0
  3
*S32
  1

  0
LINE
  5
47D3
  8
AM_5
  6
CONTINUOUS
 62
     7
 10
303.8025753134217
 20
264.26009551793447
 30
0.0
 11
269.4400851559414
 21
264.26009551793447
 31
0.0
  0
LINE
  5
47D4
  8
AM_5
  6
CONTINUOUS
 62
     7
 10
269.4400851559414
 20
264.26009551793447
 30
0.0
 11
256.90072207980251
 21
246.977507715831
 31
0.0
  0
LINE
  5
47D5
  8
AM_5
  6
CONTINUOUS
 62
     7
 10
256.90072207980251
 20
246.977507715831
 30
0.0
 11
255.05085698466399
 21
244.42790007350871
 31
0.0
  0
LINE
  5
47D6
  8
AM_5
  6
CONTINUOUS
 62
     7
 10
256.56505986732049
 20
247.22104707471911
 30
0.0
 11
255.05085698466399
 21
244.42790007350871
 31
0.0
  0
LINE
  5
47D7
  8
AM_5
  6
CONTINUOUS
 62
     7
 10
255.05085698466399
 20
244.42790007350871
 30
0.0
 11
257.23638429228453
 21
246.73396835694291
 31
0.0
  0
INSERT
  5
47D8
  8
0
  2
*U52
 10
0.0
 20
0.0
 30
0.0
  0
ENDBLK
  5
47DA
  8
0
  0
BLOCK
  8
0
  2
*S33
 70
     1
 10
0.0
 20
0.0
 30
0.0
  3
*S33
  1

  0
LINE
  5
47DD
  8
AM_5
  6
CONTINUOUS
 62
     7
 10
329.37443755537441
 20
179.79345148014991
 30
0.0
 11
300.36694739789408
 21
179.79345148014991
 31
0.0
  0
LINE
  5
47DE
  8
AM_5
  6
CONTINUOUS
 62
     7
 10
300.36694739789408
 20
179.79345148014991
 30
0.0
 11
288.17539449974629
 21
164.60843389329449
 31
0.0
  0
LINE
  5
47DF
  8
AM_5
  6
CONTINUOUS
 62
     7
 10
288.17539449974629
 20
164.60843389329449
 30
0.0
 11
286.2033137377789
 21
162.15213638112741
 31
0.0
  0
LINE
  5
47E0
  8
AM_5
  6
CONTINUOUS
 62
     7
 10
287.85201679889462
 20
164.8680632498932
 30
0.0
 11
286.2033137377789
 21
162.15213638112741
 31
0.0
  0
LINE
  5
47E1
  8
AM_5
  6
CONTINUOUS
 62
     7
 10
286.2033137377789
 20
162.15213638112741
 30
0.0
 11
288.49877220059801
 21
164.34880453669581
 31
0.0
  0
INSERT
  5
47E2
  8
0
  2
*U53
 10
0.0
 20
0.0
 30
0.0
  0
ENDBLK
  5
47E4
  8
0
  0
BLOCK
  8
0
  2
*S34
 70
     1
 10
0.0
 20
0.0
 30
0.0
  3
*S34
  1

  0
LINE
  5
47E7
  8
AM_5
  6
CONTINUOUS
 62
     7
 10
283.27879969262062
 20
91.738360955025087
 30
0.0
 11
275.29879969262061
 21
91.738360955025087
 31
0.0
  0
LINE
  5
47E8
  8
AM_5
  6
CONTINUOUS
 62
     7
 10
275.29879969262061
 20
91.738360955025087
 30
0.0
 11
263.58277546579473
 21
101.5117503747765
 31
0.0
  0
LINE
  5
47E9
  8
AM_5
  6
CONTINUOUS
 62
     7
 10
263.58277546579473
 20
101.5117503747765
 30
0.0
 11
261.16389776067649
 21
103.52955379624311
 31
0.0
  0
LINE
  5
47EA
  8
AM_5
  6
CONTINUOUS
 62
     7
 10
263.84842432468588
 20
101.83020166459301
 30
0.0
 11
261.16389776067649
 21
103.52955379624311
 31
0.0
  0
LINE
  5
47EB
  8
AM_5
  6
CONTINUOUS
 62
     7
 10
261.16389776067649
 20
103.52955379624311
 30
0.0
 11
263.31712660690351
 21
101.1932990849601
 31
0.0
  0
INSERT
  5
47EC
  8
0
  2
*U54
 10
0.0
 20
0.0
 30
0.0
  0
ENDBLK
  5
47EE
  8
0
  0
BLOCK
  8
0
  2
*S35
 70
     1
 10
0.0
 20
0.0
 30
0.0
  3
*S35
  1

  0
LINE
  5
47F1
  8
AM_5
  6
CONTINUOUS
 62
     7
 10
152.6558914290498
 20
214.95352175967531
 30
0.0
 11
186.9383914290498
 21
214.95352175967531
 31
0.0
  0
LINE
  5
47F2
  8
AM_5
  6
CONTINUOUS
 62
     7
 10
186.9383914290498
 20
214.95352175967531
 30
0.0
 11
197.8755304628732
 21
237.75572575363941
 31
0.0
  0
LINE
  5
47F3
  8
AM_5
  6
CONTINUOUS
 62
     7
 10
197.8755304628732
 20
237.75572575363941
 30
0.0
 11
199.237831617366
 21
240.5959080654757
 31
0.0
  0
LINE
  5
47F4
  8
AM_5
  6
CONTINUOUS
 62
     7
 10
198.24944755616161
 20
237.5763754049845
 30
0.0
 11
199.237831617366
 21
240.5959080654757
 31
0.0
  0
LINE
  5
47F5
  8
AM_5
  6
CONTINUOUS
 62
     7
 10
199.237831617366
 20
240.5959080654757
 30
0.0
 11
197.5016133695847
 21
237.9350761022944
 31
0.0
  0
INSERT
  5
47F6
  8
0
  2
*U55
 10
0.0
 20
0.0
 30
0.0
  0
ENDBLK
  5
47F8
  8
0
  0
BLOCK
  8
0
  2
*S36
 70
     1
 10
0.0
 20
0.0
 30
0.0
  3
*S36
  1

  0
LINE
  5
47FB
  8
AM_5
  6
CONTINUOUS
 62
     7
 10
180.64595435075699
 20
271.16490917295198
 30
0.0
 11
194.69514037437901
 21
271.16490917295198
 31
0.0
  0
LINE
  5
47FC
  8
AM_5
  6
CONTINUOUS
 62
     7
 10
194.69514037437901
 20
271.16490917295198
 30
0.0
 11
204.767061935827
 21
259.11908379713151
 31
0.0
  0
LINE
  5
47FD
  8
AM_5
  6
CONTINUOUS
 62
     7
 10
204.767061935827
 20
259.11908379713151
 30
0.0
 11
206.78763396733839
 21
256.70251832823283
 31
0.0
  0
LINE
  5
47FE
  8
AM_5
  6
CONTINUOUS
 62
     7
 10
204.44891505768251
 20
258.85307044381472
 30
0.0
 11
206.78763396733839
 21
256.70251832823283
 31
0.0
  0
LINE
  5
47FF
  8
AM_5
  6
CONTINUOUS
 62
     7
 10
206.78763396733839
 20
256.70251832823283
 30
0.0
 11
205.08520881397149
 21
259.38509715044842
 31
0.0
  0
INSERT
  5
4800
  8
0
  2
*U56
 10
0.0
 20
0.0
 30
0.0
  0
ENDBLK
  5
4802
  8
0
  0
BLOCK
  8
0
  2
*U37
 70
     1
 10
0.0
 20
0.0
 30
0.0
  3
*U37
  1

  0
TEXT
  5
4873
  8
AM_5
 62
     7
 10
234.1937141275024
 20
188.8053269306296
 30
0.0
 40
3.0
  1
(43)
  0
ENDBLK
  5
4875
  8
0
  0
BLOCK
  8
0
  2
*U38
 70
     1
 10
0.0
 20
0.0
 30
0.0
  3
*U38
  1

  0
TEXT
  5
4877
  8
AM_5
 62
     7
 10
168.69431220193201
 20
112.7163041192177
 30
0.0
 40
3.0
  1
52
 50
90.0
  0
ENDBLK
  5
4879
  8
0
  0
BLOCK
  8
0
  2
*U39
 70
     1
 10
0.0
 20
0.0
 30
0.0
  3
*U39
  1

  0
TEXT
  5
487B
  8
AM_5
 62
     7
 10
300.9802444794725
 20
138.71630411911809
 30
0.0
 40
3.0
  1
40
 50
90.0
  0
ENDBLK
  5
487D
  8
0
  0
BLOCK
  8
0
  2
*U40
 70
     1
 10
0.0
 20
0.0
 30
0.0
  3
*U40
  1

  0
TEXT
  5
487F
  8
AM_5
 62
     7
 10
307.98024447947267
 20
139.0204199656356
 30
0.0
 40
3.0
  1
54
 50
90.0
  0
ENDBLK
  5
4881
  8
0
  0
BLOCK
  8
0
  2
*U41
 70
     1
 10
0.0
 20
0.0
 30
0.0
  3
*U41
  1

  0
TEXT
  5
4883
  8
AM_5
 62
     7
 10
213.2651426988246
 20
55.927070785877497
 30
0.0
 40
3.0
  1
\U+220545
  0
ENDBLK
  5
4885
  8
0
  0
BLOCK
  8
0
  2
*U42
 70
     1
 10
0.0
 20
0.0
 30
0.0
  3
*U42
  1

  0
TEXT
  5
4887
  8
AM_5
 62
     7
 10
246.66494387643391
 20
100.7877326906644
 30
0.0
 40
3.0
  1
(32)
 50
90.0
  0
ENDBLK
  5
4889
  8
0
  0
BLOCK
  8
0
  2
*U43
 70
     1
 10
0.0
 20
0.0
 30
0.0
  3
*U43
  1

  0
TEXT
  5
488B
  8
AM_5
 62
     7
 10
248.47942841332309
 20
180.8053269306296
 30
0.0
 40
3.0
  1
19
  0
ENDBLK
  5
488D
  8
0
  0
BLOCK
  8
0
  2
*U44
 70
     1
 10
0.0
 20
0.0
 30
0.0
  3
*U44
  1

  0
TEXT
  5
488F
  8
AM_5
 62
     7
 10
284.57356981889751
 20
243.49932864493729
 30
0.0
 40
3.0
  1
9
 50
90.0
  0
ENDBLK
  5
4891
  8
0
  0
BLOCK
  8
0
  2
*U45
 70
     1
 10
0.0
 20
0.0
 30
0.0
  3
*U45
  1

  0
TEXT
  5
4893
  8
AM_5
 62
     7
 10
291.57356981889768
 20
241.99932864493729
 30
0.0
 40
3.0
  1
20
 50
90.0
  0
ENDBLK
  5
4895
  8
0
  0
BLOCK
  8
0
  2
*U46
 70
     1
 10
0.0
 20
0.0
 30
0.0
  3
*U46
  1

  0
TEXT
  5
4897
  8
AM_5
 62
     7
 10
185.5988377792132
 20
242.07075721636591
 30
0.0
 40
3.0
  1
26
 50
90.0
  0
ENDBLK
  5
4899
  8
0
  0
BLOCK
  8
0
  2
*U47
 70
     1
 10
0.0
 20
0.0
 30
0.0
  3
*U47
  1

  0
TEXT
  5
489B
  8
AM_5
 62
     7
 10
226.12228555596749
 20
213.59678259829749
 30
0.0
 40
3.0
  1
23
  0
ENDBLK
  5
489D
  8
0
  0
BLOCK
  8
0
  2
*U48
 70
     1
 10
0.0
 20
0.0
 30
0.0
  3
*U48
  1

  0
TEXT
  5
489F
  8
AM_5
 62
     7
 10
207.30085698453891
 20
206.59678259829781
 30
0.0
 40
3.0
  1
11.5
  0
ENDBLK
  5
48A1
  8
0
  0
BLOCK
  8
0
  2
*U49
 70
     1
 10
0.0
 20
0.0
 30
0.0
  3
*U49
  1

  0
TEXT
  5
48A3
  8
AM_5
 62
     7
 10
232.12228555596741
 20
206.59678259829781
 30
0.0
 40
3.0
  1
35
  0
ENDBLK
  5
48A5
  8
0
  0
BLOCK
  8
0
  2
*U50
 70
     1
 10
0.0
 20
0.0
 30
0.0
  3
*U50
  1

  0
TEXT
  5
48A7
  8
AM_5
 62
     7
 10
180.1650931614287
 20
74.463794935104218
 30
0.0
 40
3.149999999999999
  1
床
  7
ACJISTS
  0
ENDBLK
  5
48A9
  8
0
  0
BLOCK
  8
0
  2
*U51
 70
     1
 10
0.0
 20
0.0
 30
0.0
  3
*U51
  1

  0
TEXT
  5
48AB
  8
AM_5
 62
     7
 10
261.60596760434061
 20
68.763343334015147
 30
0.0
 40
3.149999999999999
  1
3-オールプラグ
  7
ACJISTS
  0
TEXT
  5
48AC
  8
AM_5
 62
     7
 10
260.18846760434059
 20
63.513343334015147
 30
0.0
 40
3.149999999999999
  1
（PL-8C）
  7
ACJISTS
  0
ENDBLK
  5
48AE
  8
0
  0
BLOCK
  8
0
  2
*U52
 70
     1
 10
0.0
 20
0.0
 30
0.0
  3
*U52
  1

  0
TEXT
  5
48B0
  8
AM_5
 62
     7
 10
272.19757531342168
 20
265.83509551793441
 30
0.0
 40
3.149999999999999
  1
2-\U+22054.5\U+00D7\U+22058.5皿孔
  7
ACJISTS
  0
ENDBLK
  5
48B2
  8
0
  0
BLOCK
  8
0
  2
*U53
 70
     1
 10
0.0
 20
0.0
 30
0.0
  3
*U53
  1

  0
TEXT
  5
48B4
  8
AM_5
 62
     7
 10
303.12443755537441
 20
186.6184514801499
 30
0.0
 40
3.149999999999999
  1
2-オールプラグ
  7
ACJISTS
  0
TEXT
  5
48B5
  8
AM_5
 62
     7
 10
301.62694739789413
 20
181.3684514801499
 30
0.0
 40
3.149999999999999
  1
（PL-8C）
  7
ACJISTS
  0
ENDBLK
  5
48B7
  8
0
  0
BLOCK
  8
0
  2
*U54
 70
     1
 10
0.0
 20
0.0
 30
0.0
  3
*U54
  1

  0
TEXT
  5
48B9
  8
AM_5
 62
     7
 10
276.97879969262061
 20
93.31336095502509
 30
0.0
 40
3.149999999999999
  1
ドア
  7
ACJISTS
  0
ENDBLK
  5
48BB
  8
0
  0
BLOCK
  8
0
  2
*U55
 70
     1
 10
0.0
 20
0.0
 30
0.0
  3
*U55
  1

  0
TEXT
  5
48BD
  8
AM_5
 62
     7
 10
152.18339142904981
 20
216.5285217596753
 30
0.0
 40
3.149999999999999
  1
3-\U+22054.5\U+00D7\U+22058.5皿孔
  7
ACJISTS
  0
ENDBLK
  5
48BF
  8
0
  0
BLOCK
  8
0
  2
*U56
 70
     1
 10
0.0
 20
0.0
 30
0.0
  3
*U56
  1

  0
TEXT
  5
48C1
  8
AM_5
 62
     7
 10
180.173454350757
 20
272.76181542215488
 30
0.0
 40
3.149999999999999
  1
PCD32
  7
ACJISTS
  0
ENDBLK
  5
48C3
  8
0
  0
ENDSEC
  0
SECTION
  2
ENTITIES
  0
INSERT
  5
1BB5
  8
0
  2
ZUWAKU-A3H
 10
0.0
 20
0.0
 30
0.0
1001
GENIUS_GENOREF_13
1005
1C93
1001
GENIUS_GENOBJ-N-SDF_13
1002
{
1000
OWNER
1000
GEN
1002
}
1001
GENIUS_GENODEF_13
1002
{
1000
HIER
1070
     0
1002
}
1002
{
1000
MANEDIT
1070
     0
1002
}
1002
{
1000
NOSEL
1070
     0
1002
}
1002
{
1000
BEHIND
1070
     0
1002
}
1002
{
1000
OTHER
1070
     0
1002
}
1002
{
1000
REACTOR
1002
}
1001
GENIUS_GENSCREG_13
1040
1.0
1040
1.0
1011
24.999999999999979
1021
0.0
1031
0.0
1021
8.9999999999999964
1031
0.0
1011
411.99999999999989
1021
0.0
1031
0.0
1021
284.99999999999989
1031
0.0
1070
     3
  0
POINT
  5
1C93
  8
0
 10
0.0
 20
0.0
 30
0.0
1001
GENIUS_GENOENT_13
1002
{
1000
MYREF
1005
1C93
1002
}
1002
{
1000
GRP
1005
0
1002
}
1001
GENIUS_GENOBJ-N-TIT_13
1002
{
1000
OWNER
1000
GEN
1002
}
1001
GENIUS_GENODEF_13
1002
{
1000
HIER
1070
     1
1002
}
1002
{
1000
MANEDIT
1070
     1
1002
}
1002
{
1000
NOSEL
1070
     0
1002
}
1002
{
1000
BEHIND
1070
     0
1002
}
1002
{
1000
OTHER
1070
     0
1002
}
1002
{
1000
REACTOR
1002
}
1001
GENIUS_GENOLIS_13
1002
{
1000
ENT
1005
1BB5
1005
2A9C
1002
}
1001
GENIUS_GENTITLE_13
1002
{
1000
BORDER
1000
C:\Program Files\Autodesk\ACADM 2008\Acadm\gen\Dwg\Format\ZUWAKU-A3H
1002
}
1002
{
1000
TITLE
1000
C:\Program Files\Autodesk\ACADM 2008\Acadm\gen\Dwg\Title\N_Title
1002
}
1002
{
1000
ADDITIONAL1
1000

1002
}
1002
{
1000
ADDITIONAL2
1000

1002
}
1002
{
1000
SCALE
1000
1:1
1002
}
1002
{
1000
TITLESTD
1000
JIS
1002
}
1002
{
1000
HRA
1005
1BB5
1002
}
1002
{
1000
HTIT
1005
2A9C
1002
}
1002
{
1000
GENIUSID
1005
1C93
1002
}
1002
{
1000
INVTXTID
1005
0
1002
}
1002
{
1000
UNCHG
1002
{
1000
GEN-TITLE-SIZ
1000
GEN-TITLE-SCA
1002
}
1002
}
  0
INSERT
  5
20F2
  8
0
 66
     1
  2
A$C1C06296A
 10
135.5000001316065
 20
8.9999998268887005
 30
0.0
  0
ATTRIB
  5
20F3
  8
AM_BOR
 62
     7
 10
249.8107097069896
 20
9.4999999999999893
 30
0.0
 40
3.0
  1

 11
249.8107097069896
 21
10.999999999999989
 31
0.0
  2
SETS｛20｝
 70
     0
 74
     2
1001
AcDbAttr
1070
     0
1070
     1
  0
ATTRIB
  5
20F4
  8
AM_BOR
 62
     7
 10
154.5607097069896
 20
9.4999999999999893
 30
0.0
 40
3.0
  1

 11
154.5607097069896
 21
10.999999999999989
 31
0.0
  2
REMARKS｛20｝
 70
     0
 74
     2
1001
AcDbAttr
1070
     0
1070
     1
  0
ATTRIB
  5
20F5
  8
AM_BOR
 62
     7
 10
249.8107097069896
 20
14.499999999999989
 30
0.0
 40
3.0
  1

 11
249.8107097069896
 21
15.999999999999989
 31
0.0
  2
SETS｛20｝
 70
     0
 74
     2
1001
AcDbAttr
1070
     0
1070
     1
  0
ATTRIB
  5
20F6
  8
AM_BOR
 62
     7
 10
154.5607097069896
 20
14.499999999999989
 30
0.0
 40
3.0
  1

 11
154.5607097069896
 21
15.999999999999989
 31
0.0
  2
REMARKS｛20｝
 70
     0
 74
     2
1001
AcDbAttr
1070
     0
1070
     1
  0
ATTRIB
  5
20F7
  8
AM_BOR
 62
     7
 10
249.8107097069896
 20
19.499999999999989
 30
0.0
 40
3.0
  1
PL-8C(5本)
 11
249.8107097069896
 21
20.999999999999989
 31
0.0
  2
SETS｛20｝
 70
     0
 74
     2
1001
AcDbAttr
1070
     0
1070
     1
  0
ATTRIB
  5
20F8
  8
AM_BOR
 62
     7
 10
154.5607097069896
 20
19.499999999999989
 30
0.0
 40
3.0
  1

 11
154.5607097069896
 21
20.999999999999989
 31
0.0
  2
REMARKS｛20｝
 70
     0
 74
     2
1001
AcDbAttr
1070
     0
1070
     1
  0
ATTRIB
  5
20F9
  8
AM_BOR
 62
     7
 10
249.74999999999969
 20
32.499999999999993
 30
0.0
 40
3.0
  1
DC-540W
 11
249.74999999999969
 21
33.999999999999993
 31
0.0
  2
ART_NO｛20｝
 70
     0
 74
     2
1001
AcDbAttr
1070
     0
1070
     1
  0
ATTRIB
  5
20FA
  8
AM_BOR
 62
     7
 10
154.49999999999969
 20
32.499999999999993
 30
0.0
 40
3.0
  1
床付け戸当り（木付け用）
 11
154.49999999999969
 21
33.999999999999993
 31
0.0
  2
ARTICLE｛20｝
 70
     0
 74
     2
1001
AcDbAttr
1070
     0
1070
     1
  0
ATTRIB
  5
20FB
  8
AM_BOR
 62
     7
 10
249.74999999999969
 20
25.999999999999989
 30
0.0
 40
3.0
  1
サチライトクロム
 11
249.74999999999969
 21
27.499999999999989
 31
0.0
  2
FINISH｛20｝
 70
     0
 74
     2
1001
AcDbAttr
1070
     0
1070
     1
  0
ATTRIB
  5
20FC
  8
AM_BOR
 62
     7
 10
154.49999999999969
 20
25.999999999999989
 30
0.0
 40
3.0
  1
亜鉛ダイカスト
 11
154.49999999999969
 21
27.499999999999989
 31
0.0
  2
MATERIAK｛20｝
 70
     0
 74
     2
1001
AcDbAttr
1070
     0
1070
     1
  0
SEQEND
  5
20FD
  8
0
  0
LINE
  5
3E48
  8
AM_7
 10
191.5508569845388
 20
244.42790007350871
 30
0.0
 11
262.86501718396312
 21
244.42790007350871
 31
0.0
  0
LINE
  5
3E49
  8
AM_7
 10
217.05085698453891
 20
218.92790007350871
 30
0.0
 11
217.05085698453891
 21
269.92790007350879
 31
0.0
  0
ARC
  5
3E4A
  8
0
 10
217.05085698453891
 20
244.42790007350871
 30
0.0
 40
22.50000000000006
 50
35.294394676660879
 51
324.705605323339
  0
ARC
  5
3E4B
  8
0
 10
217.05085698453891
 20
244.42790007350871
 30
0.0
 40
11.8076969651753
 50
148.7840738758394
 51
211.21592612415901
  0
LINE
  5
3E4D
  8
0
 10
208.05085698453891
 20
252.43040007350871
 30
0.0
 11
208.05085698453891
 21
236.4254000735086
 31
0.0
  0
LINE
  5
3E4E
  8
0
 10
208.05085698453891
 20
252.43040007350871
 30
0.0
 11
227.0508569845388
 21
252.43040007350871
 31
0.0
  0
LINE
  5
3E4F
  8
0
 10
208.05085698453891
 20
236.42540007350871
 30
0.0
 11
227.05085698453891
 21
236.42540007350871
 31
0.0
  0
ARC
  5
3E50
  8
0
 10
217.05085698453891
 20
244.42790007350871
 30
0.0
 40
11.8076969651753
 50
222.66696976924811
 51
250.19852868036941
  0
LINE
  5
3E52
  8
0
 10
213.55085698453891
 20
231.42790007350871
 30
0.0
 11
245.6366434221658
 21
231.42790007350871
 31
0.0
  0
LINE
  5
3E53
  8
0
 10
246.3437502033523
 20
231.72079329232201
 30
0.0
 11
251.75796376572549
 21
237.13500685469509
 31
0.0
  0
ARC
  5
3E54
  8
0
 10
245.6366434221658
 20
232.42790007350871
 30
0.0
 40
1.0
 50
270.0
 51
315.00000000000011
  0
LINE
  5
3E55
  8
0
 10
213.55085698453891
 20
257.42790007350868
 30
0.0
 11
245.6366434221658
 21
257.42790007350868
 31
0.0
  0
ARC
  5
3E56
  8
0
 10
245.6366434221658
 20
256.42790007350868
 30
0.0
 40
1.0
 50
44.999999999999908
 51
90.0
  0
LINE
  5
3E57
  8
0
 10
252.05085698453891
 20
237.84211363588179
 30
0.0
 11
252.05085698453891
 21
251.01368651113549
 31
0.0
  0
ARC
  5
3E58
  8
0
 10
251.0508569845388
 20
237.84211363588179
 30
0.0
 40
1.0
 50
315.00000000000011
 51
0.0
  0
ARC
  5
3E59
  8
0
 10
251.0508569845388
 20
251.0136865111356
 30
0.0
 40
1.0
 50
0.0
 51
44.999999999999908
  0
LINE
  5
3E5A
  8
0
 10
215.05085698453891
 20
253.1229000735089
 30
0.0
 11
215.0508569845388
 21
252.42790007350871
 31
0.0
  0
ARC
  5
3E5B
  8
0
 10
214.7508569845389
 20
253.1229000735089
 30
0.0
 40
0.3
 50
0.0
 51
90.0
  0
LINE
  5
3E5C
  8
0
 10
219.05085698453891
 20
253.1229000735087
 30
0.0
 11
219.050856984539
 21
252.42790007350871
 31
0.0
  0
ARC
  5
3E5D
  8
0
 10
219.35085698453889
 20
253.1229000735087
 30
0.0
 40
0.3
 50
90.0
 51
180.0
  0
LINE
  5
3E5E
  8
0
 10
219.05085698453891
 20
236.42790007350871
 30
0.0
 11
219.050856984539
 21
235.7329000735086
 31
0.0
  0
ARC
  5
3E5F
  8
0
 10
219.35085698453889
 20
235.7329000735086
 30
0.0
 40
0.3
 50
180.0
 51
270.0
  0
LINE
  5
3E60
  8
0
 10
215.05085698453891
 20
236.42790007350871
 30
0.0
 11
215.050856984539
 21
235.73290007350849
 31
0.0
  0
ARC
  5
3E61
  8
0
 10
214.75085698453901
 20
235.7329000735086
 30
0.0
 40
0.3
 50
270.0
 51
0.0
  0
LINE
  5
3E62
  8
0
 10
213.05085698453891
 20
234.9379000735087
 30
0.0
 11
213.05085698453891
 21
231.92790007350871
 31
0.0
  0
ARC
  5
3E63
  8
0
 10
213.55085698453891
 20
231.92790007350871
 30
0.0
 40
0.5
 50
180.0
 51
270.0
  0
LINE
  5
3E64
  8
0
 10
213.05085698453891
 20
256.92790007350868
 30
0.0
 11
213.05085698453891
 21
253.9179000735086
 31
0.0
  0
ARC
  5
3E65
  8
0
 10
213.55085698453891
 20
256.92790007350868
 30
0.0
 40
0.5
 50
90.0
 51
180.0
  0
LINE
  5
3E66
  8
0
 10
213.54585698453889
 20
253.42290007350871
 30
0.0
 11
244.18689595385999
 21
253.42290007350871
 31
0.0
  0
ARC
  5
3E67
  8
0
 10
213.54585698453889
 20
253.9179000735086
 30
0.0
 40
0.4950000000000001
 50
180.0
 51
270.0
  0
LINE
  5
3E68
  8
0
 10
213.54585698453889
 20
235.4329000735087
 30
0.0
 11
244.18689595385999
 21
235.4329000735087
 31
0.0
  0
ARC
  5
3E69
  8
0
 10
213.54585698453889
 20
234.9379000735087
 30
0.0
 40
0.4950000000000001
 50
90.0
 51
180.0
  0
LINE
  5
3E6A
  8
0
 10
248.045856984539
 20
249.56393904282979
 30
0.0
 11
248.045856984539
 21
239.2918611041876
 31
0.0
  0
LINE
  5
3E6B
  8
0
 10
244.53691381054719
 20
253.277917930196
 30
0.0
 11
247.90087484122611
 21
249.91395689951699
 31
0.0
  0
ARC
  5
3E6C
  8
0
 10
247.550856984539
 20
249.56393904282979
 30
0.0
 40
0.4950000000000001
 50
0.0
 51
44.999999999999908
  0
ARC
  5
3E6D
  8
0
 10
244.18689595385999
 20
252.92790007350871
 30
0.0
 40
0.4950000000000001
 50
44.999999999999908
 51
90.0
  0
LINE
  5
3E6E
  8
0
 10
247.90087484122611
 20
238.94184324750029
 30
0.0
 11
244.53691381054719
 21
235.57788221682119
 31
0.0
  0
ARC
  5
3E6F
  8
0
 10
247.550856984539
 20
239.2918611041876
 30
0.0
 40
0.4950000000000001
 50
315.00000000000011
 51
0.0
  0
ARC
  5
3E70
  8
0
 10
244.18689595385999
 20
235.92790007350871
 30
0.0
 40
0.4950000000000001
 50
270.0
 51
315.00000000000011
  0
LINE
  5
3E71
  8
0
 10
246.3437502033523
 20
257.13500685469518
 30
0.0
 11
251.75796376572549
 21
251.7207932923221
 31
0.0
  0
LINE
  5
3E72
  8
0
 10
227.05085698453891
 20
252.43040007350871
 30
0.0
 11
227.05085698453891
 21
236.42540007350871
 31
0.0
  0
LINE
  5
3E73
  8
0
 10
227.0508569845388
 20
252.42790007350871
 30
0.0
 11
227.05085698453871
 21
244.42790007350871
 31
0.0
  0
LINE
  5
3E74
  8
0
 10
227.0508569845388
 20
244.42790007350871
 30
0.0
 11
227.0508569845388
 21
236.42790007350871
 31
0.0
  0
LINE
  5
3E75
  8
0
 10
240.0508569845388
 20
250.0366498944085
 30
0.0
 11
240.0508569845388
 21
244.42790007350871
 31
0.0
  0
LINE
  5
3E76
  8
0
 10
240.0508569845388
 20
244.42790007350871
 30
0.0
 11
240.05085698453891
 21
238.81915025260881
 31
0.0
  0
LINE
  5
3E77
  8
0
 10
239.165481092524
 20
251.0300588302797
 30
0.0
 11
227.05085698453891
 21
252.42790007350871
 31
0.0
  0
ARC
  5
3E78
  8
0
 10
239.0508569845388
 20
250.0366498944085
 30
0.0
 40
1.0
 50
0.0
 51
83.418055344822349
  0
LINE
  5
3E79
  8
0
 10
227.05085698453891
 20
236.42790007350871
 30
0.0
 11
239.1654810925242
 21
237.82574131673769
 31
0.0
  0
ARC
  5
3E7A
  8
0
 10
239.0508569845388
 20
238.81915025260881
 30
0.0
 40
1.0
 50
276.58194465517738
 51
0.0
  0
ARC
  5
3E7B
  8
0
 10
217.05085698453891
 20
244.42790007350871
 30
0.0
 40
22.50000000000006
 50
17.38434241260757
 51
23.564287030662371
  0
ARC
  5
3E7C
  8
0
 10
217.05085698453891
 20
244.42790007350871
 30
0.0
 40
22.50000000000006
 50
336.43571296933618
 51
342.74368894229571
  0
ARC
  5
3E7D
  8
0
 10
217.05085698453891
 20
244.42790007350871
 30
0.0
 40
11.8076969651753
 50
310.37763571169302
 51
317.33303023075189
  0
ARC
  5
3E7E
  8
0
 10
217.05085698453891
 20
244.42790007350871
 30
0.0
 40
11.8076969651753
 50
109.80147131963059
 51
137.33303023075189
  0
ARC
  5
3E7F
  8
0
 10
217.05085698453891
 20
244.42790007350871
 30
0.0
 40
11.8076969651753
 50
42.666969769248077
 51
49.622364288305803
  0
LINE
  5
3E84
  8
0
 10
214.15622883731299
 20
145.14487554778901
 30
0.0
 11
221.0508569845388
 21
145.1448755477891
 31
0.0
  0
LINE
  5
3E85
  8
0
 10
214.15622883731299
 20
137.14487554778901
 30
0.0
 11
221.0508569845388
 21
137.1448755477891
 31
0.0
  0
LINE
  5
3E86
  8
0
 10
221.05085698453911
 20
145.1448755477891
 30
0.0
 11
251.0114581822026
 21
144.17840454141279
 31
0.0
  0
LINE
  5
3E87
  8
0
 10
251.01145818220289
 20
138.11134655416541
 30
0.0
 11
221.05085698453911
 21
137.1448755477891
 31
0.0
  0
LINE
  5
3E88
  8
0
 10
251.9786077152107
 20
143.21382392377561
 30
0.0
 11
252.050856984539
 21
141.1448755477891
 31
0.0
  0
ARC
  5
3E89
  8
0
 10
250.9792168881917
 20
143.1789244270731
 30
0.0
 40
1.0
 50
1.9999999999987621
 51
88.152389734005354
  0
LINE
  5
3E8A
  8
0
 10
252.05085698453891
 20
141.1448755477891
 30
0.0
 11
251.9786077152107
 21
139.07592717180259
 31
0.0
  0
ARC
  5
3E8B
  8
0
 10
250.9792168881917
 20
139.11082666850501
 30
0.0
 40
1.0
 50
271.8476102659946
 51
357.9999999999996
  0
LINE
  5
3E8C
  8
0
 10
213.05085698453891
 20
141.14487554778901
 30
0.0
 11
213.1568380102938
 21
138.10997605108651
 31
0.0
  0
ARC
  5
3E8D
  8
0
 10
214.15622883731311
 20
138.1448755477891
 30
0.0
 40
1.0
 50
181.99999999999869
 51
270.0
  0
LINE
  5
3E8E
  8
0
 10
213.05085698453919
 20
141.1448755477891
 30
0.0
 11
213.15683801029419
 21
144.17977504449161
 31
0.0
  0
ARC
  5
3E8F
  8
0
 10
214.15622883731311
 20
144.1448755477891
 30
0.0
 40
1.0
 50
90.0
 51
177.9999999999996
  0
LINE
  5
3E90
  8
0
 10
238.55085698453891
 20
94.144875547789056
 30
0.0
 11
195.550856984539
 21
94.144875547789098
 31
0.0
  0
LINE
  5
3E91
  8
0
 10
239.55085698453891
 20
89.144875547789056
 30
0.0
 11
194.5508569845388
 21
89.144875547789127
 31
0.0
  0
LINE
  5
3E92
  8
AM_7
 10
261.5508569847517
 20
141.14487554778901
 30
0.0
 11
202.73943452498861
 21
141.14487554778901
 31
0.0
  0
LINE
  5
3E93
  8
AM_7
 10
217.05085698453891
 20
152.1448755477891
 30
0.0
 11
217.05085698453891
 21
80.728839606283714
 31
0.0
  0
LINE
  5
3E94
  8
0
 10
194.55085698453891
 20
93.144875547789098
 30
0.0
 11
194.55085698453891
 21
89.144875547789113
 31
0.0
  0
ARC
  5
3E95
  8
0
 10
195.55085698453891
 20
93.144875547789098
 30
0.0
 40
1.0
 50
90.0
 51
180.0
  0
LINE
  5
3E96
  8
0
 10
239.55085698453891
 20
93.144875547789056
 30
0.0
 11
239.55085698453891
 21
89.144875547789056
 31
0.0
  0
ARC
  5
3E97
  8
0
 10
238.55085698453891
 20
93.144875547789056
 30
0.0
 40
1.0
 50
0.0
 51
90.0
  0
LINE
  5
3E98
  8
0
 10
208.050856984539
 20
149.1448755477891
 30
0.0
 11
227.05085698453891
 21
149.1448755477891
 31
0.0
  0
LINE
  5
3E99
  8
0
 10
208.05085698453891
 20
133.1448755477891
 30
0.0
 11
208.8380967282244
 21
133.1448755477891
 31
0.0
  0
LINE
  5
3E9A
  8
0
 10
225.26361724085339
 20
133.1448755477891
 30
0.0
 11
227.05085698453891
 21
133.1448755477891
 31
0.0
  0
LINE
  5
3E9B
  8
0
 10
226.86873051439929
 20
95.943374440415326
 30
0.0
 11
223.27379380553859
 21
130.94337444041531
 31
0.0
  0
ARC
  5
3E9C
  8
0
 10
225.26361724085339
 20
131.1448755477891
 30
0.0
 40
2.0
 50
90.0
 51
185.78239232236439
  0
ARC
  5
3E9D
  8
0
 10
228.85855394971409
 20
96.144875547789056
 30
0.0
 40
2.0
 50
185.78239232236439
 51
270.0
  0
LINE
  5
3E9E
  8
0
 10
210.8279201635392
 20
130.94337444041551
 30
0.0
 11
207.2329834546783
 21
95.943374440415653
 31
0.0
  0
ARC
  5
3E9F
  8
0
 10
208.8380967282244
 20
131.14487554778901
 30
0.0
 40
2.0
 50
354.2176076776372
 51
90.0
  0
ARC
  5
3EA0
  8
0
 10
205.2431600193637
 20
96.144875547789113
 30
0.0
 40
2.0
 50
270.0
 51
354.2176076776372
  0
LINE
  5
3EA1
  8
0
 10
227.050856984539
 20
149.1448755477891
 30
0.0
 11
227.050856984539
 21
144.9513271606923
 31
0.0
  0
LINE
  5
3EA2
  8
0
 10
227.05085698453891
 20
137.33842393488581
 30
0.0
 11
227.05085698453891
 21
133.14487554778901
 31
0.0
  0
LINE
  5
3EA3
  8
0
 10
240.05085698453891
 20
146.7536253686888
 30
0.0
 11
240.05085698453891
 21
144.53197232198261
 31
0.0
  0
LINE
  5
3EA4
  8
0
 10
240.05085698453891
 20
137.7577787735955
 30
0.0
 11
240.05085698453891
 21
135.5361257268892
 31
0.0
  0
LINE
  5
3EA5
  8
0
 10
239.165481092524
 20
147.74703430456
 30
0.0
 11
227.05085698453891
 21
149.1448755477891
 31
0.0
  0
ARC
  5
3EA6
  8
0
 10
239.050856984539
 20
146.7536253686888
 30
0.0
 40
1.0
 50
0.0
 51
83.418055344822363
  0
LINE
  5
3EA7
  8
0
 10
227.050856984539
 20
133.1448755477891
 30
0.0
 11
239.16548109252381
 21
134.54271679101811
 31
0.0
  0
ARC
  5
3EA8
  8
0
 10
239.050856984539
 20
135.5361257268892
 30
0.0
 40
1.0
 50
276.58194465517738
 51
0.0
  0
ARC
  5
3EA9
  8
0
 10
220.7394345249885
 20
141.1448755477891
 30
0.0
 40
15.0
 50
147.76904736449811
 51
212.23095263550201
  0
ARC
  5
3EAA
  8
0
 10
217.05085698453891
 20
129.16000506133329
 30
0.0
 40
6.4734340979424214
 50
15.99124488440421
 51
164.00875511559579
  0
LINE
  5
3EAB
  8
0
 10
208.05085698453891
 20
149.1448755477891
 30
0.0
 11
208.05085698453891
 21
133.1448755477891
 31
0.0
  0
LINE
  5
3EDD
  8
0
 10
260.0508569847517
 20
168.5204199656356
 30
0.0
 11
260.0508569847517
 21
114.5204199656356
 31
0.0
  0
LINE
  5
3EDE
  8
0
 10
255.0508569847517
 20
167.5204199656356
 30
0.0
 11
255.0508569847517
 21
115.5204199656356
 31
0.0
  0
LINE
  5
3EDF
  8
0
 10
256.0508569847517
 20
114.5204199656356
 30
0.0
 11
260.0508569847517
 21
114.5204199656356
 31
0.0
  0
ARC
  5
3EE0
  8
0
 10
256.0508569847517
 20
115.5204199656356
 30
0.0
 40
1.0
 50
180.0
 51
270.0
  0
LINE
  5
3EE1
  8
0
 10
256.0508569847517
 20
168.5204199656356
 30
0.0
 11
260.0508569847517
 21
168.5204199656356
 31
0.0
  0
ARC
  5
3EE2
  8
0
 10
256.0508569847517
 20
167.5204199656356
 30
0.0
 40
1.0
 50
90.0
 51
180.0
  0
LINE
  5
3EE5
  8
0
 10
253.46991516221351
 20
128.85919321332219
 30
0.0
 11
241.8413278960208
 21
131.35103334179209
 31
0.0
  0
ARC
  5
3EE6
  8
0
 10
253.0508569847517
 20
126.9035883851674
 30
0.0
 40
2.0
 50
0.0
 51
77.905242922987895
  0
ARC
  5
3EE7
  8
0
 10
242.0508569847517
 20
132.32883575586951
 30
0.0
 40
1.0
 50
180.0
 51
257.9052429229879
  0
ARC
  5
3EE8
  8
0
 10
242.0508569847517
 20
145.52041996563551
 30
0.0
 40
5.0
 50
0.0
 51
90.0
  0
LINE
  5
3EE9
  8
0
 10
255.05085698475159
 20
136.9050353502507
 30
0.0
 11
249.3591157375397
 21
137.34286160003629
 31
0.0
  0
ARC
  5
3EEA
  8
0
 10
249.5508569847517
 20
139.8354978137904
 30
0.0
 40
2.5
 50
226.93128037948901
 51
265.60129464500488
  0
ARC
  5
3EEB
  8
0
 10
242.0508569847517
 20
149.52041996563551
 30
0.0
 40
1.0
 50
90.0
 51
180.0
  0
LINE
  5
3EEC
  8
0
 10
247.0508569847517
 20
144.3061658703628
 30
0.0
 11
247.0508569847517
 21
145.52041996563551
 31
0.0
  0
LINE
  5
3EED
  8
0
 10
241.0508569847517
 20
132.32883575586951
 30
0.0
 11
241.0508569847517
 21
137.7900368381186
 31
0.0
  0
LINE
  5
3EEE
  8
0
 10
241.0508569847517
 20
144.4997142574596
 30
0.0
 11
241.0508569847517
 21
149.52041996563551
 31
0.0
  0
LINE
  5
3EEF
  8
AM_7
 10
252.0508569847517
 20
121.14487554782539
 30
0.0
 11
287.98024447947262
 21
121.14487554782539
 31
0.0
  0
LINE
  5
3EF0
  8
AM_1
 10
260.05085698475182
 20
125.3448755478253
 30
0.0
 11
260.0508569847517
 21
116.94487554782521
 31
0.0
  0
LINE
  5
3EF1
  8
AM_1
 10
265.8508569847516
 20
121.64487554782529
 30
0.0
 11
265.8508569847516
 21
120.64487554782529
 31
0.0
  0
LINE
  5
3EF2
  8
AM_1
 10
281.17120756310311
 20
124.22935695013879
 30
0.0
 11
279.32628460318688
 21
124.22197725829921
 31
0.0
  0
LINE
  5
3EF3
  8
AM_1
 10
277.57124908254832
 20
124.21495711621669
 30
0.0
 11
275.72634053865568
 21
124.207577482041
 31
0.0
  0
LINE
  5
3EF4
  8
AM_1
 10
273.97132276125973
 20
124.2005574109311
 30
0.0
 11
272.12639813773399
 21
124.19317771243701
 31
0.0
  0
LINE
  5
3EF5
  8
AM_1
 10
270.37138036033809
 20
124.1861576413276
 30
0.0
 11
268.55194516115142
 21
124.178879900531
 31
0.0
  0
LINE
  5
3EF6
  8
AM_1
 10
265.85085698475177
 20
124.1680755478253
 30
0.0
 11
260.0508569847517
 21
124.14487554782519
 31
0.0
  0
LINE
  5
3EF7
  8
AM_1
 10
267.39088219272412
 20
124.1742356486573
 30
0.0
 11
265.85085698475228
 21
124.1680755478253
 31
0.0
  0
ARC
  5
3EF8
  8
AM_1
 10
282.55085698475159
 20
121.7348555479053
 30
0.0
 40
2.5
 50
3.668365409823088
 51
81.127977809495107
  0
LINE
  5
3EF9
  8
AM_1
 10
260.05085698475102
 20
118.14487554782529
 30
0.0
 11
265.85085698475109
 21
118.12167554782521
 31
0.0
  0
LINE
  5
3EFA
  8
AM_1
 10
265.85085698475189
 20
118.12167554782511
 30
0.0
 11
267.39088219272389
 21
118.1155154469933
 31
0.0
  0
ARC
  5
3EFB
  8
AM_1
 10
282.55085698475159
 20
120.5548955477453
 30
0.0
 40
2.5
 50
278.87202219050488
 51
356.33163459017692
  0
LINE
  5
3EFC
  8
AM_1
 10
265.85085698475177
 20
121.14487554782519
 30
0.0
 11
260.05085698475182
 21
122.39487554782519
 31
0.0
  0
LINE
  5
3EFD
  8
AM_1
 10
260.0508569847517
 20
119.89487554782539
 30
0.0
 11
265.85085698475137
 21
121.14487554782539
 31
0.0
  0
LINE
  5
3EFE
  8
AM_1
 10
260.05085698475159
 20
121.14487554782539
 30
0.0
 11
265.8508569847516
 21
121.14487554782539
 31
0.0
  0
LINE
  5
3EFF
  8
AM_1
 10
268.86894291695558
 20
121.69175054782529
 30
0.0
 11
267.39088219272361
 21
124.1742356486573
 31
0.0
  0
LINE
  5
3F00
  8
AM_1
 10
269.45085698475128
 20
122.669107553248
 30
0.0
 11
268.23067476000648
 21
124.7184713876082
 31
0.0
  0
LINE
  5
3F01
  8
AM_1
 10
270.67103920949643
 20
124.7184713876083
 30
0.0
 11
269.45085698475179
 21
122.6691075532482
 31
0.0
  0
LINE
  5
3F02
  8
AM_1
 10
271.25085698475181
 20
123.73759354240229
 30
0.0
 11
270.0327710525479
 21
121.69175054782529
 31
0.0
  0
LINE
  5
3F03
  8
AM_1
 10
272.44572506152122
 20
121.7307462259084
 30
0.0
 11
271.25085698475192
 21
123.73759354240229
 31
0.0
  0
LINE
  5
3F04
  8
AM_1
 10
273.0508569847517
 20
122.6691075532482
 30
0.0
 11
271.83067476000713
 21
124.7184713876083
 31
0.0
  0
LINE
  5
3F05
  8
AM_1
 10
274.27103920949662
 20
124.7184713876083
 30
0.0
 11
273.0508569847521
 21
122.6691075532482
 31
0.0
  0
LINE
  5
3F06
  8
AM_1
 10
274.850856984752
 20
123.73759354240229
 30
0.0
 11
273.66544484287772
 21
121.74662799389461
 31
0.0
  0
LINE
  5
3F07
  8
AM_1
 10
276.01803059508029
 20
121.7772606208766
 30
0.0
 11
274.8508569847516
 21
123.73759354240219
 31
0.0
  0
LINE
  5
3F08
  8
AM_1
 10
276.65085698475173
 20
122.6691075532483
 30
0.0
 11
275.43067476000698
 21
124.7184713876083
 31
0.0
  0
LINE
  5
3F09
  8
AM_1
 10
277.8710392094963
 20
124.7184713876086
 30
0.0
 11
276.65085698475161
 21
122.66910755324859
 31
0.0
  0
LINE
  5
3F0A
  8
AM_1
 10
278.45085698475162
 20
123.73759354240229
 30
0.0
 11
277.29357206961618
 21
121.793869233826
 31
0.0
  0
LINE
  5
3F0B
  8
AM_1
 10
279.59033612864027
 20
121.8237750158449
 30
0.0
 11
278.45085698475168
 21
123.73759354240261
 31
0.0
  0
LINE
  5
3F0C
  8
AM_1
 10
280.25085698475158
 20
122.66910755324859
 30
0.0
 11
279.03067476000678
 21
124.7184713876084
 31
0.0
  0
LINE
  5
3F0D
  8
AM_1
 10
281.47103920949638
 20
124.7184713876086
 30
0.0
 11
280.25085698475181
 21
122.6691075532482
 31
0.0
  0
LINE
  5
3F0E
  8
AM_1
 10
282.0508569847517
 20
123.73759354240229
 30
0.0
 11
280.92169929635509
 21
121.8411104737574
 31
0.0
  0
LINE
  5
3F0F
  8
AM_1
 10
283.16264166219969
 20
121.8702894108129
 30
0.0
 11
282.05085698475159
 21
123.73759354240261
 31
0.0
  0
LINE
  5
3F10
  8
AM_1
 10
284.3175165757799
 20
121.8853268445838
 30
0.0
 11
282.63067476000668
 21
124.7184713876086
 31
0.0
  0
LINE
  5
3F11
  8
AM_1
 10
285.04573472536242
 20
121.8948088517394
 30
0.0
 11
267.899964146424
 21
121.6715566306594
 31
0.0
  0
LINE
  5
3F12
  8
AM_1
 10
267.7712872726587
 20
121.6698811505324
 30
0.0
 11
263.6630377313133
 21
121.6163883179627
 31
0.0
  0
LINE
  5
3F13
  8
AM_1
 10
285.04573472536231
 20
120.3949422439108
 30
0.0
 11
267.81880090482321
 21
120.61925127803239
 31
0.0
  0
LINE
  5
3F14
  8
AM_1
 10
267.77128727265938
 20
120.6198699451182
 30
0.0
 11
263.66303773131398
 21
120.6733627776879
 31
0.0
  0
LINE
  5
3F15
  8
AM_1
 10
270.04479442212278
 20
121.67155663065959
 30
0.0
 11
270.0327710525479
 21
121.69175054782561
 31
0.0
  0
LINE
  5
3F16
  8
AM_1
 10
268.86894291695552
 20
121.69175054782529
 30
0.0
 11
268.85691954738081
 21
121.67155663065959
 31
0.0
  0
LINE
  5
3F17
  8
AM_1
 10
265.85085698475177
 20
124.1680755478249
 30
0.0
 11
260.05085698475159
 21
125.3448755478249
 31
0.0
  0
LINE
  5
3F18
  8
AM_1
 10
265.85085698475177
 20
118.1216755478253
 30
0.0
 11
260.05085698475187
 21
116.9448755478254
 31
0.0
  0
ARC
  5
3F19
  8
AM_1
 10
264.42112936393278
 20
121.2201749890222
 30
0.0
 40
1.9907623756952451
 50
343.01710535129502
 51
12.515033431329041
  0
LINE
  5
3F1A
  8
AM_1
 10
281.17120756310271
 20
118.06039414551191
 30
0.0
 11
279.32628460318648
 21
118.0677738373516
 31
0.0
  0
LINE
  5
3F1B
  8
AM_1
 10
277.57124908254809
 20
118.0747939794343
 30
0.0
 11
275.72634053865562
 21
118.0821736136098
 31
0.0
  0
LINE
  5
3F1C
  8
AM_1
 10
273.9713227612595
 20
118.08919368471921
 30
0.0
 11
272.1263981377337
 21
118.0965733832134
 31
0.0
  0
LINE
  5
3F1D
  8
AM_1
 10
270.37138036033821
 20
118.10359345432281
 30
0.0
 11
268.55194516115142
 21
118.1108711951196
 31
0.0
  0
LINE
  5
3F1E
  8
AM_1
 10
268.86894291695552
 20
120.59800054782561
 30
0.0
 11
267.39088219272378
 21
118.1155154469937
 31
0.0
  0
LINE
  5
3F1F
  8
AM_1
 10
269.4508569847514
 20
119.62064354240211
 30
0.0
 11
268.23067476000688
 21
117.5712797080422
 31
0.0
  0
LINE
  5
3F20
  8
AM_1
 10
270.6710392094962
 20
117.5712797080422
 30
0.0
 11
269.4508569847514
 21
119.6206435424026
 31
0.0
  0
LINE
  5
3F21
  8
AM_1
 10
271.25085698475141
 20
118.55215755324819
 30
0.0
 11
270.0327710525475
 21
120.59800054782551
 31
0.0
  0
LINE
  5
3F22
  8
AM_1
 10
272.44572506152127
 20
120.5590048697423
 30
0.0
 11
271.25085698475192
 21
118.55215755324831
 31
0.0
  0
LINE
  5
3F23
  8
AM_1
 10
273.0508569847517
 20
119.62064354240241
 30
0.0
 11
271.8306747600069
 21
117.5712797080422
 31
0.0
  0
LINE
  5
3F24
  8
AM_1
 10
274.27103920949662
 20
117.5712797080426
 30
0.0
 11
273.05085698475227
 21
119.62064354240241
 31
0.0
  0
LINE
  5
3F25
  8
AM_1
 10
274.8508569847516
 20
118.55215755324851
 30
0.0
 11
273.6654448428776
 21
120.5431231017559
 31
0.0
  0
LINE
  5
3F26
  8
AM_1
 10
276.01803059508057
 20
120.512490474774
 30
0.0
 11
274.85085698475177
 21
118.55215755324831
 31
0.0
  0
LINE
  5
3F27
  8
AM_1
 10
276.65085698475173
 20
119.62064354240211
 30
0.0
 11
275.43067476000692
 21
117.5712797080422
 31
0.0
  0
LINE
  5
3F28
  8
AM_1
 10
277.8710392094963
 20
117.5712797080425
 30
0.0
 11
276.65085698475161
 21
119.6206435424027
 31
0.0
  0
LINE
  5
3F29
  8
AM_1
 10
278.45085698475162
 20
118.55215755324841
 30
0.0
 11
277.29357206961618
 21
120.4958818618246
 31
0.0
  0
LINE
  5
3F2A
  8
AM_1
 10
279.59033612864039
 20
120.4659760798059
 30
0.0
 11
278.45085698475179
 21
118.55215755324831
 31
0.0
  0
LINE
  5
3F2B
  8
AM_1
 10
280.25085698475158
 20
119.62064354240241
 30
0.0
 11
279.03067476000678
 21
117.5712797080422
 31
0.0
  0
LINE
  5
3F2C
  8
AM_1
 10
281.47103920949638
 20
117.5712797080425
 30
0.0
 11
280.25085698475192
 21
119.62064354240241
 31
0.0
  0
LINE
  5
3F2D
  8
AM_1
 10
282.05085698475182
 20
118.55215755324809
 30
0.0
 11
280.9216992963552
 21
120.4486406218933
 31
0.0
  0
LINE
  5
3F2E
  8
AM_1
 10
283.1626416621998
 20
120.4194616848377
 30
0.0
 11
282.0508569847517
 21
118.55215755324831
 31
0.0
  0
LINE
  5
3F2F
  8
AM_1
 10
284.3175165757799
 20
120.4044242510673
 30
0.0
 11
282.63067476000691
 21
117.5712797080424
 31
0.0
  0
LINE
  5
3F30
  8
AM_1
 10
264.85784271174919
 20
124.1641034907334
 30
0.0
 11
264.85784271174919
 21
121.6319456744788
 31
0.0
  0
LINE
  5
3F31
  8
AM_1
 10
264.85784271174919
 20
120.6578054211717
 30
0.0
 11
264.85784271174919
 21
118.1256476049174
 31
0.0
  0
LINE
  5
3F32
  8
AM_1
 10
282.63067476000708
 20
124.7184713876084
 30
0.0
 11
281.47103920949638
 21
124.7184713876084
 31
0.0
  0
LINE
  5
3F33
  8
AM_1
 10
279.03067476000678
 20
124.7184713876084
 30
0.0
 11
277.8710392094963
 21
124.7184713876084
 31
0.0
  0
LINE
  5
3F34
  8
AM_1
 10
275.43067476000692
 20
124.7184713876084
 30
0.0
 11
274.27103920949651
 21
124.7184713876084
 31
0.0
  0
LINE
  5
3F35
  8
AM_1
 10
271.83067476000701
 20
124.7184713876084
 30
0.0
 11
270.6710392094962
 21
124.7184713876084
 31
0.0
  0
LINE
  5
3F36
  8
AM_1
 10
268.23067476000688
 20
124.7184713876084
 30
0.0
 11
267.0710392094964
 21
124.7184713876084
 31
0.0
  0
LINE
  5
3F37
  8
AM_1
 10
267.07103920949652
 20
124.7184713876084
 30
0.0
 11
266.74546653058673
 21
124.17165398600849
 31
0.0
  0
LINE
  5
3F38
  8
AM_1
 10
282.63067476000708
 20
117.5712797080422
 30
0.0
 11
281.47103920949638
 21
117.5712797080422
 31
0.0
  0
LINE
  5
3F39
  8
AM_1
 10
279.03067476000678
 20
117.5712797080422
 30
0.0
 11
277.8710392094963
 21
117.5712797080422
 31
0.0
  0
LINE
  5
3F3A
  8
AM_1
 10
275.43067476000692
 20
117.5712797080422
 30
0.0
 11
274.27103920949651
 21
117.5712797080422
 31
0.0
  0
LINE
  5
3F3B
  8
AM_1
 10
271.83067476000701
 20
117.5712797080422
 30
0.0
 11
270.6710392094962
 21
117.5712797080422
 31
0.0
  0
LINE
  5
3F3C
  8
AM_1
 10
268.23067476000688
 20
117.5712797080422
 30
0.0
 11
267.0710392094964
 21
117.5712797080422
 31
0.0
  0
LINE
  5
3F3D
  8
AM_1
 10
267.07103920949612
 20
117.5712797080421
 30
0.0
 11
266.74546653058673
 21
118.11809710964199
 31
0.0
  0
LINE
  5
3F42
  8
0
 10
255.05085698475159
 20
117.14487554782539
 30
0.0
 11
255.05085698475159
 21
125.14487554782529
 31
0.0
  0
LINE
  5
3F44
  8
AM_7
 10
252.0508569847517
 20
161.14487554755351
 30
0.0
 11
287.98024447947262
 21
161.14487554755351
 31
0.0
  0
LINE
  5
3F45
  8
AM_1
 10
260.05085698475182
 20
165.34487554755361
 30
0.0
 11
260.0508569847517
 21
156.94487554755349
 31
0.0
  0
LINE
  5
3F46
  8
AM_1
 10
265.8508569847516
 20
161.6448755475536
 30
0.0
 11
265.8508569847516
 21
160.64487554755351
 31
0.0
  0
LINE
  5
3F47
  8
AM_1
 10
281.17120756310311
 20
164.22935694986711
 30
0.0
 11
279.32628460318722
 21
164.22197725802749
 31
0.0
  0
LINE
  5
3F48
  8
AM_1
 10
277.57124908254832
 20
164.214957115945
 30
0.0
 11
275.72634053865568
 21
164.20757748176931
 31
0.0
  0
LINE
  5
3F49
  8
AM_1
 10
273.97132276125973
 20
164.2005574106596
 30
0.0
 11
272.12639813773387
 21
164.19317771216541
 31
0.0
  0
LINE
  5
3F4A
  8
AM_1
 10
270.37138036033809
 20
164.18615764105579
 30
0.0
 11
268.55194516115142
 21
164.1788799002592
 31
0.0
  0
LINE
  5
3F4B
  8
AM_1
 10
265.85085698475177
 20
164.16807554755351
 30
0.0
 11
260.0508569847517
 21
164.1448755475534
 31
0.0
  0
LINE
  5
3F4C
  8
AM_1
 10
267.39088219272418
 20
164.1742356483856
 30
0.0
 11
265.85085698475228
 21
164.16807554755371
 31
0.0
  0
ARC
  5
3F4D
  8
AM_1
 10
282.55085698475159
 20
161.7348555476336
 30
0.0
 40
2.5
 50
3.668365409823088
 51
81.127977809495107
  0
LINE
  5
3F4E
  8
AM_1
 10
260.05085698475119
 20
158.1448755475536
 30
0.0
 11
265.85085698475132
 21
158.12167554755359
 31
0.0
  0
LINE
  5
3F4F
  8
AM_1
 10
265.85085698475177
 20
158.12167554755331
 30
0.0
 11
267.39088219272378
 21
158.1155154467215
 31
0.0
  0
ARC
  5
3F50
  8
AM_1
 10
282.55085698475159
 20
160.55489554747351
 30
0.0
 40
2.5
 50
278.87202219050488
 51
356.33163459017692
  0
LINE
  5
3F51
  8
AM_1
 10
265.85085698475189
 20
161.14487554755351
 30
0.0
 11
260.05085698475187
 21
162.39487554755351
 31
0.0
  0
LINE
  5
3F52
  8
AM_1
 10
260.0508569847517
 20
159.8948755475536
 30
0.0
 11
265.85085698475137
 21
161.1448755475536
 31
0.0
  0
LINE
  5
3F53
  8
AM_1
 10
260.05085698475159
 20
161.14487554755351
 30
0.0
 11
265.8508569847516
 21
161.14487554755351
 31
0.0
  0
LINE
  5
3F54
  8
AM_1
 10
268.86894291695552
 20
161.6917505475536
 30
0.0
 11
267.39088219272361
 21
164.1742356483856
 31
0.0
  0
LINE
  5
3F55
  8
AM_1
 10
269.45085698475123
 20
162.6691075529763
 30
0.0
 11
268.23067476000642
 21
164.71847138733651
 31
0.0
  0
LINE
  5
3F56
  8
AM_1
 10
270.67103920949643
 20
164.71847138733651
 30
0.0
 11
269.45085698475168
 21
162.66910755297641
 31
0.0
  0
LINE
  5
3F57
  8
AM_1
 10
271.25085698475181
 20
163.7375935421305
 30
0.0
 11
270.03277105254767
 21
161.6917505475536
 31
0.0
  0
LINE
  5
3F58
  8
AM_1
 10
272.44572506152122
 20
161.73074622563661
 30
0.0
 11
271.25085698475192
 21
163.73759354213061
 31
0.0
  0
LINE
  5
3F59
  8
AM_1
 10
273.0508569847517
 20
162.6691075529765
 30
0.0
 11
271.83067476000713
 21
164.71847138733651
 31
0.0
  0
LINE
  5
3F5A
  8
AM_1
 10
274.27103920949662
 20
164.71847138733651
 30
0.0
 11
273.05085698475182
 21
162.66910755297641
 31
0.0
  0
LINE
  5
3F5B
  8
AM_1
 10
274.850856984752
 20
163.7375935421305
 30
0.0
 11
273.66544484287772
 21
161.74662799362301
 31
0.0
  0
LINE
  5
3F5C
  8
AM_1
 10
276.01803059508029
 20
161.77726062060481
 30
0.0
 11
274.8508569847516
 21
163.7375935421303
 31
0.0
  0
LINE
  5
3F5D
  8
AM_1
 10
276.65085698475173
 20
162.6691075529765
 30
0.0
 11
275.43067476000721
 21
164.71847138733651
 31
0.0
  0
LINE
  5
3F5E
  8
AM_1
 10
277.8710392094963
 20
164.71847138733671
 30
0.0
 11
276.65085698475161
 21
162.66910755297661
 31
0.0
  0
LINE
  5
3F5F
  8
AM_1
 10
278.45085698475168
 20
163.7375935421307
 30
0.0
 11
277.29357206961618
 21
161.79386923355429
 31
0.0
  0
LINE
  5
3F60
  8
AM_1
 10
279.59033612864039
 20
161.82377501557329
 30
0.0
 11
278.45085698475179
 21
163.7375935421309
 31
0.0
  0
LINE
  5
3F61
  8
AM_1
 10
280.25085698475181
 20
162.6691075529767
 30
0.0
 11
279.03067476000678
 21
164.71847138733671
 31
0.0
  0
LINE
  5
3F62
  8
AM_1
 10
281.47103920949633
 20
164.71847138733659
 30
0.0
 11
280.25085698475181
 21
162.6691075529765
 31
0.0
  0
LINE
  5
3F63
  8
AM_1
 10
282.0508569847517
 20
163.7375935421305
 30
0.0
 11
280.9216992963552
 21
161.84111047348571
 31
0.0
  0
LINE
  5
3F64
  8
AM_1
 10
283.16264166219958
 20
161.87028941054101
 30
0.0
 11
282.05085698475142
 21
163.7375935421307
 31
0.0
  0
LINE
  5
3F65
  8
AM_1
 10
284.31751657577968
 20
161.88532684431209
 30
0.0
 11
282.63067476000663
 21
164.71847138733679
 31
0.0
  0
LINE
  5
3F66
  8
AM_1
 10
285.04573472536231
 20
161.8948088514675
 30
0.0
 11
267.89996414642383
 21
161.67155663038761
 31
0.0
  0
LINE
  5
3F67
  8
AM_1
 10
267.7712872726587
 20
161.66988115026041
 30
0.0
 11
263.66303773131352
 21
161.61638831769091
 31
0.0
  0
LINE
  5
3F68
  8
AM_1
 10
285.04573472536208
 20
160.39494224363889
 30
0.0
 11
267.81880090482321
 21
160.6192512777605
 31
0.0
  0
LINE
  5
3F69
  8
AM_1
 10
267.77128727265909
 20
160.61986994484641
 30
0.0
 11
263.66303773131392
 21
160.673362777416
 31
0.0
  0
LINE
  5
3F6A
  8
AM_1
 10
270.04479442212278
 20
161.67155663038781
 30
0.0
 11
270.0327710525479
 21
161.69175054755371
 31
0.0
  0
LINE
  5
3F6B
  8
AM_1
 10
268.86894291695558
 20
161.69175054755371
 30
0.0
 11
268.8569195473807
 21
161.67155663038801
 31
0.0
  0
LINE
  5
3F6C
  8
AM_1
 10
265.85085698475177
 20
164.1680755475532
 30
0.0
 11
260.05085698475159
 21
165.3448755475531
 31
0.0
  0
LINE
  5
3F6D
  8
AM_1
 10
265.85085698475177
 20
158.12167554755359
 30
0.0
 11
260.05085698475199
 21
156.94487554755361
 31
0.0
  0
ARC
  5
3F6E
  8
AM_1
 10
264.42112936393278
 20
161.22017498875039
 30
0.0
 40
1.9907623756952451
 50
343.01710535129502
 51
12.515033431329041
  0
LINE
  5
3F6F
  8
AM_1
 10
281.17120756310283
 20
158.0603941452402
 30
0.0
 11
279.32628460318682
 21
158.06777383707981
 31
0.0
  0
LINE
  5
3F70
  8
AM_1
 10
277.57124908254832
 20
158.07479397916251
 30
0.0
 11
275.72634053865562
 21
158.082173613338
 31
0.0
  0
LINE
  5
3F71
  8
AM_1
 10
273.97132276125973
 20
158.08919368444739
 30
0.0
 11
272.12639813773387
 21
158.09657338294161
 31
0.0
  0
LINE
  5
3F72
  8
AM_1
 10
270.37138036033832
 20
158.10359345405101
 30
0.0
 11
268.55194516115142
 21
158.1108711948479
 31
0.0
  0
LINE
  5
3F73
  8
AM_1
 10
268.86894291695552
 20
160.59800054755391
 30
0.0
 11
267.39088219272378
 21
158.11551544672199
 31
0.0
  0
LINE
  5
3F74
  8
AM_1
 10
269.4508569847514
 20
159.62064354213041
 30
0.0
 11
268.23067476000659
 21
157.5712797077704
 31
0.0
  0
LINE
  5
3F75
  8
AM_1
 10
270.6710392094966
 20
157.5712797077706
 30
0.0
 11
269.45085698475168
 21
159.62064354213101
 31
0.0
  0
LINE
  5
3F76
  8
AM_1
 10
271.25085698475141
 20
158.5521575529763
 30
0.0
 11
270.03277105254728
 21
160.5980005475536
 31
0.0
  0
LINE
  5
3F77
  8
AM_1
 10
272.44572506152127
 20
160.5590048694705
 30
0.0
 11
271.25085698475192
 21
158.5521575529765
 31
0.0
  0
LINE
  5
3F78
  8
AM_1
 10
273.0508569847517
 20
159.62064354213069
 30
0.0
 11
271.8306747600069
 21
157.5712797077706
 31
0.0
  0
LINE
  5
3F79
  8
AM_1
 10
274.27103920949668
 20
157.571279707771
 30
0.0
 11
273.05085698475227
 21
159.62064354213069
 31
0.0
  0
LINE
  5
3F7A
  8
AM_1
 10
274.85085698475177
 20
158.55215755297681
 30
0.0
 11
273.6654448428776
 21
160.54312310148421
 31
0.0
  0
LINE
  5
3F7B
  8
AM_1
 10
276.01803059508092
 20
160.51249047450241
 30
0.0
 11
274.85085698475177
 21
158.5521575529765
 31
0.0
  0
LINE
  5
3F7C
  8
AM_1
 10
276.65085698475173
 20
159.62064354213061
 30
0.0
 11
275.43067476000692
 21
157.5712797077706
 31
0.0
  0
LINE
  5
3F7D
  8
AM_1
 10
277.87103920949642
 20
157.5712797077708
 30
0.0
 11
276.65085698475161
 21
159.62064354213101
 31
0.0
  0
LINE
  5
3F7E
  8
AM_1
 10
278.45085698475151
 20
158.55215755297661
 30
0.0
 11
277.29357206961618
 21
160.49588186155279
 31
0.0
  0
LINE
  5
3F7F
  8
AM_1
 10
279.59033612864027
 20
160.4659760795339
 30
0.0
 11
278.45085698475168
 21
158.5521575529763
 31
0.0
  0
LINE
  5
3F80
  8
AM_1
 10
280.25085698475181
 20
159.62064354213061
 30
0.0
 11
279.03067476000678
 21
157.5712797077704
 31
0.0
  0
LINE
  5
3F81
  8
AM_1
 10
281.47103920949633
 20
157.5712797077708
 30
0.0
 11
280.25085698475181
 21
159.62064354213061
 31
0.0
  0
LINE
  5
3F82
  8
AM_1
 10
282.05085698475142
 20
158.5521575529761
 30
0.0
 11
280.92169929635469
 21
160.44864062162119
 31
0.0
  0
LINE
  5
3F83
  8
AM_1
 10
283.16264166219969
 20
160.41946168456579
 30
0.0
 11
282.0508569847517
 21
158.5521575529765
 31
0.0
  0
LINE
  5
3F84
  8
AM_1
 10
284.3175165757799
 20
160.4044242507955
 30
0.0
 11
282.63067476000691
 21
157.5712797077706
 31
0.0
  0
LINE
  5
3F85
  8
AM_1
 10
264.85784271174919
 20
164.1641034904616
 30
0.0
 11
264.85784271174919
 21
161.631945674207
 31
0.0
  0
LINE
  5
3F86
  8
AM_1
 10
264.85784271174919
 20
160.6578054208999
 30
0.0
 11
264.85784271174919
 21
158.12564760464559
 31
0.0
  0
LINE
  5
3F87
  8
AM_1
 10
282.63067476000708
 20
164.71847138733659
 30
0.0
 11
281.47103920949638
 21
164.71847138733659
 31
0.0
  0
LINE
  5
3F88
  8
AM_1
 10
279.03067476000678
 20
164.71847138733659
 30
0.0
 11
277.8710392094963
 21
164.71847138733659
 31
0.0
  0
LINE
  5
3F89
  8
AM_1
 10
275.43067476000692
 20
164.71847138733659
 30
0.0
 11
274.27103920949651
 21
164.71847138733659
 31
0.0
  0
LINE
  5
3F8A
  8
AM_1
 10
271.83067476000701
 20
164.71847138733659
 30
0.0
 11
270.6710392094962
 21
164.71847138733659
 31
0.0
  0
LINE
  5
3F8B
  8
AM_1
 10
268.23067476000688
 20
164.71847138733659
 30
0.0
 11
267.0710392094964
 21
164.71847138733659
 31
0.0
  0
LINE
  5
3F8C
  8
AM_1
 10
267.07103920949652
 20
164.71847138733679
 30
0.0
 11
266.74546653058678
 21
164.17165398573701
 31
0.0
  0
LINE
  5
3F8D
  8
AM_1
 10
282.63067476000708
 20
157.5712797077706
 30
0.0
 11
281.47103920949638
 21
157.5712797077706
 31
0.0
  0
LINE
  5
3F8E
  8
AM_1
 10
279.03067476000678
 20
157.5712797077706
 30
0.0
 11
277.8710392094963
 21
157.5712797077706
 31
0.0
  0
LINE
  5
3F8F
  8
AM_1
 10
275.43067476000692
 20
157.5712797077706
 30
0.0
 11
274.27103920949651
 21
157.5712797077706
 31
0.0
  0
LINE
  5
3F90
  8
AM_1
 10
271.83067476000701
 20
157.5712797077706
 30
0.0
 11
270.6710392094962
 21
157.5712797077706
 31
0.0
  0
LINE
  5
3F91
  8
AM_1
 10
268.23067476000688
 20
157.5712797077706
 30
0.0
 11
267.0710392094964
 21
157.5712797077706
 31
0.0
  0
LINE
  5
3F92
  8
AM_1
 10
267.07103920949618
 20
157.5712797077704
 30
0.0
 11
266.74546653058673
 21
158.11809710937021
 31
0.0
  0
LINE
  5
3F97
  8
0
 10
255.05085698475159
 20
157.14487554755351
 30
0.0
 11
255.05085698475159
 21
165.14487554755351
 31
0.0
  0
LINE
  5
3F9F
  8
AM_2
 10
260.05085698479172
 20
99.144875547789056
 30
0.0
 11
273.04271671118522
 21
99.144875547789056
 31
0.0
  0
LINE
  5
3FA0
  8
AM_2
 10
260.0508569847542
 20
114.5204199656356
 30
0.0
 11
260.05085698479172
 21
99.144875547777843
 31
0.0
  0
LINE
  5
3FA3
  8
AM_2
 10
194.5508569845388
 20
89.144875547789127
 30
0.0
 11
184.55085698453891
 21
89.144875547789127
 31
0.0
  0
ARC
  5
3FA7
  8
0
 10
219.60885823453901
 20
244.42790007350871
 30
0.0
 40
14.058001250000011
 50
145.302142804353
 51
214.697857195647
  0
LINE
  5
3FB1
  8
0
 10
260.0508569847517
 20
234.42790007350871
 30
0.0
 11
260.0508569847517
 21
254.42790007350871
 31
0.0
  0
LINE
  5
3FB2
  8
0
 10
256.0508569846703
 20
234.42790007350871
 30
0.0
 11
260.0508569847517
 21
234.42790007350871
 31
0.0
  0
LINE
  5
3FB3
  8
0
 10
256.05085698465768
 20
254.42790007350871
 30
0.0
 11
260.0508569847517
 21
254.42790007350871
 31
0.0
  0
LINE
  5
3FB4
  8
0
 10
255.0508569846703
 20
235.427900073508
 30
0.0
 11
255.05085698465771
 21
253.42790007350811
 31
0.0
  0
ARC
  5
3FB5
  8
0
 10
256.05085698465768
 20
253.42790007350871
 30
0.0
 40
1.0
 50
90.0
 51
180.0
  0
ARC
  5
3FB6
  8
0
 10
256.0508569846703
 20
235.42790007350871
 30
0.0
 40
1.0
 50
180.0
 51
270.0
  0
LINE
  5
3FB7
  8
0
 10
241.05085698488071
 20
240.92790007350979
 30
0.0
 11
241.05085698488881
 21
247.92790007350979
 31
0.0
  0
ARC
  5
3FB8
  8
0
 10
242.0508569848887
 20
247.92790007350871
 30
0.0
 40
1.0
 50
90.0
 51
180.0
  0
ARC
  5
3FB9
  8
0
 10
242.0508569848808
 20
240.92790007350871
 30
0.0
 40
1.0
 50
180.0
 51
270.0
  0
LINE
  5
3FBA
  8
0
 10
247.05085698487599
 20
239.92790007350871
 30
0.0
 11
247.0508569848898
 21
248.92790007337649
 31
0.0
  0
LINE
  5
3FBB
  8
0
 10
242.0508569848887
 20
248.92790007350871
 30
0.0
 11
248.045856984539
 21
248.92790007350871
 31
0.0
  0
LINE
  5
3FBC
  8
0
 10
252.05085698453891
 20
248.92790007350871
 30
0.0
 11
255.0508569845388
 21
248.92790007350871
 31
0.0
  0
LINE
  5
3FBD
  8
0
 10
242.0508569848808
 20
239.92790007350871
 30
0.0
 11
248.045856984539
 21
239.92790007350871
 31
0.0
  0
LINE
  5
3FBE
  8
0
 10
252.05085698453891
 20
239.92790007350871
 30
0.0
 11
255.0508569845388
 21
239.92790007350871
 31
0.0
  0
DIMENSION
  5
4138
  8
AM_5
  2
*D13
 10
285.57356981889762
 20
248.92790007350871
 30
0.0
 11
283.07356981889751
 21
244.42790007350871
 31
0.0
 70
     0
 13
255.05085698466721
 23
239.92790007350871
 33
0.0
 14
255.0508569846609
 24
248.92790007350871
 34
0.0
 50
90.000000000000028
1001
ACAD_DSTYLE_DIMINSPECT
1070
   396
1000
100%
1070
   395
1000

1070
   394
1070
    33
1070
   393
1070
     0
  0
DIMENSION
  5
4162
  8
AM_5
  2
*D14
 10
292.57356981889768
 20
254.42790007350871
 30
0.0
 11
290.07356981889768
 21
244.42790007350871
 31
0.0
 70
     0
 13
260.0508569847517
 23
234.42790007350871
 33
0.0
 14
260.0508569847517
 24
254.42790007350871
 34
0.0
 50
90.000000000000028
1001
ACAD_DSTYLE_DIMINSPECT
1070
   396
1000
100%
1070
   395
1000

1070
   394
1070
    33
1070
   393
1070
     0
  0
DIMENSION
  5
4183
  8
AM_5
  2
*D15
 10
186.5988377792132
 20
257.42790007350868
 30
0.0
 11
186.5988377792132
 21
244.42790007350871
 31
0.0
 70
   128
 13
213.55085698453891
 23
231.42790007350871
 33
0.0
 14
213.55085698453891
 24
257.42790007350868
 34
0.0
 50
90.000000000000057
1001
ACAD_DSTYLE_DIMINSPECT
1070
   396
1000
100%
1070
   395
1000

1070
   394
1070
    33
1070
   393
1070
     0
  0
DIMENSION
  5
41F8
  8
AM_5
  2
*D16
 10
240.05085698453891
 20
212.59678259829749
 30
0.0
 11
228.55085698453891
 21
215.09678259829749
 31
0.0
 70
     0
 13
217.05085698453891
 23
218.92790007350871
 33
0.0
 14
240.05085698453891
 24
238.81915025260881
 34
0.0
1001
ACAD
1000
DSTYLE
1002
{
1070
   174
1070
     1
1002
}
1001
ACAD_DSTYLE_DIMINSPECT
1070
   396
1000
100%
1070
   395
1000

1070
   394
1070
    33
1070
   393
1070
     0
  0
DIMENSION
  5
4222
  8
AM_5
  2
*D17
 10
217.05085698453891
 20
205.59678259829781
 30
0.0
 11
211.30085698453891
 21
208.09678259829781
 31
0.0
 70
     0
 13
205.55085698453891
 23
244.42790007350871
 33
0.0
 14
217.05085698453891
 24
218.92790007350871
 34
0.0
 50
0.0000000000001018
1001
ACAD_DSTYLE_DIMINSPECT
1070
   396
1000
100%
1070
   395
1000

1070
   394
1070
    33
1070
   393
1070
     0
1001
ACAD
1000
DSTYLE
1002
{
1070
   174
1070
     1
1002
}
  0
DIMENSION
  5
4255
  8
AM_5
  2
*D18
 10
252.0508569845388
 20
205.59678259829781
 30
0.0
 11
234.55085698453891
 21
208.09678259829781
 31
0.0
 70
     0
 13
217.05085698453891
 23
218.92790007350871
 33
0.0
 14
252.0508569845388
 24
237.84211363588179
 34
0.0
1001
ACAD
1000
DSTYLE
1002
{
1070
   174
1070
     1
1002
}
1001
ACAD_DSTYLE_DIMINSPECT
1070
   396
1000
100%
1070
   395
1000

1070
   394
1070
    33
1070
   393
1070
     0
  0
DIMENSION
  5
42AC
  8
AM_5
  2
*D19
 10
255.0508569847517
 20
172.80532693062969
 30
0.0
 11
257.5508569847517
 21
175.30532693062969
 31
0.0
 70
     0
 13
260.0508569847517
 23
168.5204199656356
 33
0.0
 14
255.0508569847517
 24
167.5204199656356
 34
0.0
1001
ACAD_DSTYLE_DIMINSPECT
1070
   396
1000
100%
1070
   395
1000

1070
   394
1070
    33
1070
   393
1070
     0
1001
ACAD
1000
DSTYLE
1002
{
1070
   173
1070
     1
1070
   174
1070
     1
1070
     6
1000
OPEN30
1070
     7
1000
GENDOT
1002
}
  0
DIMENSION
  5
42E9
  8
AM_5
  2
*D20
 10
247.0508569847517
 20
172.80532693062969
 30
0.0
 11
251.0508569847517
 21
175.30532693062969
 31
0.0
 70
     0
 13
255.0508569847517
 23
167.5204199656356
 33
0.0
 14
247.0508569847517
 24
145.52041996563551
 34
0.0
1001
ACAD_DSTYLE_DIMINSPECT
1070
   396
1000
100%
1070
   395
1000

1070
   394
1070
    33
1070
   393
1070
     0
1001
ACAD
1000
DSTYLE
1002
{
1070
   173
1070
     1
1070
   174
1070
     1
1070
     6
1000
GENDOT
1070
     7
1000
OPEN30
1002
}
  0
DIMENSION
  5
4323
  8
AM_5
  2
*D22
 10
241.0508569847517
 20
179.8053269306296
 30
0.0
 11
250.5508569847517
 21
182.3053269306296
 31
0.0
 70
     0
 13
260.0508569847517
 23
168.5204199656356
 33
0.0
 14
241.0508569847517
 24
150.41939945120191
 34
0.0
1001
ACAD_DSTYLE_DIMINSPECT
1070
   396
1000
100%
1070
   395
1000

1070
   394
1070
    33
1070
   393
1070
     0
  0
DIMENSION
  5
434D
  8
AM_5
  2
*D23
 10
217.05085698453891
 20
186.8053269306296
 30
0.0
 11
238.55085698464529
 21
190.09104121634391
 31
0.0
 70
     0
  1
(<>)
 13
260.0508569847517
 23
168.5204199656356
 33
0.0
 14
217.05085698453891
 24
152.1448755477891
 34
0.0
1001
ACAD_DSTYLE_DIMINSPECT
1070
   396
1000
100%
1070
   395
1000

1070
   394
1070
    33
1070
   393
1070
     0
  0
DIMENSION
  5
4380
  8
AM_5
  2
*D24
 10
169.69431220193201
 20
141.1448755477891
 30
0.0
 11
167.19431220193189
 21
115.1448755477891
 31
0.0
 70
     0
 13
194.55085698453891
 23
89.144875547789127
 33
0.0
 14
202.73943452498861
 24
141.14487554778901
 34
0.0
 50
90.000000000000057
1001
ACAD_DSTYLE_DIMINSPECT
1070
   396
1000
100%
1070
   395
1000

1070
   394
1070
    33
1070
   393
1070
     0
  0
DIMENSION
  5
43AA
  8
AM_5
  2
*D25
 10
301.98024447947262
 20
161.14487554755351
 30
0.0
 11
299.4802444794725
 21
141.14487554768951
 31
0.0
 70
     0
 13
287.98024447947262
 23
121.14487554782539
 33
0.0
 14
287.98024447947262
 24
161.14487554755351
 34
0.0
 50
90.000000000000028
1001
ACAD_DSTYLE_DIMINSPECT
1070
   396
1000
100%
1070
   395
1000

1070
   394
1070
    33
1070
   393
1070
     0
  0
DIMENSION
  5
43CB
  8
AM_5
  2
*D26
 10
308.98024447947267
 20
168.5204199656356
 30
0.0
 11
306.48024447947267
 21
141.5204199656356
 31
0.0
 70
     0
 13
260.0508569847542
 23
114.5204199656356
 33
0.0
 14
260.0508569847517
 24
168.5204199656356
 34
0.0
 50
90.0
1001
ACAD_DSTYLE_DIMINSPECT
1070
   396
1000
100%
1070
   395
1000

1070
   394
1070
    33
1070
   393
1070
     0
  0
DIMENSION
  5
43EC
  8
AM_5
  2
*D27
 10
248.66494387643391
 20
89.144875547789056
 30
0.0
 11
245.3792295907196
 21
105.1448755478072
 31
0.0
 70
     0
  1
(<>)
 13
252.05085698475179
 23
121.14487554782529
 33
0.0
 14
239.55085698453891
 24
89.144875547789056
 34
0.0
 50
90.000000000000028
1001
ACAD_DSTYLE_DIMINSPECT
1070
   396
1000
100%
1070
   395
1000

1070
   394
1070
    33
1070
   393
1070
     0
  0
INSERT
  5
441F
  8
AM_5
  2
*S30
 10
0.0
 20
0.0
 30
0.0
  0
DIMENSION
  5
4420
  8
AM_5
  2
*D28
 10
239.55085698453891
 20
54.927070785877497
 30
0.0
 11
217.05085698453891
 21
54.927070785877497
 31
0.0
 70
   128
  1
%%c<>
 13
194.5508569845388
 23
89.144875547789127
 33
0.0
 14
239.55085698453891
 24
89.144875547789056
 34
0.0
 50
0.0000000000002036
1001
ACAD_DSTYLE_DIMINSPECT
1070
   396
1000
100%
1070
   395
1000

1070
   394
1070
    33
1070
   393
1070
     0
  0
INSERT
  5
4454
  8
AM_5
  2
*S31
 10
0.0
 20
0.0
 30
0.0
  0
INSERT
  5
4455
  8
AM_5
  2
*S32
 10
0.0
 20
0.0
 30
0.0
  0
INSERT
  5
4456
  8
AM_5
  2
*S33
 10
0.0
 20
0.0
 30
0.0
  0
INSERT
  5
4461
  8
AM_5
  2
*S34
 10
0.0
 20
0.0
 30
0.0
  0
LINE
  5
453D
  8
AM_7
 10
221.76460698453889
 20
252.5923545676865
 30
0.0
 11
228.3121069845389
 21
263.93295723024369
 31
0.0
  0
LINE
  5
453E
  8
AM_7
 10
221.7646069845388
 20
236.26344557933081
 30
0.0
 11
228.31210698453879
 21
224.92284291677359
 31
0.0
  0
LINE
  5
4540
  8
AM_7
 10
201.05085698453911
 20
97.144875547789098
 30
0.0
 11
201.05085698453911
 21
61.215488053068192
 31
0.0
  0
LINE
  5
4541
  8
AM_1
 10
205.25085698453901
 20
89.144875547788672
 30
0.0
 11
196.85085698453901
 21
89.144875547788786
 31
0.0
  0
LINE
  5
4542
  8
AM_1
 10
201.550856984539
 20
83.34487554778913
 30
0.0
 11
200.55085698453911
 21
83.34487554778913
 31
0.0
  0
LINE
  5
4543
  8
AM_1
 10
204.13533838685231
 20
68.02452496943792
 30
0.0
 11
204.12795869501269
 21
69.869447929353925
 31
0.0
  0
LINE
  5
4544
  8
AM_1
 10
204.1209385529302
 20
71.624483449992496
 30
0.0
 11
204.11355891875471
 21
73.469391993885139
 31
0.0
  0
LINE
  5
4545
  8
AM_1
 10
204.1065388476448
 20
75.224409771280733
 30
0.0
 11
204.09915914915061
 21
77.069334394806489
 31
0.0
  0
LINE
  5
4546
  8
AM_1
 10
204.0921390780413
 20
78.824352172202666
 30
0.0
 11
204.0848613372446
 21
80.643787371389394
 31
0.0
  0
LINE
  5
4547
  8
AM_1
 10
204.07405698453911
 20
83.344875547788945
 30
0.0
 11
204.050856984539
 21
89.144875547789127
 31
0.0
  0
LINE
  5
4548
  8
AM_1
 10
204.08021708537109
 20
81.804850339816994
 30
0.0
 11
204.0740569845392
 21
83.344875547788831
 31
0.0
  0
ARC
  5
4549
  8
AM_1
 10
201.64083698461911
 20
66.64487554778907
 30
0.0
 40
2.5
 50
273.66836540982308
 51
351.1279778094941
  0
LINE
  5
454A
  8
AM_1
 10
198.05085698453871
 20
89.144875547789198
 30
0.0
 11
198.02765698453879
 21
83.344875547789243
 31
0.0
  0
LINE
  5
454B
  8
AM_1
 10
198.02765698453879
 20
83.344875547788874
 30
0.0
 11
198.0214968837069
 21
81.804850339816795
 31
0.0
  0
ARC
  5
454C
  8
AM_1
 10
200.46087698445899
 20
66.64487554778907
 30
0.0
 40
2.5
 50
188.8720221905055
 51
266.33163459017692
  0
LINE
  5
454D
  8
AM_1
 10
201.05085698453891
 20
83.344875547788874
 30
0.0
 11
202.30085698453891
 21
89.144875547788956
 31
0.0
  0
LINE
  5
454E
  8
AM_1
 10
199.80085698453891
 20
89.144875547788857
 30
0.0
 11
201.05085698453891
 21
83.34487554778903
 31
0.0
  0
LINE
  5
454F
  8
AM_1
 10
201.05085698453911
 20
89.144875547789056
 30
0.0
 11
201.05085698453911
 21
83.34487554778913
 31
0.0
  0
LINE
  5
4550
  8
AM_1
 10
201.59773198453891
 20
80.326789615585128
 30
0.0
 11
204.08021708537089
 21
81.804850339817094
 31
0.0
  0
LINE
  5
4551
  8
AM_1
 10
202.5750889899617
 20
79.744875547789235
 30
0.0
 11
204.62445282432191
 21
80.96505777253401
 31
0.0
  0
LINE
  5
4552
  8
AM_1
 10
204.62445282432191
 20
78.524693323044161
 30
0.0
 11
202.57508898996181
 21
79.744875547788794
 31
0.0
  0
LINE
  5
4553
  8
AM_1
 10
203.6435749791161
 20
77.944875547788826
 30
0.0
 11
201.59773198453891
 21
79.162961479992703
 31
0.0
  0
LINE
  5
4554
  8
AM_1
 10
201.63672766262221
 20
76.7500074710197
 30
0.0
 11
203.6435749791161
 21
77.944875547788996
 31
0.0
  0
LINE
  5
4555
  8
AM_1
 10
202.5750889899619
 20
76.144875547788928
 30
0.0
 11
204.62445282432199
 21
77.365057772533589
 31
0.0
  0
LINE
  5
4556
  8
AM_1
 10
204.62445282432191
 20
74.924693323044025
 30
0.0
 11
202.5750889899619
 21
76.144875547788672
 31
0.0
  0
LINE
  5
4557
  8
AM_1
 10
203.6435749791159
 20
74.344875547788703
 30
0.0
 11
201.65260943060821
 21
75.53028768966287
 31
0.0
  0
LINE
  5
4558
  8
AM_1
 10
201.68324205759041
 20
73.177701937460284
 30
0.0
 11
203.6435749791161
 21
74.344875547789144
 31
0.0
  0
LINE
  5
4559
  8
AM_1
 10
202.57508898996181
 20
72.544875547788919
 30
0.0
 11
204.62445282432171
 21
73.765057772533581
 31
0.0
  0
LINE
  5
455A
  8
AM_1
 10
204.62445282432211
 20
71.324693323044428
 30
0.0
 11
202.57508898996221
 21
72.544875547789061
 31
0.0
  0
LINE
  5
455B
  8
AM_1
 10
203.64357497911621
 20
70.744875547789107
 30
0.0
 11
201.69985067053989
 21
71.902160462924513
 31
0.0
  0
LINE
  5
455C
  8
AM_1
 10
201.7297564525586
 20
69.605396403900741
 30
0.0
 11
203.64357497911621
 21
70.744875547789192
 31
0.0
  0
LINE
  5
455D
  8
AM_1
 10
202.57508898996201
 20
68.944875547789053
 30
0.0
 11
204.62445282432191
 21
70.165057772533856
 31
0.0
  0
LINE
  5
455E
  8
AM_1
 10
204.62445282432211
 20
67.724693323044235
 30
0.0
 11
202.57508898996181
 21
68.944875547788939
 31
0.0
  0
LINE
  5
455F
  8
AM_1
 10
203.6435749791161
 20
67.144875547788686
 30
0.0
 11
201.74709191047131
 21
68.27403323618546
 31
0.0
  0
LINE
  5
4560
  8
AM_1
 10
201.7762708475264
 20
66.03309087034107
 30
0.0
 11
203.64357497911621
 21
67.144875547789169
 31
0.0
  0
LINE
  5
4561
  8
AM_1
 10
201.79130828129729
 20
64.878215956760855
 30
0.0
 11
204.6244528243223
 21
66.565057772533919
 31
0.0
  0
LINE
  5
4562
  8
AM_1
 10
201.8007902884529
 20
64.149997807178693
 30
0.0
 11
201.57753806737301
 21
81.295768386117174
 31
0.0
  0
LINE
  5
4563
  8
AM_1
 10
201.57586258724581
 20
81.424445259881992
 30
0.0
 11
201.5223697546763
 21
85.532694801227294
 31
0.0
  0
LINE
  5
4564
  8
AM_1
 10
200.30092368062449
 20
64.149997807178721
 30
0.0
 11
200.5252327147461
 21
81.376931627717639
 31
0.0
  0
LINE
  5
4565
  8
AM_1
 10
200.5258513818317
 20
81.424445259882006
 30
0.0
 11
200.5793442144014
 21
85.532694801227223
 31
0.0
  0
LINE
  5
4566
  8
AM_1
 10
201.5775380673733
 20
79.150938110417954
 30
0.0
 11
201.59773198453931
 21
79.162961479992745
 31
0.0
  0
LINE
  5
4567
  8
AM_1
 10
201.597731984539
 20
80.326789615585156
 30
0.0
 11
201.57753806737321
 21
80.338812985159961
 31
0.0
  0
LINE
  5
4568
  8
AM_1
 10
204.0740569845386
 20
83.344875547789044
 30
0.0
 11
205.25085698453859
 21
89.144875547789169
 31
0.0
  0
LINE
  5
4569
  8
AM_1
 10
198.02765698453899
 20
83.344875547789101
 30
0.0
 11
196.85085698453901
 21
89.14487554778897
 31
0.0
  0
ARC
  5
456A
  8
AM_1
 10
201.12615642573579
 20
84.774603168607896
 30
0.0
 40
1.9907623756952451
 50
253.01710535129479
 51
282.51503343132748
  0
LINE
  5
456B
  8
AM_1
 10
197.9663755822254
 20
68.024524969437948
 30
0.0
 11
197.9737552740649
 21
69.869447929354081
 31
0.0
  0
LINE
  5
456C
  8
AM_1
 10
197.98077541614791
 20
71.62448344999261
 30
0.0
 11
197.9881550503234
 21
73.469391993885253
 31
0.0
  0
LINE
  5
456D
  8
AM_1
 10
197.99517512143279
 20
75.224409771281074
 30
0.0
 11
198.0025548199269
 21
77.069334394806759
 31
0.0
  0
LINE
  5
456E
  8
AM_1
 10
198.00957489103649
 20
78.824352172202396
 30
0.0
 11
198.0168526318333
 21
80.643787371389365
 31
0.0
  0
LINE
  5
456F
  8
AM_1
 10
200.50398198453919
 20
80.326789615585326
 30
0.0
 11
198.02149688370741
 21
81.804850339817008
 31
0.0
  0
LINE
  5
4570
  8
AM_1
 10
199.52662497911581
 20
79.74487554778905
 30
0.0
 11
197.47726114475569
 21
80.965057772533797
 31
0.0
  0
LINE
  5
4571
  8
AM_1
 10
197.4772611447558
 20
78.524693323044303
 30
0.0
 11
199.52662497911621
 21
79.744875547789121
 31
0.0
  0
LINE
  5
4572
  8
AM_1
 10
198.45813898996181
 20
77.944875547788854
 30
0.0
 11
200.50398198453919
 21
79.162961479992845
 31
0.0
  0
LINE
  5
4573
  8
AM_1
 10
200.46498630645601
 20
76.750007471019359
 30
0.0
 11
198.45813898996181
 21
77.944875547788897
 31
0.0
  0
LINE
  5
4574
  8
AM_1
 10
199.52662497911609
 20
76.144875547789013
 30
0.0
 11
197.47726114475589
 21
77.365057772533874
 31
0.0
  0
LINE
  5
4575
  8
AM_1
 10
197.4772611447562
 20
74.92469332304411
 30
0.0
 11
199.52662497911601
 21
76.144875547788601
 31
0.0
  0
LINE
  5
4576
  8
AM_1
 10
198.45813898996201
 20
74.344875547789115
 30
0.0
 11
200.44910453846941
 21
75.530287689663083
 31
0.0
  0
LINE
  5
4577
  8
AM_1
 10
200.41847191148781
 20
73.177701937459872
 30
0.0
 11
198.45813898996201
 21
74.34487554778886
 31
0.0
  0
LINE
  5
4578
  8
AM_1
 10
199.52662497911581
 20
72.544875547788891
 30
0.0
 11
197.47726114475589
 21
73.765057772533652
 31
0.0
  0
LINE
  5
4579
  8
AM_1
 10
197.47726114475611
 20
71.324693323044457
 30
0.0
 11
199.52662497911641
 21
72.544875547789204
 31
0.0
  0
LINE
  5
457A
  8
AM_1
 10
198.45813898996209
 20
70.744875547789064
 30
0.0
 11
200.4018632985383
 21
71.902160462924328
 31
0.0
  0
LINE
  5
457B
  8
AM_1
 10
200.37195751651939
 20
69.605396403900571
 30
0.0
 11
198.45813898996201
 21
70.744875547789107
 31
0.0
  0
LINE
  5
457C
  8
AM_1
 10
199.52662497911601
 20
68.944875547788996
 30
0.0
 11
197.4772611447558
 21
70.165057772533757
 31
0.0
  0
LINE
  5
457D
  8
AM_1
 10
197.47726114475589
 20
67.724693323044363
 30
0.0
 11
199.52662497911601
 21
68.944875547788882
 31
0.0
  0
LINE
  5
457E
  8
AM_1
 10
198.45813898996161
 20
67.144875547788828
 30
0.0
 11
200.35462205860671
 21
68.274033236185616
 31
0.0
  0
LINE
  5
457F
  8
AM_1
 10
200.32544312155139
 20
66.0330908703408
 30
0.0
 11
198.4581389899619
 21
67.144875547788999
 31
0.0
  0
LINE
  5
4580
  8
AM_1
 10
200.3104056877807
 20
64.878215956760641
 30
0.0
 11
197.4772611447558
 21
66.565057772533564
 31
0.0
  0
LINE
  5
4581
  8
AM_1
 10
204.070084927447
 20
84.337889820791588
 30
0.0
 11
201.53792711119249
 21
84.337889820791588
 31
0.0
  0
LINE
  5
4582
  8
AM_1
 10
200.5637868578853
 20
84.337889820791588
 30
0.0
 11
198.03162904163099
 21
84.337889820791588
 31
0.0
  0
LINE
  5
4583
  8
AM_1
 10
204.62445282432199
 20
66.56505777253372
 30
0.0
 11
204.62445282432199
 21
67.724693323044235
 31
0.0
  0
LINE
  5
4584
  8
AM_1
 10
204.62445282432199
 20
70.165057772533814
 30
0.0
 11
204.62445282432199
 21
71.324693323044343
 31
0.0
  0
LINE
  5
4585
  8
AM_1
 10
204.62445282432199
 20
73.765057772533751
 30
0.0
 11
204.62445282432199
 21
74.924693323044281
 31
0.0
  0
LINE
  5
4586
  8
AM_1
 10
204.62445282432199
 20
77.365057772533646
 30
0.0
 11
204.62445282432199
 21
78.524693323044417
 31
0.0
  0
LINE
  5
4587
  8
AM_1
 10
204.62445282432199
 20
80.965057772533797
 30
0.0
 11
204.62445282432199
 21
82.124693323044326
 31
0.0
  0
LINE
  5
4588
  8
AM_1
 10
204.62445282432211
 20
82.124693323044397
 30
0.0
 11
204.07763542272249
 21
82.450266001953977
 31
0.0
  0
LINE
  5
4589
  8
AM_1
 10
197.4772611447558
 20
66.56505777253372
 30
0.0
 11
197.4772611447558
 21
67.724693323044235
 31
0.0
  0
LINE
  5
458A
  8
AM_1
 10
197.4772611447558
 20
70.165057772533814
 30
0.0
 11
197.4772611447558
 21
71.324693323044343
 31
0.0
  0
LINE
  5
458B
  8
AM_1
 10
197.4772611447558
 20
73.765057772533751
 30
0.0
 11
197.4772611447558
 21
74.924693323044281
 31
0.0
  0
LINE
  5
458C
  8
AM_1
 10
197.4772611447558
 20
77.365057772533646
 30
0.0
 11
197.4772611447558
 21
78.524693323044417
 31
0.0
  0
LINE
  5
458D
  8
AM_1
 10
197.4772611447558
 20
80.965057772533797
 30
0.0
 11
197.4772611447558
 21
82.124693323044326
 31
0.0
  0
LINE
  5
458E
  8
AM_1
 10
197.47726114475569
 20
82.124693323044454
 30
0.0
 11
198.0240785463555
 21
82.450266001954049
 31
0.0
  0
LINE
  5
458F
  8
AM_7
 10
225.010856984539
 20
97.144875547789056
 30
0.0
 11
225.010856984539
 21
61.215488053068121
 31
0.0
  0
LINE
  5
4590
  8
AM_1
 10
229.21085698453911
 20
89.144875547788644
 30
0.0
 11
220.8108569845391
 21
89.144875547788786
 31
0.0
  0
LINE
  5
4591
  8
AM_1
 10
225.510856984539
 20
83.344875547789087
 30
0.0
 11
224.510856984539
 21
83.344875547789087
 31
0.0
  0
LINE
  5
4592
  8
AM_1
 10
228.09533838685221
 20
68.024524969437863
 30
0.0
 11
228.0879586950125
 21
69.869447929353854
 31
0.0
  0
LINE
  5
4593
  8
AM_1
 10
228.08093855293009
 20
71.624483449992454
 30
0.0
 11
228.0735589187546
 21
73.469391993885111
 31
0.0
  0
LINE
  5
4594
  8
AM_1
 10
228.06653884764461
 20
75.224409771280676
 30
0.0
 11
228.05915914915039
 21
77.069334394806418
 31
0.0
  0
LINE
  5
4595
  8
AM_1
 10
228.05213907804139
 20
78.824352172202637
 30
0.0
 11
228.04486133724461
 21
80.643787371389365
 31
0.0
  0
LINE
  5
4596
  8
AM_1
 10
228.03405698453901
 20
83.344875547788874
 30
0.0
 11
228.01085698453889
 21
89.144875547789098
 31
0.0
  0
LINE
  5
4597
  8
AM_1
 10
228.0402170853711
 20
81.804850339816923
 30
0.0
 11
228.03405698453909
 21
83.344875547788774
 31
0.0
  0
ARC
  5
4598
  8
AM_1
 10
225.60083698461909
 20
66.644875547789027
 30
0.0
 40
2.5
 50
273.66836540982308
 51
351.1279778094941
  0
LINE
  5
4599
  8
AM_1
 10
222.01085698453889
 20
89.144875547789127
 30
0.0
 11
221.98765698453889
 21
83.344875547789172
 31
0.0
  0
LINE
  5
459A
  8
AM_1
 10
221.98765698453869
 20
83.344875547788845
 30
0.0
 11
221.98149688370671
 21
81.804850339816767
 31
0.0
  0
ARC
  5
459B
  8
AM_1
 10
224.420876984459
 20
66.644875547789027
 30
0.0
 40
2.5
 50
188.8720221905055
 51
266.33163459017692
  0
LINE
  5
459C
  8
AM_1
 10
225.01085698453889
 20
83.344875547788817
 30
0.0
 11
226.26085698453889
 21
89.144875547788828
 31
0.0
  0
LINE
  5
459D
  8
AM_1
 10
223.760856984539
 20
89.144875547788786
 30
0.0
 11
225.010856984539
 21
83.344875547789016
 31
0.0
  0
LINE
  5
459E
  8
AM_1
 10
225.010856984539
 20
89.144875547789027
 30
0.0
 11
225.010856984539
 21
83.344875547789087
 31
0.0
  0
LINE
  5
459F
  8
AM_1
 10
225.55773198453889
 20
80.326789615585113
 30
0.0
 11
228.0402170853709
 21
81.804850339817094
 31
0.0
  0
LINE
  5
45A0
  8
AM_1
 10
226.53508898996159
 20
79.744875547789235
 30
0.0
 11
228.58445282432211
 21
80.965057772534024
 31
0.0
  0
LINE
  5
45A1
  8
AM_1
 10
228.5844528243218
 20
78.524693323044161
 30
0.0
 11
226.53508898996179
 21
79.74487554778878
 31
0.0
  0
LINE
  5
45A2
  8
AM_1
 10
227.6035749791161
 20
77.944875547788783
 30
0.0
 11
225.55773198453909
 21
79.162961479992674
 31
0.0
  0
LINE
  5
45A3
  8
AM_1
 10
225.59672766262219
 20
76.750007471019671
 30
0.0
 11
227.60357497911619
 21
77.944875547789024
 31
0.0
  0
LINE
  5
45A4
  8
AM_1
 10
226.53508898996191
 20
76.144875547788885
 30
0.0
 11
228.58445282432211
 21
77.365057772533518
 31
0.0
  0
LINE
  5
45A5
  8
AM_1
 10
228.58445282432189
 20
74.924693323043996
 30
0.0
 11
226.53508898996191
 21
76.144875547788644
 31
0.0
  0
LINE
  5
45A6
  8
AM_1
 10
227.6035749791159
 20
74.344875547788675
 30
0.0
 11
225.61260943060819
 21
75.530287689662842
 31
0.0
  0
LINE
  5
45A7
  8
AM_1
 10
225.64324205759019
 20
73.177701937460199
 30
0.0
 11
227.6035749791159
 21
74.344875547789087
 31
0.0
  0
LINE
  5
45A8
  8
AM_1
 10
226.53508898996179
 20
72.544875547788862
 30
0.0
 11
228.58445282432189
 21
73.765057772533581
 31
0.0
  0
LINE
  5
45A9
  8
AM_1
 10
228.58445282432211
 20
71.324693323044272
 30
0.0
 11
226.53508898996199
 21
72.54487554778899
 31
0.0
  0
LINE
  5
45AA
  8
AM_1
 10
227.60357497911619
 20
70.74487554778905
 30
0.0
 11
225.6598506705399
 21
71.902160462924471
 31
0.0
  0
LINE
  5
45AB
  8
AM_1
 10
225.6897564525587
 20
69.605396403900755
 30
0.0
 11
227.6035749791163
 21
70.744875547789235
 31
0.0
  0
LINE
  5
45AC
  8
AM_1
 10
226.53508898996199
 20
68.944875547789081
 30
0.0
 11
228.58445282432211
 21
70.165057772533814
 31
0.0
  0
LINE
  5
45AD
  8
AM_1
 10
228.58445282432211
 20
67.724693323044136
 30
0.0
 11
226.53508898996179
 21
68.944875547788868
 31
0.0
  0
LINE
  5
45AE
  8
AM_1
 10
227.60357497911599
 20
67.1448755477887
 30
0.0
 11
225.70709191047109
 21
68.27403323618536
 31
0.0
  0
LINE
  5
45AF
  8
AM_1
 10
225.73627084752661
 20
66.033090870341013
 30
0.0
 11
227.60357497911639
 21
67.144875547789212
 31
0.0
  0
LINE
  5
45B0
  8
AM_1
 10
225.7513082812973
 20
64.87821595676084
 30
0.0
 11
228.58445282432211
 21
66.565057772533862
 31
0.0
  0
LINE
  5
45B1
  8
AM_1
 10
225.76079028845299
 20
64.149997807178636
 30
0.0
 11
225.53753806737311
 21
81.295768386117103
 31
0.0
  0
LINE
  5
45B2
  8
AM_1
 10
225.53586258724579
 20
81.424445259881907
 30
0.0
 11
225.4823697546764
 21
85.532694801227237
 31
0.0
  0
LINE
  5
45B3
  8
AM_1
 10
224.26092368062459
 20
64.149997807178678
 30
0.0
 11
224.4852327147461
 21
81.376931627717596
 31
0.0
  0
LINE
  5
45B4
  8
AM_1
 10
224.48585138183171
 20
81.424445259881921
 30
0.0
 11
224.53934421440141
 21
85.532694801227123
 31
0.0
  0
LINE
  5
45B5
  8
AM_1
 10
225.53753806737319
 20
79.150938110417883
 30
0.0
 11
225.55773198453909
 21
79.162961479992745
 31
0.0
  0
LINE
  5
45B6
  8
AM_1
 10
225.557731984539
 20
80.326789615585156
 30
0.0
 11
225.53753806737339
 21
80.338812985159905
 31
0.0
  0
LINE
  5
45B7
  8
AM_1
 10
228.03405698453869
 20
83.344875547788945
 30
0.0
 11
229.21085698453879
 21
89.144875547789056
 31
0.0
  0
LINE
  5
45B8
  8
AM_1
 10
221.98765698453889
 20
83.34487554778903
 30
0.0
 11
220.8108569845391
 21
89.144875547788899
 31
0.0
  0
ARC
  5
45B9
  8
AM_1
 10
225.08615642573591
 20
84.774603168607825
 30
0.0
 40
1.9907623756952451
 50
253.01710535129479
 51
282.51503343132748
  0
LINE
  5
45BA
  8
AM_1
 10
221.92637558222521
 20
68.024524969437891
 30
0.0
 11
221.93375527406491
 21
69.86944792935401
 31
0.0
  0
LINE
  5
45BB
  8
AM_1
 10
221.9407754161478
 20
71.624483449992582
 30
0.0
 11
221.94815505032341
 21
73.46939199388521
 31
0.0
  0
LINE
  5
45BC
  8
AM_1
 10
221.95517512143289
 20
75.224409771281017
 30
0.0
 11
221.96255481992691
 21
77.069334394806759
 31
0.0
  0
LINE
  5
45BD
  8
AM_1
 10
221.9695748910365
 20
78.824352172202353
 30
0.0
 11
221.97685263183331
 21
80.643787371389294
 31
0.0
  0
LINE
  5
45BE
  8
AM_1
 10
224.4639819845392
 20
80.326789615585326
 30
0.0
 11
221.98149688370739
 21
81.804850339816994
 31
0.0
  0
LINE
  5
45BF
  8
AM_1
 10
223.4866249791159
 20
79.744875547788993
 30
0.0
 11
221.43726114475601
 21
80.965057772533754
 31
0.0
  0
LINE
  5
45C0
  8
AM_1
 10
221.43726114475581
 20
78.524693323044175
 30
0.0
 11
223.4866249791163
 21
79.74487554778905
 31
0.0
  0
LINE
  5
45C1
  8
AM_1
 10
222.4181389899619
 20
77.94487554778884
 30
0.0
 11
224.4639819845392
 21
79.162961479992845
 31
0.0
  0
LINE
  5
45C2
  8
AM_1
 10
224.42498630645611
 20
76.750007471019345
 30
0.0
 11
222.4181389899619
 21
77.944875547788897
 31
0.0
  0
LINE
  5
45C3
  8
AM_1
 10
223.4866249791161
 20
76.144875547789013
 30
0.0
 11
221.43726114475601
 21
77.365057772533831
 31
0.0
  0
LINE
  5
45C4
  8
AM_1
 10
221.43726114475641
 20
74.92469332304411
 30
0.0
 11
223.4866249791161
 21
76.144875547788601
 31
0.0
  0
LINE
  5
45C5
  8
AM_1
 10
222.41813898996199
 20
74.344875547788988
 30
0.0
 11
224.40910453846939
 21
75.530287689663012
 31
0.0
  0
LINE
  5
45C6
  8
AM_1
 10
224.37847191148791
 20
73.177701937459872
 30
0.0
 11
222.4181389899621
 21
74.344875547788888
 31
0.0
  0
LINE
  5
45C7
  8
AM_1
 10
223.4866249791157
 20
72.544875547788862
 30
0.0
 11
221.43726114475601
 21
73.765057772533609
 31
0.0
  0
LINE
  5
45C8
  8
AM_1
 10
221.43726114475621
 20
71.3246933230444
 30
0.0
 11
223.4866249791163
 21
72.544875547789147
 31
0.0
  0
LINE
  5
45C9
  8
AM_1
 10
222.41813898996199
 20
70.744875547789064
 30
0.0
 11
224.3618632985382
 21
71.902160462924328
 31
0.0
  0
LINE
  5
45CA
  8
AM_1
 10
224.33195751651951
 20
69.605396403900571
 30
0.0
 11
222.4181389899621
 21
70.744875547789164
 31
0.0
  0
LINE
  5
45CB
  8
AM_1
 10
223.4866249791161
 20
68.944875547788996
 30
0.0
 11
221.43726114475601
 21
70.165057772533814
 31
0.0
  0
LINE
  5
45CC
  8
AM_1
 10
221.43726114475609
 20
67.724693323044406
 30
0.0
 11
223.4866249791161
 21
68.944875547788868
 31
0.0
  0
LINE
  5
45CD
  8
AM_1
 10
222.4181389899617
 20
67.144875547788828
 30
0.0
 11
224.31462205860669
 21
68.274033236185531
 31
0.0
  0
LINE
  5
45CE
  8
AM_1
 10
224.28544312155159
 20
66.0330908703408
 30
0.0
 11
222.4181389899621
 21
67.144875547788956
 31
0.0
  0
LINE
  5
45CF
  8
AM_1
 10
224.27040568778079
 20
64.878215956760641
 30
0.0
 11
221.43726114475581
 21
66.565057772533549
 31
0.0
  0
LINE
  5
45D0
  8
AM_1
 10
228.03008492744709
 20
84.337889820791546
 30
0.0
 11
225.4979271111925
 21
84.337889820791546
 31
0.0
  0
LINE
  5
45D1
  8
AM_1
 10
224.5237868578854
 20
84.337889820791546
 30
0.0
 11
221.99162904163111
 21
84.337889820791546
 31
0.0
  0
LINE
  5
45D2
  8
AM_1
 10
228.58445282432211
 20
66.565057772533663
 30
0.0
 11
228.58445282432211
 21
67.724693323044193
 31
0.0
  0
LINE
  5
45D3
  8
AM_1
 10
228.58445282432211
 20
70.165057772533785
 30
0.0
 11
228.58445282432211
 21
71.324693323044315
 31
0.0
  0
LINE
  5
45D4
  8
AM_1
 10
228.58445282432211
 20
73.765057772533694
 30
0.0
 11
228.58445282432211
 21
74.924693323044224
 31
0.0
  0
LINE
  5
45D5
  8
AM_1
 10
228.58445282432211
 20
77.365057772533589
 30
0.0
 11
228.58445282432211
 21
78.52469332304436
 31
0.0
  0
LINE
  5
45D6
  8
AM_1
 10
228.58445282432211
 20
80.965057772533754
 30
0.0
 11
228.58445282432211
 21
82.124693323044269
 31
0.0
  0
LINE
  5
45D7
  8
AM_1
 10
228.58445282432211
 20
82.124693323044326
 30
0.0
 11
228.0376354227223
 21
82.450266001953892
 31
0.0
  0
LINE
  5
45D8
  8
AM_1
 10
221.43726114475601
 20
66.565057772533663
 30
0.0
 11
221.43726114475601
 21
67.724693323044193
 31
0.0
  0
LINE
  5
45D9
  8
AM_1
 10
221.43726114475601
 20
70.165057772533785
 30
0.0
 11
221.43726114475601
 21
71.324693323044315
 31
0.0
  0
LINE
  5
45DA
  8
AM_1
 10
221.43726114475601
 20
73.765057772533694
 30
0.0
 11
221.43726114475601
 21
74.924693323044224
 31
0.0
  0
LINE
  5
45DB
  8
AM_1
 10
221.43726114475601
 20
77.365057772533589
 30
0.0
 11
221.43726114475601
 21
78.52469332304436
 31
0.0
  0
LINE
  5
45DC
  8
AM_1
 10
221.43726114475601
 20
80.965057772533754
 30
0.0
 11
221.43726114475601
 21
82.124693323044269
 31
0.0
  0
LINE
  5
45DD
  8
AM_1
 10
221.43726114475581
 20
82.124693323044397
 30
0.0
 11
221.98407854635559
 21
82.450266001953935
 31
0.0
  0
CIRCLE
  5
45DE
  8
0
 10
201.07585698453889
 20
244.42790007350871
 30
0.0
 40
4.25
  0
CIRCLE
  5
45DF
  8
0
 10
201.07585698453889
 20
244.42790007350871
 30
0.0
 40
2.25
  0
ARC
  5
45E0
  8
0
 10
225.03835698453889
 20
258.26265589896502
 30
0.0
 40
4.25
 50
348.67271313819111
 51
191.32728686180849
  0
ARC
  5
45E1
  8
0
 10
225.03835698453889
 20
258.26265589896502
 30
0.0
 40
2.25
 50
338.22253716148612
 51
201.777462838514
  0
ARC
  5
45E2
  8
0
 10
225.03835698453881
 20
230.5931442480522
 30
0.0
 40
4.25
 50
168.67271313818989
 51
11.327286861810061
  0
ARC
  5
45E3
  8
0
 10
225.03835698453881
 20
230.5931442480522
 30
0.0
 40
2.25
 50
158.22253716148381
 51
21.777462838516129
  0
POINT
  5
45E4
  8
AM_1
 10
217.05085698453891
 20
86.144875547789042
 30
0.0
  0
CIRCLE
  5
45EF
  8
AM_7
 10
217.05085698453891
 20
244.42790007350871
 30
0.0
 40
16.0
  0
INSERT
  5
45FA
  8
AM_5
  2
*S35
 10
0.0
 20
0.0
 30
0.0
  0
INSERT
  5
46A1
  8
AM_5
  2
*S36
 10
0.0
 20
0.0
 30
0.0
  0
VIEWPORT
  5
95A
 67
     1
  8
0
  6
CONTINUOUS
 10
128.5
 20
97.5
 30
0.0
 40
386.73855140186919
 41
222.18000000000001
 68
     1
 69
     1
1001
ACAD
1000
MVIEW
1002
{
1070
    16
1010
0.0
1020
0.0
1030
0.0
1010
0.0
1020
0.0
1030
1.0
1040
0.0
1040
222.18000000000001
1040
128.5
1040
97.5
1040
50.0
1040
0.0
1040
0.0
1070
     0
1070
   100
1070
     1
1070
     1
1070
     0
1070
     0
1070
     0
1070
     0
1040
0.0
1040
0.0
1040
0.0
1040
10.0
1040
10.0
1040
10.0
1040
10.0
1070
     0
1002
{
1002
}
1002
}
1001
GENIUS_GENODEF_13
1002
{
1000
HIER
1070
     0
1002
}
1002
{
1000
MANEDIT
1070
     0
1002
}
1002
{
1000
NOSEL
1070
     0
1002
}
1002
{
1000
BEHIND
1070
     0
1002
}
1002
{
1000
OTHER
1070
     0
1002
}
1002
{
1000
REACTOR
1002
}
1001
GENIUS_GENOBJ-N-SDF_13
1002
{
1000
OWNER
1000
GEN
1002
}
1001
GENIUS_GENSCREG_15
1000
PF
1040
1.0
1000
DF
1040
1.0
1000
MIN
1011
-64.869275700934566
1021
0.0
1031
0.0
1021
-13.59
1031
0.0
1000
MAX
1011
321.86927570093462
1021
0.0
1031
0.0
1021
208.59
1031
0.0
1000
FLAGS
1070
     4
  0
ENDSEC
  0
EOF
