  0
SECTION
  2
HEADER
  9
$ACADVER
  1
AC1009
  9
$INSBASE
 10
0.0
 20
0.0
 30
0.0
  9
$EXTMIN
 10
24.994098993708239
 20
8.9957915303964455
 30
-0.0000000000112498
  9
$EXTMAX
 10
412.00590641294963
 20
285.0042123255144
 30
0.0000000000002956
  9
$LIMMIN
 10
24.999999999999979
 20
8.9999999999999964
  9
$LIMMAX
 10
411.99999999999989
 20
284.99999999999989
  9
$ORTHOMODE
 70
     0
  9
$REGENMODE
 70
     1
  9
$FILLMODE
 70
     1
  9
$QTEXTMODE
 70
     0
  9
$MIRRTEXT
 70
     1
  9
$DRAGMODE
 70
     2
  9
$LTSCALE
 40
5.0
  9
$OSMODE
 70
    39
  9
$ATTMODE
 70
     1
  9
$TEXTSIZE
 40
3.0
  9
$TRACEWID
 40
0.05
  9
$TEXTSTYLE
  7
STANDARD
  9
$CLAYER
  8
0
  9
$CELTYPE
  6
BYLAYER
  9
$CECOLOR
 62
   256
  9
$DIMSCALE
 40
1.0
  9
$DIMASZ
 40
2.5
  9
$DIMEXO
 40
1.0
  9
$DIMDLI
 40
7.0
  9
$DIMRND
 40
0.0
  9
$DIMDLE
 40
0.0
  9
$DIMEXE
 40
1.0
  9
$DIMTP
 40
0.1
  9
$DIMTM
 40
0.1
  9
$DIMTXT
 40
3.0
  9
$DIMCEN
 40
0.0
  9
$DIMTSZ
 40
0.0
  9
$DIMTOL
 70
     0
  9
$DIMLIM
 70
     0
  9
$DIMTIH
 70
     0
  9
$DIMTOH
 70
     0
  9
$DIMSE1
 70
     0
  9
$DIMSE2
 70
     0
  9
$DIMTAD
 70
     3
  9
$DIMZIN
 70
     8
  9
$DIMBLK
  1
OPEN30
  9
$DIMASO
 70
     1
  9
$DIMSHO
 70
     1
  9
$DIMPOST
  1

  9
$DIMAPOST
  1
"
  9
$DIMALT
 70
     0
  9
$DIMALTD
 70
     2
  9
$DIMALTF
 40
0.0393701
  9
$DIMLFAC
 40
1.0
  9
$DIMTOFL
 70
     1
  9
$DIMTVP
 40
0.0
  9
$DIMTIX
 70
     0
  9
$DIMSOXD
 70
     0
  9
$DIMSAH
 70
     0
  9
$DIMBLK1
  1

  9
$DIMBLK2
  1

  9
$DIMSTYLE
  2
AM_JIS
  9
$DIMCLRD
 70
     7
  9
$DIMCLRE
 70
     7
  9
$DIMCLRT
 70
     7
  9
$DIMTFAC
 40
0.71
  9
$DIMGAP
 40
1.0
  9
$LUNITS
 70
     2
  9
$LUPREC
 70
     4
  9
$SKETCHINC
 40
0.1
  9
$FILLETRAD
 40
0.0
  9
$AUNITS
 70
     0
  9
$AUPREC
 70
     0
  9
$MENU
  1
acad
  9
$ELEVATION
 40
0.0
  9
$PELEVATION
 40
0.0
  9
$THICKNESS
 40
0.0
  9
$LIMCHECK
 70
     0
  9
$BLIPMODE
 70
     0
  9
$CHAMFERA
 40
0.0
  9
$CHAMFERB
 40
0.0
  9
$SKPOLY
 70
     0
  9
$TDCREATE
 40
2455755.6568701151
  9
$TDUPDATE
 40
2457185.5980144101
  9
$TDINDWG
 40
0.3888056481
  9
$TDUSRTIMER
 40
0.388805463
  9
$USRTIMER
 70
     1
  9
$ANGBASE
 50
0.0
  9
$ANGDIR
 70
     0
  9
$PDMODE
 70
     0
  9
$PDSIZE
 40
0.0
  9
$PLINEWID
 40
0.0
  9
$COORDS
 70
     1
  9
$SPLFRAME
 70
     0
  9
$SPLINETYPE
 70
     6
  9
$SPLINESEGS
 70
     8
  9
$ATTDIA
 70
     1
  9
$ATTREQ
 70
     1
  9
$HANDLING
 70
     1
  9
$HANDSEED
  5
464E
  9
$SURFTAB1
 70
     6
  9
$SURFTAB2
 70
     6
  9
$SURFTYPE
 70
     6
  9
$SURFU
 70
     6
  9
$SURFV
 70
     6
  9
$UCSNAME
  2

  9
$UCSORG
 10
0.0
 20
0.0
 30
0.0
  9
$UCSXDIR
 10
1.0
 20
0.0
 30
0.0
  9
$UCSYDIR
 10
0.0
 20
1.0
 30
0.0
  9
$PUCSNAME
  2

  9
$PUCSORG
 10
0.0
 20
0.0
 30
0.0
  9
$PUCSXDIR
 10
1.0
 20
0.0
 30
0.0
  9
$PUCSYDIR
 10
0.0
 20
1.0
 30
0.0
  9
$USERI1
 70
     0
  9
$USERI2
 70
     0
  9
$USERI3
 70
     0
  9
$USERI4
 70
     0
  9
$USERI5
 70
     0
  9
$USERR1
 40
0.0
  9
$USERR2
 40
0.0
  9
$USERR3
 40
0.0
  9
$USERR4
 40
0.0
  9
$USERR5
 40
0.0
  9
$WORLDVIEW
 70
     1
  9
$SHADEDGE
 70
     3
  9
$SHADEDIF
 70
    70
  9
$TILEMODE
 70
     1
  9
$MAXACTVP
 70
    16
  9
$PLIMCHECK
 70
     0
  9
$PEXTMIN
 10
1.0000000000000000E+020
 20
1.0000000000000000E+020
 30
1.0000000000000000E+020
  9
$PEXTMAX
 10
-1.0000000000000000E+020
 20
-1.0000000000000000E+020
 30
-1.0000000000000000E+020
  9
$PLIMMIN
 10
-20.0
 20
-7.5
  9
$PLIMMAX
 10
277.0
 20
202.5
  9
$UNITMODE
 70
     0
  9
$VISRETAIN
 70
     0
  9
$PLINEGEN
 70
     1
  9
$PSLTSCALE
 70
     0
  0
ENDSEC
  0
SECTION
  2
TABLES
  0
TABLE
  2
VPORT
 70
     1
  0
VPORT
  2
*ACTIVE
 70
     0
 10
0.0
 20
0.0
 11
1.0
 21
1.0
 12
218.5000027033289
 22
147.00000192795531
 13
0.0
 23
0.0
 14
2.5
 24
2.5
 15
10.0
 25
10.0
 16
0.0
 26
0.0
 36
1.0
 17
0.0
 27
0.0
 37
0.0
 40
278.35216433849757
 41
2.172073342736248
 42
50.0
 43
0.0
 44
0.0
 50
0.0
 51
0.0
 71
     0
 72
   100
 73
     1
 74
     3
 75
     0
 76
     0
 77
     0
 78
     1
  0
ENDTAB
  0
TABLE
  2
LTYPE
 70
    22
  0
LTYPE
  2
CONTINUOUS
 70
     0
  3
Solid line (NEC CAE2D for Win R7.2 : 2008.02.20
 72
    65
 73
     0
 40
0.0
  0
LTYPE
  2
HIDDEN
 70
     0
  3
Hidden __ __ __ __ __ __ __ __ __ __ __ __ __ _
 72
    65
 73
     2
 40
0.375
 49
0.25
 49
-0.125
  0
LTYPE
  2
PHANTOM2
 70
     0
  3
Phantom (.5x) ___ _ _ ___ _ _ ___ _ _ ___ _ _
 72
    65
 73
     6
 40
1.25
 49
0.625
 49
-0.125
 49
0.125
 49
-0.125
 49
0.125
 49
-0.125
  0
LTYPE
  2
CENTER
 70
     0
  3
Center ____ _ ____ _ ____ _ ____ _ ____ _ ____
 72
    65
 73
     4
 40
2.0
 49
1.25
 49
-0.25
 49
0.25
 49
-0.25
  0
LTYPE
  2
CENTER2
 70
     0
  3
Center (.5x) ___ _ ___ _ ___ _ ___ _ ___ _ ___
 72
    65
 73
     4
 40
1.125
 49
0.75
 49
-0.125
 49
0.125
 49
-0.125
  0
LTYPE
  2
HIDDEN2
 70
     0
  3
Hidden (.5x) _ _ _ _ _ _ _ _ _ _ _ _ _ _ _ _ _
 72
    65
 73
     2
 40
0.1875
 49
0.125
 49
-0.0625
  0
LTYPE
  2
ACANSTGB
 70
     0
  3
__ . . __ . .
 72
    65
 73
     6
 40
0.35433070866
 49
0.15748031496
 49
-0.03937007874
 49
0.03937007874
 49
-0.03937007874
 49
0.03937007874
 49
-0.03937007874
  0
LTYPE
  2
ACANSTGL
 70
     0
  3
_ _ _ _ _
 72
    65
 73
     2
 40
0.11811023622
 49
0.07874015748
 49
-0.03937007874
  0
LTYPE
  2
ACJISWELD
 70
     0
  3
_ _ _ _ _
 72
    65
 73
     2
 40
2.0
 49
2.0
 49
-1.0
  0
LTYPE
  2
ACJISTGB
 70
     0
  3
__ . . __ . .
 72
    65
 73
     6
 40
9.0
 49
4.0
 49
-1.0
 49
1.0
 49
-1.0
 49
1.0
 49
-1.0
  0
LTYPE
  2
ACJISTGL
 70
     0
  3
_ _ _ _ _
 72
    65
 73
     2
 40
3.0
 49
2.0
 49
-1.0
  0
LTYPE
  2
ACISOWELD
 70
     0
  3
_ _ _ _ _
 72
    65
 73
     2
 40
2.0
 49
2.0
 49
-1.0
  0
LTYPE
  2
ACISOTGB
 70
     0
  3
__ . . __ . .
 72
    65
 73
     6
 40
9.0
 49
4.0
 49
-1.0
 49
1.0
 49
-1.0
 49
1.0
 49
-1.0
  0
LTYPE
  2
ACISOTGL
 70
     0
  3
_ _ _ _ _
 72
    65
 73
     2
 40
3.0
 49
2.0
 49
-1.0
  0
LTYPE
  2
PHANTOM
 70
     0
  3
____ _ _ ____ _ _ ____ _ _ ____ _ _ ____
 72
    65
 73
     6
 40
2.5
 49
1.25
 49
-0.25
 49
0.25
 49
-0.25
 49
0.25
 49
-0.25
  0
LTYPE
  2
AM_ISO02W050
 70
     0
  3
__ __ __ __ __ __ __ __ __ __ __ __ __ __ __
 72
    65
 73
     2
 40
7.5
 49
6.0
 49
-1.5
  0
LTYPE
  2
AM_ISO08W050
 70
     0
  3
____ . ____ . ____ . ____ . ____ . ____ . ____
 72
    65
 73
     4
 40
18.0
 49
12.0
 49
-1.5
 49
3.0
 49
-1.5
  0
LTYPE
  2
AM_ISO09W050
 70
     0
  3
_____ . . _____ . . _____ . . ____ .. ____
 72
    65
 73
     6
 40
22.5
 49
12.0
 49
-1.5
 49
3.0
 49
-1.5
 49
3.0
 49
-1.5
  0
LTYPE
  2
AMCONSTR
 70
     0
  3
_______________________
 72
    65
 73
     2
 40
9999.0
 49
9999.0
 49
0.0
  0
LTYPE
  2
AM_ISO08W050X2
 70
     0
  3
__ . __ . __ . __ . __ . __
 72
    65
 73
     4
 40
9.0
 49
6.0
 49
-0.75
 49
1.5
 49
-0.75
  0
LTYPE
  2
AM_ISO02W050X2
 70
     0
  3
 _ _ _ _ _ _ _ _ _ _ _ _
 72
    65
 73
     2
 40
3.75
 49
3.0
 49
-0.75
  0
LTYPE
  2
AMZIGZAG
 70
     0
  3
/\/-/\/-/\/-/\/-/\/-/\/
 72
    65
 73
     2
 40
11.0001
 49
0.0001
 49
-11.0
  0
ENDTAB
  0
TABLE
  2
LAYER
 70
    21
  0
LAYER
  2
0
 70
     0
 62
     3
  6
CONTINUOUS
  0
LAYER
  2
SYS-BUHIN0
 70
     0
 62
     7
  6
CONTINUOUS
  0
LAYER
  2
AM_0
 70
     0
 62
     3
  6
CONTINUOUS
  0
LAYER
  2
DEFPOINTS
 70
     0
 62
     7
  6
CONTINUOUS
  0
LAYER
  2
AM_5
 70
     0
 62
     7
  6
CONTINUOUS
  0
LAYER
  2
AM_BOR
 70
     0
 62
     7
  6
CONTINUOUS
  0
LAYER
  2
SYS-BUHINCODE
 70
     0
 62
     7
  6
CONTINUOUS
  0
LAYER
  2
AM_7
 70
     0
 62
     4
  6
CENTER
  0
LAYER
  2
AM_3
 70
     0
 62
     7
  6
HIDDEN
  0
LAYER
  2
AM_12
 70
     0
 62
   253
  6
CONTINUOUS
  0
LAYER
  2
AM_PAREF
 70
     0
 62
     4
  6
CONTINUOUS
  0
LAYER
  2
AM_6
 70
     0
 62
     7
  6
CONTINUOUS
  0
LAYER
  2
AM_8
 70
     0
 62
   253
  6
CONTINUOUS
  0
LAYER
  2
AM_4
 70
     0
 62
     6
  6
CONTINUOUS
  0
LAYER
  2
AM_10
 70
     0
 62
     7
  6
CONTINUOUS
  0
LAYER
  2
AM_CL
 70
     0
 62
     1
  6
CONTINUOUS
  0
LAYER
  2
AM_2
 70
     0
 62
     5
  6
PHANTOM2
  0
LAYER
  2
AM_1N
 70
     0
 62
    14
  6
CONTINUOUS
  0
LAYER
  2
AM_1
 70
     0
 62
    14
  6
PHANTOM2
  0
LAYER
  2
AM_9
 70
     0
 62
    -7
  6
CONTINUOUS
  0
LAYER
  2
SYS-TEISEI0
 70
     0
 62
     7
  6
CONTINUOUS
  0
ENDTAB
  0
TABLE
  2
STYLE
 70
    14
  0
STYLE
  2
STANDARD
 70
     0
 40
0.0
 41
1.0
 50
0.0
 71
     0
 42
3.0
  3
dim.shx
  4
extfont.shx
  0
STYLE
  2
KNJYOKO
 70
     0
 40
0.0
 41
1.0
 50
0.0
 71
     0
 42
3.099999904632567
  3
TXT.shx
  4
extfont.shx
  0
STYLE
  2
ACANSTS
 70
     0
 40
1.0
 41
1.0
 50
0.0
 71
     0
 42
0.2
  3
romans.shx
  4
extfont.shx
  0
STYLE
  2
ACANSGDT
 70
     0
 40
0.0
 41
1.0
 50
0.0
 71
     0
 42
0.2
  3
amgdt.shx
  4

  0
STYLE
  2
ACJISTS
 70
     0
 40
1.0
 41
1.0
 50
0.0
 71
     0
 42
0.2
  3
isocp.shx
  4
extfont.shx
  0
STYLE
  2
ACJISGDT
 70
     0
 40
0.0
 41
1.0
 50
0.0
 71
     0
 42
0.2
  3
amgdt.shx
  4

  0
STYLE
  2
MINNTYOU
 70
     0
 40
0.0
 41
1.0
 50
0.0
 71
     0
 42
3.0
  3
txt
  4

  0
STYLE
  2
R寸法
 70
     0
 40
2.0
 41
1.0
 50
0.0
 71
     0
 42
3.0
  3
dim.shx
  4
extfont.shx
  0
STYLE
  2
ANKTATE
 70
     4
 40
0.0
 41
1.0
 50
0.0
 71
     0
 42
3.099999904632567
  3
TXT
  4

  0
STYLE
  2
KNJTATE
 70
     4
 40
0.0
 41
1.0
 50
0.0
 71
     0
 42
3.099999904632567
  3
TXT
  4
BIGFONT
  0
STYLE
  2
ACISOTS
 70
     0
 40
1.0
 41
1.0
 50
0.0
 71
     0
 42
2.5
  3
isocp.shx
  4
extfont.shx
  0
STYLE
  2
ACISOGDT
 70
     0
 40
0.0
 41
1.0
 50
0.0
 71
     0
 42
2.5
  3
amgdt.shx
  4

  0
STYLE
  2

 70
     1
 40
0.0
 41
1.0
 50
0.0
 71
     0
 42
3.0
  3
genltshp.shx
  4

  0
ENDTAB
  0
TABLE
  2
VIEW
 70
     7
  0
VIEW
  2
AM_VIEW1
 70
     0
 40
137.99999999999989
 10
151.8531375166888
 20
215.99999999999989
 41
253.70627503337769
 11
0.0
 21
0.0
 31
1.0
 12
0.0
 22
0.0
 32
0.0
 42
50.0
 43
0.0
 44
0.0
 50
0.0
 71
     0
  0
VIEW
  2
AM_VIEW2
 70
     0
 40
137.99999999999989
 10
285.146862483311
 20
215.99999999999989
 41
253.70627503337769
 11
0.0
 21
0.0
 31
1.0
 12
0.0
 22
0.0
 32
0.0
 42
50.0
 43
0.0
 44
0.0
 50
0.0
 71
     0
  0
VIEW
  2
AM_VIEW3
 70
     0
 40
137.99999999999989
 10
151.8531375166888
 20
77.999999999999972
 41
253.70627503337769
 11
0.0
 21
0.0
 31
1.0
 12
0.0
 22
0.0
 32
0.0
 42
50.0
 43
0.0
 44
0.0
 50
0.0
 71
     0
  0
VIEW
  2
AM_VIEW4
 70
     0
 40
137.99999999999989
 10
285.146862483311
 20
77.999999999999972
 41
253.70627503337769
 11
0.0
 21
0.0
 31
1.0
 12
0.0
 22
0.0
 32
0.0
 42
50.0
 43
0.0
 44
0.0
 50
0.0
 71
     0
  0
VIEW
  2
AM_VIEW5
 70
     0
 40
137.99999999999989
 10
218.49999999999989
 20
146.99999999999989
 41
253.70627503337769
 11
0.0
 21
0.0
 31
1.0
 12
0.0
 22
0.0
 32
0.0
 42
50.0
 43
0.0
 44
0.0
 50
0.0
 71
     0
  0
VIEW
  2
AM_VIEW6
 70
     0
 40
275.99723999999992
 10
218.49999999999989
 20
146.99999999999989
 41
507.4074759412548
 11
0.0
 21
0.0
 31
1.0
 12
0.0
 22
0.0
 32
0.0
 42
50.0
 43
0.0
 44
0.0
 50
0.0
 71
     0
  0
ENDTAB
  0
TABLE
  2
UCS
 70
     0
  0
ENDTAB
  0
TABLE
  2
APPID
 70
    60
  0
APPID
  2
ACAD
 70
     0
  0
APPID
  2
ACADANNOTATIVE
 70
     0
  0
APPID
  2
ACAD_MLEADERVER
 70
     0
  0
APPID
  2
MCAD_NO_VIS
 70
     0
  0
APPID
  2
ACAD_TEMP_GRAPHIC
 70
     0
  0
APPID
  2
AD_DRAW
 70
     0
  0
APPID
  2
ACATTRIBSERVICES
 70
     0
  0
APPID
  2
DESIGNERASSEMBLIES
 70
     0
  0
APPID
  2
ACADM_DIM_EDIT
 70
     0
  0
APPID
  2
AMDT_DM_ADJ
 70
     0
  0
APPID
  2
ACADANNOPO
 70
     0
  0
APPID
  2
ACAECLAYERSTANDARD
 70
     0
  0
APPID
  2
ACDBDYNAMICBLOCKGUID
 70
     0
  0
APPID
  2
ACDBBLOCKREPETAG
 70
     0
  0
APPID
  2
ACAUTHENVIRON
 70
     0
  0
APPID
  2
ACDBDYNAMICBLOCKTRUENAME
 70
     0
  0
APPID
  2
GENIUS_GENREC_14
 70
     0
  0
APPID
  2
GENIUS_GENOBJ-N-REC_13
 70
     0
  0
APPID
  2
GENIUS_GENODEF_13
 70
     0
  0
APPID
  2
ACAD_EXEMPT_FROM_CAD_STANDARDS
 70
     0
  0
APPID
  2
GENIUS_GENOBJ-N-CEN_13
 70
     0
  0
APPID
  2
GENIUS_GENCEN_19
 70
     0
  0
APPID
  2
ACAD_DSTYLE_DIMINSPECT
 70
     0
  0
APPID
  2
DCO15
 70
     0
  0
APPID
  2
ACAD_PSEXT
 70
     0
  0
APPID
  2
GENIUS_GENBH_13
 70
     0
  0
APPID
  2
GENIUS_GENOENT_13
 70
     0
  0
APPID
  2
GENIUS_GENOLIS_13
 70
     0
  0
APPID
  2
GENIUS_GENOBJ-NBEHI-BHF_13
 70
     0
  0
APPID
  2
GENIUS_GENOREF_13
 70
     0
  0
APPID
  2
GENIUS_GENOBJ-NBEHI-BHB_13
 70
     0
  0
APPID
  2
AMG_2DHIDE
 70
     0
  0
APPID
  2
AMG_2DSTRUCT_BTR
 70
     0
  0
APPID
  2
GENIUS_AMGTXT_16
 70
     0
  0
APPID
  2
GENIUS_GENOBJ-N-HTC_13
 70
     0
  0
APPID
  2
GENIUS_GENHATCH_13
 70
     0
  0
APPID
  2
GEVID1208849169
 70
     0
  0
APPID
  2
GEVDC
 70
     0
  0
APPID
  2
ACADM_2DVIEW_IGN_NOTIFY
 70
     0
  0
APPID
  2
GEVID1208849170
 70
     0
  0
APPID
  2
GEVID1208849171
 70
     0
  0
APPID
  2
GEVRADREF
 70
     0
  0
APPID
  2
ACAD_DSTYLE_DIMJAG
 70
     0
  0
APPID
  2
ACAD_DSTYLE_DIMTALN
 70
     0
  0
APPID
  2
GENIUS_GENDTOL_13
 70
     0
  0
APPID
  2
GENIUS_GENTRA_14
 70
     0
  0
APPID
  2
GENIUS_GENOBJ-N-TIT_13
 70
     0
  0
APPID
  2
GENIUS_GENTITLE_13
 70
     0
  0
APPID
  2
GENIUS_GENSCREG_15
 70
     0
  0
APPID
  2
GENIUS_GENOBJ-N-SDF_13
 70
     0
  0
APPID
  2
ACAD_DSTYLE_DIMRADIAL_EXTENSION
 70
     0
  0
APPID
  2
GENIUS_GENOBJ-N-FIL_13
 70
     0
  0
APPID
  2
GENIUS_GENOBJ-N-CRS_13
 70
     0
  0
APPID
  2
GENIUS_GENDIMSH_14
 70
     0
  0
APPID
  2
ACAD_DSTYLE_DIMANGULAR_EXT
 70
     0
  0
APPID
  2
ACAD_NAV_VCDISPLAY
 70
     0
  0
APPID
  2
ACAD_DSTYLE_DIMBREAK
 70
     0
  0
APPID
  2
GENIUS_GENSCREG_13
 70
     0
  0
APPID
  2
CONTENTBLOCKICON
 70
     0
  0
APPID
  2
AcDbAttr
 70
     0
  0
ENDTAB
  0
TABLE
  2
DIMSTYLE
 70
    26
  0
DIMSTYLE
  2
STANDARD
 70
     0
  3

  4

  5

  6

  7

 40
1.0
 41
1.0
 42
0.8
 43
0.38
 44
1.0
 45
0.0
 46
0.0
 47
0.0
 48
0.0
140
3.1000000000000001
141
0.09
142
0.0
143
25.399999999999999
144
1.0
145
0.5
146
1.0
147
0.09
 71
     0
 72
     0
 73
     0
 74
     0
 75
     0
 76
     0
 77
     1
 78
     0
170
     0
171
     2
172
     0
173
     0
174
     0
175
     0
176
     0
177
     0
178
     0
  0
DIMSTYLE
  2
AM_ANSI
 70
     0
  3

  4
mm
  5

  6

  7

 40
1.0
 41
0.1
 42
0.05
 43
0.5
 44
0.1
 45
0.0
 46
0.0
 47
0.1
 48
0.1
140
0.12
141
0.0
142
0.0
143
25.399999999999999
144
1.0
145
0.0
146
0.71
147
0.06
 71
     0
 72
     0
 73
     1
 74
     1
 75
     0
 76
     0
 77
     0
 78
     7
170
     0
171
     2
172
     0
173
     0
174
     0
175
     0
176
   256
177
   256
178
     2
  0
DIMSTYLE
  2
AM_ANSI$3
 70
     0
  3

  4
mm
  5

  6

  7

 40
1.0
 41
0.1
 42
0.05
 43
0.5
 44
0.1
 45
0.0
 46
0.0
 47
0.1
 48
0.1
140
0.12
141
0.0
142
0.0
143
25.399999999999999
144
1.0
145
0.0
146
0.71
147
0.06
 71
     0
 72
     0
 73
     1
 74
     1
 75
     0
 76
     0
 77
     0
 78
     7
170
     0
171
     2
172
     0
173
     0
174
     0
175
     0
176
   256
177
   256
178
     2
  0
DIMSTYLE
  2
AM_ANSI$4
 70
     0
  3

  4
mm
  5

  6

  7

 40
1.0
 41
0.1
 42
0.05
 43
0.5
 44
0.1
 45
0.0
 46
0.0
 47
0.1
 48
0.1
140
0.12
141
0.0
142
0.0
143
25.399999999999999
144
1.0
145
0.0
146
0.71
147
0.06
 71
     0
 72
     0
 73
     1
 74
     1
 75
     0
 76
     0
 77
     0
 78
     7
170
     0
171
     2
172
     0
173
     0
174
     0
175
     0
176
   256
177
   256
178
     2
  0
DIMSTYLE
  2
AM_ANSI$7
 70
     0
  3

  4
mm
  5

  6

  7

 40
1.0
 41
0.1
 42
0.05
 43
0.5
 44
0.1
 45
0.0
 46
0.0
 47
0.1
 48
0.1
140
0.24
141
0.0
142
0.0
143
25.399999999999999
144
1.0
145
0.0
146
0.71
147
0.06
 71
     0
 72
     0
 73
     1
 74
     1
 75
     0
 76
     0
 77
     0
 78
     7
170
     0
171
     2
172
     0
173
     0
174
     0
175
     0
176
   256
177
   256
178
     2
  0
DIMSTYLE
  2
AM_ANSI$SF
 70
     0
  3

  4
mm
  5

  6

  7

 40
1.0
 41
0.1
 42
0.05
 43
0.5
 44
0.1
 45
0.0
 46
0.0
 47
0.1
 48
0.1
140
0.12
141
0.0
142
0.0
143
25.399999999999999
144
1.0
145
0.0
146
0.71
147
0.06
 71
     0
 72
     0
 73
     1
 74
     1
 75
     1
 76
     1
 77
     0
 78
     7
170
     0
171
     2
172
     0
173
     0
174
     0
175
     0
176
   256
177
   256
178
     2
  0
DIMSTYLE
  2
AM_ANSI$SH
 70
     0
  3

  4
mm
  5

  6
GENAXEH
  7

 40
1.0
 41
0.1
 42
0.05
 43
0.5
 44
0.1
 45
0.0
 46
0.0
 47
0.1
 48
0.1
140
0.12
141
0.0
142
0.0
143
25.399999999999999
144
1.0
145
0.0
146
0.71
147
0.06
 71
     0
 72
     0
 73
     1
 74
     1
 75
     1
 76
     1
 77
     0
 78
     7
170
     0
171
     2
172
     0
173
     1
174
     0
175
     0
176
   256
177
   256
178
     2
  0
DIMSTYLE
  2
AM_JIS
 70
     0
  3

  4
"
  5
OPEN30
  6

  7

 40
1.0
 41
2.5
 42
1.0
 43
7.0
 44
1.0
 45
0.0
 46
0.0
 47
0.1
 48
0.1
140
3.0
141
0.0
142
0.0
143
0.0393701
144
1.0
145
0.0
146
0.71
147
1.0
 71
     0
 72
     0
 73
     0
 74
     0
 75
     0
 76
     0
 77
     3
 78
     8
170
     0
171
     2
172
     1
173
     0
174
     0
175
     0
176
     7
177
     7
178
     7
  0
DIMSTYLE
  2
AM_JIS$3
 70
     0
  3

  4
"
  5
OPEN30
  6

  7

 40
1.0
 41
2.5
 42
1.0
 43
10.0
 44
1.0
 45
0.0
 46
0.0
 47
0.1
 48
0.1
140
3.0
141
0.0
142
0.0
143
0.0393701
144
1.0
145
0.0
146
0.71
147
1.0
 71
     0
 72
     0
 73
     0
 74
     1
 75
     0
 76
     0
 77
     3
 78
     8
170
     0
171
     2
172
     0
173
     0
174
     0
175
     0
176
     7
177
     7
178
     7
  0
DIMSTYLE
  2
AM_JIS$4
 70
     0
  3

  4
"
  5
OPEN30
  6

  7

 40
1.0
 41
2.5
 42
1.0
 43
10.0
 44
1.0
 45
0.0
 46
0.0
 47
0.1
 48
0.1
140
2.0
141
0.0
142
0.0
143
0.0393701
144
1.0
145
0.0
146
0.71
147
1.0
 71
     0
 72
     0
 73
     0
 74
     0
 75
     0
 76
     0
 77
     3
 78
     8
170
     0
171
     2
172
     0
173
     0
174
     0
175
     0
176
     7
177
     7
178
     7
  0
DIMSTYLE
  2
AM_JIS$6
 70
     0
  3

  4
"
  5
OPEN30
  6

  7

 40
1.0
 41
2.5
 42
1.0
 43
10.0
 44
1.0
 45
0.0
 46
0.0
 47
0.1
 48
0.1
140
3.0
141
0.0
142
0.0
143
0.0393701
144
1.0
145
0.0
146
0.71
147
1.0
 71
     0
 72
     0
 73
     0
 74
     0
 75
     0
 76
     0
 77
     0
 78
     8
170
     0
171
     2
172
     1
173
     0
174
     0
175
     0
176
   256
177
     7
178
     7
  0
DIMSTYLE
  2
AM_JIS$7
 70
     0
  3

  4
"
  5
OPEN30
  6

  7

 40
1.0
 41
2.5
 42
1.0
 43
10.0
 44
1.0
 45
0.0
 46
0.0
 47
0.1
 48
0.1
140
3.0
141
0.0
142
0.0
143
0.0393701
144
1.0
145
0.0
146
0.71
147
1.0
 71
     0
 72
     0
 73
     0
 74
     0
 75
     0
 76
     0
 77
     3
 78
     8
170
     0
171
     2
172
     1
173
     0
174
     0
175
     0
176
     7
177
   256
178
     7
  0
DIMSTYLE
  2
AM_JIS$SF
 70
     0
  3

  4
"
  5
OPEN30
  6

  7

 40
1.0
 41
2.5
 42
1.0
 43
7.0
 44
1.0
 45
0.0
 46
0.0
 47
0.1
 48
0.1
140
3.0
141
0.0
142
0.0
143
0.0393701
144
1.0
145
0.0
146
0.71
147
1.0
 71
     0
 72
     0
 73
     0
 74
     0
 75
     1
 76
     1
 77
     3
 78
     8
170
     0
171
     2
172
     1
173
     0
174
     0
175
     0
176
     7
177
   256
178
     7
  0
DIMSTYLE
  2
AM_JIS$SH
 70
     0
  3

  4
"
  5

  6
GENAXEH
  7
OPEN30
 40
1.0
 41
2.5
 42
1.0
 43
7.0
 44
1.0
 45
0.0
 46
0.0
 47
0.1
 48
0.1
140
3.0
141
0.0
142
0.0
143
0.0393701
144
2.0
145
0.0
146
0.71
147
1.0
 71
     0
 72
     0
 73
     0
 74
     0
 75
     1
 76
     1
 77
     3
 78
     8
170
     0
171
     2
172
     1
173
     1
174
     0
175
     0
176
     7
177
   256
178
     7
  0
DIMSTYLE
  2
AM_JIS$2
 70
     0
  3

  4
"
  5
OPEN30
  6

  7

 40
1.0
 41
2.5
 42
1.0
 43
7.0
 44
1.0
 45
0.0
 46
0.0
 47
0.1
 48
0.1
140
3.0
141
0.0
142
0.0
143
0.0393701
144
1.0
145
0.0
146
0.71
147
1.0
 71
     0
 72
     0
 73
     0
 74
     0
 75
     0
 76
     0
 77
     3
 78
     8
170
     0
171
     2
172
     1
173
     0
174
     0
175
     0
176
     7
177
     7
178
     7
  0
DIMSTYLE
  2
AM_JIS$0
 70
     0
  3

  4
"
  5
OPEN30
  6

  7

 40
1.0
 41
2.5
 42
1.0
 43
7.0
 44
1.0
 45
0.0
 46
0.0
 47
0.1
 48
0.1
140
3.0
141
0.0
142
0.0
143
0.0393701
144
1.0
145
0.0
146
0.71
147
1.0
 71
     0
 72
     0
 73
     0
 74
     0
 75
     0
 76
     0
 77
     3
 78
     8
170
     0
171
     2
172
     1
173
     0
174
     0
175
     0
176
     7
177
     7
178
     7
  0
DIMSTYLE
  2
STANDARD$0
 70
     0
  3

  4

  5

  6

  7

 40
1.0
 41
1.0
 42
0.8
 43
0.38
 44
1.0
 45
0.0
 46
0.0
 47
0.0
 48
0.0
140
3.1000000000000001
141
0.09
142
0.0
143
25.399999999999999
144
1.0
145
0.5
146
1.0
147
0.09
 71
     0
 72
     0
 73
     0
 74
     0
 75
     0
 76
     0
 77
     1
 78
     0
170
     0
171
     2
172
     0
173
     0
174
     0
175
     0
176
     0
177
     0
178
     0
  0
DIMSTYLE
  2
ANNOTATIVE
 70
     0
  3

  4

  5

  6

  7

 40
1.0
 41
0.18
 42
0.0625
 43
0.38
 44
0.18
 45
0.0
 46
0.0
 47
0.0
 48
0.0
140
0.18
141
0.09
142
0.0
143
25.399999999999999
144
1.0
145
0.0
146
1.0
147
0.09
 71
     0
 72
     0
 73
     1
 74
     1
 75
     0
 76
     0
 77
     0
 78
     0
170
     0
171
     2
172
     0
173
     0
174
     0
175
     0
176
     0
177
     0
178
     0
  0
DIMSTYLE
  2
AM_ISO
 70
     0
  3

  4
"
  5

  6

  7

 40
1.0
 41
2.5
 42
1.0
 43
10.0
 44
1.0
 45
0.0
 46
0.0
 47
0.1
 48
0.1
140
3.5
141
0.0
142
0.0
143
0.0393701
144
1.0
145
0.0
146
0.71
147
1.5
 71
     0
 72
     0
 73
     0
 74
     0
 75
     0
 76
     0
 77
     1
 78
     8
170
     0
171
     2
172
     1
173
     0
174
     0
175
     0
176
   256
177
   256
178
     2
  0
DIMSTYLE
  2
AM_ISO$3
 70
     0
  3

  4
"
  5

  6

  7

 40
1.0
 41
2.5
 42
1.0
 43
10.0
 44
1.0
 45
0.0
 46
0.0
 47
0.1
 48
0.1
140
3.5
141
0.0
142
0.0
143
0.0393701
144
1.0
145
0.0
146
0.71
147
1.5
 71
     0
 72
     0
 73
     0
 74
     1
 75
     0
 76
     0
 77
     1
 78
     8
170
     0
171
     2
172
     0
173
     0
174
     0
175
     0
176
   256
177
   256
178
     2
  0
DIMSTYLE
  2
AM_ISO$4
 70
     0
  3

  4
"
  5

  6

  7

 40
1.0
 41
2.5
 42
1.0
 43
10.0
 44
1.0
 45
0.0
 46
0.0
 47
0.1
 48
0.1
140
3.5
141
0.0
142
0.0
143
0.0393701
144
1.0
145
0.0
146
0.71
147
1.5
 71
     0
 72
     0
 73
     0
 74
     1
 75
     0
 76
     0
 77
     1
 78
     8
170
     0
171
     2
172
     0
173
     0
174
     0
175
     0
176
   256
177
   256
178
     2
  0
DIMSTYLE
  2
AM_ISO$6
 70
     0
  3

  4
"
  5

  6

  7

 40
1.0
 41
2.5
 42
1.0
 43
10.0
 44
1.0
 45
0.0
 46
0.0
 47
0.1
 48
0.1
140
3.5
141
0.0
142
0.0
143
0.0393701
144
1.0
145
0.0
146
0.71
147
1.5
 71
     0
 72
     0
 73
     0
 74
     0
 75
     0
 76
     0
 77
     0
 78
     8
170
     0
171
     2
172
     1
173
     0
174
     0
175
     0
176
   256
177
   256
178
     2
  0
DIMSTYLE
  2
AM_ISO$7
 70
     0
  3

  4
"
  5

  6

  7

 40
1.0
 41
2.5
 42
1.0
 43
10.0
 44
1.0
 45
0.0
 46
0.0
 47
0.1
 48
0.1
140
5.0
141
0.0
142
0.0
143
0.0393701
144
1.0
145
0.0
146
0.71
147
1.5
 71
     0
 72
     0
 73
     0
 74
     0
 75
     0
 76
     0
 77
     1
 78
     8
170
     0
171
     2
172
     1
173
     0
174
     0
175
     0
176
   256
177
   256
178
     2
  0
DIMSTYLE
  2
AM_ISO$SF
 70
     0
  3

  4
"
  5

  6

  7

 40
1.0
 41
2.5
 42
1.0
 43
10.0
 44
1.0
 45
0.0
 46
0.0
 47
0.1
 48
0.1
140
3.5
141
0.0
142
0.0
143
0.0393701
144
1.0
145
0.0
146
0.71
147
1.5
 71
     0
 72
     0
 73
     0
 74
     0
 75
     1
 76
     1
 77
     1
 78
     8
170
     0
171
     2
172
     1
173
     0
174
     0
175
     0
176
   256
177
   256
178
     2
  0
DIMSTYLE
  2
AM_ISO$SH
 70
     0
  3

  4
"
  5

  6
GENAXEH
  7

 40
1.0
 41
2.5
 42
1.0
 43
10.0
 44
1.0
 45
0.0
 46
0.0
 47
0.1
 48
0.1
140
3.5
141
0.0
142
0.0
143
0.0393701
144
2.0
145
0.0
146
0.71
147
1.5
 71
     0
 72
     0
 73
     0
 74
     0
 75
     1
 76
     1
 77
     1
 78
     8
170
     0
171
     2
172
     1
173
     1
174
     0
175
     0
176
   256
177
   256
178
     2
  0
ENDTAB
  0
ENDSEC
  0
SECTION
  2
BLOCKS
  0
BLOCK
  8
0
  2
$MODEL_SPACE
 70
     0
 10
0.0
 20
0.0
 30
0.0
  3
$MODEL_SPACE
  1

  0
ENDBLK
  5
1D3
  8
0
  0
BLOCK
 67
     1
  8
0
  2
$PAPER_SPACE
 70
     0
 10
0.0
 20
0.0
 30
0.0
  3
$PAPER_SPACE
  1

  0
ENDBLK
  5
1D1
 67
     1
  8
0
  0
BLOCK
  8
0
  2
GENAXEH
 70
     0
 10
0.0
 20
0.0
 30
0.0
  3
GENAXEH
  1

  0
LINE
  5
264
  8
0
 10
-1.0
 20
0.0
 30
0.0
 11
1.0
 21
0.0
 31
0.0
  0
ENDBLK
  5
266
  8
0
  0
BLOCK
  8
0
  2
_OPEN30
 70
     0
 10
0.0
 20
0.0
 30
0.0
  3
_OPEN30
  1

  0
LINE
  5
2FA
  8
0
  6
BYBLOCK
 62
     0
 10
-1.0
 20
0.26794919
 30
0.0
 11
0.0
 21
0.0
 31
0.0
  0
LINE
  5
2FB
  8
0
  6
BYBLOCK
 62
     0
 10
0.0
 20
0.0
 30
0.0
 11
-1.0
 21
-0.26794919
 31
0.0
  0
LINE
  5
2FC
  8
0
  6
BYBLOCK
 62
     0
 10
0.0
 20
0.0
 30
0.0
 11
-1.0
 21
0.0
 31
0.0
  0
ENDBLK
  5
2FE
  8
0
  0
BLOCK
  8
0
  2
MYPLIST0
 70
     2
 10
0.0
 20
0.0
 30
0.0
  3
MYPLIST0
  1

  0
LINE
  5
346
  8
SYS-BUHIN0
  6
CONTINUOUS
 62
     4
 10
-170.0
 20
7.0
 30
0.0
 11
0.0
 21
7.0
 31
0.0
  0
LINE
  5
347
  8
SYS-BUHIN0
  6
CONTINUOUS
 62
     4
 10
-170.0
 20
-0.0000000000030695
 30
0.0
 11
0.0
 21
-0.0000000000001137
 31
0.0
  0
LINE
  5
348
  8
SYS-BUHIN0
  6
CONTINUOUS
 62
     4
 10
-170.0
 20
7.0
 30
0.0
 11
-170.0
 21
0.0
 31
0.0
  0
LINE
  5
349
  8
SYS-BUHIN0
  6
CONTINUOUS
 62
     4
 10
0.0
 20
7.0
 30
0.0
 11
0.0
 21
0.0
 31
0.0
  0
LINE
  5
34A
  8
SYS-BUHIN0
  6
CONTINUOUS
 62
     4
 10
-161.0
 20
7.0
 30
0.0
 11
-161.0
 21
0.0
 31
0.0
  0
LINE
  5
34B
  8
SYS-BUHIN0
  6
CONTINUOUS
 62
     4
 10
-99.0
 20
7.0
 30
0.0
 11
-99.0
 21
0.0
 31
0.0
  0
LINE
  5
34C
  8
SYS-BUHIN0
  6
CONTINUOUS
 62
     4
 10
-72.0
 20
7.0
 30
0.0
 11
-72.0
 21
0.0
 31
0.0
  0
LINE
  5
34D
  8
SYS-BUHIN0
  6
CONTINUOUS
 62
     4
 10
-63.0
 20
7.0
 30
0.0
 11
-63.0
 21
0.0
 31
0.0
  0
LINE
  5
34E
  8
SYS-BUHIN0
  6
CONTINUOUS
 62
     4
 10
-16.0
 20
7.0
 30
0.0
 11
-16.0
 21
0.0
 31
0.0
  0
TEXT
  5
34F
  8
SYS-BUHIN0
  6
CONTINUOUS
 62
     7
 10
-13.61264708219346
 20
0.6000000119208835
 30
0.0
 40
1.1000000000000001
  1
PARTS NO.
 41
1.3
  0
TEXT
  5
350
  8
SYS-BUHIN0
  6
CONTINUOUS
 62
     7
 10
-14.36429419116018
 20
3.0691472933651762
 30
0.0
 40
2.2000000000000002
  1
部品コード
  0
TEXT
  5
351
  8
SYS-BUHIN0
  6
CONTINUOUS
 62
     7
 10
-43.852454807937526
 20
0.6000000119208835
 30
0.0
 40
1.1000000000000001
  1
REMARKS
 41
1.3
  0
TEXT
  5
352
  8
SYS-BUHIN0
  6
CONTINUOUS
 62
     7
 10
-47.370000243186951
 20
2.7500000476836699
 30
0.0
 40
2.7999999999999989
  1
備    考
  0
TEXT
  5
353
  8
SYS-BUHIN0
  6
CONTINUOUS
 62
     7
 10
-69.144963642251696
 20
0.6000000119208835
 30
0.0
 40
1.1000000000000001
  1
UNIT
  0
TEXT
  5
354
  8
SYS-BUHIN0
  6
CONTINUOUS
 62
     7
 10
-70.272262370934413
 20
2.6949072988287521
 30
0.0
 40
2.7999999999999989
  1
数量
  0
TEXT
  5
355
  8
SYS-BUHIN0
  6
CONTINUOUS
 62
     7
 10
-90.559234383463263
 20
0.6000000119208835
 30
0.0
 40
1.1000000000000001
  1
MATERIAL
 41
1.3
  0
TEXT
  5
357
  8
SYS-BUHIN0
  6
CONTINUOUS
 62
     7
 10
-138.9093619295486
 20
0.6000000119208835
 30
0.0
 40
1.1000000000000001
  1
  DESCRIPTION
 41
1.3
  0
TEXT
  5
358
  8
SYS-BUHIN0
  6
CONTINUOUS
 62
     7
 10
-142.0050003230572
 20
2.7500000476836699
 30
0.0
 40
2.7999999999999989
  1
 部  品  名
  0
TEXT
  5
359
  8
SYS-BUHIN0
  6
CONTINUOUS
 62
     7
 10
-166.63404873957319
 20
0.6000000119208835
 30
0.0
 40
1.1000000000000001
  1
NO.
  0
TEXT
  5
35A
  8
SYS-BUHIN0
  6
CONTINUOUS
 62
     7
 10
-168.29000008106229
 20
2.7500000476836699
 30
0.0
 40
2.7999999999999989
  1
項番
  0
ATTDEF
  5
35B
  8
AM_0
 62
     7
 10
-168.79000008106229
 20
3.5
 30
0.0
 40
3.1000000000000001
  1

  3

  2
ITEM
 70
     1
1001
AcDbAttr
1070
     0
1070
     1
  0
TEXT
  5
C0B
  8
AM_BOR
 62
     7
 10
-91.770000159740434
 20
2.7000000476837149
 30
0.0
 40
2.7999999999999989
  1
材　　質
  0
ENDBLK
  5
35C
  8
0
  0
BLOCK
  8
0
  2
MYPLIST1
 70
     2
 10
0.0
 20
0.0
 30
0.0
  3
MYPLIST1
  1

  0
LINE
  5
393
  8
SYS-BUHIN0
  6
CONTINUOUS
 62
     4
 10
-170.0
 20
6.0
 30
0.0
 11
0.0
 21
6.0
 31
0.0
  0
LINE
  5
394
  8
SYS-BUHIN0
  6
CONTINUOUS
 62
     4
 10
-170.0
 20
0.0
 30
0.0
 11
-170.0
 21
6.0
 31
0.0
  0
LINE
  5
395
  8
SYS-BUHIN0
  6
CONTINUOUS
 62
     4
 10
-161.0
 20
0.0
 30
0.0
 11
-161.0
 21
6.0
 31
0.0
  0
LINE
  5
396
  8
SYS-BUHIN0
  6
CONTINUOUS
 62
     4
 10
-99.0
 20
0.0
 30
0.0
 11
-99.0
 21
6.0
 31
0.0
  0
LINE
  5
397
  8
SYS-BUHIN0
  6
CONTINUOUS
 62
     4
 10
-72.0
 20
0.0
 30
0.0
 11
-72.0
 21
6.0
 31
0.0
  0
LINE
  5
398
  8
SYS-BUHIN0
  6
CONTINUOUS
 62
     4
 10
-63.0
 20
0.0
 30
0.0
 11
-63.0
 21
6.0
 31
0.0
  0
LINE
  5
399
  8
SYS-BUHIN0
  6
CONTINUOUS
 62
     4
 10
-16.0
 20
0.0
 30
0.0
 11
-16.0
 21
6.0
 31
0.0
  0
LINE
  5
39A
  8
SYS-BUHIN0
  6
CONTINUOUS
 62
     4
 10
0.0
 20
0.0
 30
0.0
 11
0.0
 21
6.0
 31
0.0
  0
LINE
  5
39B
  8
SYS-BUHIN0
  6
CONTINUOUS
 62
     4
 10
-170.0
 20
0.0
 30
0.0
 11
0.0
 21
0.0
 31
0.0
  0
ATTDEF
  5
39C
  8
SYS-BUHINCODE
 10
-14.0
 20
2.5
 30
0.0
 40
1.0
  1

 11
-14.0
 21
3.0
 31
0.0
  3
部品コード
  2
PCODE
 70
     0
 74
     2
1001
AcDbAttr
1070
     0
1070
     1
  0
ATTDEF
  5
39D
  8
SYS-BUHIN0
  6
CONTINUOUS
 62
     7
 10
-61.0
 20
2.0
 30
0.0
 40
2.0
  1

 11
-61.0
 21
3.0
 31
0.0
  3
備考
  2
NOTE
 70
     0
 74
     2
1001
AcDbAttr
1070
     0
1070
     1
  0
ATTDEF
  5
39E
  8
SYS-BUHIN0
  6
CONTINUOUS
 62
     7
 10
-67.5
 20
3.0
 30
0.0
 40
2.5
  1

 72
     4
 11
-67.5
 21
3.0
 31
0.0
  3
数量
  2
QTY
 70
     0
1001
AcDbAttr
1070
     0
1070
     1
  0
ATTDEF
  5
39F
  8
SYS-BUHIN0
  6
CONTINUOUS
 62
     7
 10
-97.595958160209875
 20
2.0
 30
0.0
 40
2.0
  1

 11
-97.595958160209875
 21
3.0
 31
0.0
  3
材質
  2
MATERIAL
 70
     0
 74
     2
1001
AcDbAttr
1070
     0
1070
     1
  0
ATTDEF
  5
3A0
  8
SYS-BUHIN0
  6
CONTINUOUS
 62
     7
 10
-159.0
 20
1.75
 30
0.0
 40
2.5
  1

 11
-159.0
 21
3.0
 31
0.0
  3
部品名
  2
DESCR
 70
     0
 74
     2
1001
AcDbAttr
1070
     0
1070
     1
  0
ATTDEF
  5
3A1
  8
SYS-BUHIN0
  6
CONTINUOUS
 62
     7
 10
-165.5
 20
3.0
 30
0.0
 40
2.5
  1

 72
     4
 11
-165.5
 21
3.0
 31
0.0
  3
項番
  2
ITEM
 70
     0
1001
AcDbAttr
1070
     0
1070
     1
  0
ENDBLK
  5
370
  8
0
  0
BLOCK
  8
0
  2
A$C1C06296A
 70
     2
 10
0.0
 20
0.0
 30
0.0
  3
A$C1C06296A
  1

  0
LINE
  5
204C
  8
AM_BOR
 10
198.86851880399371
 20
17.886744577931989
 30
0.0
 11
203.2337455721775
 21
13.521517809748619
 31
0.0
  0
LINE
  5
204D
  8
AM_BOR
 10
198.8685188039936
 20
17.866715351316039
 30
0.0
 11
198.86851880399399
 21
14.128964361178911
 31
0.0
  0
LINE
  5
204E
  8
AM_BOR
 10
204.7045172738834
 20
17.866715326469411
 30
0.0
 11
204.70451727388391
 21
14.181128845625549
 31
0.0
  0
LINE
  5
204F
  8
AM_BOR
 10
204.20428883360731
 20
17.793010290175861
 30
0.0
 11
204.204288833607
 21
14.69861035774108
 31
0.0
  0
LINE
  5
2050
  8
AM_BOR
 10
199.3687472442698
 20
17.176052465333349
 30
0.0
 11
199.36874724427059
 21
14.197800355103411
 31
0.0
  0
LINE
  5
2051
  8
AM_BOR
 10
200.43756462039269
 20
18.46533457095553
 30
0.0
 11
204.20428883360731
 21
14.69861035774052
 31
0.0
  0
LINE
  5
2052
  8
AM_BOR
 10
199.36874724426971
 20
17.17605246533255
 30
0.0
 11
203.02713287203409
 21
13.51766683756852
 31
0.0
  0
ARC
  5
2053
  8
AM_BOR
 10
198.36829036868701
 20
17.866715351316049
 30
0.0
 40
0.5002284402762121
 50
0.0
 51
50.265515568291427
  0
ARC
  5
2054
  8
AM_BOR
 10
198.36829034384081
 20
14.12896436117892
 30
0.0
 40
0.5002284402762121
 50
304.69759678405279
 51
0.0
  0
ARC
  5
2055
  8
AM_BOR
 10
205.20474573403669
 20
17.866715326469411
 30
0.0
 40
0.5002284402762121
 50
127.0284887689633
 51
180.00000500895629
  0
ARC
  5
2056
  8
AM_BOR
 10
203.53731756996689
 20
17.793010290175818
 30
0.0
 40
0.6669712537016159
 50
0.0
 51
74.714823568866152
  0
ARC
  5
2057
  8
AM_BOR
 10
200.03571849797169
 20
14.197800355103389
 30
0.0
 40
0.6669712537016159
 50
180.00000500895629
 51
256.4857883914604
  0
LINE
  5
2058
  8
AM_BOR
 10
210.95737277733619
 20
15.993445664994679
 30
0.0
 11
210.9224749062999
 21
16.211434571273589
 31
0.0
  0
LINE
  5
2059
  8
AM_BOR
 10
210.92247490629941
 20
16.211434571273411
 30
0.0
 11
210.8180468870608
 21
16.42776445035037
 31
0.0
  0
LINE
  5
205A
  8
AM_BOR
 10
210.8180468870604
 20
16.42776445035037
 30
0.0
 11
210.64488347990149
 21
16.640788901221669
 31
0.0
  0
LINE
  5
205B
  8
AM_BOR
 10
210.6448834799013
 20
16.640788901221619
 30
0.0
 11
210.40430256290981
 21
16.848886679188759
 31
0.0
  0
LINE
  5
205C
  8
AM_BOR
 10
210.40430256290949
 20
16.848886679189
 30
0.0
 11
210.0981351021297
 21
17.050474034508689
 31
0.0
  0
LINE
  5
205D
  8
AM_BOR
 10
210.09813510212999
 20
17.05047403450855
 30
0.0
 11
209.7287112168076
 21
17.244016765685139
 31
0.0
  0
LINE
  5
205E
  8
AM_BOR
 10
209.72871121680711
 20
17.24401676568521
 30
0.0
 11
209.29884244577369
 21
17.428041895669988
 31
0.0
  0
LINE
  5
205F
  8
AM_BOR
 10
209.29884244577369
 20
17.428041895670081
 30
0.0
 11
208.81180034993889
 21
17.601148882106369
 31
0.0
  0
LINE
  5
2060
  8
AM_BOR
 10
208.81180034993889
 20
17.60114888210644
 30
0.0
 11
208.27129161373591
 21
17.76202027630297
 31
0.0
  0
LINE
  5
2061
  8
AM_BOR
 10
208.27129161373611
 20
17.76202027630309
 30
0.0
 11
207.68142983501551
 21
17.909431749813081
 31
0.0
  0
LINE
  5
2062
  8
AM_BOR
 10
207.68142983501531
 20
17.90943174981297
 30
0.0
 11
207.04670421808169
 21
18.042261412313358
 31
0.0
  0
LINE
  5
2063
  8
AM_BOR
 10
207.04670421808169
 20
18.04226141231344
 30
0.0
 11
206.37194540813729
 21
18.15949834986797
 31
0.0
  0
LINE
  5
2064
  8
AM_BOR
 10
206.37194540813749
 20
18.159498349867881
 30
0.0
 11
205.66228872715681
 21
18.260250318592298
 31
0.0
  0
LINE
  5
2065
  8
AM_BOR
 10
205.66228872715661
 20
18.260250318592369
 30
0.0
 11
205.02242374599979
 21
18.33253416039674
 31
0.0
  0
LINE
  5
2066
  8
AM_BOR
 10
205.02242374599939
 20
18.332534160396779
 30
0.0
 11
204.92313509098369
 21
18.343750535168819
 31
0.0
  0
LINE
  5
2067
  8
AM_BOR
 10
204.92313509098369
 20
18.343750535168748
 30
0.0
 11
204.16010990510409
 21
18.409363512530259
 31
0.0
  0
LINE
  5
2068
  8
AM_BOR
 10
204.1601099051048
 20
18.409363512530259
 30
0.0
 11
203.71314686010501
 21
18.436387872932471
 31
0.0
  0
LINE
  5
2069
  8
AM_BOR
 10
200.43756462039249
 20
18.465334570955569
 30
0.0
 11
200.19401582596791
 21
18.45658989630088
 31
0.0
  0
LINE
  5
206A
  8
AM_BOR
 10
200.19401582596799
 20
18.456589896300901
 30
0.0
 11
199.41292617277259
 21
18.409363512530309
 31
0.0
  0
LINE
  5
206B
  8
AM_BOR
 10
199.41292617277259
 20
18.409363512530248
 30
0.0
 11
198.64990098689299
 21
18.343750535168759
 31
0.0
  0
LINE
  5
206C
  8
AM_BOR
 10
198.5506123731563
 20
18.332534165059979
 30
0.0
 11
197.9107473507209
 21
18.260250318592469
 31
0.0
  0
LINE
  5
206D
  8
AM_BOR
 10
198.64990098689299
 20
18.343750535168791
 30
0.0
 11
198.5506123731563
 21
18.332534165059919
 31
0.0
  0
LINE
  5
206E
  8
AM_BOR
 10
197.91074735072121
 20
18.26025031859243
 30
0.0
 11
197.20109066974049
 21
18.159498349868041
 31
0.0
  0
LINE
  5
206F
  8
AM_BOR
 10
197.20109066974041
 20
18.159498349868091
 30
0.0
 11
196.52633185979579
 21
18.042261412313529
 31
0.0
  0
LINE
  5
2070
  8
AM_BOR
 10
196.5263318597959
 20
18.042261412313589
 30
0.0
 11
195.89160624286239
 21
17.909431749813219
 31
0.0
  0
LINE
  5
2071
  8
AM_BOR
 10
195.89160624286171
 20
17.90943174981302
 30
0.0
 11
195.30174446414119
 21
17.762020276303058
 31
0.0
  0
LINE
  5
2072
  8
AM_BOR
 10
195.301744464141
 20
17.762020276303161
 30
0.0
 11
194.76123572793779
 21
17.60114888210661
 31
0.0
  0
LINE
  5
2073
  8
AM_BOR
 10
194.76123572793779
 20
17.60114888210656
 30
0.0
 11
194.27419363210299
 21
17.428041895670152
 31
0.0
  0
LINE
  5
2074
  8
AM_BOR
 10
194.27419363210339
 20
17.428041895670152
 30
0.0
 11
193.84432486106959
 21
17.244016765685259
 31
0.0
  0
LINE
  5
2075
  8
AM_BOR
 10
193.84432486106959
 20
17.24401676568521
 30
0.0
 11
193.4749009757472
 21
17.05047403450865
 31
0.0
  0
LINE
  5
2076
  8
AM_BOR
 10
193.4749009757472
 20
17.050474034508671
 30
0.0
 11
193.16873351496719
 21
16.848886679188929
 31
0.0
  0
LINE
  5
2077
  8
AM_BOR
 10
193.1687335149673
 20
16.848886679188951
 30
0.0
 11
192.92815259797499
 21
16.640788901221619
 31
0.0
  0
LINE
  5
2078
  8
AM_BOR
 10
192.9281525979753
 20
16.640788901221811
 30
0.0
 11
192.75498919081639
 21
16.42776445035042
 31
0.0
  0
LINE
  5
2079
  8
AM_BOR
 10
192.75498919081639
 20
16.427764450350349
 30
0.0
 11
192.65056117157769
 21
16.211434571273479
 31
0.0
  0
LINE
  5
207A
  8
AM_BOR
 10
192.65056117157789
 20
16.211434571273731
 30
0.0
 11
192.61566330054151
 21
15.993445664994679
 31
0.0
  0
LINE
  5
207B
  8
AM_BOR
 10
192.61566330054069
 20
15.99344566499464
 30
0.0
 11
192.65056117157721
 21
15.775456758715791
 31
0.0
  0
LINE
  5
207C
  8
AM_BOR
 10
192.65056117157769
 20
15.775456758715929
 30
0.0
 11
192.7549891908163
 21
15.55912687963913
 31
0.0
  0
LINE
  5
207D
  8
AM_BOR
 10
192.75498919081639
 20
15.559126879639029
 30
0.0
 11
192.9281525979753
 21
15.34610242876764
 31
0.0
  0
LINE
  5
207E
  8
AM_BOR
 10
192.9281525979751
 20
15.34610242876769
 30
0.0
 11
193.16873351496719
 21
15.1380046508005
 31
0.0
  0
LINE
  5
207F
  8
AM_BOR
 10
193.1687335149669
 20
15.1380046508005
 30
0.0
 11
193.47490097574689
 21
14.93641729548081
 31
0.0
  0
LINE
  5
2080
  8
AM_BOR
 10
193.47490097574729
 20
14.936417295480711
 30
0.0
 11
193.84432486106959
 21
14.742874564304079
 31
0.0
  0
LINE
  5
2081
  8
AM_BOR
 10
193.84432486106951
 20
14.74287456430417
 30
0.0
 11
194.27419363210271
 21
14.558849434319351
 31
0.0
  0
LINE
  5
2082
  8
AM_BOR
 10
194.27419363210319
 20
14.558849434319439
 30
0.0
 11
194.7612357279379
 21
14.38574244788296
 31
0.0
  0
LINE
  5
2083
  8
AM_BOR
 10
194.76123572793779
 20
14.38574244788277
 30
0.0
 11
195.301744464141
 21
14.22487105368617
 31
0.0
  0
LINE
  5
2084
  8
AM_BOR
 10
195.301744464141
 20
14.224871053686311
 30
0.0
 11
195.891606242862
 21
14.077459580176351
 31
0.0
  0
LINE
  5
2085
  8
AM_BOR
 10
195.89160624286191
 20
14.077459580176219
 30
0.0
 11
196.52633185979579
 21
13.94462991767579
 31
0.0
  0
LINE
  5
2086
  8
AM_BOR
 10
196.52633185979539
 20
13.944629917675821
 30
0.0
 11
197.2010906697397
 21
13.827392980121321
 31
0.0
  0
LINE
  5
2087
  8
AM_BOR
 10
197.20109066974049
 20
13.82739298012133
 30
0.0
 11
197.9107473507209
 21
13.726641011397049
 31
0.0
  0
LINE
  5
2088
  8
AM_BOR
 10
197.9107473507205
 20
13.72664101139711
 30
0.0
 11
198.5412166771807
 21
13.655418571666219
 31
0.0
  0
LINE
  5
2089
  8
AM_BOR
 10
198.54121667717999
 20
13.65541857166625
 30
0.0
 11
198.64990098689259
 21
13.643140794820731
 31
0.0
  0
LINE
  5
208A
  8
AM_BOR
 10
198.6499009868929
 20
13.643140794820679
 30
0.0
 11
199.41292617277259
 21
13.57752781745919
 31
0.0
  0
LINE
  5
208B
  8
AM_BOR
 10
199.41292617277259
 20
13.577527817459201
 30
0.0
 11
199.8798563250744
 21
13.54929620220682
 31
0.0
  0
LINE
  5
208C
  8
AM_BOR
 10
203.0271328720325
 20
13.51766683756999
 30
0.0
 11
203.37902025190911
 21
13.530301433688649
 31
0.0
  0
LINE
  5
208D
  8
AM_BOR
 10
203.3790202519092
 20
13.530301433688599
 30
0.0
 11
204.16010990510441
 21
13.57752781745919
 31
0.0
  0
LINE
  5
208E
  8
AM_BOR
 10
204.70451727388399
 20
13.624341722195579
 30
0.0
 11
204.9231350909844
 21
13.64314079482075
 31
0.0
  0
LINE
  5
208F
  8
AM_BOR
 10
204.16010990510441
 20
13.57752781745917
 30
0.0
 11
204.70451727388379
 21
13.62434172219551
 31
0.0
  0
LINE
  5
2090
  8
AM_BOR
 10
204.92313509098409
 20
13.643140794820759
 30
0.0
 11
205.66228872715669
 21
13.726641011397151
 31
0.0
  0
LINE
  5
2091
  8
AM_BOR
 10
205.66228872715661
 20
13.72664101139711
 30
0.0
 11
206.37194540813709
 21
13.827392980121401
 31
0.0
  0
LINE
  5
2092
  8
AM_BOR
 10
206.37194540813749
 20
13.82739298012145
 30
0.0
 11
207.04670421808191
 21
13.94462991767594
 31
0.0
  0
LINE
  5
2093
  8
AM_BOR
 10
207.04670421808169
 20
13.94462991767597
 30
0.0
 11
207.68142983501559
 21
14.07745958017637
 31
0.0
  0
LINE
  5
2094
  8
AM_BOR
 10
207.68142983501551
 20
14.07745958017629
 30
0.0
 11
208.27129161373611
 21
14.22487105368625
 31
0.0
  0
LINE
  5
2095
  8
AM_BOR
 10
208.2712916137362
 20
14.224871053686289
 30
0.0
 11
208.81180034993929
 21
14.38574244788289
 31
0.0
  0
LINE
  5
2096
  8
AM_BOR
 10
208.81180034993929
 20
14.385742447882921
 30
0.0
 11
209.29884244577411
 21
14.558849434319351
 31
0.0
  0
LINE
  5
2097
  8
AM_BOR
 10
209.298842445774
 20
14.55884943431932
 30
0.0
 11
209.72871121680751
 21
14.74287456430422
 31
0.0
  0
LINE
  5
2098
  8
AM_BOR
 10
209.72871121680711
 20
14.742874564304151
 30
0.0
 11
210.0981351021297
 21
14.93641729548083
 31
0.0
  0
LINE
  5
2099
  8
AM_BOR
 10
210.09813510212999
 20
14.93641729548081
 30
0.0
 11
210.40430256290989
 21
15.13800465080036
 31
0.0
  0
LINE
  5
209A
  8
AM_BOR
 10
210.40430256291
 20
15.13800465080055
 30
0.0
 11
210.64488347990201
 21
15.346102428767731
 31
0.0
  0
LINE
  5
209B
  8
AM_BOR
 10
210.64488347990169
 20
15.34610242876783
 30
0.0
 11
210.8180468870608
 21
15.559126879639029
 31
0.0
  0
LINE
  5
209C
  8
AM_BOR
 10
210.81804688706069
 20
15.559126879639059
 30
0.0
 11
210.92247490629899
 21
15.77545675871586
 31
0.0
  0
LINE
  5
209D
  8
AM_BOR
 10
210.92247490629981
 20
15.775456758715791
 30
0.0
 11
210.95737277733619
 21
15.993445664994621
 31
0.0
  0
LINE
  5
209E
  8
AM_BOR
 10
199.10514248704791
 20
18.382897015254191
 30
0.0
 11
203.92474251077411
 21
13.563296991527499
 31
0.0
  0
ARC
  5
209F
  8
AM_BOR
 10
205.2047457141602
 20
14.181128845625549
 30
0.0
 40
0.5002284402762121
 50
180.0
 51
244.5184856857075
  0
LINE
  5
20A0
  8
AM_BOR
 10
199.36521928176651
 20
18.405261169360589
 30
0.0
 11
204.19035209062989
 21
13.58012836049622
 31
0.0
  0
LINE
  5
20A1
  8
AM_BOR
 10
199.630408435547
 20
18.422512964405719
 30
0.0
 11
204.450428885349
 21
13.602492514602771
 31
0.0
  0
LINE
  5
20A2
  8
AM_BOR
 10
199.8967460324557
 20
18.438616316322719
 30
0.0
 11
204.70776895023289
 21
13.62759339854461
 31
0.0
  0
LINE
  5
20A3
  8
AM_BOR
 10
200.16308362936431
 20
18.454719668239761
 30
0.0
 11
204.9488987968831
 21
13.66890450072008
 31
0.0
  0
LINE
  5
20A4
  8
AM_BOR
 10
198.8450656923284
 20
18.36053286114759
 30
0.0
 11
203.6584049138651
 21
13.547193639610409
 31
0.0
  0
LINE
  5
20A5
  8
AM_BOR
 10
198.7943784573331
 20
18.12877914731807
 30
0.0
 11
203.39206731695711
 21
13.53109028769336
 31
0.0
  0
LINE
  5
20A6
  8
AM_BOR
 10
199.01830573664321
 20
18.375429872827009
 30
0.0
 11
199.01830573664321
 21
13.61146145716244
 31
0.0
  0
LINE
  5
20A7
  8
AM_BOR
 10
199.2180216468426
 20
18.39260355953768
 30
0.0
 11
199.2180216468426
 21
13.594287770451791
 31
0.0
  0
LINE
  5
20A8
  8
AM_BOR
 10
204.55473034123381
 20
18.375429872826999
 30
0.0
 11
204.55473034123381
 21
13.61146145716245
 31
0.0
  0
LINE
  5
20A9
  8
AM_BOR
 10
204.35501443103459
 20
18.39260355953764
 30
0.0
 11
204.35501443103459
 21
13.594287770451791
 31
0.0
  0
LINE
  5
20AA
  8
AM_BOR
 62
     4
 10
-0.0000001316067255
 20
15.000000173111291
 30
0.0
 11
190.49999986839319
 21
15.000000173111291
 31
0.0
  0
LINE
  5
20AB
  8
AM_BOR
 62
     4
 10
276.49999986839327
 20
28.000000173111289
 30
0.0
 11
276.49999986839327
 21
0.000000173111296
 31
0.0
  0
LINE
  5
20AC
  8
AM_BOR
 62
     4
 10
-0.0000001316067255
 20
15.000000173111291
 30
0.0
 11
-0.0000001316067255
 21
0.000000173111296
 31
0.0
  0
LINE
  5
20AD
  8
AM_BOR
 62
     4
 10
-0.0000001316067255
 20
28.000000173111289
 30
0.0
 11
276.49999986839327
 21
28.000000173111289
 31
0.0
  0
LINE
  5
20AE
  8
AM_BOR
 62
     4
 10
15.999999868393269
 20
15.000000173111291
 30
0.0
 11
15.999999868393269
 21
0.000000173111296
 31
0.0
  0
TEXT
  5
20AF
  8
AM_BOR
 62
     4
 10
215.17999986839331
 20
10.000000173111291
 30
0.0
 40
1.5
  1
NAKANISHI　INDUSTRIAL CO., LTD.
 41
1.5
  0
TEXT
  5
20B0
  8
AM_BOR
 62
     3
 10
213.19999986839329
 20
13.500000173111291
 30
0.0
 40
5.5
  1
中西産業株式会社
 41
1.1999999999999991
  0
TEXT
  5
20B1
  8
AM_BOR
 62
     4
 10
196.192787937406
 20
10.000000173111291
 30
0.0
 40
1.5
  1
Nakanishi
 41
1.1999999999999991
  0
TEXT
  5
20B2
  8
AM_BOR
 62
     7
 10
98.104999768257457
 20
15.650000185032219
 30
0.0
 40
1.0
  1
FINISH
 41
1.6000000000000001
  0
TEXT
  5
20B3
  8
AM_BOR
 62
     7
 10
96.979999708652798
 20
17.700000220795008
 30
0.0
 40
2.7999999999999989
  1
仕　　上
  0
TEXT
  5
20B4
  8
AM_BOR
 62
     7
 10
3.1549997801784002
 20
15.650000185032219
 30
0.0
 40
1.0
  1
MATERIAL
 41
1.6000000000000001
  0
TEXT
  5
20B5
  8
AM_BOR
 62
     7
 10
1.729999708652826
 20
17.700000220795008
 30
0.0
 40
2.7999999999999989
  1
材　　質
  0
LINE
  5
20B6
  8
AM_BOR
 62
     4
 10
190.49999986839319
 20
28.000000173111289
 30
0.0
 11
190.49999986839319
 21
0.000000173111296
 31
0.0
  0
LINE
  5
20B7
  8
AM_BOR
 62
     4
 10
-0.0000001316067255
 20
28.000000173111289
 30
0.0
 11
-0.0000001316067255
 21
15.000000173111291
 31
0.0
  0
LINE
  5
20B8
  8
AM_BOR
 62
     4
 10
-0.0000001316067255
 20
21.500000173111289
 30
0.0
 11
190.49999986839319
 21
21.500000173111289
 31
0.0
  0
LINE
  5
20B9
  8
AM_BOR
 62
     4
 10
15.999999868393269
 20
28.000000173111289
 30
0.0
 11
15.999999868393269
 21
15.000000173111291
 31
0.0
  0
TEXT
  5
20BA
  8
AM_BOR
 62
     7
 10
98.104999768257457
 20
22.150000185032219
 30
0.0
 40
1.0
  1
ART. NO.
 41
1.6000000000000001
  0
TEXT
  5
20BB
  8
AM_BOR
 62
     7
 10
96.979999708652684
 20
24.200000220795008
 30
0.0
 40
2.7999999999999989
  1
品　　番
  0
TEXT
  5
20BC
  8
AM_BOR
 62
     7
 10
3.1549997801784002
 20
22.150000185032219
 30
0.0
 40
1.0
  1
ARTICLE
 41
1.6000000000000001
  0
TEXT
  5
20BD
  8
AM_BOR
 62
     7
 10
1.7299997086527119
 20
24.200000220795008
 30
0.0
 40
2.7999999999999989
  1
品　　名
  0
LINE
  5
20BE
  8
AM_BOR
 62
     4
 10
-0.0000001316067255
 20
15.000000173111291
 30
0.0
 11
-0.0000001316067255
 21
0.0000001731112924
 31
0.0
  0
LINE
  5
20BF
  8
AM_BOR
 62
     4
 10
95.249999868393246
 20
28.000000173111289
 30
0.0
 11
95.249999868393246
 21
0.000000173111296
 31
0.0
  0
TEXT
  5
20C0
  8
AM_BOR
 62
     7
 10
3.1549997801784002
 20
9.1500001850322192
 30
0.0
 40
1.0
  1
REMARKS
 41
1.6000000000000001
  0
TEXT
  5
20C1
  8
AM_BOR
 62
     7
 10
1.7299997086527119
 20
11.20000022079501
 30
0.0
 40
2.7999999999999989
  1
備　　考
  0
LINE
  5
20C2
  8
AM_BOR
 62
     4
 10
111.2499998683932
 20
28.000000173111289
 30
0.0
 11
111.2499998683932
 21
0.000000173111296
 31
0.0
  0
LINE
  5
20C3
  8
AM_BOR
 62
     4
 10
-0.0000001316067255
 20
0.000000173111296
 30
0.0
 11
276.49999986839327
 21
0.000000173111296
 31
0.0
  0
TEXT
  5
20C4
  8
AM_BOR
 62
     7
 10
98.404999780178386
 20
9.1500001850322157
 30
0.0
 40
1.0
  1
SETS
 41
1.6000000000000001
  0
TEXT
  5
20C5
  8
AM_BOR
 62
     7
 10
96.979999708652684
 20
11.20000022079501
 30
0.0
 40
2.7999999999999989
  1
セット品
  0
ATTDEF
  5
20C6
  8
AM_BOR
 62
     7
 10
114.3107095753831
 20
0.5000001731112853
 30
0.0
 40
3.0
  1

 11
114.3107095753831
 21
2.0000001731112849
 31
0.0
  3
セット
  2
SETS｛20｝
 70
     0
 74
     2
1001
ACADANNOTATIVE
1000
AnnotativeData
1002
{
1070
     1
1070
     0
1002
}
1001
AcDbAttr
1070
     0
1070
     1
  0
ATTDEF
  5
20CA
  8
AM_BOR
 62
     7
 10
19.060709575383161
 20
0.5000001731112889
 30
0.0
 40
3.0
  1

 11
19.060709575383161
 21
2.000000173111288
 31
0.0
  3
備　　考
  2
REMARKS｛20｝
 70
     0
 74
     2
1001
ACADANNOTATIVE
1000
AnnotativeData
1002
{
1070
     1
1070
     0
1002
}
1001
AcDbAttr
1070
     0
1070
     1
  0
ATTDEF
  5
20CE
  8
AM_BOR
 62
     7
 10
114.3107095753831
 20
5.5000001731112853
 30
0.0
 40
3.0
  1

 11
114.3107095753831
 21
7.0000001731112853
 31
0.0
  3
セット
  2
SETS｛20｝
 70
     0
 74
     2
1001
ACADANNOTATIVE
1000
AnnotativeData
1002
{
1070
     1
1070
     0
1002
}
1001
AcDbAttr
1070
     0
1070
     1
  0
ATTDEF
  5
20D2
  8
AM_BOR
 62
     7
 10
19.060709575383161
 20
5.500000173111288
 30
0.0
 40
3.0
  1

 11
19.060709575383161
 21
7.000000173111288
 31
0.0
  3
備　　考
  2
REMARKS｛20｝
 70
     0
 74
     2
1001
ACADANNOTATIVE
1000
AnnotativeData
1002
{
1070
     1
1070
     0
1002
}
1001
AcDbAttr
1070
     0
1070
     1
  0
ATTDEF
  5
20D6
  8
AM_BOR
 62
     7
 10
114.3107095753831
 20
10.50000017311128
 30
0.0
 40
3.0
  1

 11
114.3107095753831
 21
12.00000017311128
 31
0.0
  3
セット
  2
SETS｛20｝
 70
     0
 74
     2
1001
ACADANNOTATIVE
1000
AnnotativeData
1002
{
1070
     1
1070
     0
1002
}
1001
AcDbAttr
1070
     0
1070
     1
  0
ATTDEF
  5
20DA
  8
AM_BOR
 62
     7
 10
19.060709575383161
 20
10.500000173111291
 30
0.0
 40
3.0
  1

 11
19.060709575383161
 21
12.000000173111291
 31
0.0
  3
備　　考
  2
REMARKS｛20｝
 70
     0
 74
     2
1001
ACADANNOTATIVE
1000
AnnotativeData
1002
{
1070
     1
1070
     0
1002
}
1001
AcDbAttr
1070
     0
1070
     1
  0
ATTDEF
  5
20DE
  8
AM_BOR
 62
     7
 10
114.2499998683932
 20
23.500000173111289
 30
0.0
 40
3.0
  1

 11
114.2499998683932
 21
25.000000173111289
 31
0.0
  3
品    番
  2
ART_NO｛20｝
 70
     0
 74
     2
1001
ACADANNOTATIVE
1000
AnnotativeData
1002
{
1070
     1
1070
     0
1002
}
1001
AcDbAttr
1070
     0
1070
     1
  0
ATTDEF
  5
20E2
  8
AM_BOR
 62
     7
 10
18.999999868393271
 20
23.500000173111289
 30
0.0
 40
3.0
  1

 11
18.999999868393271
 21
25.000000173111289
 31
0.0
  3
品    名
  2
ARTICLE｛20｝
 70
     0
 74
     2
1001
ACADANNOTATIVE
1000
AnnotativeData
1002
{
1070
     1
1070
     0
1002
}
1001
AcDbAttr
1070
     0
1070
     1
  0
ATTDEF
  5
20E6
  8
AM_BOR
 62
     7
 10
114.2499998683932
 20
17.000000173111289
 30
0.0
 40
3.0
  1

 11
114.2499998683932
 21
18.500000173111289
 31
0.0
  3
仕上
  2
FINISH｛20｝
 70
     0
 74
     2
1001
ACADANNOTATIVE
1000
AnnotativeData
1002
{
1070
     1
1070
     0
1002
}
1001
AcDbAttr
1070
     0
1070
     1
  0
ATTDEF
  5
20EA
  8
AM_BOR
 62
     7
 10
18.999999868393271
 20
17.000000173111289
 30
0.0
 40
3.0
  1

 11
18.999999868393271
 21
18.500000173111289
 31
0.0
  3
材　　質
  2
MATERIAK｛20｝
 70
     0
 74
     2
1001
ACADANNOTATIVE
1000
AnnotativeData
1002
{
1070
     1
1070
     0
1002
}
1001
AcDbAttr
1070
     0
1070
     1
  0
ENDBLK
  5
20F1
  8
0
  0
BLOCK
  8
0
  2
ZUWAKU-A3H
 70
     0
 10
0.0
 20
0.0
 30
0.0
  3
ZUWAKU-A3H
  1

  0
LINE
  5
29DD
  8
AM_BOR
 62
     3
 10
24.999999999999989
 20
284.99999999999977
 30
0.0
 11
24.999999999999979
 21
9.0
 31
0.0
  0
LINE
  5
29DE
  8
AM_BOR
 62
     3
 10
411.99999999999989
 20
284.99999999999989
 30
0.0
 11
25.0
 21
284.99999999999989
 31
0.0
  0
LINE
  5
29DF
  8
AM_BOR
 62
     3
 10
411.99999999999989
 20
284.99999999999989
 30
0.0
 11
411.99999999999989
 21
9.0
 31
0.0
  0
LINE
  5
29E0
  8
AM_BOR
 62
     3
 10
24.999999999999989
 20
8.9999999999999964
 30
0.0
 11
411.99999999999972
 21
8.9999999999999964
 31
0.0
  0
TEXT
  5
29E1
  8
SYS-TEISEI0
  6
CONTINUOUS
 62
     3
 10
144.38500001765789
 20
14.950000047683719
 30
0.0
 40
3.099999904632567
  1
 
  0
TEXT
  5
29E2
  8
SYS-TEISEI0
  6
CONTINUOUS
 62
     3
 10
169.88500004447991
 20
14.950000047683719
 30
0.0
 40
3.099999904632567
  1
 
  0
TEXT
  5
29E3
  8
SYS-TEISEI0
  6
CONTINUOUS
 62
     3
 10
229.24499995708459
 20
14.950000047683719
 30
0.0
 40
3.099999904632567
  1
 
  0
TEXT
  5
29E4
  8
SYS-TEISEI0
  6
CONTINUOUS
 62
     3
 10
236.9449999570846
 20
14.950000047683719
 30
0.0
 40
3.099999904632567
  1
 
  0
TEXT
  5
29E5
  8
SYS-TEISEI0
  6
CONTINUOUS
 62
     3
 10
144.38500001765789
 20
19.950000047683719
 30
0.0
 40
3.099999904632567
  1
 
  0
TEXT
  5
29E6
  8
SYS-TEISEI0
  6
CONTINUOUS
 62
     3
 10
169.88500004447991
 20
19.950000047683719
 30
0.0
 40
3.099999904632567
  1
 
  0
TEXT
  5
29E7
  8
SYS-TEISEI0
  6
CONTINUOUS
 62
     3
 10
229.24499995708459
 20
19.950000047683719
 30
0.0
 40
3.099999904632567
  1
 
  0
TEXT
  5
29E8
  8
SYS-TEISEI0
  6
CONTINUOUS
 62
     3
 10
236.9449999570846
 20
19.950000047683719
 30
0.0
 40
3.099999904632567
  1
 
  0
TEXT
  5
29E9
  8
SYS-TEISEI0
  6
CONTINUOUS
 62
     3
 10
144.38500001765789
 20
24.950000047683719
 30
0.0
 40
3.099999904632567
  1
 
  0
TEXT
  5
29EA
  8
SYS-TEISEI0
  6
CONTINUOUS
 62
     3
 10
169.88500004447991
 20
24.950000047683719
 30
0.0
 40
3.099999904632567
  1
 
  0
TEXT
  5
29EB
  8
SYS-TEISEI0
  6
CONTINUOUS
 62
     3
 10
229.24499995708459
 20
24.950000047683719
 30
0.0
 40
3.099999904632567
  1
 
  0
TEXT
  5
29EC
  8
SYS-TEISEI0
  6
CONTINUOUS
 62
     3
 10
236.9449999570846
 20
24.950000047683719
 30
0.0
 40
3.099999904632567
  1
 
  0
TEXT
  5
29ED
  8
AM_BOR
 10
24.999999999999989
 20
9.0
 30
0.0
 40
5.0
  1
!GENTITLE-LL
  0
TEXT
  5
29EE
  8
AM_BOR
 10
411.99999999999989
 20
9.0
 30
0.0
 40
5.0
  1
!GENTITLE-INSERT
  0
TEXT
  5
29EF
  8
AM_BOR
 10
411.99999999999989
 20
284.99999999999989
 30
0.0
 40
5.0
  1
!GENTITLE-RU
  0
TEXT
  5
29F0
  8
AM_BOR
 10
420.0
 20
297.0
 30
0.0
 40
5.0
  1
!GENTITLE-MAX
  0
ENDBLK
  5
29F2
  8
0
  0
BLOCK
  8
0
  2
_ACMFILLEDHALF
 70
     0
 10
0.0
 20
0.0
 30
0.0
  3
_ACMFILLEDHALF
  1

  0
TRACE
  5
32A5
  8
0
 62
     0
 10
-0.8
 20
0.0
 30
0.0
 11
-1.0
 21
0.166666666
 31
0.0
 12
0.0
 22
0.0
 32
0.0
 13
0.0
 23
0.0
 33
0.0
  0
LINE
  5
32A6
  8
0
 62
     0
 10
-1.0
 20
0.0
 30
0.0
 11
-0.8
 21
0.0
 31
0.0
  0
ENDBLK
  5
32A4
  8
0
  0
BLOCK
  8
0
  2
_ACMFILLED
 70
     0
 10
0.0
 20
0.0
 30
0.0
  3
_ACMFILLED
  1

  0
TRACE
  5
32B1
  8
0
 62
     0
 10
-1.0
 20
-0.166666666
 30
0.0
 11
-1.0
 21
0.166666666
 31
0.0
 12
0.0
 22
0.0
 32
0.0
 13
0.0
 23
0.0
 33
0.0
  0
ENDBLK
  5
32B0
  8
0
  0
BLOCK
  8
0
  2
_ACMOPEN15
 70
     0
 10
0.0
 20
0.0
 30
0.0
  3
_ACMOPEN15
  1

  0
LINE
  5
32BB
  8
0
 62
     0
 10
-1.0
 20
0.0
 30
0.0
 11
0.0
 21
0.0
 31
0.0
  0
LINE
  5
32BC
  8
0
 62
     0
 10
-1.0
 20
-0.131652497
 30
0.0
 11
0.0
 21
0.0
 31
0.0
  0
LINE
  5
32BD
  8
0
 62
     0
 10
0.0
 20
0.0
 30
0.0
 11
-1.0
 21
0.131652497
 31
0.0
  0
ENDBLK
  5
32BA
  8
0
  0
BLOCK
  8
0
  2
_ACMFILLED15
 70
     0
 10
0.0
 20
0.0
 30
0.0
  3
_ACMFILLED15
  1

  0
TRACE
  5
32C9
  8
0
 62
     0
 10
-1.0
 20
-0.131652497
 30
0.0
 11
-1.0
 21
0.131652497
 31
0.0
 12
0.0
 22
0.0
 32
0.0
 13
0.0
 23
0.0
 33
0.0
  0
ENDBLK
  5
32C8
  8
0
  0
BLOCK
  8
0
  2
*D13
 70
     1
 10
0.0
 20
0.0
 30
0.0
  3
*D13
  1

  0
LINE
  5
4276
  8
AM_5
  6
CONTINUOUS
 62
     7
 10
256.05085698466718
 20
248.91986087784451
 30
0.0
 11
286.57356981889762
 21
248.91986087784451
 31
0.0
  0
LINE
  5
4277
  8
AM_5
  6
CONTINUOUS
 62
     7
 10
256.05085698466092
 20
257.91986087784449
 30
0.0
 11
286.57356981889762
 21
257.91986087784449
 31
0.0
  0
LINE
  5
4278
  8
AM_5
  6
CONTINUOUS
 62
     7
 10
285.57356981889762
 20
251.41986087784451
 30
0.0
 11
285.57356981889762
 21
255.41986087784451
 31
0.0
  0
INSERT
  5
4279
  8
AM_5
 62
     7
  2
_OPEN30
 10
285.57356981889762
 20
248.91986087784451
 30
0.0
 41
2.5
 42
2.5
 43
2.5
 50
270.0
  0
INSERT
  5
427A
  8
AM_5
 62
     7
  2
_OPEN30
 10
285.57356981889762
 20
257.91986087784449
 30
0.0
 41
2.5
 42
2.5
 43
2.5
 50
90.0
  0
INSERT
  5
427B
  8
0
  2
*U35
 10
0.0
 20
0.0
 30
0.0
  0
POINT
  5
427C
  8
DEFPOINTS
 62
     0
 10
255.05085698466721
 20
248.91986087784451
 30
0.0
  0
POINT
  5
427D
  8
DEFPOINTS
 62
     0
 10
255.0508569846609
 20
257.91986087784449
 30
0.0
  0
POINT
  5
427E
  8
DEFPOINTS
 62
     0
 10
285.57356981889762
 20
257.91986087784449
 30
0.0
  0
ENDBLK
  5
413B
  8
0
  0
BLOCK
  8
0
  2
*D14
 70
     1
 10
0.0
 20
0.0
 30
0.0
  3
*D14
  1

  0
LINE
  5
427F
  8
AM_5
  6
CONTINUOUS
 62
     7
 10
261.0508569847517
 20
243.41986087784451
 30
0.0
 11
293.57356981889768
 21
243.41986087784451
 31
0.0
  0
LINE
  5
4280
  8
AM_5
  6
CONTINUOUS
 62
     7
 10
261.0508569847517
 20
263.41986087784449
 30
0.0
 11
293.57356981889768
 21
263.41986087784449
 31
0.0
  0
LINE
  5
4281
  8
AM_5
  6
CONTINUOUS
 62
     7
 10
292.57356981889768
 20
245.91986087784451
 30
0.0
 11
292.57356981889768
 21
260.91986087784449
 31
0.0
  0
INSERT
  5
4282
  8
AM_5
 62
     7
  2
_OPEN30
 10
292.57356981889768
 20
243.41986087784451
 30
0.0
 41
2.5
 42
2.5
 43
2.5
 50
270.0
  0
INSERT
  5
4283
  8
AM_5
 62
     7
  2
_OPEN30
 10
292.57356981889768
 20
263.41986087784449
 30
0.0
 41
2.5
 42
2.5
 43
2.5
 50
90.0
  0
INSERT
  5
4284
  8
0
  2
*U36
 10
0.0
 20
0.0
 30
0.0
  0
POINT
  5
4285
  8
DEFPOINTS
 62
     0
 10
260.0508569847517
 20
243.41986087784451
 30
0.0
  0
POINT
  5
4286
  8
DEFPOINTS
 62
     0
 10
260.0508569847517
 20
263.41986087784449
 30
0.0
  0
POINT
  5
4287
  8
DEFPOINTS
 62
     0
 10
292.57356981889768
 20
263.41986087784449
 30
0.0
  0
ENDBLK
  5
4165
  8
0
  0
BLOCK
  8
0
  2
*D15
 70
     1
 10
0.0
 20
0.0
 30
0.0
  3
*D15
  1

  0
LINE
  5
4288
  8
AM_5
  6
CONTINUOUS
 62
     7
 10
212.55085698453891
 20
240.41986087784451
 30
0.0
 11
168.86086703268211
 21
240.41986087784451
 31
0.0
  0
LINE
  5
4289
  8
AM_5
  6
CONTINUOUS
 62
     7
 10
212.55085698453891
 20
266.41986087784449
 30
0.0
 11
168.86086703268211
 21
266.41986087784449
 31
0.0
  0
LINE
  5
428A
  8
AM_5
  6
CONTINUOUS
 62
     7
 10
169.86086703268211
 20
242.91986087784451
 30
0.0
 11
169.86086703268211
 21
263.91986087784449
 31
0.0
  0
INSERT
  5
428B
  8
AM_5
 62
     7
  2
_OPEN30
 10
169.86086703268211
 20
240.41986087784451
 30
0.0
 41
2.5
 42
2.5
 43
2.5
 50
270.0
  0
INSERT
  5
428C
  8
AM_5
 62
     7
  2
_OPEN30
 10
169.86086703268211
 20
266.41986087784449
 30
0.0
 41
2.5
 42
2.5
 43
2.5
 50
90.0
  0
INSERT
  5
428D
  8
0
  2
*U37
 10
0.0
 20
0.0
 30
0.0
  0
POINT
  5
428E
  8
DEFPOINTS
 62
     0
 10
213.55085698453891
 20
240.41986087784451
 30
0.0
  0
POINT
  5
428F
  8
DEFPOINTS
 62
     0
 10
213.55085698453891
 20
266.41986087784449
 30
0.0
  0
POINT
  5
4290
  8
DEFPOINTS
 62
     0
 10
169.86086703268211
 20
266.41986087784449
 30
0.0
  0
ENDBLK
  5
4186
  8
0
  0
BLOCK
  8
0
  2
*D16
 70
     1
 10
0.0
 20
0.0
 30
0.0
  3
*D16
  1

  0
LINE
  5
4291
  8
AM_5
  6
CONTINUOUS
 62
     7
 10
217.05085698453891
 20
226.91986087784451
 30
0.0
 11
217.05085698453891
 21
220.5887434026333
 31
0.0
  0
LINE
  5
4292
  8
AM_5
  6
CONTINUOUS
 62
     7
 10
240.05085698453891
 20
246.81111105694461
 30
0.0
 11
240.05085698453891
 21
220.5887434026333
 31
0.0
  0
LINE
  5
4293
  8
AM_5
  6
CONTINUOUS
 62
     7
 10
219.55085698453891
 20
221.5887434026333
 30
0.0
 11
237.55085698453891
 21
221.5887434026333
 31
0.0
  0
INSERT
  5
4294
  8
AM_5
 62
     7
  2
_OPEN30
 10
217.05085698453891
 20
221.5887434026333
 30
0.0
 41
2.5
 42
2.5
 43
2.5
 50
180.0
  0
INSERT
  5
4295
  8
AM_5
 62
     7
  2
_OPEN30
 10
240.05085698453891
 20
221.5887434026333
 30
0.0
 41
2.5
 42
2.5
 43
2.5
  0
INSERT
  5
4296
  8
0
  2
*U38
 10
0.0
 20
0.0
 30
0.0
  0
POINT
  5
4297
  8
DEFPOINTS
 62
     0
 10
217.05085698453891
 20
227.91986087784451
 30
0.0
  0
POINT
  5
4298
  8
DEFPOINTS
 62
     0
 10
240.05085698453891
 20
247.8111110569447
 30
0.0
  0
POINT
  5
4299
  8
DEFPOINTS
 62
     0
 10
240.05085698453891
 20
221.5887434026333
 30
0.0
  0
ENDBLK
  5
41FB
  8
0
  0
BLOCK
  8
0
  2
*D17
 70
     1
 10
0.0
 20
0.0
 30
0.0
  3
*D17
  1

  0
LINE
  5
429A
  8
AM_5
  6
CONTINUOUS
 62
     7
 10
205.55085698453891
 20
252.41986087784451
 30
0.0
 11
205.55085698453891
 21
213.58874340263361
 31
0.0
  0
LINE
  5
429B
  8
AM_5
  6
CONTINUOUS
 62
     7
 10
217.05085698453891
 20
226.91986087784451
 30
0.0
 11
217.05085698453891
 21
213.58874340263361
 31
0.0
  0
LINE
  5
429C
  8
AM_5
  6
CONTINUOUS
 62
     7
 10
208.050856984539
 20
214.58874340263361
 30
0.0
 11
214.55085698453891
 21
214.58874340263361
 31
0.0
  0
INSERT
  5
429D
  8
AM_5
 62
     7
  2
_OPEN30
 10
205.55085698453891
 20
214.58874340263361
 30
0.0
 41
2.5
 42
2.5
 43
2.5
 50
180.0
  0
INSERT
  5
429E
  8
AM_5
 62
     7
  2
_OPEN30
 10
217.05085698453891
 20
214.58874340263361
 30
0.0
 41
2.5
 42
2.5
 43
2.5
  0
INSERT
  5
429F
  8
0
  2
*U39
 10
0.0
 20
0.0
 30
0.0
  0
POINT
  5
42A0
  8
DEFPOINTS
 62
     0
 10
205.55085698453891
 20
253.41986087784451
 30
0.0
  0
POINT
  5
42A1
  8
DEFPOINTS
 62
     0
 10
217.05085698453891
 20
227.91986087784451
 30
0.0
  0
POINT
  5
42A2
  8
DEFPOINTS
 62
     0
 10
217.05085698453891
 20
214.58874340263361
 30
0.0
  0
ENDBLK
  5
4225
  8
0
  0
BLOCK
  8
0
  2
*D18
 70
     1
 10
0.0
 20
0.0
 30
0.0
  3
*D18
  1

  0
LINE
  5
42A3
  8
AM_5
  6
CONTINUOUS
 62
     7
 10
217.05085698453891
 20
226.91986087784451
 30
0.0
 11
217.05085698453891
 21
213.58874340263361
 31
0.0
  0
LINE
  5
42A4
  8
AM_5
  6
CONTINUOUS
 62
     7
 10
252.0508569845388
 20
245.83407444021759
 30
0.0
 11
252.0508569845388
 21
213.58874340263361
 31
0.0
  0
LINE
  5
42A5
  8
AM_5
  6
CONTINUOUS
 62
     7
 10
219.55085698453891
 20
214.58874340263361
 30
0.0
 11
249.5508569845388
 21
214.58874340263361
 31
0.0
  0
INSERT
  5
42A6
  8
AM_5
 62
     7
  2
_OPEN30
 10
217.05085698453891
 20
214.58874340263361
 30
0.0
 41
2.5
 42
2.5
 43
2.5
 50
180.0
  0
INSERT
  5
42A7
  8
AM_5
 62
     7
  2
_OPEN30
 10
252.0508569845388
 20
214.58874340263361
 30
0.0
 41
2.5
 42
2.5
 43
2.5
  0
INSERT
  5
42A8
  8
0
  2
*U40
 10
0.0
 20
0.0
 30
0.0
  0
POINT
  5
42A9
  8
DEFPOINTS
 62
     0
 10
217.05085698453891
 20
227.91986087784451
 30
0.0
  0
POINT
  5
42AA
  8
DEFPOINTS
 62
     0
 10
252.0508569845388
 20
246.83407444021759
 30
0.0
  0
POINT
  5
42AB
  8
DEFPOINTS
 62
     0
 10
252.0508569845388
 20
214.58874340263361
 30
0.0
  0
ENDBLK
  5
4258
  8
0
  0
BLOCK
  8
0
  2
*D19
 70
     1
 10
0.0
 20
0.0
 30
0.0
  3
*D19
  1

  0
LINE
  5
4603
  8
AM_5
  6
CONTINUOUS
 62
     7
 10
260.0508569847517
 20
185.54956726286341
 30
0.0
 11
260.0508569847517
 21
189.8344742278575
 31
0.0
  0
LINE
  5
4604
  8
AM_5
  6
CONTINUOUS
 62
     7
 10
255.0508569847517
 20
184.54956726286341
 30
0.0
 11
255.0508569847517
 21
189.8344742278575
 31
0.0
  0
LINE
  5
4605
  8
AM_5
  6
CONTINUOUS
 62
     7
 10
262.5508569847517
 20
188.8344742278575
 30
0.0
 11
265.0508569847517
 21
188.8344742278575
 31
0.0
  0
LINE
  5
4606
  8
AM_5
  6
CONTINUOUS
 62
     7
 10
252.5508569847517
 20
188.8344742278575
 30
0.0
 11
250.0508569847517
 21
188.8344742278575
 31
0.0
  0
LINE
  5
4607
  8
AM_5
  6
CONTINUOUS
 62
     7
 10
260.0508569847517
 20
188.8344742278575
 30
0.0
 11
255.0508569847517
 21
188.8344742278575
 31
0.0
  0
INSERT
  5
4608
  8
AM_5
 62
     7
  2
_OPEN30
 10
260.0508569847517
 20
188.8344742278575
 30
0.0
 41
2.5
 42
2.5
 43
2.5
 50
180.0
  0
INSERT
  5
4609
  8
AM_5
 62
     7
  2
GENDOT
 10
255.0508569847517
 20
188.8344742278575
 30
0.0
 41
2.5
 42
2.5
 43
2.5
  0
TEXT
  8
AM_5
  40
3
  5
464C
  62
7
  72
0
  71
0
 10
257.551
 20
187.434
 30
0.000000
  1
5
  0
POINT
  5
460B
  8
DEFPOINTS
 62
     0
 10
260.0508569847517
 20
184.54956726286341
 30
0.0
  0
POINT
  5
460C
  8
DEFPOINTS
 62
     0
 10
255.0508569847517
 20
183.54956726286341
 30
0.0
  0
POINT
  5
460D
  8
DEFPOINTS
 62
     0
 10
255.0508569847517
 20
188.8344742278575
 30
0.0
  0
ENDBLK
  5
42AF
  8
0
  0
BLOCK
  8
0
  2
*D20
 70
     1
 10
0.0
 20
0.0
 30
0.0
  3
*D20
  1

  0
LINE
  5
460E
  8
AM_5
  6
CONTINUOUS
 62
     7
 10
255.0508569847517
 20
184.54956726286341
 30
0.0
 11
255.0508569847517
 21
189.8344742278575
 31
0.0
  0
LINE
  5
460F
  8
AM_5
  6
CONTINUOUS
 62
     7
 10
247.05085698475179
 20
162.54956726286341
 30
0.0
 11
247.05085698475179
 21
189.8344742278575
 31
0.0
  0
LINE
  5
4610
  8
AM_5
  6
CONTINUOUS
 62
     7
 10
252.5508569847517
 20
188.8344742278575
 30
0.0
 11
249.55085698475179
 21
188.8344742278575
 31
0.0
  0
INSERT
  5
4611
  8
AM_5
 62
     7
  2
GENDOT
 10
255.0508569847517
 20
188.8344742278575
 30
0.0
 41
2.5
 42
2.5
 43
2.5
  0
INSERT
  5
4612
  8
AM_5
 62
     7
  2
_OPEN30
 10
247.05085698475179
 20
188.8344742278575
 30
0.0
 41
2.5
 42
2.5
 43
2.5
 50
180.0
  0
TEXT
  8
AM_5
  40
3
  5
464D
  62
7
  72
0
  71
0
 10
251.051
 20
187.434
 30
0.000000
  1
8
  0
POINT
  5
4614
  8
DEFPOINTS
 62
     0
 10
255.0508569847517
 20
183.54956726286341
 30
0.0
  0
POINT
  5
4615
  8
DEFPOINTS
 62
     0
 10
247.05085698475179
 20
161.54956726286341
 30
0.0
  0
POINT
  5
4616
  8
DEFPOINTS
 62
     0
 10
247.05085698475179
 20
188.8344742278575
 30
0.0
  0
ENDBLK
  5
42EC
  8
0
  0
BLOCK
  8
0
  2
GENDOT
 70
     0
 10
0.0
 20
0.0
 30
0.0
  3
GENDOT
  1

  0
LINE
  5
4302
  8
0
 10
0.0
 20
0.0
 30
0.0
 11
-1.0
 21
0.0
 31
0.0
  0
POLYLINE
  5
4303
  8
0
 66
     1
 10
0.0
 20
0.0
 30
0.0
 70
     1
 40
0.25
 41
0.25
  0
VERTEX
  5
4617
  8
0
 10
-0.125
 20
0.0
 30
0.0
 42
1.0
  0
VERTEX
  5
4618
  8
0
 10
0.125
 20
0.0
 30
0.0
 42
1.0
  0
SEQEND
  5
4619
  8
0
  0
ENDBLK
  5
4305
  8
0
  0
BLOCK
  8
0
  2
*D22
 70
     1
 10
0.0
 20
0.0
 30
0.0
  3
*D22
  1

  0
LINE
  5
4344
  8
AM_5
  6
CONTINUOUS
 62
     7
 10
260.0508569847517
 20
185.54956726286341
 30
0.0
 11
260.0508569847517
 21
196.8344742278575
 31
0.0
  0
LINE
  5
4345
  8
AM_5
  6
CONTINUOUS
 62
     7
 10
241.0508569847517
 20
166.54956726286341
 30
0.0
 11
241.0508569847517
 21
196.8344742278575
 31
0.0
  0
LINE
  5
4346
  8
AM_5
  6
CONTINUOUS
 62
     7
 10
257.5508569847517
 20
195.8344742278575
 30
0.0
 11
243.5508569847517
 21
195.8344742278575
 31
0.0
  0
INSERT
  5
4347
  8
AM_5
 62
     7
  2
_OPEN30
 10
260.0508569847517
 20
195.8344742278575
 30
0.0
 41
2.5
 42
2.5
 43
2.5
  0
INSERT
  5
4348
  8
AM_5
 62
     7
  2
_OPEN30
 10
241.0508569847517
 20
195.8344742278575
 30
0.0
 41
2.5
 42
2.5
 43
2.5
 50
180.0
  0
INSERT
  5
4349
  8
0
  2
*U41
 10
0.0
 20
0.0
 30
0.0
  0
POINT
  5
434A
  8
DEFPOINTS
 62
     0
 10
260.0508569847517
 20
184.54956726286341
 30
0.0
  0
POINT
  5
434B
  8
DEFPOINTS
 62
     0
 10
241.0508569847517
 20
165.54956726286341
 30
0.0
  0
POINT
  5
434C
  8
DEFPOINTS
 62
     0
 10
241.0508569847517
 20
195.8344742278575
 30
0.0
  0
ENDBLK
  5
4326
  8
0
  0
BLOCK
  8
0
  2
*D23
 70
     1
 10
0.0
 20
0.0
 30
0.0
  3
*D23
  1

  0
LINE
  5
4377
  8
AM_5
  6
CONTINUOUS
 62
     7
 10
260.0508569847517
 20
185.54956726286341
 30
0.0
 11
260.0508569847517
 21
203.83447422785741
 31
0.0
  0
LINE
  5
4378
  8
AM_5
  6
CONTINUOUS
 62
     7
 10
217.05085698453891
 20
169.17402284501699
 30
0.0
 11
217.05085698453891
 21
203.83447422785741
 31
0.0
  0
LINE
  5
4379
  8
AM_5
  6
CONTINUOUS
 62
     7
 10
257.5508569847517
 20
202.8344742278575
 30
0.0
 11
219.55085698453891
 21
202.8344742278575
 31
0.0
  0
INSERT
  5
437A
  8
AM_5
 62
     7
  2
_OPEN30
 10
260.0508569847517
 20
202.8344742278575
 30
0.0
 41
2.5
 42
2.5
 43
2.5
  0
INSERT
  5
437B
  8
AM_5
 62
     7
  2
_OPEN30
 10
217.05085698453891
 20
202.8344742278575
 30
0.0
 41
2.5
 42
2.5
 43
2.5
 50
180.0
  0
INSERT
  5
437C
  8
0
  2
*U42
 10
0.0
 20
0.0
 30
0.0
  0
POINT
  5
437D
  8
DEFPOINTS
 62
     0
 10
260.0508569847517
 20
184.54956726286341
 30
0.0
  0
POINT
  5
437E
  8
DEFPOINTS
 62
     0
 10
217.05085698453891
 20
168.17402284501699
 30
0.0
  0
POINT
  5
437F
  8
DEFPOINTS
 62
     0
 10
217.05085698453891
 20
202.8344742278575
 30
0.0
  0
ENDBLK
  5
4350
  8
0
  0
BLOCK
  8
0
  2
*D24
 70
     1
 10
0.0
 20
0.0
 30
0.0
  3
*D24
  1

  0
LINE
  5
43A1
  8
AM_5
  6
CONTINUOUS
 62
     7
 10
193.55085698453891
 20
105.17402284501701
 30
0.0
 11
168.69431220193201
 21
105.17402284501701
 31
0.0
  0
LINE
  5
43A2
  8
AM_5
  6
CONTINUOUS
 62
     7
 10
201.7394345249885
 20
157.17402284501691
 30
0.0
 11
168.69431220193201
 21
157.17402284501691
 31
0.0
  0
LINE
  5
43A3
  8
AM_5
  6
CONTINUOUS
 62
     7
 10
169.69431220193201
 20
107.67402284501691
 30
0.0
 11
169.69431220193201
 21
154.67402284501691
 31
0.0
  0
INSERT
  5
43A4
  8
AM_5
 62
     7
  2
_OPEN30
 10
169.69431220193201
 20
105.17402284501701
 30
0.0
 41
2.5
 42
2.5
 43
2.5
 50
270.0
  0
INSERT
  5
43A5
  8
AM_5
 62
     7
  2
_OPEN30
 10
169.69431220193201
 20
157.17402284501691
 30
0.0
 41
2.5
 42
2.5
 43
2.5
 50
90.0
  0
INSERT
  5
43A6
  8
0
  2
*U43
 10
0.0
 20
0.0
 30
0.0
  0
POINT
  5
43A7
  8
DEFPOINTS
 62
     0
 10
194.55085698453891
 20
105.17402284501701
 30
0.0
  0
POINT
  5
43A8
  8
DEFPOINTS
 62
     0
 10
202.73943452498861
 20
157.17402284501691
 30
0.0
  0
POINT
  5
43A9
  8
DEFPOINTS
 62
     0
 10
169.69431220193201
 20
157.17402284501691
 30
0.0
  0
ENDBLK
  5
4383
  8
0
  0
BLOCK
  8
0
  2
*D25
 70
     1
 10
0.0
 20
0.0
 30
0.0
  3
*D25
  1

  0
LINE
  5
43C2
  8
AM_5
  6
CONTINUOUS
 62
     7
 10
288.9802444794725
 20
137.17402284505329
 30
0.0
 11
302.98024447947262
 21
137.17402284505329
 31
0.0
  0
LINE
  5
43C3
  8
AM_5
  6
CONTINUOUS
 62
     7
 10
288.9802444794725
 20
177.1740228447814
 30
0.0
 11
302.98024447947262
 21
177.1740228447814
 31
0.0
  0
LINE
  5
43C4
  8
AM_5
  6
CONTINUOUS
 62
     7
 10
301.98024447947262
 20
139.67402284505329
 30
0.0
 11
301.98024447947262
 21
174.6740228447814
 31
0.0
  0
INSERT
  5
43C5
  8
AM_5
 62
     7
  2
_OPEN30
 10
301.98024447947262
 20
137.17402284505329
 30
0.0
 41
2.5
 42
2.5
 43
2.5
 50
270.0
  0
INSERT
  5
43C6
  8
AM_5
 62
     7
  2
_OPEN30
 10
301.98024447947262
 20
177.1740228447814
 30
0.0
 41
2.5
 42
2.5
 43
2.5
 50
90.0
  0
INSERT
  5
43C7
  8
0
  2
*U44
 10
0.0
 20
0.0
 30
0.0
  0
POINT
  5
43C8
  8
DEFPOINTS
 62
     0
 10
287.98024447947262
 20
137.17402284505329
 30
0.0
  0
POINT
  5
43C9
  8
DEFPOINTS
 62
     0
 10
287.98024447947262
 20
177.1740228447814
 30
0.0
  0
POINT
  5
43CA
  8
DEFPOINTS
 62
     0
 10
301.98024447947262
 20
177.1740228447814
 30
0.0
  0
ENDBLK
  5
43AD
  8
0
  0
BLOCK
  8
0
  2
*D26
 70
     1
 10
0.0
 20
0.0
 30
0.0
  3
*D26
  1

  0
LINE
  5
43E3
  8
AM_5
  6
CONTINUOUS
 62
     7
 10
261.05085698475409
 20
130.54956726286341
 30
0.0
 11
309.98024447947267
 21
130.54956726286341
 31
0.0
  0
LINE
  5
43E4
  8
AM_5
  6
CONTINUOUS
 62
     7
 10
261.0508569847517
 20
184.54956726286341
 30
0.0
 11
309.98024447947267
 21
184.54956726286341
 31
0.0
  0
LINE
  5
43E5
  8
AM_5
  6
CONTINUOUS
 62
     7
 10
308.98024447947267
 20
133.04956726286341
 30
0.0
 11
308.98024447947267
 21
182.04956726286341
 31
0.0
  0
INSERT
  5
43E6
  8
AM_5
 62
     7
  2
_OPEN30
 10
308.98024447947267
 20
130.54956726286341
 30
0.0
 41
2.5
 42
2.5
 43
2.5
 50
270.0
  0
INSERT
  5
43E7
  8
AM_5
 62
     7
  2
_OPEN30
 10
308.98024447947267
 20
184.54956726286341
 30
0.0
 41
2.5
 42
2.5
 43
2.5
 50
90.0
  0
INSERT
  5
43E8
  8
0
  2
*U45
 10
0.0
 20
0.0
 30
0.0
  0
POINT
  5
43E9
  8
DEFPOINTS
 62
     0
 10
260.0508569847542
 20
130.54956726286341
 30
0.0
  0
POINT
  5
43EA
  8
DEFPOINTS
 62
     0
 10
260.0508569847517
 20
184.54956726286341
 30
0.0
  0
POINT
  5
43EB
  8
DEFPOINTS
 62
     0
 10
308.98024447947267
 20
184.54956726286341
 30
0.0
  0
ENDBLK
  5
43CE
  8
0
  0
BLOCK
  8
0
  2
*D27
 70
     1
 10
0.0
 20
0.0
 30
0.0
  3
*D27
  1

  0
LINE
  5
4416
  8
AM_5
  6
CONTINUOUS
 62
     7
 10
251.0508569847517
 20
137.1740228450532
 30
0.0
 11
247.66494387643391
 21
137.1740228450532
 31
0.0
  0
LINE
  5
4417
  8
AM_5
  6
CONTINUOUS
 62
     7
 10
240.55085698453891
 20
105.17402284501691
 30
0.0
 11
249.66494387643391
 21
105.17402284501691
 31
0.0
  0
LINE
  5
4418
  8
AM_5
  6
CONTINUOUS
 62
     7
 10
248.66494387643391
 20
134.6740228450532
 30
0.0
 11
248.66494387643391
 21
107.67402284501691
 31
0.0
  0
INSERT
  5
4419
  8
AM_5
 62
     7
  2
_OPEN30
 10
248.66494387643391
 20
137.1740228450532
 30
0.0
 41
2.5
 42
2.5
 43
2.5
 50
90.0
  0
INSERT
  5
441A
  8
AM_5
 62
     7
  2
_OPEN30
 10
248.66494387643391
 20
105.17402284501691
 30
0.0
 41
2.5
 42
2.5
 43
2.5
 50
270.0
  0
INSERT
  5
441B
  8
0
  2
*U46
 10
0.0
 20
0.0
 30
0.0
  0
POINT
  5
441C
  8
DEFPOINTS
 62
     0
 10
252.05085698475179
 20
137.1740228450532
 30
0.0
  0
POINT
  5
441D
  8
DEFPOINTS
 62
     0
 10
239.55085698453891
 20
105.17402284501691
 30
0.0
  0
POINT
  5
441E
  8
DEFPOINTS
 62
     0
 10
248.66494387643391
 20
105.17402284501691
 30
0.0
  0
ENDBLK
  5
43EF
  8
0
  0
BLOCK
  8
0
  2
*D28
 70
     1
 10
0.0
 20
0.0
 30
0.0
  3
*D28
  1

  0
LINE
  5
444A
  8
AM_5
  6
CONTINUOUS
 62
     7
 10
194.5508569845388
 20
104.17402284501701
 30
0.0
 11
194.5508569845388
 21
46.925937322869913
 31
0.0
  0
LINE
  5
444B
  8
AM_5
  6
CONTINUOUS
 62
     7
 10
239.55085698453891
 20
104.17402284501691
 30
0.0
 11
239.55085698453891
 21
46.925937322869913
 31
0.0
  0
LINE
  5
444C
  8
AM_5
  6
CONTINUOUS
 62
     7
 10
197.0508569845388
 20
47.925937322869913
 30
0.0
 11
237.050856984539
 21
47.925937322869913
 31
0.0
  0
INSERT
  5
444D
  8
AM_5
 62
     7
  2
_OPEN30
 10
194.5508569845388
 20
47.925937322869913
 30
0.0
 41
2.5
 42
2.5
 43
2.5
 50
180.0
  0
INSERT
  5
444E
  8
AM_5
 62
     7
  2
_OPEN30
 10
239.55085698453891
 20
47.925937322869913
 30
0.0
 41
2.5
 42
2.5
 43
2.5
  0
INSERT
  5
444F
  8
0
  2
*U47
 10
0.0
 20
0.0
 30
0.0
  0
POINT
  5
4450
  8
DEFPOINTS
 62
     0
 10
194.5508569845388
 20
105.17402284501701
 30
0.0
  0
POINT
  5
4451
  8
DEFPOINTS
 62
     0
 10
239.55085698453891
 20
105.17402284501691
 30
0.0
  0
POINT
  5
4452
  8
DEFPOINTS
 62
     0
 10
239.55085698453891
 20
47.925937322869913
 30
0.0
  0
ENDBLK
  5
4423
  8
0
  0
BLOCK
  8
0
  2
*S30
 70
     1
 10
0.0
 20
0.0
 30
0.0
  3
*S30
  1

  0
LINE
  5
4563
  8
AM_5
  6
CONTINUOUS
 62
     7
 10
180.1650931614287
 20
88.917942232332052
 30
0.0
 11
186.2550931614287
 21
88.917942232332052
 31
0.0
  0
LINE
  5
4564
  8
AM_5
  6
CONTINUOUS
 62
     7
 10
186.2550931614287
 20
88.917942232332052
 30
0.0
 11
190.85364582883261
 21
101.1455107120226
 31
0.0
  0
LINE
  5
4565
  8
AM_5
  6
CONTINUOUS
 62
     7
 10
190.85364582883261
 20
101.1455107120226
 30
0.0
 11
191.96247769494579
 21
104.0938987279886
 31
0.0
  0
LINE
  5
4566
  8
AM_5
  6
CONTINUOUS
 62
     7
 10
191.2418084732594
 20
100.99953022809559
 30
0.0
 11
191.96247769494579
 21
104.0938987279886
 31
0.0
  0
LINE
  5
4567
  8
AM_5
  6
CONTINUOUS
 62
     7
 10
191.96247769494579
 20
104.0938987279886
 30
0.0
 11
190.4654831844058
 21
101.2914911959496
 31
0.0
  0
INSERT
  5
4568
  8
0
  2
*U48
 10
0.0
 20
0.0
 30
0.0
  0
ENDBLK
  5
456A
  8
0
  0
BLOCK
  8
0
  2
*S31
 70
     1
 10
0.0
 20
0.0
 30
0.0
  3
*S31
  1

  0
LINE
  5
456D
  8
AM_5
  6
CONTINUOUS
 62
     7
 10
283.98529012081991
 20
55.562179669121072
 30
0.0
 11
251.53960664932131
 21
55.562179669121072
 31
0.0
  0
LINE
  5
456E
  8
AM_5
  6
CONTINUOUS
 62
     7
 10
251.53960664932131
 20
55.562179669121072
 30
0.0
 11
224.4243433529148
 21
85.737940056931919
 31
0.0
  0
LINE
  5
456F
  8
AM_5
  6
CONTINUOUS
 62
     7
 10
224.4243433529148
 20
85.737940056931919
 30
0.0
 11
222.31894634650891
 21
88.080973015602694
 31
0.0
  0
LINE
  5
4570
  8
AM_5
  6
CONTINUOUS
 62
     7
 10
224.73280949247709
 20
86.015120830001592
 30
0.0
 11
222.31894634650891
 21
88.080973015602694
 31
0.0
  0
LINE
  5
4571
  8
AM_5
  6
CONTINUOUS
 62
     7
 10
222.31894634650891
 20
88.080973015602694
 30
0.0
 11
224.11587721335241
 21
85.460759283862274
 31
0.0
  0
INSERT
  5
4572
  8
0
  2
*U49
 10
0.0
 20
0.0
 30
0.0
  0
ENDBLK
  5
4574
  8
0
  0
BLOCK
  8
0
  2
*S32
 70
     1
 10
0.0
 20
0.0
 30
0.0
  3
*S32
  1

  0
LINE
  5
4577
  8
AM_5
  6
CONTINUOUS
 62
     7
 10
308.80257531350941
 20
273.25205632227028
 30
0.0
 11
274.44008515602911
 21
273.25205632227028
 31
0.0
  0
LINE
  5
4578
  8
AM_5
  6
CONTINUOUS
 62
     7
 10
274.44008515602911
 20
273.25205632227028
 30
0.0
 11
261.90072207989022
 21
255.9694685201668
 31
0.0
  0
LINE
  5
4579
  8
AM_5
  6
CONTINUOUS
 62
     7
 10
261.90072207989022
 20
255.9694685201668
 30
0.0
 11
260.0508569847517
 21
253.41986087784451
 31
0.0
  0
LINE
  5
457A
  8
AM_5
  6
CONTINUOUS
 62
     7
 10
261.56505986740819
 20
256.21300787905489
 30
0.0
 11
260.0508569847517
 21
253.41986087784451
 31
0.0
  0
LINE
  5
457B
  8
AM_5
  6
CONTINUOUS
 62
     7
 10
260.0508569847517
 20
253.41986087784451
 30
0.0
 11
262.23638429237218
 21
255.7259291612786
 31
0.0
  0
INSERT
  5
457C
  8
0
  2
*U50
 10
0.0
 20
0.0
 30
0.0
  0
ENDBLK
  5
457E
  8
0
  0
BLOCK
  8
0
  2
*S33
 70
     1
 10
0.0
 20
0.0
 30
0.0
  3
*S33
  1

  0
LINE
  5
4581
  8
AM_5
  6
CONTINUOUS
 62
     7
 10
329.37443755537441
 20
195.82259877737769
 30
0.0
 11
300.36694739789408
 21
195.82259877737769
 31
0.0
  0
LINE
  5
4582
  8
AM_5
  6
CONTINUOUS
 62
     7
 10
300.36694739789408
 20
195.82259877737769
 30
0.0
 11
288.17539449974629
 21
180.6375811905223
 31
0.0
  0
LINE
  5
4583
  8
AM_5
  6
CONTINUOUS
 62
     7
 10
288.17539449974629
 20
180.6375811905223
 30
0.0
 11
286.2033137377789
 21
178.1812836783553
 31
0.0
  0
LINE
  5
4584
  8
AM_5
  6
CONTINUOUS
 62
     7
 10
287.85201679889462
 20
180.89721054712101
 30
0.0
 11
286.2033137377789
 21
178.1812836783553
 31
0.0
  0
LINE
  5
4585
  8
AM_5
  6
CONTINUOUS
 62
     7
 10
286.2033137377789
 20
178.1812836783553
 30
0.0
 11
288.49877220059801
 21
180.3779518339237
 31
0.0
  0
INSERT
  5
4586
  8
0
  2
*U51
 10
0.0
 20
0.0
 30
0.0
  0
ENDBLK
  5
4588
  8
0
  0
BLOCK
  8
0
  2
*S34
 70
     1
 10
0.0
 20
0.0
 30
0.0
  3
*S34
  1

  0
LINE
  5
458B
  8
AM_5
  6
CONTINUOUS
 62
     7
 10
283.27879969262062
 20
107.7675082522529
 30
0.0
 11
275.29879969262061
 21
107.7675082522529
 31
0.0
  0
LINE
  5
458C
  8
AM_5
  6
CONTINUOUS
 62
     7
 10
275.29879969262061
 20
107.7675082522529
 30
0.0
 11
263.58277546579473
 21
117.54089767200441
 31
0.0
  0
LINE
  5
458D
  8
AM_5
  6
CONTINUOUS
 62
     7
 10
263.58277546579473
 20
117.54089767200441
 30
0.0
 11
261.16389776067649
 21
119.5587010934709
 31
0.0
  0
LINE
  5
458E
  8
AM_5
  6
CONTINUOUS
 62
     7
 10
263.84842432468588
 20
117.8593489618208
 30
0.0
 11
261.16389776067649
 21
119.5587010934709
 31
0.0
  0
LINE
  5
458F
  8
AM_5
  6
CONTINUOUS
 62
     7
 10
261.16389776067649
 20
119.5587010934709
 30
0.0
 11
263.31712660690351
 21
117.2224463821879
 31
0.0
  0
INSERT
  5
4590
  8
0
  2
*U52
 10
0.0
 20
0.0
 30
0.0
  0
ENDBLK
  5
4592
  8
0
  0
BLOCK
  8
0
  2
*U35
 70
     1
 10
0.0
 20
0.0
 30
0.0
  3
*U35
  1

  0
TEXT
  5
45EC
  8
AM_5
 62
     7
 10
284.57356981889751
 20
252.4912894492731
 30
0.0
 40
3.0
  1
9
 50
90.0
  0
ENDBLK
  5
45EE
  8
0
  0
BLOCK
  8
0
  2
*U36
 70
     1
 10
0.0
 20
0.0
 30
0.0
  3
*U36
  1

  0
TEXT
  5
45F0
  8
AM_5
 62
     7
 10
291.57356981889768
 20
250.9912894492731
 30
0.0
 40
3.0
  1
20
 50
90.0
  0
ENDBLK
  5
45F2
  8
0
  0
BLOCK
  8
0
  2
*U37
 70
     1
 10
0.0
 20
0.0
 30
0.0
  3
*U37
  1

  0
TEXT
  5
45F4
  8
AM_5
 62
     7
 10
168.86086703268211
 20
251.06271802070171
 30
0.0
 40
3.0
  1
26
 50
90.0
  0
ENDBLK
  5
45F6
  8
0
  0
BLOCK
  8
0
  2
*U38
 70
     1
 10
0.0
 20
0.0
 30
0.0
  3
*U38
  1

  0
TEXT
  5
45F8
  8
AM_5
 62
     7
 10
226.12228555596749
 20
222.5887434026333
 30
0.0
 40
3.0
  1
23
  0
ENDBLK
  5
45FA
  8
0
  0
BLOCK
  8
0
  2
*U39
 70
     1
 10
0.0
 20
0.0
 30
0.0
  3
*U39
  1

  0
TEXT
  5
45FC
  8
AM_5
 62
     7
 10
207.30085698453891
 20
215.58874340263361
 30
0.0
 40
3.0
  1
11.5
  0
ENDBLK
  5
45FE
  8
0
  0
BLOCK
  8
0
  2
*U40
 70
     1
 10
0.0
 20
0.0
 30
0.0
  3
*U40
  1

  0
TEXT
  5
4600
  8
AM_5
 62
     7
 10
232.12228555596741
 20
215.58874340263361
 30
0.0
 40
3.0
  1
35
  0
ENDBLK
  5
4602
  8
0
  0
BLOCK
  8
0
  2
*U41
 70
     1
 10
0.0
 20
0.0
 30
0.0
  3
*U41
  1

  0
TEXT
  5
461B
  8
AM_5
 62
     7
 10
248.47942841332309
 20
196.8344742278575
 30
0.0
 40
3.0
  1
19
  0
ENDBLK
  5
461D
  8
0
  0
BLOCK
  8
0
  2
*U42
 70
     1
 10
0.0
 20
0.0
 30
0.0
  3
*U42
  1

  0
TEXT
  5
461F
  8
AM_5
 62
     7
 10
234.1937141275024
 20
204.83447422785741
 30
0.0
 40
3.0
  1
(43)
  0
ENDBLK
  5
4621
  8
0
  0
BLOCK
  8
0
  2
*U43
 70
     1
 10
0.0
 20
0.0
 30
0.0
  3
*U43
  1

  0
TEXT
  5
4623
  8
AM_5
 62
     7
 10
168.69431220193201
 20
128.7454514164456
 30
0.0
 40
3.0
  1
52
 50
90.0
  0
ENDBLK
  5
4625
  8
0
  0
BLOCK
  8
0
  2
*U44
 70
     1
 10
0.0
 20
0.0
 30
0.0
  3
*U44
  1

  0
TEXT
  5
4627
  8
AM_5
 62
     7
 10
300.9802444794725
 20
154.7454514163459
 30
0.0
 40
3.0
  1
40
 50
90.0
  0
ENDBLK
  5
4629
  8
0
  0
BLOCK
  8
0
  2
*U45
 70
     1
 10
0.0
 20
0.0
 30
0.0
  3
*U45
  1

  0
TEXT
  5
462B
  8
AM_5
 62
     7
 10
307.98024447947267
 20
155.04956726286341
 30
0.0
 40
3.0
  1
54
 50
90.0
  0
ENDBLK
  5
462D
  8
0
  0
BLOCK
  8
0
  2
*U46
 70
     1
 10
0.0
 20
0.0
 30
0.0
  3
*U46
  1

  0
TEXT
  5
462F
  8
AM_5
 62
     7
 10
246.66494387643391
 20
116.81687998789219
 30
0.0
 40
3.0
  1
(32)
 50
90.0
  0
ENDBLK
  5
4631
  8
0
  0
BLOCK
  8
0
  2
*U47
 70
     1
 10
0.0
 20
0.0
 30
0.0
  3
*U47
  1

  0
TEXT
  5
4633
  8
AM_5
 62
     7
 10
213.2651426988246
 20
48.925937322869913
 30
0.0
 40
3.0
  1
\U+220545
  0
ENDBLK
  5
4635
  8
0
  0
BLOCK
  8
0
  2
*U48
 70
     1
 10
0.0
 20
0.0
 30
0.0
  3
*U48
  1

  0
TEXT
  5
4637
  8
AM_5
 62
     7
 10
180.1650931614287
 20
90.492942232332055
 30
0.0
 40
3.149999999999999
  1
床
  7
ACJISTS
  0
ENDBLK
  5
4639
  8
0
  0
BLOCK
  8
0
  2
*U49
 70
     1
 10
0.0
 20
0.0
 30
0.0
  3
*U49
  1

  0
TEXT
  5
463B
  8
AM_5
 62
     7
 10
252.17029012081991
 20
62.387179669121082
 30
0.0
 40
3.149999999999999
  1
M10オールアンカー
  7
ACJISTS
  0
TEXT
  5
463C
  8
AM_5
 62
     7
 10
250.7527901208199
 20
57.137179669121068
 30
0.0
 40
3.149999999999999
  1
（AM-1060）
  7
ACJISTS
  0
ENDBLK
  5
463E
  8
0
  0
BLOCK
  8
0
  2
*U50
 70
     1
 10
0.0
 20
0.0
 30
0.0
  3
*U50
  1

  0
TEXT
  5
4640
  8
AM_5
 62
     7
 10
277.19757531350939
 20
274.82705632227032
 30
0.0
 40
3.149999999999999
  1
2-\U+22054.5\U+00D7\U+22058.5皿孔
  7
ACJISTS
  0
ENDBLK
  5
4642
  8
0
  0
BLOCK
  8
0
  2
*U51
 70
     1
 10
0.0
 20
0.0
 30
0.0
  3
*U51
  1

  0
TEXT
  5
4644
  8
AM_5
 62
     7
 10
303.12443755537441
 20
202.64759877737771
 30
0.0
 40
3.149999999999999
  1
2-オールプラグ
  7
ACJISTS
  0
TEXT
  5
4645
  8
AM_5
 62
     7
 10
301.62694739789413
 20
197.39759877737771
 30
0.0
 40
3.149999999999999
  1
（PL-8C）
  7
ACJISTS
  0
ENDBLK
  5
4647
  8
0
  0
BLOCK
  8
0
  2
*U52
 70
     1
 10
0.0
 20
0.0
 30
0.0
  3
*U52
  1

  0
TEXT
  5
4649
  8
AM_5
 62
     7
 10
276.97879969262061
 20
109.3425082522529
 30
0.0
 40
3.149999999999999
  1
ドア
  7
ACJISTS
  0
ENDBLK
  5
464B
  8
0
  0
ENDSEC
  0
SECTION
  2
ENTITIES
  0
INSERT
  5
1BB5
  8
0
  2
ZUWAKU-A3H
 10
0.0
 20
0.0
 30
0.0
1001
GENIUS_GENOREF_13
1005
1C93
1001
GENIUS_GENOBJ-N-SDF_13
1002
{
1000
OWNER
1000
GEN
1002
}
1001
GENIUS_GENODEF_13
1002
{
1000
HIER
1070
     0
1002
}
1002
{
1000
MANEDIT
1070
     0
1002
}
1002
{
1000
NOSEL
1070
     0
1002
}
1002
{
1000
BEHIND
1070
     0
1002
}
1002
{
1000
OTHER
1070
     0
1002
}
1002
{
1000
REACTOR
1002
}
1001
GENIUS_GENSCREG_13
1040
1.0
1040
1.0
1011
24.999999999999979
1021
0.0
1031
0.0
1021
8.9999999999999964
1031
0.0
1011
411.99999999999989
1021
0.0
1031
0.0
1021
284.99999999999989
1031
0.0
1070
     3
  0
POINT
  5
1C93
  8
0
 10
0.0
 20
0.0
 30
0.0
1001
GENIUS_GENOENT_13
1002
{
1000
MYREF
1005
1C93
1002
}
1002
{
1000
GRP
1005
0
1002
}
1001
GENIUS_GENOBJ-N-TIT_13
1002
{
1000
OWNER
1000
GEN
1002
}
1001
GENIUS_GENODEF_13
1002
{
1000
HIER
1070
     1
1002
}
1002
{
1000
MANEDIT
1070
     1
1002
}
1002
{
1000
NOSEL
1070
     0
1002
}
1002
{
1000
BEHIND
1070
     0
1002
}
1002
{
1000
OTHER
1070
     0
1002
}
1002
{
1000
REACTOR
1002
}
1001
GENIUS_GENOLIS_13
1002
{
1000
ENT
1005
1BB5
1005
2A9C
1002
}
1001
GENIUS_GENTITLE_13
1002
{
1000
BORDER
1000
C:\Program Files\Autodesk\ACADM 2008\Acadm\gen\Dwg\Format\ZUWAKU-A3H
1002
}
1002
{
1000
TITLE
1000
C:\Program Files\Autodesk\ACADM 2008\Acadm\gen\Dwg\Title\N_Title
1002
}
1002
{
1000
ADDITIONAL1
1000

1002
}
1002
{
1000
ADDITIONAL2
1000

1002
}
1002
{
1000
SCALE
1000
1:1
1002
}
1002
{
1000
TITLESTD
1000
JIS
1002
}
1002
{
1000
HRA
1005
1BB5
1002
}
1002
{
1000
HTIT
1005
2A9C
1002
}
1002
{
1000
GENIUSID
1005
1C93
1002
}
1002
{
1000
INVTXTID
1005
0
1002
}
1002
{
1000
UNCHG
1002
{
1000
GEN-TITLE-SIZ
1000
GEN-TITLE-SCA
1002
}
1002
}
  0
INSERT
  5
20F2
  8
0
 66
     1
  2
A$C1C06296A
 10
135.5000001316065
 20
8.9999998268887005
 30
0.0
  0
ATTRIB
  5
20F3
  8
AM_BOR
 62
     7
 10
249.8107097069896
 20
9.4999999999999893
 30
0.0
 40
3.0
  1

 11
249.8107097069896
 21
10.999999999999989
 31
0.0
  2
SETS｛20｝
 70
     0
 74
     2
1001
AcDbAttr
1070
     0
1070
     1
  0
ATTRIB
  5
20F4
  8
AM_BOR
 62
     7
 10
154.5607097069896
 20
9.4999999999999893
 30
0.0
 40
3.0
  1

 11
154.5607097069896
 21
10.999999999999989
 31
0.0
  2
REMARKS｛20｝
 70
     0
 74
     2
1001
AcDbAttr
1070
     0
1070
     1
  0
ATTRIB
  5
20F5
  8
AM_BOR
 62
     7
 10
249.8107097069896
 20
14.499999999999989
 30
0.0
 40
3.0
  1
PL-8C(2本)
 11
249.8107097069896
 21
15.999999999999989
 31
0.0
  2
SETS｛20｝
 70
     0
 74
     2
1001
AcDbAttr
1070
     0
1070
     1
  0
ATTRIB
  5
20F6
  8
AM_BOR
 62
     7
 10
154.5607097069896
 20
14.499999999999989
 30
0.0
 40
3.0
  1

 11
154.5607097069896
 21
15.999999999999989
 31
0.0
  2
REMARKS｛20｝
 70
     0
 74
     2
1001
AcDbAttr
1070
     0
1070
     1
  0
ATTRIB
  5
20F7
  8
AM_BOR
 62
     7
 10
249.8107097069896
 20
19.499999999999989
 30
0.0
 40
3.0
  1
AM-1060（1本）
 11
249.8107097069896
 21
20.999999999999989
 31
0.0
  2
SETS｛20｝
 70
     0
 74
     2
1001
AcDbAttr
1070
     0
1070
     1
  0
ATTRIB
  5
20F8
  8
AM_BOR
 62
     7
 10
154.5607097069896
 20
19.499999999999989
 30
0.0
 40
3.0
  1

 11
154.5607097069896
 21
20.999999999999989
 31
0.0
  2
REMARKS｛20｝
 70
     0
 74
     2
1001
AcDbAttr
1070
     0
1070
     1
  0
ATTRIB
  5
20F9
  8
AM_BOR
 62
     7
 10
249.74999999999969
 20
32.499999999999993
 30
0.0
 40
3.0
  1
DC-540
 11
249.74999999999969
 21
33.999999999999993
 31
0.0
  2
ART_NO｛20｝
 70
     0
 74
     2
1001
AcDbAttr
1070
     0
1070
     1
  0
ATTRIB
  5
20FA
  8
AM_BOR
 62
     7
 10
154.49999999999969
 20
32.499999999999993
 30
0.0
 40
3.0
  1
床付け戸当り（木付け用）
 11
154.49999999999969
 21
33.999999999999993
 31
0.0
  2
ARTICLE｛20｝
 70
     0
 74
     2
1001
AcDbAttr
1070
     0
1070
     1
  0
ATTRIB
  5
20FB
  8
AM_BOR
 62
     7
 10
249.74999999999969
 20
25.999999999999989
 30
0.0
 40
3.0
  1
サチライトクロム
 11
249.74999999999969
 21
27.499999999999989
 31
0.0
  2
FINISH｛20｝
 70
     0
 74
     2
1001
AcDbAttr
1070
     0
1070
     1
  0
ATTRIB
  5
20FC
  8
AM_BOR
 62
     7
 10
154.49999999999969
 20
25.999999999999989
 30
0.0
 40
3.0
  1
亜鉛ダイカスト
 11
154.49999999999969
 21
27.499999999999989
 31
0.0
  2
MATERIAK｛20｝
 70
     0
 74
     2
1001
AcDbAttr
1070
     0
1070
     1
  0
SEQEND
  5
20FD
  8
0
  0
LINE
  5
3E48
  8
AM_7
 10
191.5508569845388
 20
253.41986087784451
 30
0.0
 11
262.86501718396312
 21
253.41986087784451
 31
0.0
  0
LINE
  5
3E49
  8
AM_7
 10
217.05085698453891
 20
227.91986087784451
 30
0.0
 11
217.05085698453891
 21
278.9198608778446
 31
0.0
  0
ARC
  5
3E4A
  8
0
 10
217.05085698453891
 20
253.41986087784451
 30
0.0
 40
22.50000000000006
 50
35.294394676660893
 51
324.705605323339
  0
ARC
  5
3E4B
  8
0
 10
217.05085698453891
 20
253.41986087784451
 30
0.0
 40
11.8076969651753
 50
148.7840738758394
 51
211.21592612415901
  0
LINE
  5
3E4D
  8
0
 10
208.05085698453891
 20
261.42236087784448
 30
0.0
 11
208.05085698453891
 21
245.4173608778444
 31
0.0
  0
LINE
  5
3E4E
  8
0
 10
208.05085698453891
 20
261.42236087784448
 30
0.0
 11
227.0508569845388
 21
261.42236087784448
 31
0.0
  0
LINE
  5
3E4F
  8
0
 10
208.05085698453891
 20
245.41736087784449
 30
0.0
 11
227.05085698453891
 21
245.41736087784449
 31
0.0
  0
ARC
  5
3E50
  8
0
 10
217.05085698453891
 20
253.41986087784451
 30
0.0
 40
11.8076969651753
 50
222.66696976924811
 51
250.19852868036941
  0
LINE
  5
3E52
  8
0
 10
213.55085698453891
 20
240.41986087784451
 30
0.0
 11
245.6366434221658
 21
240.41986087784451
 31
0.0
  0
LINE
  5
3E53
  8
0
 10
246.3437502033523
 20
240.71275409665779
 30
0.0
 11
251.75796376572549
 21
246.1269676590309
 31
0.0
  0
ARC
  5
3E54
  8
0
 10
245.6366434221658
 20
241.41986087784451
 30
0.0
 40
1.0
 50
270.0
 51
315.00000000000011
  0
LINE
  5
3E55
  8
0
 10
213.55085698453891
 20
266.41986087784449
 30
0.0
 11
245.6366434221658
 21
266.41986087784449
 31
0.0
  0
ARC
  5
3E56
  8
0
 10
245.6366434221658
 20
265.41986087784449
 30
0.0
 40
1.0
 50
44.999999999999922
 51
90.0
  0
LINE
  5
3E57
  8
0
 10
252.05085698453891
 20
246.83407444021759
 30
0.0
 11
252.05085698453891
 21
260.00564731547132
 31
0.0
  0
ARC
  5
3E58
  8
0
 10
251.0508569845388
 20
246.83407444021759
 30
0.0
 40
1.0
 50
315.00000000000011
 51
0.0
  0
ARC
  5
3E59
  8
0
 10
251.0508569845388
 20
260.00564731547138
 30
0.0
 40
1.0
 50
0.0
 51
44.999999999999922
  0
LINE
  5
3E5A
  8
0
 10
215.05085698453891
 20
262.11486087784471
 30
0.0
 11
215.0508569845388
 21
261.41986087784449
 31
0.0
  0
ARC
  5
3E5B
  8
0
 10
214.7508569845389
 20
262.11486087784471
 30
0.0
 40
0.3
 50
0.0
 51
90.0
  0
LINE
  5
3E5C
  8
0
 10
219.05085698453891
 20
262.11486087784448
 30
0.0
 11
219.050856984539
 21
261.41986087784449
 31
0.0
  0
ARC
  5
3E5D
  8
0
 10
219.35085698453889
 20
262.11486087784448
 30
0.0
 40
0.3
 50
90.0
 51
180.0
  0
LINE
  5
3E5E
  8
0
 10
219.05085698453891
 20
245.41986087784451
 30
0.0
 11
219.050856984539
 21
244.72486087784441
 31
0.0
  0
ARC
  5
3E5F
  8
0
 10
219.35085698453889
 20
244.72486087784441
 30
0.0
 40
0.3
 50
180.0
 51
270.0
  0
LINE
  5
3E60
  8
0
 10
215.05085698453891
 20
245.41986087784451
 30
0.0
 11
215.050856984539
 21
244.72486087784429
 31
0.0
  0
ARC
  5
3E61
  8
0
 10
214.75085698453901
 20
244.72486087784441
 30
0.0
 40
0.3
 50
270.0
 51
0.0
  0
LINE
  5
3E62
  8
0
 10
213.05085698453891
 20
243.9298608778445
 30
0.0
 11
213.05085698453891
 21
240.91986087784451
 31
0.0
  0
ARC
  5
3E63
  8
0
 10
213.55085698453891
 20
240.91986087784451
 30
0.0
 40
0.5
 50
180.0
 51
270.0
  0
LINE
  5
3E64
  8
0
 10
213.05085698453891
 20
265.91986087784449
 30
0.0
 11
213.05085698453891
 21
262.90986087784438
 31
0.0
  0
ARC
  5
3E65
  8
0
 10
213.55085698453891
 20
265.91986087784449
 30
0.0
 40
0.5
 50
90.0
 51
180.0
  0
LINE
  5
3E66
  8
0
 10
213.54585698453889
 20
262.41486087784449
 30
0.0
 11
244.18689595385999
 21
262.41486087784449
 31
0.0
  0
ARC
  5
3E67
  8
0
 10
213.54585698453889
 20
262.90986087784438
 30
0.0
 40
0.4950000000000001
 50
180.0
 51
270.0
  0
LINE
  5
3E68
  8
0
 10
213.54585698453889
 20
244.42486087784451
 30
0.0
 11
244.18689595385999
 21
244.42486087784451
 31
0.0
  0
ARC
  5
3E69
  8
0
 10
213.54585698453889
 20
243.9298608778445
 30
0.0
 40
0.4950000000000001
 50
90.0
 51
180.0
  0
LINE
  5
3E6A
  8
0
 10
248.045856984539
 20
258.55589984716562
 30
0.0
 11
248.045856984539
 21
248.28382190852341
 31
0.0
  0
LINE
  5
3E6B
  8
0
 10
244.53691381054719
 20
262.2698787345318
 30
0.0
 11
247.90087484122611
 21
258.90591770385282
 31
0.0
  0
ARC
  5
3E6C
  8
0
 10
247.550856984539
 20
258.55589984716562
 30
0.0
 40
0.4950000000000001
 50
0.0
 51
44.999999999999922
  0
ARC
  5
3E6D
  8
0
 10
244.18689595385999
 20
261.91986087784449
 30
0.0
 40
0.4950000000000001
 50
44.999999999999922
 51
90.0
  0
LINE
  5
3E6E
  8
0
 10
247.90087484122611
 20
247.93380405183609
 30
0.0
 11
244.53691381054719
 21
244.569843021157
 31
0.0
  0
ARC
  5
3E6F
  8
0
 10
247.550856984539
 20
248.28382190852341
 30
0.0
 40
0.4950000000000001
 50
315.00000000000011
 51
0.0
  0
ARC
  5
3E70
  8
0
 10
244.18689595385999
 20
244.91986087784451
 30
0.0
 40
0.4950000000000001
 50
270.0
 51
315.00000000000011
  0
LINE
  5
3E71
  8
0
 10
246.3437502033523
 20
266.12696765903098
 30
0.0
 11
251.75796376572549
 21
260.71275409665787
 31
0.0
  0
LINE
  5
3E72
  8
0
 10
227.05085698453891
 20
261.42236087784448
 30
0.0
 11
227.05085698453891
 21
245.41736087784449
 31
0.0
  0
LINE
  5
3E73
  8
0
 10
227.0508569845388
 20
261.41986087784449
 30
0.0
 11
227.05085698453871
 21
253.41986087784451
 31
0.0
  0
LINE
  5
3E74
  8
0
 10
227.0508569845388
 20
253.41986087784451
 30
0.0
 11
227.0508569845388
 21
245.41986087784451
 31
0.0
  0
LINE
  5
3E75
  8
0
 10
240.0508569845388
 20
259.02861069874427
 30
0.0
 11
240.0508569845388
 21
253.41986087784451
 31
0.0
  0
LINE
  5
3E76
  8
0
 10
240.0508569845388
 20
253.41986087784451
 30
0.0
 11
240.05085698453891
 21
247.8111110569447
 31
0.0
  0
LINE
  5
3E77
  8
0
 10
239.165481092524
 20
260.0220196346155
 30
0.0
 11
227.05085698453891
 21
261.41986087784449
 31
0.0
  0
ARC
  5
3E78
  8
0
 10
239.0508569845388
 20
259.02861069874427
 30
0.0
 40
1.0
 50
0.0
 51
83.418055344822349
  0
LINE
  5
3E79
  8
0
 10
227.05085698453891
 20
245.41986087784451
 30
0.0
 11
239.1654810925242
 21
246.81770212107349
 31
0.0
  0
ARC
  5
3E7A
  8
0
 10
239.0508569845388
 20
247.8111110569447
 30
0.0
 40
1.0
 50
276.58194465517738
 51
0.0
  0
ARC
  5
3E7B
  8
0
 10
217.05085698453891
 20
253.41986087784451
 30
0.0
 40
22.50000000000006
 50
17.38434241260757
 51
23.564287030662371
  0
ARC
  5
3E7C
  8
0
 10
217.05085698453891
 20
253.41986087784451
 30
0.0
 40
22.50000000000006
 50
336.43571296933618
 51
342.74368894229571
  0
ARC
  5
3E7D
  8
0
 10
217.05085698453891
 20
253.41986087784451
 30
0.0
 40
11.8076969651753
 50
310.37763571169302
 51
317.33303023075189
  0
ARC
  5
3E7E
  8
0
 10
217.05085698453891
 20
253.41986087784451
 30
0.0
 40
11.8076969651753
 50
109.80147131963059
 51
137.33303023075189
  0
ARC
  5
3E7F
  8
0
 10
217.05085698453891
 20
253.41986087784451
 30
0.0
 40
11.8076969651753
 50
42.666969769248077
 51
49.622364288305818
  0
LINE
  5
3E84
  8
0
 10
214.15622883731299
 20
161.17402284501691
 30
0.0
 11
221.0508569845388
 21
161.17402284501699
 31
0.0
  0
LINE
  5
3E85
  8
0
 10
214.15622883731299
 20
153.17402284501691
 30
0.0
 11
221.0508569845388
 21
153.17402284501699
 31
0.0
  0
LINE
  5
3E86
  8
0
 10
221.05085698453911
 20
161.17402284501699
 30
0.0
 11
251.0114581822026
 21
160.20755183864071
 31
0.0
  0
LINE
  5
3E87
  8
0
 10
251.01145818220289
 20
154.1404938513933
 30
0.0
 11
221.05085698453911
 21
153.17402284501699
 31
0.0
  0
LINE
  5
3E88
  8
0
 10
251.9786077152107
 20
159.2429712210035
 30
0.0
 11
252.050856984539
 21
157.17402284501699
 31
0.0
  0
ARC
  5
3E89
  8
0
 10
250.9792168881917
 20
159.20807172430099
 30
0.0
 40
1.0
 50
1.9999999999987861
 51
88.152389734005354
  0
LINE
  5
3E8A
  8
0
 10
252.05085698453891
 20
157.17402284501699
 30
0.0
 11
251.9786077152107
 21
155.10507446903051
 31
0.0
  0
ARC
  5
3E8B
  8
0
 10
250.9792168881917
 20
155.13997396573291
 30
0.0
 40
1.0
 50
271.8476102659946
 51
357.9999999999996
  0
LINE
  5
3E8C
  8
0
 10
213.05085698453891
 20
157.17402284501691
 30
0.0
 11
213.1568380102938
 21
154.1391233483144
 31
0.0
  0
ARC
  5
3E8D
  8
0
 10
214.15622883731311
 20
154.17402284501699
 30
0.0
 40
1.0
 50
181.99999999999881
 51
270.0
  0
LINE
  5
3E8E
  8
0
 10
213.05085698453919
 20
157.17402284501699
 30
0.0
 11
213.15683801029419
 21
160.2089223417195
 31
0.0
  0
ARC
  5
3E8F
  8
0
 10
214.15622883731311
 20
160.17402284501699
 30
0.0
 40
1.0
 50
90.0
 51
177.9999999999996
  0
LINE
  5
3E90
  8
0
 10
238.55085698453891
 20
110.17402284501691
 30
0.0
 11
195.550856984539
 21
110.17402284501691
 31
0.0
  0
LINE
  5
3E91
  8
0
 10
239.55085698453891
 20
105.17402284501691
 30
0.0
 11
194.5508569845388
 21
105.17402284501701
 31
0.0
  0
LINE
  5
3E92
  8
AM_7
 10
261.5508569847517
 20
157.17402284501691
 30
0.0
 11
202.73943452498861
 21
157.17402284501691
 31
0.0
  0
LINE
  5
3E93
  8
AM_7
 10
217.05085698453891
 20
168.17402284501699
 30
0.0
 11
217.05085698453891
 21
55.17402284501695
 31
0.0
  0
LINE
  5
3E94
  8
0
 10
194.55085698453891
 20
109.17402284501691
 30
0.0
 11
194.55085698453891
 21
105.17402284501691
 31
0.0
  0
ARC
  5
3E95
  8
0
 10
195.55085698453891
 20
109.17402284501691
 30
0.0
 40
1.0
 50
90.0
 51
180.0
  0
LINE
  5
3E96
  8
0
 10
239.55085698453891
 20
109.17402284501691
 30
0.0
 11
239.55085698453891
 21
105.17402284501691
 31
0.0
  0
ARC
  5
3E97
  8
0
 10
238.55085698453891
 20
109.17402284501691
 30
0.0
 40
1.0
 50
0.0
 51
90.0
  0
LINE
  5
3E98
  8
0
 10
208.050856984539
 20
165.17402284501699
 30
0.0
 11
227.05085698453891
 21
165.17402284501691
 31
0.0
  0
LINE
  5
3E99
  8
0
 10
208.05085698453891
 20
149.17402284501699
 30
0.0
 11
208.8380967282244
 21
149.17402284501699
 31
0.0
  0
LINE
  5
3E9A
  8
0
 10
225.26361724085339
 20
149.17402284501699
 30
0.0
 11
227.05085698453891
 21
149.17402284501699
 31
0.0
  0
LINE
  5
3E9B
  8
0
 10
226.86873051439929
 20
111.97252173764321
 30
0.0
 11
223.27379380553859
 21
146.97252173764321
 31
0.0
  0
ARC
  5
3E9C
  8
0
 10
225.26361724085339
 20
147.17402284501699
 30
0.0
 40
2.0
 50
90.0
 51
185.7823923223645
  0
ARC
  5
3E9D
  8
0
 10
228.85855394971409
 20
112.17402284501691
 30
0.0
 40
2.0
 50
185.7823923223645
 51
270.0
  0
LINE
  5
3E9E
  8
0
 10
210.8279201635392
 20
146.97252173764329
 30
0.0
 11
207.2329834546783
 21
111.9725217376435
 31
0.0
  0
ARC
  5
3E9F
  8
0
 10
208.8380967282244
 20
147.17402284501691
 30
0.0
 40
2.0
 50
354.21760767763709
 51
90.0
  0
ARC
  5
3EA0
  8
0
 10
205.2431600193637
 20
112.17402284501691
 30
0.0
 40
2.0
 50
270.0
 51
354.21760767763709
  0
LINE
  5
3EA1
  8
0
 10
227.050856984539
 20
165.17402284501691
 30
0.0
 11
227.050856984539
 21
160.98047445792011
 31
0.0
  0
LINE
  5
3EA2
  8
0
 10
227.05085698453891
 20
153.3675712321137
 30
0.0
 11
227.05085698453891
 21
149.17402284501691
 31
0.0
  0
LINE
  5
3EA3
  8
0
 10
240.05085698453891
 20
162.78277266591661
 30
0.0
 11
240.05085698453891
 21
160.5611196192105
 31
0.0
  0
LINE
  5
3EA4
  8
0
 10
240.05085698453891
 20
153.7869260708234
 30
0.0
 11
240.05085698453891
 21
151.56527302411709
 31
0.0
  0
LINE
  5
3EA5
  8
0
 10
239.165481092524
 20
163.7761816017879
 30
0.0
 11
227.05085698453891
 21
165.17402284501699
 31
0.0
  0
ARC
  5
3EA6
  8
0
 10
239.050856984539
 20
162.78277266591661
 30
0.0
 40
1.0
 50
0.0
 51
83.418055344822363
  0
LINE
  5
3EA7
  8
0
 10
227.050856984539
 20
149.17402284501699
 30
0.0
 11
239.16548109252381
 21
150.571864088246
 31
0.0
  0
ARC
  5
3EA8
  8
0
 10
239.050856984539
 20
151.56527302411709
 30
0.0
 40
1.0
 50
276.58194465517738
 51
0.0
  0
ARC
  5
3EA9
  8
0
 10
220.7394345249885
 20
157.17402284501699
 30
0.0
 40
15.0
 50
147.76904736449811
 51
212.23095263550189
  0
ARC
  5
3EAA
  8
0
 10
217.05085698453891
 20
145.18915235856119
 30
0.0
 40
6.4734340979424214
 50
15.9912448844042
 51
164.00875511559579
  0
LINE
  5
3EAB
  8
0
 10
208.05085698453891
 20
165.17402284501699
 30
0.0
 11
208.05085698453891
 21
149.17402284501699
 31
0.0
  0
LINE
  5
3EAC
  8
AM_1
 10
223.05085698453891
 20
70.174022845016907
 30
0.0
 11
217.55085698453891
 21
70.174022845016907
 31
0.0
  0
LINE
  5
3EAD
  8
AM_1
 10
221.0074572104225
 20
58.17402284501695
 30
0.0
 11
213.09425675865529
 21
58.17402284501695
 31
0.0
  0
LINE
  5
3EAE
  8
AM_1
 10
220.55085698453871
 20
70.174022845016964
 30
0.0
 11
221.50573008954501
 21
58.71554558494384
 31
0.0
  0
ARC
  5
3EAF
  8
AM_1
 10
221.0074572104225
 20
58.67402284501695
 30
0.0
 40
0.5
 50
270.0
 51
4.7636416907268542
  0
LINE
  5
3EB0
  8
AM_1
 10
213.55085698453911
 20
70.17402284501685
 30
0.0
 11
212.59598387953301
 21
58.715545584943783
 31
0.0
  0
ARC
  5
3EB1
  8
AM_1
 10
213.09425675865529
 20
58.674022845016879
 30
0.0
 40
0.5
 50
175.2363583092731
 51
270.0
  0
LINE
  5
3EB2
  8
AM_1
 10
217.55085698453891
 20
86.174022845016907
 30
0.0
 11
217.55085698453891
 21
70.174022845016964
 31
0.0
  0
LINE
  5
3EB3
  8
AM_1
 10
216.55085698453891
 20
86.174022845016907
 30
0.0
 11
216.55085698453891
 21
70.174022845016964
 31
0.0
  0
LINE
  5
3EB4
  8
AM_1
 10
217.55085698453891
 20
74.174022845016879
 30
0.0
 11
216.550856984539
 21
74.174022845016879
 31
0.0
  0
LINE
  5
3EB5
  8
AM_1
 10
222.05085698453891
 20
72.174022845016964
 30
0.0
 11
217.55085698453891
 21
72.174022845016964
 31
0.0
  0
LINE
  5
3EB6
  8
AM_1
 10
217.55085698453891
 20
86.174022845016893
 30
0.0
 11
216.55085698453891
 21
86.174022845016893
 31
0.0
  0
LINE
  5
3EB7
  8
AM_1
 10
223.05085698453891
 20
105.17402284501691
 30
0.0
 11
223.05085698453891
 21
80.174022845016907
 31
0.0
  0
LINE
  5
3EB8
  8
AM_1
 10
211.050856984539
 20
105.17402284501691
 30
0.0
 11
211.05085698453911
 21
80.174022845016935
 31
0.0
  0
LINE
  5
3EB9
  8
AM_1
 10
222.0508569845388
 20
72.174022845016935
 30
0.0
 11
223.0508569845388
 21
70.174022845016822
 31
0.0
  0
LINE
  5
3EBA
  8
AM_1
 10
223.05085698453891
 20
72.174022845016964
 30
0.0
 11
217.55085698453891
 21
72.174022845016964
 31
0.0
  0
LINE
  5
3EBB
  8
AM_1
 10
222.05085698453911
 20
74.174022845016879
 30
0.0
 11
217.55085698453911
 21
74.174022845016879
 31
0.0
  0
LINE
  5
3EBC
  8
AM_1
 10
222.0508569845388
 20
74.174022845016964
 30
0.0
 11
223.0508569845388
 21
72.174022845016907
 31
0.0
  0
LINE
  5
3EBD
  8
AM_1
 10
223.05085698453891
 20
74.174022845016879
 30
0.0
 11
217.55085698453891
 21
74.174022845016879
 31
0.0
  0
LINE
  5
3EBE
  8
AM_1
 10
222.05085698453891
 20
76.174022845016907
 30
0.0
 11
217.55085698453891
 21
76.174022845016907
 31
0.0
  0
LINE
  5
3EBF
  8
AM_1
 10
222.05085698453871
 20
76.174022845016879
 30
0.0
 11
223.05085698453871
 21
74.174022845016879
 31
0.0
  0
LINE
  5
3EC0
  8
AM_1
 10
223.05085698453891
 20
76.174022845016907
 30
0.0
 11
217.55085698453891
 21
76.174022845016907
 31
0.0
  0
LINE
  5
3EC1
  8
AM_1
 10
222.05085698453891
 20
78.174022845016964
 30
0.0
 11
217.55085698453891
 21
78.174022845016964
 31
0.0
  0
LINE
  5
3EC2
  8
AM_1
 10
222.05085698453891
 20
78.174022845016907
 30
0.0
 11
223.05085698453891
 21
76.17402284501685
 31
0.0
  0
LINE
  5
3EC3
  8
AM_1
 10
223.05085698453891
 20
78.174022845016964
 30
0.0
 11
217.55085698453891
 21
78.174022845016964
 31
0.0
  0
LINE
  5
3EC4
  8
AM_1
 10
223.05085698453891
 20
80.174022845016879
 30
0.0
 11
217.55085698453891
 21
80.174022845016879
 31
0.0
  0
LINE
  5
3EC5
  8
AM_1
 10
222.05085698453871
 20
80.174022845016907
 30
0.0
 11
223.0508569845388
 21
78.174022845016907
 31
0.0
  0
LINE
  5
3EC6
  8
AM_1
 10
211.05085698453891
 20
70.174022845016907
 30
0.0
 11
216.550856984539
 21
70.174022845016907
 31
0.0
  0
LINE
  5
3EC7
  8
AM_1
 10
212.050856984539
 20
72.174022845016964
 30
0.0
 11
216.550856984539
 21
72.174022845016964
 31
0.0
  0
LINE
  5
3EC8
  8
AM_1
 10
212.05085698453891
 20
72.174022845016907
 30
0.0
 11
211.05085698453891
 21
70.174022845016964
 31
0.0
  0
LINE
  5
3EC9
  8
AM_1
 10
211.05085698453891
 20
72.174022845016964
 30
0.0
 11
216.550856984539
 21
72.174022845016964
 31
0.0
  0
LINE
  5
3ECA
  8
AM_1
 10
212.050856984539
 20
74.174022845016879
 30
0.0
 11
216.550856984539
 21
74.174022845016879
 31
0.0
  0
LINE
  5
3ECB
  8
AM_1
 10
212.05085698453911
 20
74.174022845016879
 30
0.0
 11
211.05085698453911
 21
72.174022845016864
 31
0.0
  0
LINE
  5
3ECC
  8
AM_1
 10
211.05085698453891
 20
74.174022845016879
 30
0.0
 11
216.550856984539
 21
74.174022845016879
 31
0.0
  0
LINE
  5
3ECD
  8
AM_1
 10
212.050856984539
 20
76.174022845016907
 30
0.0
 11
216.550856984539
 21
76.174022845016907
 31
0.0
  0
LINE
  5
3ECE
  8
AM_1
 10
212.050856984539
 20
76.174022845017021
 30
0.0
 11
211.05085698453891
 21
74.174022845016992
 31
0.0
  0
LINE
  5
3ECF
  8
AM_1
 10
211.05085698453891
 20
76.174022845016907
 30
0.0
 11
216.550856984539
 21
76.174022845016907
 31
0.0
  0
LINE
  5
3ED0
  8
AM_1
 10
212.050856984539
 20
78.174022845016964
 30
0.0
 11
216.550856984539
 21
78.174022845016964
 31
0.0
  0
LINE
  5
3ED1
  8
AM_1
 10
212.05085698453891
 20
78.174022845016822
 30
0.0
 11
211.05085698453891
 21
76.174022845016879
 31
0.0
  0
LINE
  5
3ED2
  8
AM_1
 10
211.05085698453891
 20
78.174022845016964
 30
0.0
 11
216.550856984539
 21
78.174022845016964
 31
0.0
  0
LINE
  5
3ED3
  8
AM_1
 10
211.05085698453891
 20
80.174022845016879
 30
0.0
 11
216.550856984539
 21
80.174022845016879
 31
0.0
  0
LINE
  5
3ED4
  8
AM_1
 10
212.05085698453891
 20
80.17402284501685
 30
0.0
 11
211.05085698453891
 21
78.174022845016935
 31
0.0
  0
LINE
  5
3ED5
  8
AM_1
 10
212.05085698453891
 20
105.17402284501691
 30
0.0
 11
212.05085698453891
 21
97.67402284501695
 31
0.0
  0
LINE
  5
3ED6
  8
AM_1
 10
214.05085698453891
 20
105.17402284501691
 30
0.0
 11
214.05085698453891
 21
97.674022845016907
 31
0.0
  0
LINE
  5
3ED7
  8
AM_1
 10
216.05085698453891
 20
105.17402284501691
 30
0.0
 11
216.05085698453891
 21
97.67402284501695
 31
0.0
  0
LINE
  5
3ED8
  8
AM_1
 10
218.05085698453891
 20
105.17402284501691
 30
0.0
 11
218.05085698453891
 21
97.67402284501695
 31
0.0
  0
LINE
  5
3ED9
  8
AM_1
 10
220.05085698453891
 20
105.17402284501691
 30
0.0
 11
220.05085698453891
 21
97.67402284501695
 31
0.0
  0
LINE
  5
3EDA
  8
AM_1
 10
222.05085698453891
 20
105.17402284501691
 30
0.0
 11
222.05085698453891
 21
97.67402284501695
 31
0.0
  0
LINE
  5
3EDB
  8
AM_1
 10
223.05085698453891
 20
105.17402284501691
 30
0.0
 11
223.05085698453891
 21
80.174022845016964
 31
0.0
  0
LINE
  5
3EDC
  8
AM_1
 10
211.05085698453919
 20
97.67402284501695
 30
0.0
 11
223.050856984539
 21
97.67402284501695
 31
0.0
  0
LINE
  5
3EDD
  8
0
 10
260.0508569847517
 20
184.54956726286341
 30
0.0
 11
260.0508569847517
 21
130.54956726286341
 31
0.0
  0
LINE
  5
3EDE
  8
0
 10
255.0508569847517
 20
183.54956726286341
 30
0.0
 11
255.0508569847517
 21
131.54956726286341
 31
0.0
  0
LINE
  5
3EDF
  8
0
 10
256.0508569847517
 20
130.54956726286341
 30
0.0
 11
260.0508569847517
 21
130.54956726286341
 31
0.0
  0
ARC
  5
3EE0
  8
0
 10
256.0508569847517
 20
131.54956726286341
 30
0.0
 40
1.0
 50
180.0
 51
270.0
  0
LINE
  5
3EE1
  8
0
 10
256.0508569847517
 20
184.54956726286341
 30
0.0
 11
260.0508569847517
 21
184.54956726286341
 31
0.0
  0
ARC
  5
3EE2
  8
0
 10
256.0508569847517
 20
183.54956726286341
 30
0.0
 40
1.0
 50
90.0
 51
180.0
  0
LINE
  5
3EE5
  8
0
 10
253.46991516221351
 20
144.88834051055011
 30
0.0
 11
241.8413278960208
 21
147.38018063902001
 31
0.0
  0
ARC
  5
3EE6
  8
0
 10
253.0508569847517
 20
142.9327356823953
 30
0.0
 40
2.0
 50
0.0
 51
77.905242922987895
  0
ARC
  5
3EE7
  8
0
 10
242.0508569847517
 20
148.3579830530974
 30
0.0
 40
1.0
 50
180.0
 51
257.9052429229879
  0
ARC
  5
3EE8
  8
0
 10
242.0508569847517
 20
161.54956726286341
 30
0.0
 40
5.0
 50
0.0
 51
90.0
  0
LINE
  5
3EE9
  8
0
 10
255.05085698475159
 20
152.93418264747859
 30
0.0
 11
249.3591157375397
 21
153.37200889726421
 31
0.0
  0
ARC
  5
3EEA
  8
0
 10
249.5508569847517
 20
155.86464511101829
 30
0.0
 40
2.5
 50
226.93128037948901
 51
265.60129464500488
  0
ARC
  5
3EEB
  8
0
 10
242.0508569847517
 20
165.54956726286341
 30
0.0
 40
1.0
 50
90.0
 51
180.0
  0
LINE
  5
3EEC
  8
0
 10
247.0508569847517
 20
160.3353131675907
 30
0.0
 11
247.0508569847517
 21
161.54956726286341
 31
0.0
  0
LINE
  5
3EED
  8
0
 10
241.0508569847517
 20
148.3579830530974
 30
0.0
 11
241.0508569847517
 21
153.81918413534649
 31
0.0
  0
LINE
  5
3EEE
  8
0
 10
241.0508569847517
 20
160.5288615546875
 30
0.0
 11
241.0508569847517
 21
165.54956726286341
 31
0.0
  0
LINE
  5
3EEF
  8
AM_7
 10
252.0508569847517
 20
137.17402284505329
 30
0.0
 11
287.98024447947262
 21
137.17402284505329
 31
0.0
  0
LINE
  5
3EF0
  8
AM_1
 10
260.05085698475182
 20
141.37402284505319
 30
0.0
 11
260.0508569847517
 21
132.97402284505301
 31
0.0
  0
LINE
  5
3EF1
  8
AM_1
 10
265.8508569847516
 20
137.6740228450532
 30
0.0
 11
265.8508569847516
 21
136.6740228450532
 31
0.0
  0
LINE
  5
3EF2
  8
AM_1
 10
281.17120756310311
 20
140.25850424736669
 30
0.0
 11
279.32628460318688
 21
140.25112455552701
 31
0.0
  0
LINE
  5
3EF3
  8
AM_1
 10
277.57124908254832
 20
140.24410441344449
 30
0.0
 11
275.72634053865568
 21
140.23672477926891
 31
0.0
  0
LINE
  5
3EF4
  8
AM_1
 10
273.97132276125973
 20
140.22970470815901
 30
0.0
 11
272.12639813773399
 21
140.2223250096649
 31
0.0
  0
LINE
  5
3EF5
  8
AM_1
 10
270.37138036033809
 20
140.21530493855551
 30
0.0
 11
268.55194516115142
 21
140.20802719775889
 31
0.0
  0
LINE
  5
3EF6
  8
AM_1
 10
265.85085698475177
 20
140.1972228450532
 30
0.0
 11
260.0508569847517
 21
140.174022845053
 31
0.0
  0
LINE
  5
3EF7
  8
AM_1
 10
267.39088219272412
 20
140.20338294588521
 30
0.0
 11
265.85085698475228
 21
140.1972228450532
 31
0.0
  0
ARC
  5
3EF8
  8
AM_1
 10
282.55085698475159
 20
137.76400284513309
 30
0.0
 40
2.5
 50
3.6683654098231169
 51
81.127977809495107
  0
LINE
  5
3EF9
  8
AM_1
 10
260.05085698475102
 20
134.1740228450532
 30
0.0
 11
265.85085698475109
 21
134.15082284505311
 31
0.0
  0
LINE
  5
3EFA
  8
AM_1
 10
265.85085698475189
 20
134.15082284505289
 30
0.0
 11
267.39088219272389
 21
134.14466274422119
 31
0.0
  0
ARC
  5
3EFB
  8
AM_1
 10
282.55085698475159
 20
136.5840428449732
 30
0.0
 40
2.5
 50
278.87202219050488
 51
356.3316345901768
  0
LINE
  5
3EFC
  8
AM_1
 10
265.85085698475177
 20
137.174022845053
 30
0.0
 11
260.05085698475182
 21
138.424022845053
 31
0.0
  0
LINE
  5
3EFD
  8
AM_1
 10
260.0508569847517
 20
135.92402284505329
 30
0.0
 11
265.85085698475137
 21
137.17402284505329
 31
0.0
  0
LINE
  5
3EFE
  8
AM_1
 10
260.05085698475159
 20
137.17402284505329
 30
0.0
 11
265.8508569847516
 21
137.17402284505329
 31
0.0
  0
LINE
  5
3EFF
  8
AM_1
 10
268.86894291695558
 20
137.7208978450532
 30
0.0
 11
267.39088219272361
 21
140.20338294588521
 31
0.0
  0
LINE
  5
3F00
  8
AM_1
 10
269.45085698475128
 20
138.69825485047591
 30
0.0
 11
268.23067476000648
 21
140.74761868483611
 31
0.0
  0
LINE
  5
3F01
  8
AM_1
 10
270.67103920949643
 20
140.7476186848362
 30
0.0
 11
269.45085698475179
 21
138.6982548504761
 31
0.0
  0
LINE
  5
3F02
  8
AM_1
 10
271.25085698475181
 20
139.76674083963019
 30
0.0
 11
270.0327710525479
 21
137.7208978450532
 31
0.0
  0
LINE
  5
3F03
  8
AM_1
 10
272.44572506152122
 20
137.75989352313621
 30
0.0
 11
271.25085698475192
 21
139.76674083963019
 31
0.0
  0
LINE
  5
3F04
  8
AM_1
 10
273.0508569847517
 20
138.6982548504761
 30
0.0
 11
271.83067476000713
 21
140.7476186848362
 31
0.0
  0
LINE
  5
3F05
  8
AM_1
 10
274.27103920949662
 20
140.7476186848362
 30
0.0
 11
273.0508569847521
 21
138.6982548504761
 31
0.0
  0
LINE
  5
3F06
  8
AM_1
 10
274.850856984752
 20
139.76674083963019
 30
0.0
 11
273.66544484287772
 21
137.7757752911225
 31
0.0
  0
LINE
  5
3F07
  8
AM_1
 10
276.01803059508029
 20
137.8064079181045
 30
0.0
 11
274.8508569847516
 21
139.76674083962999
 31
0.0
  0
LINE
  5
3F08
  8
AM_1
 10
276.65085698475173
 20
138.69825485047619
 30
0.0
 11
275.43067476000698
 21
140.7476186848362
 31
0.0
  0
LINE
  5
3F09
  8
AM_1
 10
277.8710392094963
 20
140.7476186848364
 30
0.0
 11
276.65085698475161
 21
138.69825485047639
 31
0.0
  0
LINE
  5
3F0A
  8
AM_1
 10
278.45085698475162
 20
139.76674083963019
 30
0.0
 11
277.29357206961618
 21
137.8230165310539
 31
0.0
  0
LINE
  5
3F0B
  8
AM_1
 10
279.59033612864027
 20
137.85292231307281
 30
0.0
 11
278.45085698475168
 21
139.76674083963039
 31
0.0
  0
LINE
  5
3F0C
  8
AM_1
 10
280.25085698475158
 20
138.69825485047639
 30
0.0
 11
279.03067476000678
 21
140.74761868483631
 31
0.0
  0
LINE
  5
3F0D
  8
AM_1
 10
281.47103920949638
 20
140.7476186848364
 30
0.0
 11
280.25085698475181
 21
138.6982548504761
 31
0.0
  0
LINE
  5
3F0E
  8
AM_1
 10
282.0508569847517
 20
139.76674083963019
 30
0.0
 11
280.92169929635509
 21
137.87025777098529
 31
0.0
  0
LINE
  5
3F0F
  8
AM_1
 10
283.16264166219969
 20
137.89943670804081
 30
0.0
 11
282.05085698475159
 21
139.76674083963039
 31
0.0
  0
LINE
  5
3F10
  8
AM_1
 10
284.3175165757799
 20
137.9144741418117
 30
0.0
 11
282.63067476000668
 21
140.74761868483651
 31
0.0
  0
LINE
  5
3F11
  8
AM_1
 10
285.04573472536242
 20
137.92395614896731
 30
0.0
 11
267.899964146424
 21
137.70070392788719
 31
0.0
  0
LINE
  5
3F12
  8
AM_1
 10
267.7712872726587
 20
137.69902844776021
 30
0.0
 11
263.6630377313133
 21
137.64553561519051
 31
0.0
  0
LINE
  5
3F13
  8
AM_1
 10
285.04573472536231
 20
136.4240895411387
 30
0.0
 11
267.81880090482321
 21
136.64839857526019
 31
0.0
  0
LINE
  5
3F14
  8
AM_1
 10
267.77128727265938
 20
136.6490172423461
 30
0.0
 11
263.66303773131398
 21
136.70251007491581
 31
0.0
  0
LINE
  5
3F15
  8
AM_1
 10
270.04479442212278
 20
137.7007039278875
 30
0.0
 11
270.0327710525479
 21
137.72089784505351
 31
0.0
  0
LINE
  5
3F16
  8
AM_1
 10
268.86894291695552
 20
137.7208978450532
 30
0.0
 11
268.85691954738081
 21
137.7007039278875
 31
0.0
  0
LINE
  5
3F17
  8
AM_1
 10
265.85085698475177
 20
140.19722284505281
 30
0.0
 11
260.05085698475159
 21
141.37402284505279
 31
0.0
  0
LINE
  5
3F18
  8
AM_1
 10
265.85085698475177
 20
134.1508228450532
 30
0.0
 11
260.05085698475187
 21
132.9740228450533
 31
0.0
  0
ARC
  5
3F19
  8
AM_1
 10
264.42112936393278
 20
137.24932228625011
 30
0.0
 40
1.9907623756952451
 50
343.01710535129502
 51
12.515033431329069
  0
LINE
  5
3F1A
  8
AM_1
 10
281.17120756310271
 20
134.0895414427398
 30
0.0
 11
279.32628460318648
 21
134.09692113457939
 31
0.0
  0
LINE
  5
3F1B
  8
AM_1
 10
277.57124908254809
 20
134.1039412766622
 30
0.0
 11
275.72634053865562
 21
134.11132091083769
 31
0.0
  0
LINE
  5
3F1C
  8
AM_1
 10
273.9713227612595
 20
134.11834098194711
 30
0.0
 11
272.1263981377337
 21
134.1257206804413
 31
0.0
  0
LINE
  5
3F1D
  8
AM_1
 10
270.37138036033821
 20
134.1327407515507
 30
0.0
 11
268.55194516115142
 21
134.14001849234751
 31
0.0
  0
LINE
  5
3F1E
  8
AM_1
 10
268.86894291695552
 20
136.62714784505351
 30
0.0
 11
267.39088219272378
 21
134.14466274422159
 31
0.0
  0
LINE
  5
3F1F
  8
AM_1
 10
269.4508569847514
 20
135.64979083962999
 30
0.0
 11
268.23067476000688
 21
133.60042700527009
 31
0.0
  0
LINE
  5
3F20
  8
AM_1
 10
270.6710392094962
 20
133.60042700527009
 30
0.0
 11
269.4508569847514
 21
135.6497908396305
 31
0.0
  0
LINE
  5
3F21
  8
AM_1
 10
271.25085698475141
 20
134.5813048504761
 30
0.0
 11
270.0327710525475
 21
136.6271478450534
 31
0.0
  0
LINE
  5
3F22
  8
AM_1
 10
272.44572506152127
 20
136.58815216697019
 30
0.0
 11
271.25085698475192
 21
134.58130485047619
 31
0.0
  0
LINE
  5
3F23
  8
AM_1
 10
273.0508569847517
 20
135.64979083963021
 30
0.0
 11
271.8306747600069
 21
133.60042700527009
 31
0.0
  0
LINE
  5
3F24
  8
AM_1
 10
274.27103920949662
 20
133.60042700527049
 30
0.0
 11
273.05085698475227
 21
135.64979083963021
 31
0.0
  0
LINE
  5
3F25
  8
AM_1
 10
274.8508569847516
 20
134.58130485047641
 30
0.0
 11
273.6654448428776
 21
136.57227039898379
 31
0.0
  0
LINE
  5
3F26
  8
AM_1
 10
276.01803059508057
 20
136.54163777200191
 30
0.0
 11
274.85085698475177
 21
134.58130485047619
 31
0.0
  0
LINE
  5
3F27
  8
AM_1
 10
276.65085698475173
 20
135.64979083962999
 30
0.0
 11
275.43067476000692
 21
133.60042700527009
 31
0.0
  0
LINE
  5
3F28
  8
AM_1
 10
277.8710392094963
 20
133.6004270052704
 30
0.0
 11
276.65085698475161
 21
135.64979083963061
 31
0.0
  0
LINE
  5
3F29
  8
AM_1
 10
278.45085698475162
 20
134.5813048504763
 30
0.0
 11
277.29357206961618
 21
136.52502915905251
 31
0.0
  0
LINE
  5
3F2A
  8
AM_1
 10
279.59033612864039
 20
136.49512337703379
 30
0.0
 11
278.45085698475179
 21
134.58130485047619
 31
0.0
  0
LINE
  5
3F2B
  8
AM_1
 10
280.25085698475158
 20
135.64979083963021
 30
0.0
 11
279.03067476000678
 21
133.60042700527009
 31
0.0
  0
LINE
  5
3F2C
  8
AM_1
 10
281.47103920949638
 20
133.6004270052704
 30
0.0
 11
280.25085698475192
 21
135.64979083963021
 31
0.0
  0
LINE
  5
3F2D
  8
AM_1
 10
282.05085698475182
 20
134.58130485047599
 30
0.0
 11
280.9216992963552
 21
136.47778791912111
 31
0.0
  0
LINE
  5
3F2E
  8
AM_1
 10
283.1626416621998
 20
136.44860898206559
 30
0.0
 11
282.0508569847517
 21
134.58130485047619
 31
0.0
  0
LINE
  5
3F2F
  8
AM_1
 10
284.3175165757799
 20
136.43357154829519
 30
0.0
 11
282.63067476000691
 21
133.60042700527029
 31
0.0
  0
LINE
  5
3F30
  8
AM_1
 10
264.85784271174919
 20
140.19325078796129
 30
0.0
 11
264.85784271174919
 21
137.66109297170669
 31
0.0
  0
LINE
  5
3F31
  8
AM_1
 10
264.85784271174919
 20
136.6869527183996
 30
0.0
 11
264.85784271174919
 21
134.15479490214531
 31
0.0
  0
LINE
  5
3F32
  8
AM_1
 10
282.63067476000708
 20
140.74761868483631
 30
0.0
 11
281.47103920949638
 21
140.74761868483631
 31
0.0
  0
LINE
  5
3F33
  8
AM_1
 10
279.03067476000678
 20
140.74761868483631
 30
0.0
 11
277.8710392094963
 21
140.74761868483631
 31
0.0
  0
LINE
  5
3F34
  8
AM_1
 10
275.43067476000692
 20
140.74761868483631
 30
0.0
 11
274.27103920949651
 21
140.74761868483631
 31
0.0
  0
LINE
  5
3F35
  8
AM_1
 10
271.83067476000701
 20
140.74761868483631
 30
0.0
 11
270.6710392094962
 21
140.74761868483631
 31
0.0
  0
LINE
  5
3F36
  8
AM_1
 10
268.23067476000688
 20
140.74761868483631
 30
0.0
 11
267.0710392094964
 21
140.74761868483631
 31
0.0
  0
LINE
  5
3F37
  8
AM_1
 10
267.07103920949652
 20
140.74761868483631
 30
0.0
 11
266.74546653058673
 21
140.20080128323639
 31
0.0
  0
LINE
  5
3F38
  8
AM_1
 10
282.63067476000708
 20
133.60042700527009
 30
0.0
 11
281.47103920949638
 21
133.60042700527009
 31
0.0
  0
LINE
  5
3F39
  8
AM_1
 10
279.03067476000678
 20
133.60042700527009
 30
0.0
 11
277.8710392094963
 21
133.60042700527009
 31
0.0
  0
LINE
  5
3F3A
  8
AM_1
 10
275.43067476000692
 20
133.60042700527009
 30
0.0
 11
274.27103920949651
 21
133.60042700527009
 31
0.0
  0
LINE
  5
3F3B
  8
AM_1
 10
271.83067476000701
 20
133.60042700527009
 30
0.0
 11
270.6710392094962
 21
133.60042700527009
 31
0.0
  0
LINE
  5
3F3C
  8
AM_1
 10
268.23067476000688
 20
133.60042700527009
 30
0.0
 11
267.0710392094964
 21
133.60042700527009
 31
0.0
  0
LINE
  5
3F3D
  8
AM_1
 10
267.07103920949612
 20
133.60042700526989
 30
0.0
 11
266.74546653058673
 21
134.1472444068699
 31
0.0
  0
LINE
  5
3F42
  8
0
 10
255.05085698475159
 20
133.1740228450532
 30
0.0
 11
255.05085698475159
 21
141.1740228450532
 31
0.0
  0
LINE
  5
3F44
  8
AM_7
 10
252.0508569847517
 20
177.1740228447814
 30
0.0
 11
287.98024447947262
 21
177.1740228447814
 31
0.0
  0
LINE
  5
3F45
  8
AM_1
 10
260.05085698475182
 20
181.37402284478139
 30
0.0
 11
260.0508569847517
 21
172.97402284478139
 31
0.0
  0
LINE
  5
3F46
  8
AM_1
 10
265.8508569847516
 20
177.6740228447814
 30
0.0
 11
265.8508569847516
 21
176.6740228447814
 31
0.0
  0
LINE
  5
3F47
  8
AM_1
 10
281.17120756310311
 20
180.258504247095
 30
0.0
 11
279.32628460318722
 21
180.2511245552553
 31
0.0
  0
LINE
  5
3F48
  8
AM_1
 10
277.57124908254832
 20
180.24410441317281
 30
0.0
 11
275.72634053865568
 21
180.23672477899709
 31
0.0
  0
LINE
  5
3F49
  8
AM_1
 10
273.97132276125973
 20
180.22970470788741
 30
0.0
 11
272.12639813773387
 21
180.2223250093933
 31
0.0
  0
LINE
  5
3F4A
  8
AM_1
 10
270.37138036033809
 20
180.21530493828371
 30
0.0
 11
268.55194516115142
 21
180.2080271974871
 31
0.0
  0
LINE
  5
3F4B
  8
AM_1
 10
265.85085698475177
 20
180.19722284478141
 30
0.0
 11
260.0508569847517
 21
180.17402284478129
 31
0.0
  0
LINE
  5
3F4C
  8
AM_1
 10
267.39088219272418
 20
180.2033829456135
 30
0.0
 11
265.85085698475228
 21
180.19722284478161
 31
0.0
  0
ARC
  5
3F4D
  8
AM_1
 10
282.55085698475159
 20
177.76400284486149
 30
0.0
 40
2.5
 50
3.6683654098231169
 51
81.127977809495107
  0
LINE
  5
3F4E
  8
AM_1
 10
260.05085698475119
 20
174.17402284478149
 30
0.0
 11
265.85085698475132
 21
174.15082284478149
 31
0.0
  0
LINE
  5
3F4F
  8
AM_1
 10
265.85085698475177
 20
174.1508228447812
 30
0.0
 11
267.39088219272378
 21
174.14466274394931
 31
0.0
  0
ARC
  5
3F50
  8
AM_1
 10
282.55085698475159
 20
176.5840428447014
 30
0.0
 40
2.5
 50
278.87202219050488
 51
356.3316345901768
  0
LINE
  5
3F51
  8
AM_1
 10
265.85085698475189
 20
177.1740228447814
 30
0.0
 11
260.05085698475187
 21
178.4240228447814
 31
0.0
  0
LINE
  5
3F52
  8
AM_1
 10
260.0508569847517
 20
175.92402284478149
 30
0.0
 11
265.85085698475137
 21
177.17402284478149
 31
0.0
  0
LINE
  5
3F53
  8
AM_1
 10
260.05085698475159
 20
177.1740228447814
 30
0.0
 11
265.8508569847516
 21
177.1740228447814
 31
0.0
  0
LINE
  5
3F54
  8
AM_1
 10
268.86894291695552
 20
177.7208978447814
 30
0.0
 11
267.39088219272361
 21
180.20338294561341
 31
0.0
  0
LINE
  5
3F55
  8
AM_1
 10
269.45085698475123
 20
178.69825485020419
 30
0.0
 11
268.23067476000642
 21
180.74761868456429
 31
0.0
  0
LINE
  5
3F56
  8
AM_1
 10
270.67103920949643
 20
180.74761868456429
 30
0.0
 11
269.45085698475168
 21
178.69825485020431
 31
0.0
  0
LINE
  5
3F57
  8
AM_1
 10
271.25085698475181
 20
179.76674083935839
 30
0.0
 11
270.03277105254767
 21
177.7208978447814
 31
0.0
  0
LINE
  5
3F58
  8
AM_1
 10
272.44572506152122
 20
177.7598935228645
 30
0.0
 11
271.25085698475192
 21
179.7667408393585
 31
0.0
  0
LINE
  5
3F59
  8
AM_1
 10
273.0508569847517
 20
178.69825485020439
 30
0.0
 11
271.83067476000713
 21
180.7476186845644
 31
0.0
  0
LINE
  5
3F5A
  8
AM_1
 10
274.27103920949662
 20
180.74761868456429
 30
0.0
 11
273.05085698475182
 21
178.69825485020431
 31
0.0
  0
LINE
  5
3F5B
  8
AM_1
 10
274.850856984752
 20
179.76674083935839
 30
0.0
 11
273.66544484287772
 21
177.77577529085079
 31
0.0
  0
LINE
  5
3F5C
  8
AM_1
 10
276.01803059508029
 20
177.80640791783259
 30
0.0
 11
274.8508569847516
 21
179.76674083935811
 31
0.0
  0
LINE
  5
3F5D
  8
AM_1
 10
276.65085698475173
 20
178.69825485020439
 30
0.0
 11
275.43067476000721
 21
180.7476186845644
 31
0.0
  0
LINE
  5
3F5E
  8
AM_1
 10
277.8710392094963
 20
180.7476186845646
 30
0.0
 11
276.65085698475161
 21
178.69825485020439
 31
0.0
  0
LINE
  5
3F5F
  8
AM_1
 10
278.45085698475168
 20
179.76674083935859
 30
0.0
 11
277.29357206961618
 21
177.82301653078221
 31
0.0
  0
LINE
  5
3F60
  8
AM_1
 10
279.59033612864039
 20
177.8529223128011
 30
0.0
 11
278.45085698475179
 21
179.76674083935879
 31
0.0
  0
LINE
  5
3F61
  8
AM_1
 10
280.25085698475181
 20
178.69825485020459
 30
0.0
 11
279.03067476000678
 21
180.7476186845646
 31
0.0
  0
LINE
  5
3F62
  8
AM_1
 10
281.47103920949633
 20
180.74761868456449
 30
0.0
 11
280.25085698475181
 21
178.69825485020439
 31
0.0
  0
LINE
  5
3F63
  8
AM_1
 10
282.0508569847517
 20
179.76674083935839
 30
0.0
 11
280.9216992963552
 21
177.87025777071361
 31
0.0
  0
LINE
  5
3F64
  8
AM_1
 10
283.16264166219958
 20
177.8994367077689
 30
0.0
 11
282.05085698475142
 21
179.76674083935859
 31
0.0
  0
LINE
  5
3F65
  8
AM_1
 10
284.31751657577968
 20
177.9144741415399
 30
0.0
 11
282.63067476000663
 21
180.7476186845646
 31
0.0
  0
LINE
  5
3F66
  8
AM_1
 10
285.04573472536231
 20
177.9239561486954
 30
0.0
 11
267.89996414642383
 21
177.70070392761539
 31
0.0
  0
LINE
  5
3F67
  8
AM_1
 10
267.7712872726587
 20
177.6990284474883
 30
0.0
 11
263.66303773131352
 21
177.6455356149188
 31
0.0
  0
LINE
  5
3F68
  8
AM_1
 10
285.04573472536208
 20
176.42408954086679
 30
0.0
 11
267.81880090482321
 21
176.64839857498839
 31
0.0
  0
LINE
  5
3F69
  8
AM_1
 10
267.77128727265909
 20
176.64901724207431
 30
0.0
 11
263.66303773131392
 21
176.7025100746439
 31
0.0
  0
LINE
  5
3F6A
  8
AM_1
 10
270.04479442212278
 20
177.70070392761559
 30
0.0
 11
270.0327710525479
 21
177.7208978447816
 31
0.0
  0
LINE
  5
3F6B
  8
AM_1
 10
268.86894291695558
 20
177.7208978447816
 30
0.0
 11
268.8569195473807
 21
177.70070392761579
 31
0.0
  0
LINE
  5
3F6C
  8
AM_1
 10
265.85085698475177
 20
180.19722284478109
 30
0.0
 11
260.05085698475159
 21
181.374022844781
 31
0.0
  0
LINE
  5
3F6D
  8
AM_1
 10
265.85085698475177
 20
174.15082284478149
 30
0.0
 11
260.05085698475199
 21
172.9740228447815
 31
0.0
  0
ARC
  5
3F6E
  8
AM_1
 10
264.42112936393278
 20
177.24932228597831
 30
0.0
 40
1.9907623756952451
 50
343.01710535129502
 51
12.515033431329069
  0
LINE
  5
3F6F
  8
AM_1
 10
281.17120756310283
 20
174.08954144246809
 30
0.0
 11
279.32628460318682
 21
174.09692113430771
 31
0.0
  0
LINE
  5
3F70
  8
AM_1
 10
277.57124908254832
 20
174.10394127639029
 30
0.0
 11
275.72634053865562
 21
174.11132091056589
 31
0.0
  0
LINE
  5
3F71
  8
AM_1
 10
273.97132276125973
 20
174.11834098167529
 30
0.0
 11
272.12639813773387
 21
174.12572068016951
 31
0.0
  0
LINE
  5
3F72
  8
AM_1
 10
270.37138036033832
 20
174.1327407512789
 30
0.0
 11
268.55194516115142
 21
174.1400184920758
 31
0.0
  0
LINE
  5
3F73
  8
AM_1
 10
268.86894291695552
 20
176.6271478447818
 30
0.0
 11
267.39088219272378
 21
174.14466274394991
 31
0.0
  0
LINE
  5
3F74
  8
AM_1
 10
269.4508569847514
 20
175.6497908393583
 30
0.0
 11
268.23067476000659
 21
173.60042700499829
 31
0.0
  0
LINE
  5
3F75
  8
AM_1
 10
270.6710392094966
 20
173.60042700499841
 30
0.0
 11
269.45085698475168
 21
175.64979083935879
 31
0.0
  0
LINE
  5
3F76
  8
AM_1
 10
271.25085698475141
 20
174.58130485020419
 30
0.0
 11
270.03277105254728
 21
176.62714784478149
 31
0.0
  0
LINE
  5
3F77
  8
AM_1
 10
272.44572506152127
 20
176.58815216669839
 30
0.0
 11
271.25085698475192
 21
174.58130485020439
 31
0.0
  0
LINE
  5
3F78
  8
AM_1
 10
273.0508569847517
 20
175.64979083935859
 30
0.0
 11
271.8306747600069
 21
173.60042700499841
 31
0.0
  0
LINE
  5
3F79
  8
AM_1
 10
274.27103920949668
 20
173.60042700499881
 30
0.0
 11
273.05085698475227
 21
175.64979083935859
 31
0.0
  0
LINE
  5
3F7A
  8
AM_1
 10
274.85085698475177
 20
174.5813048502047
 30
0.0
 11
273.6654448428776
 21
176.57227039871211
 31
0.0
  0
LINE
  5
3F7B
  8
AM_1
 10
276.01803059508092
 20
176.54163777173031
 30
0.0
 11
274.85085698475177
 21
174.58130485020439
 31
0.0
  0
LINE
  5
3F7C
  8
AM_1
 10
276.65085698475173
 20
175.64979083935839
 30
0.0
 11
275.43067476000692
 21
173.60042700499849
 31
0.0
  0
LINE
  5
3F7D
  8
AM_1
 10
277.87103920949642
 20
173.60042700499869
 30
0.0
 11
276.65085698475161
 21
175.6497908393589
 31
0.0
  0
LINE
  5
3F7E
  8
AM_1
 10
278.45085698475151
 20
174.5813048502045
 30
0.0
 11
277.29357206961618
 21
176.52502915878071
 31
0.0
  0
LINE
  5
3F7F
  8
AM_1
 10
279.59033612864027
 20
176.4951233767618
 30
0.0
 11
278.45085698475168
 21
174.58130485020419
 31
0.0
  0
LINE
  5
3F80
  8
AM_1
 10
280.25085698475181
 20
175.64979083935839
 30
0.0
 11
279.03067476000678
 21
173.60042700499829
 31
0.0
  0
LINE
  5
3F81
  8
AM_1
 10
281.47103920949633
 20
173.60042700499869
 30
0.0
 11
280.25085698475181
 21
175.64979083935839
 31
0.0
  0
LINE
  5
3F82
  8
AM_1
 10
282.05085698475142
 20
174.58130485020399
 30
0.0
 11
280.92169929635469
 21
176.47778791884909
 31
0.0
  0
LINE
  5
3F83
  8
AM_1
 10
283.16264166219969
 20
176.44860898179371
 30
0.0
 11
282.0508569847517
 21
174.58130485020439
 31
0.0
  0
LINE
  5
3F84
  8
AM_1
 10
284.3175165757799
 20
176.43357154802339
 30
0.0
 11
282.63067476000691
 21
173.60042700499841
 31
0.0
  0
LINE
  5
3F85
  8
AM_1
 10
264.85784271174919
 20
180.19325078768949
 30
0.0
 11
264.85784271174919
 21
177.6610929714349
 31
0.0
  0
LINE
  5
3F86
  8
AM_1
 10
264.85784271174919
 20
176.6869527181278
 30
0.0
 11
264.85784271174919
 21
174.15479490187349
 31
0.0
  0
LINE
  5
3F87
  8
AM_1
 10
282.63067476000708
 20
180.74761868456449
 30
0.0
 11
281.47103920949638
 21
180.74761868456449
 31
0.0
  0
LINE
  5
3F88
  8
AM_1
 10
279.03067476000678
 20
180.74761868456449
 30
0.0
 11
277.8710392094963
 21
180.74761868456449
 31
0.0
  0
LINE
  5
3F89
  8
AM_1
 10
275.43067476000692
 20
180.74761868456449
 30
0.0
 11
274.27103920949651
 21
180.74761868456449
 31
0.0
  0
LINE
  5
3F8A
  8
AM_1
 10
271.83067476000701
 20
180.74761868456449
 30
0.0
 11
270.6710392094962
 21
180.74761868456449
 31
0.0
  0
LINE
  5
3F8B
  8
AM_1
 10
268.23067476000688
 20
180.74761868456449
 30
0.0
 11
267.0710392094964
 21
180.74761868456449
 31
0.0
  0
LINE
  5
3F8C
  8
AM_1
 10
267.07103920949652
 20
180.7476186845646
 30
0.0
 11
266.74546653058678
 21
180.2008012829649
 31
0.0
  0
LINE
  5
3F8D
  8
AM_1
 10
282.63067476000708
 20
173.60042700499841
 30
0.0
 11
281.47103920949638
 21
173.60042700499841
 31
0.0
  0
LINE
  5
3F8E
  8
AM_1
 10
279.03067476000678
 20
173.60042700499841
 30
0.0
 11
277.8710392094963
 21
173.60042700499841
 31
0.0
  0
LINE
  5
3F8F
  8
AM_1
 10
275.43067476000692
 20
173.60042700499841
 30
0.0
 11
274.27103920949651
 21
173.60042700499841
 31
0.0
  0
LINE
  5
3F90
  8
AM_1
 10
271.83067476000701
 20
173.60042700499841
 30
0.0
 11
270.6710392094962
 21
173.60042700499841
 31
0.0
  0
LINE
  5
3F91
  8
AM_1
 10
268.23067476000688
 20
173.60042700499841
 30
0.0
 11
267.0710392094964
 21
173.60042700499841
 31
0.0
  0
LINE
  5
3F92
  8
AM_1
 10
267.07103920949618
 20
173.60042700499829
 30
0.0
 11
266.74546653058673
 21
174.14724440659811
 31
0.0
  0
LINE
  5
3F97
  8
0
 10
255.05085698475159
 20
173.1740228447814
 30
0.0
 11
255.05085698475159
 21
181.1740228447814
 31
0.0
  0
LINE
  5
3F9F
  8
AM_2
 10
260.05085698479172
 20
115.17402284501691
 30
0.0
 11
273.04271671118522
 21
115.17402284501691
 31
0.0
  0
LINE
  5
3FA0
  8
AM_2
 10
260.0508569847542
 20
130.54956726286341
 30
0.0
 11
260.05085698479172
 21
115.17402284500569
 31
0.0
  0
LINE
  5
3FA3
  8
AM_2
 10
194.5508569845388
 20
105.17402284501701
 30
0.0
 11
184.55085698453891
 21
105.17402284501701
 31
0.0
  0
ARC
  5
3FA7
  8
0
 10
219.60885823453901
 20
253.41986087784451
 30
0.0
 40
14.058001250000011
 50
145.302142804353
 51
214.697857195647
  0
LINE
  5
3FB1
  8
0
 10
260.0508569847517
 20
243.41986087784451
 30
0.0
 11
260.0508569847517
 21
263.41986087784449
 31
0.0
  0
LINE
  5
3FB2
  8
0
 10
256.0508569846703
 20
243.41986087784451
 30
0.0
 11
260.0508569847517
 21
243.41986087784451
 31
0.0
  0
LINE
  5
3FB3
  8
0
 10
256.05085698465768
 20
263.41986087784449
 30
0.0
 11
260.0508569847517
 21
263.41986087784449
 31
0.0
  0
LINE
  5
3FB4
  8
0
 10
255.0508569846703
 20
244.4198608778438
 30
0.0
 11
255.05085698465771
 21
262.41986087784392
 31
0.0
  0
ARC
  5
3FB5
  8
0
 10
256.05085698465768
 20
262.41986087784449
 30
0.0
 40
1.0
 50
90.0
 51
180.0
  0
ARC
  5
3FB6
  8
0
 10
256.0508569846703
 20
244.41986087784451
 30
0.0
 40
1.0
 50
180.0
 51
270.0
  0
LINE
  5
3FB7
  8
0
 10
241.05085698488071
 20
249.91986087784559
 30
0.0
 11
241.05085698488881
 21
256.91986087784562
 31
0.0
  0
ARC
  5
3FB8
  8
0
 10
242.0508569848887
 20
256.91986087784449
 30
0.0
 40
1.0
 50
90.0
 51
180.0
  0
ARC
  5
3FB9
  8
0
 10
242.0508569848808
 20
249.91986087784451
 30
0.0
 40
1.0
 50
180.0
 51
270.0
  0
LINE
  5
3FBA
  8
0
 10
247.05085698487599
 20
248.91986087784451
 30
0.0
 11
247.0508569848898
 21
257.91986087771232
 31
0.0
  0
LINE
  5
3FBB
  8
0
 10
242.0508569848887
 20
257.91986087784449
 30
0.0
 11
248.045856984539
 21
257.91986087784449
 31
0.0
  0
LINE
  5
3FBC
  8
0
 10
252.05085698453891
 20
257.91986087784449
 30
0.0
 11
255.0508569845388
 21
257.91986087784449
 31
0.0
  0
LINE
  5
3FBD
  8
0
 10
242.0508569848808
 20
248.91986087784451
 30
0.0
 11
248.045856984539
 21
248.91986087784451
 31
0.0
  0
LINE
  5
3FBE
  8
0
 10
252.05085698453891
 20
248.91986087784451
 30
0.0
 11
255.0508569845388
 21
248.91986087784451
 31
0.0
  0
DIMENSION
  5
4138
  8
AM_5
  2
*D13
 10
285.57356981889762
 20
257.91986087784449
 30
0.0
 11
283.07356981889751
 21
253.41986087784451
 31
0.0
 70
     0
 13
255.05085698466721
 23
248.91986087784451
 33
0.0
 14
255.0508569846609
 24
257.91986087784449
 34
0.0
 50
90.000000000000028
1001
ACAD_DSTYLE_DIMINSPECT
1070
   396
1000
100%
1070
   395
1000

1070
   394
1070
    33
1070
   393
1070
     0
  0
DIMENSION
  5
4162
  8
AM_5
  2
*D14
 10
292.57356981889768
 20
263.41986087784449
 30
0.0
 11
290.07356981889768
 21
253.41986087784451
 31
0.0
 70
     0
 13
260.0508569847517
 23
243.41986087784451
 33
0.0
 14
260.0508569847517
 24
263.41986087784449
 34
0.0
 50
90.000000000000028
1001
ACAD_DSTYLE_DIMINSPECT
1070
   396
1000
100%
1070
   395
1000

1070
   394
1070
    33
1070
   393
1070
     0
  0
DIMENSION
  5
4183
  8
AM_5
  2
*D15
 10
169.86086703268211
 20
266.41986087784449
 30
0.0
 11
167.36086703268211
 21
253.41986087784451
 31
0.0
 70
     0
 13
213.55085698453891
 23
240.41986087784451
 33
0.0
 14
213.55085698453891
 24
266.41986087784449
 34
0.0
 50
90.000000000000057
1001
ACAD_DSTYLE_DIMINSPECT
1070
   396
1000
100%
1070
   395
1000

1070
   394
1070
    33
1070
   393
1070
     0
  0
DIMENSION
  5
41F8
  8
AM_5
  2
*D16
 10
240.05085698453891
 20
221.5887434026333
 30
0.0
 11
228.55085698453891
 21
224.0887434026333
 31
0.0
 70
     0
 13
217.05085698453891
 23
227.91986087784451
 33
0.0
 14
240.05085698453891
 24
247.8111110569447
 34
0.0
1001
ACAD
1000
DSTYLE
1002
{
1070
   174
1070
     1
1002
}
1001
ACAD_DSTYLE_DIMINSPECT
1070
   396
1000
100%
1070
   395
1000

1070
   394
1070
    33
1070
   393
1070
     0
  0
DIMENSION
  5
4222
  8
AM_5
  2
*D17
 10
217.05085698453891
 20
214.58874340263361
 30
0.0
 11
211.30085698453891
 21
217.08874340263361
 31
0.0
 70
     0
 13
205.55085698453891
 23
253.41986087784451
 33
0.0
 14
217.05085698453891
 24
227.91986087784451
 34
0.0
 50
0.0000000000001018
1001
ACAD_DSTYLE_DIMINSPECT
1070
   396
1000
100%
1070
   395
1000

1070
   394
1070
    33
1070
   393
1070
     0
1001
ACAD
1000
DSTYLE
1002
{
1070
   174
1070
     1
1002
}
  0
DIMENSION
  5
4255
  8
AM_5
  2
*D18
 10
252.0508569845388
 20
214.58874340263361
 30
0.0
 11
234.55085698453891
 21
217.08874340263361
 31
0.0
 70
     0
 13
217.05085698453891
 23
227.91986087784451
 33
0.0
 14
252.0508569845388
 24
246.83407444021759
 34
0.0
1001
ACAD
1000
DSTYLE
1002
{
1070
   174
1070
     1
1002
}
1001
ACAD_DSTYLE_DIMINSPECT
1070
   396
1000
100%
1070
   395
1000

1070
   394
1070
    33
1070
   393
1070
     0
  0
DIMENSION
  5
42AC
  8
AM_5
  2
*D19
 10
255.0508569847517
 20
188.8344742278575
 30
0.0
 11
257.5508569847517
 21
191.3344742278575
 31
0.0
 70
     0
 13
260.0508569847517
 23
184.54956726286341
 33
0.0
 14
255.0508569847517
 24
183.54956726286341
 34
0.0
 50
0.0000000000000114
1001
ACAD_DSTYLE_DIMINSPECT
1070
   396
1000
100%
1070
   395
1000

1070
   394
1070
    33
1070
   393
1070
     0
1001
ACAD
1000
DSTYLE
1002
{
1070
   173
1070
     1
1070
   174
1070
     1
1070
     6
1000
OPEN30
1070
     7
1000
GENDOT
1002
}
  0
DIMENSION
  5
42E9
  8
AM_5
  2
*D20
 10
247.05085698475179
 20
188.8344742278575
 30
0.0
 11
251.05085698475179
 21
191.3344742278575
 31
0.0
 70
     0
 13
255.0508569847517
 23
183.54956726286341
 33
0.0
 14
247.05085698475179
 24
161.54956726286341
 34
0.0
1001
ACAD_DSTYLE_DIMINSPECT
1070
   396
1000
100%
1070
   395
1000

1070
   394
1070
    33
1070
   393
1070
     0
1001
ACAD
1000
DSTYLE
1002
{
1070
   173
1070
     1
1070
   174
1070
     1
1070
     6
1000
GENDOT
1070
     7
1000
OPEN30
1002
}
  0
DIMENSION
  5
4323
  8
AM_5
  2
*D22
 10
241.0508569847517
 20
195.8344742278575
 30
0.0
 11
250.5508569847517
 21
198.3344742278575
 31
0.0
 70
     0
 13
260.0508569847517
 23
184.54956726286341
 33
0.0
 14
241.0508569847517
 24
165.54956726286341
 34
0.0
 50
0.0000000000000114
1001
ACAD_DSTYLE_DIMINSPECT
1070
   396
1000
100%
1070
   395
1000

1070
   394
1070
    33
1070
   393
1070
     0
  0
DIMENSION
  5
434D
  8
AM_5
  2
*D23
 10
217.05085698453891
 20
202.8344742278575
 30
0.0
 11
238.55085698464529
 21
206.1201885135718
 31
0.0
 70
     0
  1
(<>)
 13
260.0508569847517
 23
184.54956726286341
 33
0.0
 14
217.05085698453891
 24
168.17402284501699
 34
0.0
 50
0.0000000000000114
1001
ACAD_DSTYLE_DIMINSPECT
1070
   396
1000
100%
1070
   395
1000

1070
   394
1070
    33
1070
   393
1070
     0
  0
DIMENSION
  5
4380
  8
AM_5
  2
*D24
 10
169.69431220193201
 20
157.17402284501691
 30
0.0
 11
167.19431220193189
 21
131.17402284501699
 31
0.0
 70
     0
 13
194.55085698453891
 23
105.17402284501701
 33
0.0
 14
202.73943452498861
 24
157.17402284501691
 34
0.0
 50
90.000000000000057
1001
ACAD_DSTYLE_DIMINSPECT
1070
   396
1000
100%
1070
   395
1000

1070
   394
1070
    33
1070
   393
1070
     0
  0
DIMENSION
  5
43AA
  8
AM_5
  2
*D25
 10
301.98024447947262
 20
177.1740228447814
 30
0.0
 11
299.4802444794725
 21
157.17402284491729
 31
0.0
 70
     0
 13
287.98024447947262
 23
137.17402284505329
 33
0.0
 14
287.98024447947262
 24
177.1740228447814
 34
0.0
 50
90.000000000000028
1001
ACAD_DSTYLE_DIMINSPECT
1070
   396
1000
100%
1070
   395
1000

1070
   394
1070
    33
1070
   393
1070
     0
  0
DIMENSION
  5
43CB
  8
AM_5
  2
*D26
 10
308.98024447947267
 20
184.54956726286341
 30
0.0
 11
306.48024447947267
 21
157.54956726286341
 31
0.0
 70
     0
 13
260.0508569847542
 23
130.54956726286341
 33
0.0
 14
260.0508569847517
 24
184.54956726286341
 34
0.0
 50
90.0
1001
ACAD_DSTYLE_DIMINSPECT
1070
   396
1000
100%
1070
   395
1000

1070
   394
1070
    33
1070
   393
1070
     0
  0
DIMENSION
  5
43EC
  8
AM_5
  2
*D27
 10
248.66494387643391
 20
105.17402284501691
 30
0.0
 11
245.3792295907196
 21
121.1740228450351
 31
0.0
 70
     0
  1
(<>)
 13
252.05085698475179
 23
137.1740228450532
 33
0.0
 14
239.55085698453891
 24
105.17402284501691
 34
0.0
 50
90.000000000000028
1001
ACAD_DSTYLE_DIMINSPECT
1070
   396
1000
100%
1070
   395
1000

1070
   394
1070
    33
1070
   393
1070
     0
  0
INSERT
  5
441F
  8
AM_5
  2
*S30
 10
0.0
 20
0.0
 30
0.0
  0
DIMENSION
  5
4420
  8
AM_5
  2
*D28
 10
239.55085698453891
 20
47.925937322869913
 30
0.0
 11
217.05085698453891
 21
50.42593732286992
 31
0.0
 70
     0
  1
%%c<>
 13
194.5508569845388
 23
105.17402284501701
 33
0.0
 14
239.55085698453891
 24
105.17402284501691
 34
0.0
 50
0.0000000000001132
1001
ACAD_DSTYLE_DIMINSPECT
1070
   396
1000
100%
1070
   395
1000

1070
   394
1070
    33
1070
   393
1070
     0
  0
INSERT
  5
4454
  8
AM_5
  2
*S31
 10
0.0
 20
0.0
 30
0.0
  0
INSERT
  5
4455
  8
AM_5
  2
*S32
 10
0.0
 20
0.0
 30
0.0
  0
INSERT
  5
4456
  8
AM_5
  2
*S33
 10
0.0
 20
0.0
 30
0.0
  0
INSERT
  5
4461
  8
AM_5
  2
*S34
 10
0.0
 20
0.0
 30
0.0
  0
VIEWPORT
  5
95A
 67
     1
  8
0
  6
CONTINUOUS
 10
128.5
 20
97.5
 30
0.0
 40
386.73855140186919
 41
222.18000000000001
 68
     1
 69
     1
1001
ACAD
1000
MVIEW
1002
{
1070
    16
1010
0.0
1020
0.0
1030
0.0
1010
0.0
1020
0.0
1030
1.0
1040
0.0
1040
222.18000000000001
1040
128.5
1040
97.5
1040
50.0
1040
0.0
1040
0.0
1070
     0
1070
   100
1070
     1
1070
     1
1070
     0
1070
     0
1070
     0
1070
     0
1040
0.0
1040
0.0
1040
0.0
1040
10.0
1040
10.0
1040
10.0
1040
10.0
1070
     0
1002
{
1002
}
1002
}
1001
GENIUS_GENODEF_13
1002
{
1000
HIER
1070
     0
1002
}
1002
{
1000
MANEDIT
1070
     0
1002
}
1002
{
1000
NOSEL
1070
     0
1002
}
1002
{
1000
BEHIND
1070
     0
1002
}
1002
{
1000
OTHER
1070
     0
1002
}
1002
{
1000
REACTOR
1002
}
1001
GENIUS_GENOBJ-N-SDF_13
1002
{
1000
OWNER
1000
GEN
1002
}
1001
GENIUS_GENSCREG_15
1000
PF
1040
1.0
1000
DF
1040
1.0
1000
MIN
1011
-64.869275700934566
1021
0.0
1031
0.0
1021
-13.59
1031
0.0
1000
MAX
1011
321.86927570093462
1021
0.0
1031
0.0
1021
208.59
1031
0.0
1000
FLAGS
1070
     4
  0
ENDSEC
  0
EOF
