  0
SECTION
  2
HEADER
  9
$ACADVER
  1
AC1009
  9
$INSBASE
 10
0.0
 20
0.0
 30
0.0
  9
$EXTMIN
 10
24.988202312896082
 20
8.9915861456314587
 30
-0.000000000000013
  9
$EXTMAX
 10
412.0118166105425
 20
285.0084273501547
 30
0.0000000000000023
  9
$LIMMIN
 10
24.999999999999979
 20
8.9999999999999964
  9
$LIMMAX
 10
411.99999999999989
 20
284.99999999999989
  9
$ORTHOMODE
 70
     1
  9
$REGENMODE
 70
     1
  9
$FILLMODE
 70
     1
  9
$QTEXTMODE
 70
     0
  9
$MIRRTEXT
 70
     1
  9
$DRAGMODE
 70
     2
  9
$LTSCALE
 40
5.0
  9
$OSMODE
 70
    39
  9
$ATTMODE
 70
     1
  9
$TEXTSIZE
 40
3.0
  9
$TRACEWID
 40
0.05
  9
$TEXTSTYLE
  7
STANDARD
  9
$CLAYER
  8
0
  9
$CELTYPE
  6
BYLAYER
  9
$CECOLOR
 62
   256
  9
$DIMSCALE
 40
1.0
  9
$DIMASZ
 40
2.5
  9
$DIMEXO
 40
1.0
  9
$DIMDLI
 40
7.0
  9
$DIMRND
 40
0.0
  9
$DIMDLE
 40
0.0
  9
$DIMEXE
 40
1.0
  9
$DIMTP
 40
0.1
  9
$DIMTM
 40
0.1
  9
$DIMTXT
 40
3.0
  9
$DIMCEN
 40
0.0
  9
$DIMTSZ
 40
0.0
  9
$DIMTOL
 70
     0
  9
$DIMLIM
 70
     0
  9
$DIMTIH
 70
     0
  9
$DIMTOH
 70
     0
  9
$DIMSE1
 70
     0
  9
$DIMSE2
 70
     0
  9
$DIMTAD
 70
     3
  9
$DIMZIN
 70
     8
  9
$DIMBLK
  1
OPEN30
  9
$DIMASO
 70
     1
  9
$DIMSHO
 70
     1
  9
$DIMPOST
  1

  9
$DIMAPOST
  1
"
  9
$DIMALT
 70
     0
  9
$DIMALTD
 70
     2
  9
$DIMALTF
 40
0.0393701
  9
$DIMLFAC
 40
1.0
  9
$DIMTOFL
 70
     1
  9
$DIMTVP
 40
0.0
  9
$DIMTIX
 70
     0
  9
$DIMSOXD
 70
     0
  9
$DIMSAH
 70
     0
  9
$DIMBLK1
  1

  9
$DIMBLK2
  1

  9
$DIMSTYLE
  2
AM_JIS
  9
$DIMCLRD
 70
     7
  9
$DIMCLRE
 70
     7
  9
$DIMCLRT
 70
     7
  9
$DIMTFAC
 40
0.71
  9
$DIMGAP
 40
1.0
  9
$LUNITS
 70
     2
  9
$LUPREC
 70
     4
  9
$SKETCHINC
 40
0.1
  9
$FILLETRAD
 40
0.0
  9
$AUNITS
 70
     0
  9
$AUPREC
 70
     0
  9
$MENU
  1
acad
  9
$ELEVATION
 40
0.0
  9
$PELEVATION
 40
0.0
  9
$THICKNESS
 40
0.0
  9
$LIMCHECK
 70
     0
  9
$BLIPMODE
 70
     0
  9
$CHAMFERA
 40
0.0
  9
$CHAMFERB
 40
0.0
  9
$SKPOLY
 70
     0
  9
$TDCREATE
 40
2455755.6568701151
  9
$TDUPDATE
 40
2457136.726413345
  9
$TDINDWG
 40
0.2706321759
  9
$TDUSRTIMER
 40
0.2706319907
  9
$USRTIMER
 70
     1
  9
$ANGBASE
 50
0.0
  9
$ANGDIR
 70
     0
  9
$PDMODE
 70
     0
  9
$PDSIZE
 40
0.0
  9
$PLINEWID
 40
0.0
  9
$COORDS
 70
     1
  9
$SPLFRAME
 70
     0
  9
$SPLINETYPE
 70
     6
  9
$SPLINESEGS
 70
     8
  9
$ATTDIA
 70
     1
  9
$ATTREQ
 70
     1
  9
$HANDLING
 70
     1
  9
$HANDSEED
  5
9A00
  9
$SURFTAB1
 70
     6
  9
$SURFTAB2
 70
     6
  9
$SURFTYPE
 70
     6
  9
$SURFU
 70
     6
  9
$SURFV
 70
     6
  9
$UCSNAME
  2

  9
$UCSORG
 10
0.0
 20
0.0
 30
0.0
  9
$UCSXDIR
 10
1.0
 20
0.0
 30
0.0
  9
$UCSYDIR
 10
0.0
 20
1.0
 30
0.0
  9
$PUCSNAME
  2

  9
$PUCSORG
 10
0.0
 20
0.0
 30
0.0
  9
$PUCSXDIR
 10
1.0
 20
0.0
 30
0.0
  9
$PUCSYDIR
 10
0.0
 20
1.0
 30
0.0
  9
$USERI1
 70
     0
  9
$USERI2
 70
     0
  9
$USERI3
 70
     0
  9
$USERI4
 70
     0
  9
$USERI5
 70
     0
  9
$USERR1
 40
0.0
  9
$USERR2
 40
0.0
  9
$USERR3
 40
0.0
  9
$USERR4
 40
0.0
  9
$USERR5
 40
0.0
  9
$WORLDVIEW
 70
     1
  9
$SHADEDGE
 70
     3
  9
$SHADEDIF
 70
    70
  9
$TILEMODE
 70
     1
  9
$MAXACTVP
 70
    16
  9
$PLIMCHECK
 70
     0
  9
$PEXTMIN
 10
1.0000000000000000E+020
 20
1.0000000000000000E+020
 30
1.0000000000000000E+020
  9
$PEXTMAX
 10
-1.0000000000000000E+020
 20
-1.0000000000000000E+020
 30
-1.0000000000000000E+020
  9
$PLIMMIN
 10
-20.0
 20
-7.5
  9
$PLIMMAX
 10
277.0
 20
202.5
  9
$UNITMODE
 70
     0
  9
$VISRETAIN
 70
     0
  9
$PLINEGEN
 70
     1
  9
$PSLTSCALE
 70
     0
  0
ENDSEC
  0
SECTION
  2
TABLES
  0
TABLE
  2
VPORT
 70
     1
  0
VPORT
  2
*ACTIVE
 70
     0
 10
0.0
 20
0.0
 11
1.0
 21
1.0
 12
218.50000946171929
 22
147.00000674789311
 13
0.0
 23
0.0
 14
2.5
 24
2.5
 15
10.0
 25
10.0
 16
0.0
 26
0.0
 36
1.0
 17
0.0
 27
0.0
 37
0.0
 40
278.35734420457783
 41
2.1619718309859151
 42
50.0
 43
0.0
 44
0.0
 50
0.0
 51
0.0
 71
     0
 72
   100
 73
     1
 74
     3
 75
     0
 76
     0
 77
     0
 78
     1
  0
ENDTAB
  0
TABLE
  2
LTYPE
 70
    22
  0
LTYPE
  2
CONTINUOUS
 70
     0
  3
Solid line (NEC CAE2D for Win R7.2 : 2008.02.20
 72
    65
 73
     0
 40
0.0
  0
LTYPE
  2
HIDDEN
 70
     0
  3
Hidden __ __ __ __ __ __ __ __ __ __ __ __ __ _
 72
    65
 73
     2
 40
0.375
 49
0.25
 49
-0.125
  0
LTYPE
  2
PHANTOM2
 70
     0
  3
Phantom (.5x) ___ _ _ ___ _ _ ___ _ _ ___ _ _
 72
    65
 73
     6
 40
1.25
 49
0.625
 49
-0.125
 49
0.125
 49
-0.125
 49
0.125
 49
-0.125
  0
LTYPE
  2
CENTER
 70
     0
  3
Center ____ _ ____ _ ____ _ ____ _ ____ _ ____
 72
    65
 73
     4
 40
2.0
 49
1.25
 49
-0.25
 49
0.25
 49
-0.25
  0
LTYPE
  2
CENTER2
 70
     0
  3
Center (.5x) ___ _ ___ _ ___ _ ___ _ ___ _ ___
 72
    65
 73
     4
 40
1.125
 49
0.75
 49
-0.125
 49
0.125
 49
-0.125
  0
LTYPE
  2
HIDDEN2
 70
     0
  3
Hidden (.5x) _ _ _ _ _ _ _ _ _ _ _ _ _ _ _ _ _
 72
    65
 73
     2
 40
0.1875
 49
0.125
 49
-0.0625
  0
LTYPE
  2
ACANSTGB
 70
     0
  3
__ . . __ . .
 72
    65
 73
     6
 40
0.35433070866
 49
0.15748031496
 49
-0.03937007874
 49
0.03937007874
 49
-0.03937007874
 49
0.03937007874
 49
-0.03937007874
  0
LTYPE
  2
ACANSTGL
 70
     0
  3
_ _ _ _ _
 72
    65
 73
     2
 40
0.11811023622
 49
0.07874015748
 49
-0.03937007874
  0
LTYPE
  2
ACJISWELD
 70
     0
  3
_ _ _ _ _
 72
    65
 73
     2
 40
2.0
 49
2.0
 49
-1.0
  0
LTYPE
  2
ACJISTGB
 70
     0
  3
__ . . __ . .
 72
    65
 73
     6
 40
9.0
 49
4.0
 49
-1.0
 49
1.0
 49
-1.0
 49
1.0
 49
-1.0
  0
LTYPE
  2
ACJISTGL
 70
     0
  3
_ _ _ _ _
 72
    65
 73
     2
 40
3.0
 49
2.0
 49
-1.0
  0
LTYPE
  2
ACISOWELD
 70
     0
  3
_ _ _ _ _
 72
    65
 73
     2
 40
2.0
 49
2.0
 49
-1.0
  0
LTYPE
  2
ACISOTGB
 70
     0
  3
__ . . __ . .
 72
    65
 73
     6
 40
9.0
 49
4.0
 49
-1.0
 49
1.0
 49
-1.0
 49
1.0
 49
-1.0
  0
LTYPE
  2
ACISOTGL
 70
     0
  3
_ _ _ _ _
 72
    65
 73
     2
 40
3.0
 49
2.0
 49
-1.0
  0
LTYPE
  2
AM_ISO02W050
 70
     0
  3
__ __ __ __ __ __ __ __ __ __ __ __ __ __ __
 72
    65
 73
     2
 40
7.5
 49
6.0
 49
-1.5
  0
LTYPE
  2
AM_ISO08W050
 70
     0
  3
____ . ____ . ____ . ____ . ____ . ____ . ____
 72
    65
 73
     4
 40
18.0
 49
12.0
 49
-1.5
 49
3.0
 49
-1.5
  0
LTYPE
  2
AM_ISO09W050
 70
     0
  3
_____ . . _____ . . _____ . . ____ .. ____
 72
    65
 73
     6
 40
22.5
 49
12.0
 49
-1.5
 49
3.0
 49
-1.5
 49
3.0
 49
-1.5
  0
LTYPE
  2
AMCONSTR
 70
     0
  3
_______________________
 72
    65
 73
     2
 40
9999.0
 49
9999.0
 49
0.0
  0
LTYPE
  2
AM_ISO08W050X2
 70
     0
  3
__ . __ . __ . __ . __ . __
 72
    65
 73
     4
 40
9.0
 49
6.0
 49
-0.75
 49
1.5
 49
-0.75
  0
LTYPE
  2
AM_ISO02W050X2
 70
     0
  3
 _ _ _ _ _ _ _ _ _ _ _ _
 72
    65
 73
     2
 40
3.75
 49
3.0
 49
-0.75
  0
LTYPE
  2
AMZIGZAG
 70
     0
  3
/\/-/\/-/\/-/\/-/\/-/\/
 72
    65
 73
     2
 40
11.0001
 49
0.0001
 49
-11.0
  0
LTYPE
  2
PHANTOM
 70
     0
  3
____ _ _ ____ _ _ ____ _ _ ____ _ _ ____
 72
    65
 73
     6
 40
2.5
 49
1.25
 49
-0.25
 49
0.25
 49
-0.25
 49
0.25
 49
-0.25
  0
ENDTAB
  0
TABLE
  2
LAYER
 70
    21
  0
LAYER
  2
0
 70
     0
 62
     3
  6
CONTINUOUS
  0
LAYER
  2
SYS-BUHIN0
 70
     0
 62
     7
  6
CONTINUOUS
  0
LAYER
  2
AM_0
 70
     0
 62
     3
  6
CONTINUOUS
  0
LAYER
  2
DEFPOINTS
 70
     0
 62
     7
  6
CONTINUOUS
  0
LAYER
  2
AM_5
 70
     0
 62
     7
  6
CONTINUOUS
  0
LAYER
  2
AM_BOR
 70
     0
 62
     7
  6
CONTINUOUS
  0
LAYER
  2
SYS-BUHINCODE
 70
     0
 62
     7
  6
CONTINUOUS
  0
LAYER
  2
AM_7
 70
     0
 62
     4
  6
CENTER
  0
LAYER
  2
AM_3
 70
     0
 62
     7
  6
HIDDEN
  0
LAYER
  2
AM_12
 70
     0
 62
   253
  6
CONTINUOUS
  0
LAYER
  2
AM_PAREF
 70
     0
 62
     4
  6
CONTINUOUS
  0
LAYER
  2
AM_6
 70
     0
 62
     7
  6
CONTINUOUS
  0
LAYER
  2
AM_8
 70
     0
 62
   253
  6
CONTINUOUS
  0
LAYER
  2
AM_4
 70
     0
 62
     6
  6
CONTINUOUS
  0
LAYER
  2
AM_10
 70
     0
 62
     7
  6
CONTINUOUS
  0
LAYER
  2
AM_CL
 70
     0
 62
     1
  6
CONTINUOUS
  0
LAYER
  2
AM_2
 70
     0
 62
     5
  6
PHANTOM2
  0
LAYER
  2
AM_1N
 70
     0
 62
    14
  6
CONTINUOUS
  0
LAYER
  2
AM_1
 70
     0
 62
    14
  6
PHANTOM2
  0
LAYER
  2
AM_9
 70
     0
 62
    -7
  6
CONTINUOUS
  0
LAYER
  2
SYS-TEISEI0
 70
     0
 62
     7
  6
CONTINUOUS
  0
ENDTAB
  0
TABLE
  2
STYLE
 70
    14
  0
STYLE
  2
STANDARD
 70
     0
 40
0.0
 41
1.0
 50
0.0
 71
     0
 42
3.0
  3
dim.shx
  4
extfont.shx
  0
STYLE
  2
KNJYOKO
 70
     0
 40
0.0
 41
1.0
 50
0.0
 71
     0
 42
3.099999904632567
  3
TXT.shx
  4
extfont.shx
  0
STYLE
  2
ACANSTS
 70
     0
 40
1.0
 41
1.0
 50
0.0
 71
     0
 42
0.2
  3
romans.shx
  4
extfont.shx
  0
STYLE
  2
ACANSGDT
 70
     0
 40
0.0
 41
1.0
 50
0.0
 71
     0
 42
0.2
  3
amgdt.shx
  4

  0
STYLE
  2
ACJISTS
 70
     0
 40
1.0
 41
1.0
 50
0.0
 71
     0
 42
0.2
  3
isocp.shx
  4
extfont.shx
  0
STYLE
  2
ACJISGDT
 70
     0
 40
0.0
 41
1.0
 50
0.0
 71
     0
 42
0.2
  3
amgdt.shx
  4

  0
STYLE
  2
MINNTYOU
 70
     0
 40
0.0
 41
1.0
 50
0.0
 71
     0
 42
3.0
  3
txt
  4

  0
STYLE
  2
R寸法
 70
     0
 40
2.0
 41
1.0
 50
0.0
 71
     0
 42
3.0
  3
dim.shx
  4
extfont.shx
  0
STYLE
  2
ANKTATE
 70
     4
 40
0.0
 41
1.0
 50
0.0
 71
     0
 42
3.099999904632567
  3
TXT
  4

  0
STYLE
  2
KNJTATE
 70
     4
 40
0.0
 41
1.0
 50
0.0
 71
     0
 42
3.099999904632567
  3
TXT
  4
BIGFONT
  0
STYLE
  2
ACISOTS
 70
     0
 40
1.0
 41
1.0
 50
0.0
 71
     0
 42
2.5
  3
isocp.shx
  4
extfont.shx
  0
STYLE
  2
ACISOGDT
 70
     0
 40
0.0
 41
1.0
 50
0.0
 71
     0
 42
2.5
  3
amgdt.shx
  4

  0
STYLE
  2

 70
     1
 40
0.0
 41
1.0
 50
0.0
 71
     0
 42
3.0
  3
genltshp.shx
  4

  0
ENDTAB
  0
TABLE
  2
VIEW
 70
     7
  0
VIEW
  2
AM_VIEW1
 70
     0
 40
137.99999999999989
 10
151.8531375166888
 20
215.99999999999989
 41
253.70627503337769
 11
0.0
 21
0.0
 31
1.0
 12
0.0
 22
0.0
 32
0.0
 42
50.0
 43
0.0
 44
0.0
 50
0.0
 71
     0
  0
VIEW
  2
AM_VIEW2
 70
     0
 40
137.99999999999989
 10
285.146862483311
 20
215.99999999999989
 41
253.70627503337769
 11
0.0
 21
0.0
 31
1.0
 12
0.0
 22
0.0
 32
0.0
 42
50.0
 43
0.0
 44
0.0
 50
0.0
 71
     0
  0
VIEW
  2
AM_VIEW3
 70
     0
 40
137.99999999999989
 10
151.8531375166888
 20
77.999999999999972
 41
253.70627503337769
 11
0.0
 21
0.0
 31
1.0
 12
0.0
 22
0.0
 32
0.0
 42
50.0
 43
0.0
 44
0.0
 50
0.0
 71
     0
  0
VIEW
  2
AM_VIEW4
 70
     0
 40
137.99999999999989
 10
285.146862483311
 20
77.999999999999972
 41
253.70627503337769
 11
0.0
 21
0.0
 31
1.0
 12
0.0
 22
0.0
 32
0.0
 42
50.0
 43
0.0
 44
0.0
 50
0.0
 71
     0
  0
VIEW
  2
AM_VIEW5
 70
     0
 40
137.99999999999989
 10
218.49999999999989
 20
146.99999999999989
 41
253.70627503337769
 11
0.0
 21
0.0
 31
1.0
 12
0.0
 22
0.0
 32
0.0
 42
50.0
 43
0.0
 44
0.0
 50
0.0
 71
     0
  0
VIEW
  2
AM_VIEW6
 70
     0
 40
275.99723999999992
 10
218.49999999999989
 20
146.99999999999989
 41
507.4074759412548
 11
0.0
 21
0.0
 31
1.0
 12
0.0
 22
0.0
 32
0.0
 42
50.0
 43
0.0
 44
0.0
 50
0.0
 71
     0
  0
ENDTAB
  0
TABLE
  2
UCS
 70
     0
  0
ENDTAB
  0
TABLE
  2
APPID
 70
    60
  0
APPID
  2
ACAD
 70
     0
  0
APPID
  2
ACADANNOTATIVE
 70
     0
  0
APPID
  2
ACAD_MLEADERVER
 70
     0
  0
APPID
  2
MCAD_NO_VIS
 70
     0
  0
APPID
  2
ACAD_TEMP_GRAPHIC
 70
     0
  0
APPID
  2
AD_DRAW
 70
     0
  0
APPID
  2
ACATTRIBSERVICES
 70
     0
  0
APPID
  2
DESIGNERASSEMBLIES
 70
     0
  0
APPID
  2
ACADM_DIM_EDIT
 70
     0
  0
APPID
  2
AMDT_DM_ADJ
 70
     0
  0
APPID
  2
ACADANNOPO
 70
     0
  0
APPID
  2
ACAECLAYERSTANDARD
 70
     0
  0
APPID
  2
ACDBDYNAMICBLOCKGUID
 70
     0
  0
APPID
  2
ACDBBLOCKREPETAG
 70
     0
  0
APPID
  2
ACAUTHENVIRON
 70
     0
  0
APPID
  2
ACDBDYNAMICBLOCKTRUENAME
 70
     0
  0
APPID
  2
GENIUS_GENREC_14
 70
     0
  0
APPID
  2
GENIUS_GENOBJ-N-REC_13
 70
     0
  0
APPID
  2
GENIUS_GENODEF_13
 70
     0
  0
APPID
  2
ACAD_EXEMPT_FROM_CAD_STANDARDS
 70
     0
  0
APPID
  2
GENIUS_GENOBJ-N-CEN_13
 70
     0
  0
APPID
  2
GENIUS_GENCEN_19
 70
     0
  0
APPID
  2
ACAD_DSTYLE_DIMINSPECT
 70
     0
  0
APPID
  2
DCO15
 70
     0
  0
APPID
  2
ACAD_PSEXT
 70
     0
  0
APPID
  2
GENIUS_GENBH_13
 70
     0
  0
APPID
  2
GENIUS_GENOENT_13
 70
     0
  0
APPID
  2
GENIUS_GENOLIS_13
 70
     0
  0
APPID
  2
GENIUS_GENOBJ-NBEHI-BHF_13
 70
     0
  0
APPID
  2
GENIUS_GENOREF_13
 70
     0
  0
APPID
  2
GENIUS_GENOBJ-NBEHI-BHB_13
 70
     0
  0
APPID
  2
AMG_2DHIDE
 70
     0
  0
APPID
  2
AMG_2DSTRUCT_BTR
 70
     0
  0
APPID
  2
GENIUS_AMGTXT_16
 70
     0
  0
APPID
  2
GENIUS_GENOBJ-N-HTC_13
 70
     0
  0
APPID
  2
GENIUS_GENHATCH_13
 70
     0
  0
APPID
  2
GEVID1208849169
 70
     0
  0
APPID
  2
GEVDC
 70
     0
  0
APPID
  2
ACADM_2DVIEW_IGN_NOTIFY
 70
     0
  0
APPID
  2
GEVID1208849170
 70
     0
  0
APPID
  2
GEVID1208849171
 70
     0
  0
APPID
  2
GEVRADREF
 70
     0
  0
APPID
  2
ACAD_DSTYLE_DIMJAG
 70
     0
  0
APPID
  2
ACAD_DSTYLE_DIMTALN
 70
     0
  0
APPID
  2
GENIUS_GENDTOL_13
 70
     0
  0
APPID
  2
GENIUS_GENTRA_14
 70
     0
  0
APPID
  2
GENIUS_GENOBJ-N-TIT_13
 70
     0
  0
APPID
  2
GENIUS_GENTITLE_13
 70
     0
  0
APPID
  2
GENIUS_GENSCREG_15
 70
     0
  0
APPID
  2
GENIUS_GENOBJ-N-SDF_13
 70
     0
  0
APPID
  2
ACAD_DSTYLE_DIMRADIAL_EXTENSION
 70
     0
  0
APPID
  2
GENIUS_GENOBJ-N-FIL_13
 70
     0
  0
APPID
  2
GENIUS_GENOBJ-N-CRS_13
 70
     0
  0
APPID
  2
GENIUS_GENDIMSH_14
 70
     0
  0
APPID
  2
ACAD_DSTYLE_DIMANGULAR_EXT
 70
     0
  0
APPID
  2
ACAD_NAV_VCDISPLAY
 70
     0
  0
APPID
  2
ACAD_DSTYLE_DIMBREAK
 70
     0
  0
APPID
  2
GENIUS_GENSCREG_13
 70
     0
  0
APPID
  2
CONTENTBLOCKICON
 70
     0
  0
APPID
  2
AcDbAttr
 70
     0
  0
ENDTAB
  0
TABLE
  2
DIMSTYLE
 70
    26
  0
DIMSTYLE
  2
STANDARD
 70
     0
  3

  4

  5

  6

  7

 40
1.0
 41
1.0
 42
0.8
 43
0.38
 44
1.0
 45
0.0
 46
0.0
 47
0.0
 48
0.0
140
3.1000000000000001
141
0.09
142
0.0
143
25.399999999999999
144
1.0
145
0.5
146
1.0
147
0.09
 71
     0
 72
     0
 73
     0
 74
     0
 75
     0
 76
     0
 77
     1
 78
     0
170
     0
171
     2
172
     0
173
     0
174
     0
175
     0
176
     0
177
     0
178
     0
  0
DIMSTYLE
  2
AM_ANSI
 70
     0
  3

  4
mm
  5

  6

  7

 40
1.0
 41
0.1
 42
0.05
 43
0.5
 44
0.1
 45
0.0
 46
0.0
 47
0.1
 48
0.1
140
0.12
141
0.0
142
0.0
143
25.399999999999999
144
1.0
145
0.0
146
0.71
147
0.06
 71
     0
 72
     0
 73
     1
 74
     1
 75
     0
 76
     0
 77
     0
 78
     7
170
     0
171
     2
172
     0
173
     0
174
     0
175
     0
176
   256
177
   256
178
     2
  0
DIMSTYLE
  2
AM_ANSI$3
 70
     0
  3

  4
mm
  5

  6

  7

 40
1.0
 41
0.1
 42
0.05
 43
0.5
 44
0.1
 45
0.0
 46
0.0
 47
0.1
 48
0.1
140
0.12
141
0.0
142
0.0
143
25.399999999999999
144
1.0
145
0.0
146
0.71
147
0.06
 71
     0
 72
     0
 73
     1
 74
     1
 75
     0
 76
     0
 77
     0
 78
     7
170
     0
171
     2
172
     0
173
     0
174
     0
175
     0
176
   256
177
   256
178
     2
  0
DIMSTYLE
  2
AM_ANSI$4
 70
     0
  3

  4
mm
  5

  6

  7

 40
1.0
 41
0.1
 42
0.05
 43
0.5
 44
0.1
 45
0.0
 46
0.0
 47
0.1
 48
0.1
140
0.12
141
0.0
142
0.0
143
25.399999999999999
144
1.0
145
0.0
146
0.71
147
0.06
 71
     0
 72
     0
 73
     1
 74
     1
 75
     0
 76
     0
 77
     0
 78
     7
170
     0
171
     2
172
     0
173
     0
174
     0
175
     0
176
   256
177
   256
178
     2
  0
DIMSTYLE
  2
AM_ANSI$7
 70
     0
  3

  4
mm
  5

  6

  7

 40
1.0
 41
0.1
 42
0.05
 43
0.5
 44
0.1
 45
0.0
 46
0.0
 47
0.1
 48
0.1
140
0.24
141
0.0
142
0.0
143
25.399999999999999
144
1.0
145
0.0
146
0.71
147
0.06
 71
     0
 72
     0
 73
     1
 74
     1
 75
     0
 76
     0
 77
     0
 78
     7
170
     0
171
     2
172
     0
173
     0
174
     0
175
     0
176
   256
177
   256
178
     2
  0
DIMSTYLE
  2
AM_ANSI$SF
 70
     0
  3

  4
mm
  5

  6

  7

 40
1.0
 41
0.1
 42
0.05
 43
0.5
 44
0.1
 45
0.0
 46
0.0
 47
0.1
 48
0.1
140
0.12
141
0.0
142
0.0
143
25.399999999999999
144
1.0
145
0.0
146
0.71
147
0.06
 71
     0
 72
     0
 73
     1
 74
     1
 75
     1
 76
     1
 77
     0
 78
     7
170
     0
171
     2
172
     0
173
     0
174
     0
175
     0
176
   256
177
   256
178
     2
  0
DIMSTYLE
  2
AM_ANSI$SH
 70
     0
  3

  4
mm
  5

  6
GENAXEH
  7

 40
1.0
 41
0.1
 42
0.05
 43
0.5
 44
0.1
 45
0.0
 46
0.0
 47
0.1
 48
0.1
140
0.12
141
0.0
142
0.0
143
25.399999999999999
144
1.0
145
0.0
146
0.71
147
0.06
 71
     0
 72
     0
 73
     1
 74
     1
 75
     1
 76
     1
 77
     0
 78
     7
170
     0
171
     2
172
     0
173
     1
174
     0
175
     0
176
   256
177
   256
178
     2
  0
DIMSTYLE
  2
AM_JIS
 70
     0
  3

  4
"
  5
OPEN30
  6

  7

 40
1.0
 41
2.5
 42
1.0
 43
7.0
 44
1.0
 45
0.0
 46
0.0
 47
0.1
 48
0.1
140
3.0
141
0.0
142
0.0
143
0.0393701
144
1.0
145
0.0
146
0.71
147
1.0
 71
     0
 72
     0
 73
     0
 74
     0
 75
     0
 76
     0
 77
     3
 78
     8
170
     0
171
     2
172
     1
173
     0
174
     0
175
     0
176
     7
177
     7
178
     7
  0
DIMSTYLE
  2
AM_JIS$3
 70
     0
  3

  4
"
  5
OPEN30
  6

  7

 40
1.0
 41
2.5
 42
1.0
 43
10.0
 44
1.0
 45
0.0
 46
0.0
 47
0.1
 48
0.1
140
3.0
141
0.0
142
0.0
143
0.0393701
144
1.0
145
0.0
146
0.71
147
1.0
 71
     0
 72
     0
 73
     0
 74
     1
 75
     0
 76
     0
 77
     3
 78
     8
170
     0
171
     2
172
     0
173
     0
174
     0
175
     0
176
     7
177
     7
178
     7
  0
DIMSTYLE
  2
AM_JIS$4
 70
     0
  3

  4
"
  5
OPEN30
  6

  7

 40
1.0
 41
2.5
 42
1.0
 43
10.0
 44
1.0
 45
0.0
 46
0.0
 47
0.1
 48
0.1
140
2.0
141
0.0
142
0.0
143
0.0393701
144
1.0
145
0.0
146
0.71
147
1.0
 71
     0
 72
     0
 73
     0
 74
     0
 75
     0
 76
     0
 77
     3
 78
     8
170
     0
171
     2
172
     0
173
     0
174
     0
175
     0
176
     7
177
     7
178
     7
  0
DIMSTYLE
  2
AM_JIS$6
 70
     0
  3

  4
"
  5
OPEN30
  6

  7

 40
1.0
 41
2.5
 42
1.0
 43
10.0
 44
1.0
 45
0.0
 46
0.0
 47
0.1
 48
0.1
140
3.0
141
0.0
142
0.0
143
0.0393701
144
1.0
145
0.0
146
0.71
147
1.0
 71
     0
 72
     0
 73
     0
 74
     0
 75
     0
 76
     0
 77
     0
 78
     8
170
     0
171
     2
172
     1
173
     0
174
     0
175
     0
176
   256
177
     7
178
     7
  0
DIMSTYLE
  2
AM_JIS$7
 70
     0
  3

  4
"
  5
OPEN30
  6

  7

 40
1.0
 41
2.5
 42
1.0
 43
10.0
 44
1.0
 45
0.0
 46
0.0
 47
0.1
 48
0.1
140
3.0
141
0.0
142
0.0
143
0.0393701
144
1.0
145
0.0
146
0.71
147
1.0
 71
     0
 72
     0
 73
     0
 74
     0
 75
     0
 76
     0
 77
     3
 78
     8
170
     0
171
     2
172
     1
173
     0
174
     0
175
     0
176
     7
177
   256
178
     7
  0
DIMSTYLE
  2
AM_JIS$SF
 70
     0
  3

  4
"
  5
OPEN30
  6

  7

 40
1.0
 41
2.5
 42
1.0
 43
7.0
 44
1.0
 45
0.0
 46
0.0
 47
0.1
 48
0.1
140
3.0
141
0.0
142
0.0
143
0.0393701
144
1.0
145
0.0
146
0.71
147
1.0
 71
     0
 72
     0
 73
     0
 74
     0
 75
     1
 76
     1
 77
     3
 78
     8
170
     0
171
     2
172
     1
173
     0
174
     0
175
     0
176
     7
177
   256
178
     7
  0
DIMSTYLE
  2
AM_JIS$SH
 70
     0
  3

  4
"
  5

  6
GENAXEH
  7
OPEN30
 40
1.0
 41
2.5
 42
1.0
 43
7.0
 44
1.0
 45
0.0
 46
0.0
 47
0.1
 48
0.1
140
3.0
141
0.0
142
0.0
143
0.0393701
144
2.0
145
0.0
146
0.71
147
1.0
 71
     0
 72
     0
 73
     0
 74
     0
 75
     1
 76
     1
 77
     3
 78
     8
170
     0
171
     2
172
     1
173
     1
174
     0
175
     0
176
     7
177
   256
178
     7
  0
DIMSTYLE
  2
AM_JIS$2
 70
     0
  3

  4
"
  5
OPEN30
  6

  7

 40
1.0
 41
2.5
 42
1.0
 43
7.0
 44
1.0
 45
0.0
 46
0.0
 47
0.1
 48
0.1
140
3.0
141
0.0
142
0.0
143
0.0393701
144
1.0
145
0.0
146
0.71
147
1.0
 71
     0
 72
     0
 73
     0
 74
     0
 75
     0
 76
     0
 77
     3
 78
     8
170
     0
171
     2
172
     1
173
     0
174
     0
175
     0
176
     7
177
     7
178
     7
  0
DIMSTYLE
  2
AM_JIS$0
 70
     0
  3

  4
"
  5
OPEN30
  6

  7

 40
1.0
 41
2.5
 42
1.0
 43
7.0
 44
1.0
 45
0.0
 46
0.0
 47
0.1
 48
0.1
140
3.0
141
0.0
142
0.0
143
0.0393701
144
1.0
145
0.0
146
0.71
147
1.0
 71
     0
 72
     0
 73
     0
 74
     0
 75
     0
 76
     0
 77
     3
 78
     8
170
     0
171
     2
172
     1
173
     0
174
     0
175
     0
176
     7
177
     7
178
     7
  0
DIMSTYLE
  2
STANDARD$0
 70
     0
  3

  4

  5

  6

  7

 40
1.0
 41
1.0
 42
0.8
 43
0.38
 44
1.0
 45
0.0
 46
0.0
 47
0.0
 48
0.0
140
3.1000000000000001
141
0.09
142
0.0
143
25.399999999999999
144
1.0
145
0.5
146
1.0
147
0.09
 71
     0
 72
     0
 73
     0
 74
     0
 75
     0
 76
     0
 77
     1
 78
     0
170
     0
171
     2
172
     0
173
     0
174
     0
175
     0
176
     0
177
     0
178
     0
  0
DIMSTYLE
  2
ANNOTATIVE
 70
     0
  3

  4

  5

  6

  7

 40
1.0
 41
0.18
 42
0.0625
 43
0.38
 44
0.18
 45
0.0
 46
0.0
 47
0.0
 48
0.0
140
0.18
141
0.09
142
0.0
143
25.399999999999999
144
1.0
145
0.0
146
1.0
147
0.09
 71
     0
 72
     0
 73
     1
 74
     1
 75
     0
 76
     0
 77
     0
 78
     0
170
     0
171
     2
172
     0
173
     0
174
     0
175
     0
176
     0
177
     0
178
     0
  0
DIMSTYLE
  2
AM_ISO
 70
     0
  3

  4
"
  5

  6

  7

 40
1.0
 41
2.5
 42
1.0
 43
10.0
 44
1.0
 45
0.0
 46
0.0
 47
0.1
 48
0.1
140
3.5
141
0.0
142
0.0
143
0.0393701
144
1.0
145
0.0
146
0.71
147
1.5
 71
     0
 72
     0
 73
     0
 74
     0
 75
     0
 76
     0
 77
     1
 78
     8
170
     0
171
     2
172
     1
173
     0
174
     0
175
     0
176
   256
177
   256
178
     2
  0
DIMSTYLE
  2
AM_ISO$3
 70
     0
  3

  4
"
  5

  6

  7

 40
1.0
 41
2.5
 42
1.0
 43
10.0
 44
1.0
 45
0.0
 46
0.0
 47
0.1
 48
0.1
140
3.5
141
0.0
142
0.0
143
0.0393701
144
1.0
145
0.0
146
0.71
147
1.5
 71
     0
 72
     0
 73
     0
 74
     1
 75
     0
 76
     0
 77
     1
 78
     8
170
     0
171
     2
172
     0
173
     0
174
     0
175
     0
176
   256
177
   256
178
     2
  0
DIMSTYLE
  2
AM_ISO$4
 70
     0
  3

  4
"
  5

  6

  7

 40
1.0
 41
2.5
 42
1.0
 43
10.0
 44
1.0
 45
0.0
 46
0.0
 47
0.1
 48
0.1
140
3.5
141
0.0
142
0.0
143
0.0393701
144
1.0
145
0.0
146
0.71
147
1.5
 71
     0
 72
     0
 73
     0
 74
     1
 75
     0
 76
     0
 77
     1
 78
     8
170
     0
171
     2
172
     0
173
     0
174
     0
175
     0
176
   256
177
   256
178
     2
  0
DIMSTYLE
  2
AM_ISO$6
 70
     0
  3

  4
"
  5

  6

  7

 40
1.0
 41
2.5
 42
1.0
 43
10.0
 44
1.0
 45
0.0
 46
0.0
 47
0.1
 48
0.1
140
3.5
141
0.0
142
0.0
143
0.0393701
144
1.0
145
0.0
146
0.71
147
1.5
 71
     0
 72
     0
 73
     0
 74
     0
 75
     0
 76
     0
 77
     0
 78
     8
170
     0
171
     2
172
     1
173
     0
174
     0
175
     0
176
   256
177
   256
178
     2
  0
DIMSTYLE
  2
AM_ISO$7
 70
     0
  3

  4
"
  5

  6

  7

 40
1.0
 41
2.5
 42
1.0
 43
10.0
 44
1.0
 45
0.0
 46
0.0
 47
0.1
 48
0.1
140
5.0
141
0.0
142
0.0
143
0.0393701
144
1.0
145
0.0
146
0.71
147
1.5
 71
     0
 72
     0
 73
     0
 74
     0
 75
     0
 76
     0
 77
     1
 78
     8
170
     0
171
     2
172
     1
173
     0
174
     0
175
     0
176
   256
177
   256
178
     2
  0
DIMSTYLE
  2
AM_ISO$SF
 70
     0
  3

  4
"
  5

  6

  7

 40
1.0
 41
2.5
 42
1.0
 43
10.0
 44
1.0
 45
0.0
 46
0.0
 47
0.1
 48
0.1
140
3.5
141
0.0
142
0.0
143
0.0393701
144
1.0
145
0.0
146
0.71
147
1.5
 71
     0
 72
     0
 73
     0
 74
     0
 75
     1
 76
     1
 77
     1
 78
     8
170
     0
171
     2
172
     1
173
     0
174
     0
175
     0
176
   256
177
   256
178
     2
  0
DIMSTYLE
  2
AM_ISO$SH
 70
     0
  3

  4
"
  5

  6
GENAXEH
  7

 40
1.0
 41
2.5
 42
1.0
 43
10.0
 44
1.0
 45
0.0
 46
0.0
 47
0.1
 48
0.1
140
3.5
141
0.0
142
0.0
143
0.0393701
144
2.0
145
0.0
146
0.71
147
1.5
 71
     0
 72
     0
 73
     0
 74
     0
 75
     1
 76
     1
 77
     1
 78
     8
170
     0
171
     2
172
     1
173
     1
174
     0
175
     0
176
   256
177
   256
178
     2
  0
ENDTAB
  0
ENDSEC
  0
SECTION
  2
BLOCKS
  0
BLOCK
  8
0
  2
$MODEL_SPACE
 70
     0
 10
0.0
 20
0.0
 30
0.0
  3
$MODEL_SPACE
  1

  0
ENDBLK
  5
1D3
  8
0
  0
BLOCK
 67
     1
  8
0
  2
$PAPER_SPACE
 70
     0
 10
0.0
 20
0.0
 30
0.0
  3
$PAPER_SPACE
  1

  0
ENDBLK
  5
1D1
 67
     1
  8
0
  0
BLOCK
  8
0
  2
GENAXEH
 70
     0
 10
0.0
 20
0.0
 30
0.0
  3
GENAXEH
  1

  0
LINE
  5
264
  8
0
 10
-1.0
 20
0.0
 30
0.0
 11
1.0
 21
0.0
 31
0.0
  0
ENDBLK
  5
266
  8
0
  0
BLOCK
  8
0
  2
_OPEN30
 70
     0
 10
0.0
 20
0.0
 30
0.0
  3
_OPEN30
  1

  0
LINE
  5
2FA
  8
0
  6
BYBLOCK
 62
     0
 10
-1.0
 20
0.26794919
 30
0.0
 11
0.0
 21
0.0
 31
0.0
  0
LINE
  5
2FB
  8
0
  6
BYBLOCK
 62
     0
 10
0.0
 20
0.0
 30
0.0
 11
-1.0
 21
-0.26794919
 31
0.0
  0
LINE
  5
2FC
  8
0
  6
BYBLOCK
 62
     0
 10
0.0
 20
0.0
 30
0.0
 11
-1.0
 21
0.0
 31
0.0
  0
ENDBLK
  5
2FE
  8
0
  0
BLOCK
  8
0
  2
MYPLIST0
 70
     2
 10
0.0
 20
0.0
 30
0.0
  3
MYPLIST0
  1

  0
LINE
  5
346
  8
SYS-BUHIN0
  6
CONTINUOUS
 62
     4
 10
-170.0
 20
7.0
 30
0.0
 11
0.0
 21
7.0
 31
0.0
  0
LINE
  5
347
  8
SYS-BUHIN0
  6
CONTINUOUS
 62
     4
 10
-170.0
 20
-0.0000000000030695
 30
0.0
 11
0.0
 21
-0.0000000000001137
 31
0.0
  0
LINE
  5
348
  8
SYS-BUHIN0
  6
CONTINUOUS
 62
     4
 10
-170.0
 20
7.0
 30
0.0
 11
-170.0
 21
0.0
 31
0.0
  0
LINE
  5
349
  8
SYS-BUHIN0
  6
CONTINUOUS
 62
     4
 10
0.0
 20
7.0
 30
0.0
 11
0.0
 21
0.0
 31
0.0
  0
LINE
  5
34A
  8
SYS-BUHIN0
  6
CONTINUOUS
 62
     4
 10
-161.0
 20
7.0
 30
0.0
 11
-161.0
 21
0.0
 31
0.0
  0
LINE
  5
34B
  8
SYS-BUHIN0
  6
CONTINUOUS
 62
     4
 10
-99.0
 20
7.0
 30
0.0
 11
-99.0
 21
0.0
 31
0.0
  0
LINE
  5
34C
  8
SYS-BUHIN0
  6
CONTINUOUS
 62
     4
 10
-72.0
 20
7.0
 30
0.0
 11
-72.0
 21
0.0
 31
0.0
  0
LINE
  5
34D
  8
SYS-BUHIN0
  6
CONTINUOUS
 62
     4
 10
-63.0
 20
7.0
 30
0.0
 11
-63.0
 21
0.0
 31
0.0
  0
LINE
  5
34E
  8
SYS-BUHIN0
  6
CONTINUOUS
 62
     4
 10
-16.0
 20
7.0
 30
0.0
 11
-16.0
 21
0.0
 31
0.0
  0
TEXT
  5
34F
  8
SYS-BUHIN0
  6
CONTINUOUS
 62
     7
 10
-13.61264708219346
 20
0.6000000119208835
 30
0.0
 40
1.1000000000000001
  1
PARTS NO.
 41
1.3
  0
TEXT
  5
350
  8
SYS-BUHIN0
  6
CONTINUOUS
 62
     7
 10
-14.36429419116018
 20
3.0691472933651762
 30
0.0
 40
2.2000000000000002
  1
部品コード
  0
TEXT
  5
351
  8
SYS-BUHIN0
  6
CONTINUOUS
 62
     7
 10
-43.852454807937526
 20
0.6000000119208835
 30
0.0
 40
1.1000000000000001
  1
REMARKS
 41
1.3
  0
TEXT
  5
352
  8
SYS-BUHIN0
  6
CONTINUOUS
 62
     7
 10
-47.370000243186951
 20
2.7500000476836699
 30
0.0
 40
2.7999999999999989
  1
備    考
  0
TEXT
  5
353
  8
SYS-BUHIN0
  6
CONTINUOUS
 62
     7
 10
-69.144963642251696
 20
0.6000000119208835
 30
0.0
 40
1.1000000000000001
  1
UNIT
  0
TEXT
  5
354
  8
SYS-BUHIN0
  6
CONTINUOUS
 62
     7
 10
-70.272262370934413
 20
2.6949072988287521
 30
0.0
 40
2.7999999999999989
  1
数量
  0
TEXT
  5
355
  8
SYS-BUHIN0
  6
CONTINUOUS
 62
     7
 10
-90.559234383463263
 20
0.6000000119208835
 30
0.0
 40
1.1000000000000001
  1
MATERIAL
 41
1.3
  0
TEXT
  5
357
  8
SYS-BUHIN0
  6
CONTINUOUS
 62
     7
 10
-138.9093619295486
 20
0.6000000119208835
 30
0.0
 40
1.1000000000000001
  1
  DESCRIPTION
 41
1.3
  0
TEXT
  5
358
  8
SYS-BUHIN0
  6
CONTINUOUS
 62
     7
 10
-142.0050003230572
 20
2.7500000476836699
 30
0.0
 40
2.7999999999999989
  1
 部  品  名
  0
TEXT
  5
359
  8
SYS-BUHIN0
  6
CONTINUOUS
 62
     7
 10
-166.63404873957319
 20
0.6000000119208835
 30
0.0
 40
1.1000000000000001
  1
NO.
  0
TEXT
  5
35A
  8
SYS-BUHIN0
  6
CONTINUOUS
 62
     7
 10
-168.29000008106229
 20
2.7500000476836699
 30
0.0
 40
2.7999999999999989
  1
項番
  0
ATTDEF
  5
35B
  8
AM_0
 62
     7
 10
-168.79000008106229
 20
3.5
 30
0.0
 40
3.1000000000000001
  1

  3

  2
ITEM
 70
     1
1001
AcDbAttr
1070
     0
1070
     1
  0
TEXT
  5
C0B
  8
AM_BOR
 62
     7
 10
-91.770000159740434
 20
2.7000000476837149
 30
0.0
 40
2.7999999999999989
  1
材　　質
  0
ENDBLK
  5
35C
  8
0
  0
BLOCK
  8
0
  2
MYPLIST1
 70
     2
 10
0.0
 20
0.0
 30
0.0
  3
MYPLIST1
  1

  0
LINE
  5
393
  8
SYS-BUHIN0
  6
CONTINUOUS
 62
     4
 10
-170.0
 20
6.0
 30
0.0
 11
0.0
 21
6.0
 31
0.0
  0
LINE
  5
394
  8
SYS-BUHIN0
  6
CONTINUOUS
 62
     4
 10
-170.0
 20
0.0
 30
0.0
 11
-170.0
 21
6.0
 31
0.0
  0
LINE
  5
395
  8
SYS-BUHIN0
  6
CONTINUOUS
 62
     4
 10
-161.0
 20
0.0
 30
0.0
 11
-161.0
 21
6.0
 31
0.0
  0
LINE
  5
396
  8
SYS-BUHIN0
  6
CONTINUOUS
 62
     4
 10
-99.0
 20
0.0
 30
0.0
 11
-99.0
 21
6.0
 31
0.0
  0
LINE
  5
397
  8
SYS-BUHIN0
  6
CONTINUOUS
 62
     4
 10
-72.0
 20
0.0
 30
0.0
 11
-72.0
 21
6.0
 31
0.0
  0
LINE
  5
398
  8
SYS-BUHIN0
  6
CONTINUOUS
 62
     4
 10
-63.0
 20
0.0
 30
0.0
 11
-63.0
 21
6.0
 31
0.0
  0
LINE
  5
399
  8
SYS-BUHIN0
  6
CONTINUOUS
 62
     4
 10
-16.0
 20
0.0
 30
0.0
 11
-16.0
 21
6.0
 31
0.0
  0
LINE
  5
39A
  8
SYS-BUHIN0
  6
CONTINUOUS
 62
     4
 10
0.0
 20
0.0
 30
0.0
 11
0.0
 21
6.0
 31
0.0
  0
LINE
  5
39B
  8
SYS-BUHIN0
  6
CONTINUOUS
 62
     4
 10
-170.0
 20
0.0
 30
0.0
 11
0.0
 21
0.0
 31
0.0
  0
ATTDEF
  5
39C
  8
SYS-BUHINCODE
 10
-14.0
 20
2.5
 30
0.0
 40
1.0
  1

 11
-14.0
 21
3.0
 31
0.0
  3
部品コード
  2
PCODE
 70
     0
 74
     2
1001
AcDbAttr
1070
     0
1070
     1
  0
ATTDEF
  5
39D
  8
SYS-BUHIN0
  6
CONTINUOUS
 62
     7
 10
-61.0
 20
2.0
 30
0.0
 40
2.0
  1

 11
-61.0
 21
3.0
 31
0.0
  3
備考
  2
NOTE
 70
     0
 74
     2
1001
AcDbAttr
1070
     0
1070
     1
  0
ATTDEF
  5
39E
  8
SYS-BUHIN0
  6
CONTINUOUS
 62
     7
 10
-67.5
 20
3.0
 30
0.0
 40
2.5
  1

 72
     4
 11
-67.5
 21
3.0
 31
0.0
  3
数量
  2
QTY
 70
     0
1001
AcDbAttr
1070
     0
1070
     1
  0
ATTDEF
  5
39F
  8
SYS-BUHIN0
  6
CONTINUOUS
 62
     7
 10
-97.595958160209875
 20
2.0
 30
0.0
 40
2.0
  1

 11
-97.595958160209875
 21
3.0
 31
0.0
  3
材質
  2
MATERIAL
 70
     0
 74
     2
1001
AcDbAttr
1070
     0
1070
     1
  0
ATTDEF
  5
3A0
  8
SYS-BUHIN0
  6
CONTINUOUS
 62
     7
 10
-159.0
 20
1.75
 30
0.0
 40
2.5
  1

 11
-159.0
 21
3.0
 31
0.0
  3
部品名
  2
DESCR
 70
     0
 74
     2
1001
AcDbAttr
1070
     0
1070
     1
  0
ATTDEF
  5
3A1
  8
SYS-BUHIN0
  6
CONTINUOUS
 62
     7
 10
-165.5
 20
3.0
 30
0.0
 40
2.5
  1

 72
     4
 11
-165.5
 21
3.0
 31
0.0
  3
項番
  2
ITEM
 70
     0
1001
AcDbAttr
1070
     0
1070
     1
  0
ENDBLK
  5
370
  8
0
  0
BLOCK
  8
0
  2
A$C1C06296A
 70
     2
 10
0.0
 20
0.0
 30
0.0
  3
A$C1C06296A
  1

  0
LINE
  5
204C
  8
AM_BOR
 10
198.86851880399371
 20
17.886744577931989
 30
0.0
 11
203.2337455721775
 21
13.521517809748619
 31
0.0
  0
LINE
  5
204D
  8
AM_BOR
 10
198.8685188039936
 20
17.866715351316039
 30
0.0
 11
198.86851880399399
 21
14.128964361178911
 31
0.0
  0
LINE
  5
204E
  8
AM_BOR
 10
204.7045172738834
 20
17.866715326469411
 30
0.0
 11
204.70451727388391
 21
14.181128845625549
 31
0.0
  0
LINE
  5
204F
  8
AM_BOR
 10
204.20428883360731
 20
17.793010290175861
 30
0.0
 11
204.204288833607
 21
14.69861035774108
 31
0.0
  0
LINE
  5
2050
  8
AM_BOR
 10
199.3687472442698
 20
17.176052465333349
 30
0.0
 11
199.36874724427059
 21
14.197800355103411
 31
0.0
  0
LINE
  5
2051
  8
AM_BOR
 10
200.43756462039269
 20
18.46533457095553
 30
0.0
 11
204.20428883360731
 21
14.69861035774052
 31
0.0
  0
LINE
  5
2052
  8
AM_BOR
 10
199.36874724426971
 20
17.17605246533255
 30
0.0
 11
203.02713287203409
 21
13.51766683756852
 31
0.0
  0
ARC
  5
2053
  8
AM_BOR
 10
198.36829036868701
 20
17.866715351316049
 30
0.0
 40
0.5002284402762121
 50
0.0
 51
50.265515568291427
  0
ARC
  5
2054
  8
AM_BOR
 10
198.36829034384081
 20
14.12896436117892
 30
0.0
 40
0.5002284402762121
 50
304.69759678405279
 51
0.0
  0
ARC
  5
2055
  8
AM_BOR
 10
205.20474573403669
 20
17.866715326469411
 30
0.0
 40
0.5002284402762121
 50
127.0284887689633
 51
180.00000500895629
  0
ARC
  5
2056
  8
AM_BOR
 10
203.53731756996689
 20
17.793010290175818
 30
0.0
 40
0.6669712537016159
 50
0.0
 51
74.714823568866152
  0
ARC
  5
2057
  8
AM_BOR
 10
200.03571849797169
 20
14.197800355103389
 30
0.0
 40
0.6669712537016159
 50
180.00000500895629
 51
256.4857883914604
  0
LINE
  5
2058
  8
AM_BOR
 10
210.95737277733619
 20
15.993445664994679
 30
0.0
 11
210.9224749062999
 21
16.211434571273589
 31
0.0
  0
LINE
  5
2059
  8
AM_BOR
 10
210.92247490629941
 20
16.211434571273411
 30
0.0
 11
210.8180468870608
 21
16.42776445035037
 31
0.0
  0
LINE
  5
205A
  8
AM_BOR
 10
210.8180468870604
 20
16.42776445035037
 30
0.0
 11
210.64488347990149
 21
16.640788901221669
 31
0.0
  0
LINE
  5
205B
  8
AM_BOR
 10
210.6448834799013
 20
16.640788901221619
 30
0.0
 11
210.40430256290981
 21
16.848886679188759
 31
0.0
  0
LINE
  5
205C
  8
AM_BOR
 10
210.40430256290949
 20
16.848886679189
 30
0.0
 11
210.0981351021297
 21
17.050474034508689
 31
0.0
  0
LINE
  5
205D
  8
AM_BOR
 10
210.09813510212999
 20
17.05047403450855
 30
0.0
 11
209.7287112168076
 21
17.244016765685139
 31
0.0
  0
LINE
  5
205E
  8
AM_BOR
 10
209.72871121680711
 20
17.24401676568521
 30
0.0
 11
209.29884244577369
 21
17.428041895669988
 31
0.0
  0
LINE
  5
205F
  8
AM_BOR
 10
209.29884244577369
 20
17.428041895670081
 30
0.0
 11
208.81180034993889
 21
17.601148882106369
 31
0.0
  0
LINE
  5
2060
  8
AM_BOR
 10
208.81180034993889
 20
17.60114888210644
 30
0.0
 11
208.27129161373591
 21
17.76202027630297
 31
0.0
  0
LINE
  5
2061
  8
AM_BOR
 10
208.27129161373611
 20
17.76202027630309
 30
0.0
 11
207.68142983501551
 21
17.909431749813081
 31
0.0
  0
LINE
  5
2062
  8
AM_BOR
 10
207.68142983501531
 20
17.90943174981297
 30
0.0
 11
207.04670421808169
 21
18.042261412313358
 31
0.0
  0
LINE
  5
2063
  8
AM_BOR
 10
207.04670421808169
 20
18.04226141231344
 30
0.0
 11
206.37194540813729
 21
18.15949834986797
 31
0.0
  0
LINE
  5
2064
  8
AM_BOR
 10
206.37194540813749
 20
18.159498349867881
 30
0.0
 11
205.66228872715681
 21
18.260250318592298
 31
0.0
  0
LINE
  5
2065
  8
AM_BOR
 10
205.66228872715661
 20
18.260250318592369
 30
0.0
 11
205.02242374599979
 21
18.33253416039674
 31
0.0
  0
LINE
  5
2066
  8
AM_BOR
 10
205.02242374599939
 20
18.332534160396779
 30
0.0
 11
204.92313509098369
 21
18.343750535168819
 31
0.0
  0
LINE
  5
2067
  8
AM_BOR
 10
204.92313509098369
 20
18.343750535168748
 30
0.0
 11
204.16010990510409
 21
18.409363512530259
 31
0.0
  0
LINE
  5
2068
  8
AM_BOR
 10
204.1601099051048
 20
18.409363512530259
 30
0.0
 11
203.71314686010501
 21
18.436387872932471
 31
0.0
  0
LINE
  5
2069
  8
AM_BOR
 10
200.43756462039249
 20
18.465334570955569
 30
0.0
 11
200.19401582596791
 21
18.45658989630088
 31
0.0
  0
LINE
  5
206A
  8
AM_BOR
 10
200.19401582596799
 20
18.456589896300901
 30
0.0
 11
199.41292617277259
 21
18.409363512530309
 31
0.0
  0
LINE
  5
206B
  8
AM_BOR
 10
199.41292617277259
 20
18.409363512530248
 30
0.0
 11
198.64990098689299
 21
18.343750535168759
 31
0.0
  0
LINE
  5
206C
  8
AM_BOR
 10
198.5506123731563
 20
18.332534165059979
 30
0.0
 11
197.9107473507209
 21
18.260250318592469
 31
0.0
  0
LINE
  5
206D
  8
AM_BOR
 10
198.64990098689299
 20
18.343750535168791
 30
0.0
 11
198.5506123731563
 21
18.332534165059919
 31
0.0
  0
LINE
  5
206E
  8
AM_BOR
 10
197.91074735072121
 20
18.26025031859243
 30
0.0
 11
197.20109066974049
 21
18.159498349868041
 31
0.0
  0
LINE
  5
206F
  8
AM_BOR
 10
197.20109066974041
 20
18.159498349868091
 30
0.0
 11
196.52633185979579
 21
18.042261412313529
 31
0.0
  0
LINE
  5
2070
  8
AM_BOR
 10
196.5263318597959
 20
18.042261412313589
 30
0.0
 11
195.89160624286239
 21
17.909431749813219
 31
0.0
  0
LINE
  5
2071
  8
AM_BOR
 10
195.89160624286171
 20
17.90943174981302
 30
0.0
 11
195.30174446414119
 21
17.762020276303058
 31
0.0
  0
LINE
  5
2072
  8
AM_BOR
 10
195.301744464141
 20
17.762020276303161
 30
0.0
 11
194.76123572793779
 21
17.60114888210661
 31
0.0
  0
LINE
  5
2073
  8
AM_BOR
 10
194.76123572793779
 20
17.60114888210656
 30
0.0
 11
194.27419363210299
 21
17.428041895670152
 31
0.0
  0
LINE
  5
2074
  8
AM_BOR
 10
194.27419363210339
 20
17.428041895670152
 30
0.0
 11
193.84432486106959
 21
17.244016765685259
 31
0.0
  0
LINE
  5
2075
  8
AM_BOR
 10
193.84432486106959
 20
17.24401676568521
 30
0.0
 11
193.4749009757472
 21
17.05047403450865
 31
0.0
  0
LINE
  5
2076
  8
AM_BOR
 10
193.4749009757472
 20
17.050474034508671
 30
0.0
 11
193.16873351496719
 21
16.848886679188929
 31
0.0
  0
LINE
  5
2077
  8
AM_BOR
 10
193.1687335149673
 20
16.848886679188951
 30
0.0
 11
192.92815259797499
 21
16.640788901221619
 31
0.0
  0
LINE
  5
2078
  8
AM_BOR
 10
192.9281525979753
 20
16.640788901221811
 30
0.0
 11
192.75498919081639
 21
16.42776445035042
 31
0.0
  0
LINE
  5
2079
  8
AM_BOR
 10
192.75498919081639
 20
16.427764450350349
 30
0.0
 11
192.65056117157769
 21
16.211434571273479
 31
0.0
  0
LINE
  5
207A
  8
AM_BOR
 10
192.65056117157789
 20
16.211434571273731
 30
0.0
 11
192.61566330054151
 21
15.993445664994679
 31
0.0
  0
LINE
  5
207B
  8
AM_BOR
 10
192.61566330054069
 20
15.99344566499464
 30
0.0
 11
192.65056117157721
 21
15.775456758715791
 31
0.0
  0
LINE
  5
207C
  8
AM_BOR
 10
192.65056117157769
 20
15.775456758715929
 30
0.0
 11
192.7549891908163
 21
15.55912687963913
 31
0.0
  0
LINE
  5
207D
  8
AM_BOR
 10
192.75498919081639
 20
15.559126879639029
 30
0.0
 11
192.9281525979753
 21
15.34610242876764
 31
0.0
  0
LINE
  5
207E
  8
AM_BOR
 10
192.9281525979751
 20
15.34610242876769
 30
0.0
 11
193.16873351496719
 21
15.1380046508005
 31
0.0
  0
LINE
  5
207F
  8
AM_BOR
 10
193.1687335149669
 20
15.1380046508005
 30
0.0
 11
193.47490097574689
 21
14.93641729548081
 31
0.0
  0
LINE
  5
2080
  8
AM_BOR
 10
193.47490097574729
 20
14.936417295480711
 30
0.0
 11
193.84432486106959
 21
14.742874564304079
 31
0.0
  0
LINE
  5
2081
  8
AM_BOR
 10
193.84432486106951
 20
14.74287456430417
 30
0.0
 11
194.27419363210271
 21
14.558849434319351
 31
0.0
  0
LINE
  5
2082
  8
AM_BOR
 10
194.27419363210319
 20
14.558849434319439
 30
0.0
 11
194.7612357279379
 21
14.38574244788296
 31
0.0
  0
LINE
  5
2083
  8
AM_BOR
 10
194.76123572793779
 20
14.38574244788277
 30
0.0
 11
195.301744464141
 21
14.22487105368617
 31
0.0
  0
LINE
  5
2084
  8
AM_BOR
 10
195.301744464141
 20
14.224871053686311
 30
0.0
 11
195.891606242862
 21
14.077459580176351
 31
0.0
  0
LINE
  5
2085
  8
AM_BOR
 10
195.89160624286191
 20
14.077459580176219
 30
0.0
 11
196.52633185979579
 21
13.94462991767579
 31
0.0
  0
LINE
  5
2086
  8
AM_BOR
 10
196.52633185979539
 20
13.944629917675821
 30
0.0
 11
197.2010906697397
 21
13.827392980121321
 31
0.0
  0
LINE
  5
2087
  8
AM_BOR
 10
197.20109066974049
 20
13.82739298012133
 30
0.0
 11
197.9107473507209
 21
13.726641011397049
 31
0.0
  0
LINE
  5
2088
  8
AM_BOR
 10
197.9107473507205
 20
13.72664101139711
 30
0.0
 11
198.5412166771807
 21
13.655418571666219
 31
0.0
  0
LINE
  5
2089
  8
AM_BOR
 10
198.54121667717999
 20
13.65541857166625
 30
0.0
 11
198.64990098689259
 21
13.643140794820731
 31
0.0
  0
LINE
  5
208A
  8
AM_BOR
 10
198.6499009868929
 20
13.643140794820679
 30
0.0
 11
199.41292617277259
 21
13.57752781745919
 31
0.0
  0
LINE
  5
208B
  8
AM_BOR
 10
199.41292617277259
 20
13.577527817459201
 30
0.0
 11
199.8798563250744
 21
13.54929620220682
 31
0.0
  0
LINE
  5
208C
  8
AM_BOR
 10
203.0271328720325
 20
13.51766683756999
 30
0.0
 11
203.37902025190911
 21
13.530301433688649
 31
0.0
  0
LINE
  5
208D
  8
AM_BOR
 10
203.3790202519092
 20
13.530301433688599
 30
0.0
 11
204.16010990510441
 21
13.57752781745919
 31
0.0
  0
LINE
  5
208E
  8
AM_BOR
 10
204.70451727388399
 20
13.624341722195579
 30
0.0
 11
204.9231350909844
 21
13.64314079482075
 31
0.0
  0
LINE
  5
208F
  8
AM_BOR
 10
204.16010990510441
 20
13.57752781745917
 30
0.0
 11
204.70451727388379
 21
13.62434172219551
 31
0.0
  0
LINE
  5
2090
  8
AM_BOR
 10
204.92313509098409
 20
13.643140794820759
 30
0.0
 11
205.66228872715669
 21
13.726641011397151
 31
0.0
  0
LINE
  5
2091
  8
AM_BOR
 10
205.66228872715661
 20
13.72664101139711
 30
0.0
 11
206.37194540813709
 21
13.827392980121401
 31
0.0
  0
LINE
  5
2092
  8
AM_BOR
 10
206.37194540813749
 20
13.82739298012145
 30
0.0
 11
207.04670421808191
 21
13.94462991767594
 31
0.0
  0
LINE
  5
2093
  8
AM_BOR
 10
207.04670421808169
 20
13.94462991767597
 30
0.0
 11
207.68142983501559
 21
14.07745958017637
 31
0.0
  0
LINE
  5
2094
  8
AM_BOR
 10
207.68142983501551
 20
14.07745958017629
 30
0.0
 11
208.27129161373611
 21
14.22487105368625
 31
0.0
  0
LINE
  5
2095
  8
AM_BOR
 10
208.2712916137362
 20
14.224871053686289
 30
0.0
 11
208.81180034993929
 21
14.38574244788289
 31
0.0
  0
LINE
  5
2096
  8
AM_BOR
 10
208.81180034993929
 20
14.385742447882921
 30
0.0
 11
209.29884244577411
 21
14.558849434319351
 31
0.0
  0
LINE
  5
2097
  8
AM_BOR
 10
209.298842445774
 20
14.55884943431932
 30
0.0
 11
209.72871121680751
 21
14.74287456430422
 31
0.0
  0
LINE
  5
2098
  8
AM_BOR
 10
209.72871121680711
 20
14.742874564304151
 30
0.0
 11
210.0981351021297
 21
14.93641729548083
 31
0.0
  0
LINE
  5
2099
  8
AM_BOR
 10
210.09813510212999
 20
14.93641729548081
 30
0.0
 11
210.40430256290989
 21
15.13800465080036
 31
0.0
  0
LINE
  5
209A
  8
AM_BOR
 10
210.40430256291
 20
15.13800465080055
 30
0.0
 11
210.64488347990201
 21
15.346102428767731
 31
0.0
  0
LINE
  5
209B
  8
AM_BOR
 10
210.64488347990169
 20
15.34610242876783
 30
0.0
 11
210.8180468870608
 21
15.559126879639029
 31
0.0
  0
LINE
  5
209C
  8
AM_BOR
 10
210.81804688706069
 20
15.559126879639059
 30
0.0
 11
210.92247490629899
 21
15.77545675871586
 31
0.0
  0
LINE
  5
209D
  8
AM_BOR
 10
210.92247490629981
 20
15.775456758715791
 30
0.0
 11
210.95737277733619
 21
15.993445664994621
 31
0.0
  0
LINE
  5
209E
  8
AM_BOR
 10
199.10514248704791
 20
18.382897015254191
 30
0.0
 11
203.92474251077411
 21
13.563296991527499
 31
0.0
  0
ARC
  5
209F
  8
AM_BOR
 10
205.2047457141602
 20
14.181128845625549
 30
0.0
 40
0.5002284402762121
 50
180.0
 51
244.5184856857075
  0
LINE
  5
20A0
  8
AM_BOR
 10
199.36521928176651
 20
18.405261169360589
 30
0.0
 11
204.19035209062989
 21
13.58012836049622
 31
0.0
  0
LINE
  5
20A1
  8
AM_BOR
 10
199.630408435547
 20
18.422512964405719
 30
0.0
 11
204.450428885349
 21
13.602492514602771
 31
0.0
  0
LINE
  5
20A2
  8
AM_BOR
 10
199.8967460324557
 20
18.438616316322719
 30
0.0
 11
204.70776895023289
 21
13.62759339854461
 31
0.0
  0
LINE
  5
20A3
  8
AM_BOR
 10
200.16308362936431
 20
18.454719668239761
 30
0.0
 11
204.9488987968831
 21
13.66890450072008
 31
0.0
  0
LINE
  5
20A4
  8
AM_BOR
 10
198.8450656923284
 20
18.36053286114759
 30
0.0
 11
203.6584049138651
 21
13.547193639610409
 31
0.0
  0
LINE
  5
20A5
  8
AM_BOR
 10
198.7943784573331
 20
18.12877914731807
 30
0.0
 11
203.39206731695711
 21
13.53109028769336
 31
0.0
  0
LINE
  5
20A6
  8
AM_BOR
 10
199.01830573664321
 20
18.375429872827009
 30
0.0
 11
199.01830573664321
 21
13.61146145716244
 31
0.0
  0
LINE
  5
20A7
  8
AM_BOR
 10
199.2180216468426
 20
18.39260355953768
 30
0.0
 11
199.2180216468426
 21
13.594287770451791
 31
0.0
  0
LINE
  5
20A8
  8
AM_BOR
 10
204.55473034123381
 20
18.375429872826999
 30
0.0
 11
204.55473034123381
 21
13.61146145716245
 31
0.0
  0
LINE
  5
20A9
  8
AM_BOR
 10
204.35501443103459
 20
18.39260355953764
 30
0.0
 11
204.35501443103459
 21
13.594287770451791
 31
0.0
  0
LINE
  5
20AA
  8
AM_BOR
 62
     4
 10
-0.0000001316067255
 20
15.000000173111291
 30
0.0
 11
190.49999986839319
 21
15.000000173111291
 31
0.0
  0
LINE
  5
20AB
  8
AM_BOR
 62
     4
 10
276.49999986839327
 20
28.000000173111289
 30
0.0
 11
276.49999986839327
 21
0.000000173111296
 31
0.0
  0
LINE
  5
20AC
  8
AM_BOR
 62
     4
 10
-0.0000001316067255
 20
15.000000173111291
 30
0.0
 11
-0.0000001316067255
 21
0.000000173111296
 31
0.0
  0
LINE
  5
20AD
  8
AM_BOR
 62
     4
 10
-0.0000001316067255
 20
28.000000173111289
 30
0.0
 11
276.49999986839327
 21
28.000000173111289
 31
0.0
  0
LINE
  5
20AE
  8
AM_BOR
 62
     4
 10
15.999999868393269
 20
15.000000173111291
 30
0.0
 11
15.999999868393269
 21
0.000000173111296
 31
0.0
  0
TEXT
  5
20AF
  8
AM_BOR
 62
     4
 10
215.17999986839331
 20
10.000000173111291
 30
0.0
 40
1.5
  1
NAKANISHI　INDUSTRIAL CO., LTD.
 41
1.5
  0
TEXT
  5
20B0
  8
AM_BOR
 62
     3
 10
213.19999986839329
 20
13.500000173111291
 30
0.0
 40
5.5
  1
中西産業株式会社
 41
1.1999999999999991
  0
TEXT
  5
20B1
  8
AM_BOR
 62
     4
 10
196.192787937406
 20
10.000000173111291
 30
0.0
 40
1.5
  1
Nakanishi
 41
1.1999999999999991
  0
TEXT
  5
20B2
  8
AM_BOR
 62
     7
 10
98.104999768257457
 20
15.650000185032219
 30
0.0
 40
1.0
  1
FINISH
 41
1.6000000000000001
  0
TEXT
  5
20B3
  8
AM_BOR
 62
     7
 10
96.979999708652798
 20
17.700000220795008
 30
0.0
 40
2.7999999999999989
  1
仕　　上
  0
TEXT
  5
20B4
  8
AM_BOR
 62
     7
 10
3.1549997801784002
 20
15.650000185032219
 30
0.0
 40
1.0
  1
MATERIAL
 41
1.6000000000000001
  0
TEXT
  5
20B5
  8
AM_BOR
 62
     7
 10
1.729999708652826
 20
17.700000220795008
 30
0.0
 40
2.7999999999999989
  1
材　　質
  0
LINE
  5
20B6
  8
AM_BOR
 62
     4
 10
190.49999986839319
 20
28.000000173111289
 30
0.0
 11
190.49999986839319
 21
0.000000173111296
 31
0.0
  0
LINE
  5
20B7
  8
AM_BOR
 62
     4
 10
-0.0000001316067255
 20
28.000000173111289
 30
0.0
 11
-0.0000001316067255
 21
15.000000173111291
 31
0.0
  0
LINE
  5
20B8
  8
AM_BOR
 62
     4
 10
-0.0000001316067255
 20
21.500000173111289
 30
0.0
 11
190.49999986839319
 21
21.500000173111289
 31
0.0
  0
LINE
  5
20B9
  8
AM_BOR
 62
     4
 10
15.999999868393269
 20
28.000000173111289
 30
0.0
 11
15.999999868393269
 21
15.000000173111291
 31
0.0
  0
TEXT
  5
20BA
  8
AM_BOR
 62
     7
 10
98.104999768257457
 20
22.150000185032219
 30
0.0
 40
1.0
  1
ART. NO.
 41
1.6000000000000001
  0
TEXT
  5
20BB
  8
AM_BOR
 62
     7
 10
96.979999708652684
 20
24.200000220795008
 30
0.0
 40
2.7999999999999989
  1
品　　番
  0
TEXT
  5
20BC
  8
AM_BOR
 62
     7
 10
3.1549997801784002
 20
22.150000185032219
 30
0.0
 40
1.0
  1
ARTICLE
 41
1.6000000000000001
  0
TEXT
  5
20BD
  8
AM_BOR
 62
     7
 10
1.7299997086527119
 20
24.200000220795008
 30
0.0
 40
2.7999999999999989
  1
品　　名
  0
LINE
  5
20BE
  8
AM_BOR
 62
     4
 10
-0.0000001316067255
 20
15.000000173111291
 30
0.0
 11
-0.0000001316067255
 21
0.0000001731112924
 31
0.0
  0
LINE
  5
20BF
  8
AM_BOR
 62
     4
 10
95.249999868393246
 20
28.000000173111289
 30
0.0
 11
95.249999868393246
 21
0.000000173111296
 31
0.0
  0
TEXT
  5
20C0
  8
AM_BOR
 62
     7
 10
3.1549997801784002
 20
9.1500001850322192
 30
0.0
 40
1.0
  1
REMARKS
 41
1.6000000000000001
  0
TEXT
  5
20C1
  8
AM_BOR
 62
     7
 10
1.7299997086527119
 20
11.20000022079501
 30
0.0
 40
2.7999999999999989
  1
備　　考
  0
LINE
  5
20C2
  8
AM_BOR
 62
     4
 10
111.2499998683932
 20
28.000000173111289
 30
0.0
 11
111.2499998683932
 21
0.000000173111296
 31
0.0
  0
LINE
  5
20C3
  8
AM_BOR
 62
     4
 10
-0.0000001316067255
 20
0.000000173111296
 30
0.0
 11
276.49999986839327
 21
0.000000173111296
 31
0.0
  0
TEXT
  5
20C4
  8
AM_BOR
 62
     7
 10
98.404999780178386
 20
9.1500001850322157
 30
0.0
 40
1.0
  1
SETS
 41
1.6000000000000001
  0
TEXT
  5
20C5
  8
AM_BOR
 62
     7
 10
96.979999708652684
 20
11.20000022079501
 30
0.0
 40
2.7999999999999989
  1
セット品
  0
ATTDEF
  5
20C6
  8
AM_BOR
 62
     7
 10
114.3107095753831
 20
0.5000001731112853
 30
0.0
 40
3.0
  1

 11
114.3107095753831
 21
2.0000001731112849
 31
0.0
  3
セット
  2
SETS｛20｝
 70
     0
 74
     2
1001
ACADANNOTATIVE
1000
AnnotativeData
1002
{
1070
     1
1070
     0
1002
}
1001
AcDbAttr
1070
     0
1070
     1
  0
ATTDEF
  5
20CA
  8
AM_BOR
 62
     7
 10
19.060709575383161
 20
0.5000001731112889
 30
0.0
 40
3.0
  1

 11
19.060709575383161
 21
2.000000173111288
 31
0.0
  3
備　　考
  2
REMARKS｛20｝
 70
     0
 74
     2
1001
ACADANNOTATIVE
1000
AnnotativeData
1002
{
1070
     1
1070
     0
1002
}
1001
AcDbAttr
1070
     0
1070
     1
  0
ATTDEF
  5
20CE
  8
AM_BOR
 62
     7
 10
114.3107095753831
 20
5.5000001731112853
 30
0.0
 40
3.0
  1

 11
114.3107095753831
 21
7.0000001731112853
 31
0.0
  3
セット
  2
SETS｛20｝
 70
     0
 74
     2
1001
ACADANNOTATIVE
1000
AnnotativeData
1002
{
1070
     1
1070
     0
1002
}
1001
AcDbAttr
1070
     0
1070
     1
  0
ATTDEF
  5
20D2
  8
AM_BOR
 62
     7
 10
19.060709575383161
 20
5.500000173111288
 30
0.0
 40
3.0
  1

 11
19.060709575383161
 21
7.000000173111288
 31
0.0
  3
備　　考
  2
REMARKS｛20｝
 70
     0
 74
     2
1001
ACADANNOTATIVE
1000
AnnotativeData
1002
{
1070
     1
1070
     0
1002
}
1001
AcDbAttr
1070
     0
1070
     1
  0
ATTDEF
  5
20D6
  8
AM_BOR
 62
     7
 10
114.3107095753831
 20
10.50000017311128
 30
0.0
 40
3.0
  1

 11
114.3107095753831
 21
12.00000017311128
 31
0.0
  3
セット
  2
SETS｛20｝
 70
     0
 74
     2
1001
ACADANNOTATIVE
1000
AnnotativeData
1002
{
1070
     1
1070
     0
1002
}
1001
AcDbAttr
1070
     0
1070
     1
  0
ATTDEF
  5
20DA
  8
AM_BOR
 62
     7
 10
19.060709575383161
 20
10.500000173111291
 30
0.0
 40
3.0
  1

 11
19.060709575383161
 21
12.000000173111291
 31
0.0
  3
備　　考
  2
REMARKS｛20｝
 70
     0
 74
     2
1001
ACADANNOTATIVE
1000
AnnotativeData
1002
{
1070
     1
1070
     0
1002
}
1001
AcDbAttr
1070
     0
1070
     1
  0
ATTDEF
  5
20DE
  8
AM_BOR
 62
     7
 10
114.2499998683932
 20
23.500000173111289
 30
0.0
 40
3.0
  1

 11
114.2499998683932
 21
25.000000173111289
 31
0.0
  3
品    番
  2
ART_NO｛20｝
 70
     0
 74
     2
1001
ACADANNOTATIVE
1000
AnnotativeData
1002
{
1070
     1
1070
     0
1002
}
1001
AcDbAttr
1070
     0
1070
     1
  0
ATTDEF
  5
20E2
  8
AM_BOR
 62
     7
 10
18.999999868393271
 20
23.500000173111289
 30
0.0
 40
3.0
  1

 11
18.999999868393271
 21
25.000000173111289
 31
0.0
  3
品    名
  2
ARTICLE｛20｝
 70
     0
 74
     2
1001
ACADANNOTATIVE
1000
AnnotativeData
1002
{
1070
     1
1070
     0
1002
}
1001
AcDbAttr
1070
     0
1070
     1
  0
ATTDEF
  5
20E6
  8
AM_BOR
 62
     7
 10
114.2499998683932
 20
17.000000173111289
 30
0.0
 40
3.0
  1

 11
114.2499998683932
 21
18.500000173111289
 31
0.0
  3
仕上
  2
FINISH｛20｝
 70
     0
 74
     2
1001
ACADANNOTATIVE
1000
AnnotativeData
1002
{
1070
     1
1070
     0
1002
}
1001
AcDbAttr
1070
     0
1070
     1
  0
ATTDEF
  5
20EA
  8
AM_BOR
 62
     7
 10
18.999999868393271
 20
17.000000173111289
 30
0.0
 40
3.0
  1

 11
18.999999868393271
 21
18.500000173111289
 31
0.0
  3
材　　質
  2
MATERIAK｛20｝
 70
     0
 74
     2
1001
ACADANNOTATIVE
1000
AnnotativeData
1002
{
1070
     1
1070
     0
1002
}
1001
AcDbAttr
1070
     0
1070
     1
  0
ENDBLK
  5
20F1
  8
0
  0
BLOCK
  8
0
  2
ZUWAKU-A3H
 70
     0
 10
0.0
 20
0.0
 30
0.0
  3
ZUWAKU-A3H
  1

  0
LINE
  5
29DD
  8
AM_BOR
 62
     3
 10
24.999999999999989
 20
284.99999999999977
 30
0.0
 11
24.999999999999979
 21
9.0
 31
0.0
  0
LINE
  5
29DE
  8
AM_BOR
 62
     3
 10
411.99999999999989
 20
284.99999999999989
 30
0.0
 11
25.0
 21
284.99999999999989
 31
0.0
  0
LINE
  5
29DF
  8
AM_BOR
 62
     3
 10
411.99999999999989
 20
284.99999999999989
 30
0.0
 11
411.99999999999989
 21
9.0
 31
0.0
  0
LINE
  5
29E0
  8
AM_BOR
 62
     3
 10
24.999999999999989
 20
8.9999999999999964
 30
0.0
 11
411.99999999999972
 21
8.9999999999999964
 31
0.0
  0
TEXT
  5
29E1
  8
SYS-TEISEI0
  6
CONTINUOUS
 62
     3
 10
144.38500001765789
 20
14.950000047683719
 30
0.0
 40
3.099999904632567
  1
 
  0
TEXT
  5
29E2
  8
SYS-TEISEI0
  6
CONTINUOUS
 62
     3
 10
169.88500004447991
 20
14.950000047683719
 30
0.0
 40
3.099999904632567
  1
 
  0
TEXT
  5
29E3
  8
SYS-TEISEI0
  6
CONTINUOUS
 62
     3
 10
229.24499995708459
 20
14.950000047683719
 30
0.0
 40
3.099999904632567
  1
 
  0
TEXT
  5
29E4
  8
SYS-TEISEI0
  6
CONTINUOUS
 62
     3
 10
236.9449999570846
 20
14.950000047683719
 30
0.0
 40
3.099999904632567
  1
 
  0
TEXT
  5
29E5
  8
SYS-TEISEI0
  6
CONTINUOUS
 62
     3
 10
144.38500001765789
 20
19.950000047683719
 30
0.0
 40
3.099999904632567
  1
 
  0
TEXT
  5
29E6
  8
SYS-TEISEI0
  6
CONTINUOUS
 62
     3
 10
169.88500004447991
 20
19.950000047683719
 30
0.0
 40
3.099999904632567
  1
 
  0
TEXT
  5
29E7
  8
SYS-TEISEI0
  6
CONTINUOUS
 62
     3
 10
229.24499995708459
 20
19.950000047683719
 30
0.0
 40
3.099999904632567
  1
 
  0
TEXT
  5
29E8
  8
SYS-TEISEI0
  6
CONTINUOUS
 62
     3
 10
236.9449999570846
 20
19.950000047683719
 30
0.0
 40
3.099999904632567
  1
 
  0
TEXT
  5
29E9
  8
SYS-TEISEI0
  6
CONTINUOUS
 62
     3
 10
144.38500001765789
 20
24.950000047683719
 30
0.0
 40
3.099999904632567
  1
 
  0
TEXT
  5
29EA
  8
SYS-TEISEI0
  6
CONTINUOUS
 62
     3
 10
169.88500004447991
 20
24.950000047683719
 30
0.0
 40
3.099999904632567
  1
 
  0
TEXT
  5
29EB
  8
SYS-TEISEI0
  6
CONTINUOUS
 62
     3
 10
229.24499995708459
 20
24.950000047683719
 30
0.0
 40
3.099999904632567
  1
 
  0
TEXT
  5
29EC
  8
SYS-TEISEI0
  6
CONTINUOUS
 62
     3
 10
236.9449999570846
 20
24.950000047683719
 30
0.0
 40
3.099999904632567
  1
 
  0
TEXT
  5
29ED
  8
AM_BOR
 10
24.999999999999989
 20
9.0
 30
0.0
 40
5.0
  1
!GENTITLE-LL
  0
TEXT
  5
29EE
  8
AM_BOR
 10
411.99999999999989
 20
9.0
 30
0.0
 40
5.0
  1
!GENTITLE-INSERT
  0
TEXT
  5
29EF
  8
AM_BOR
 10
411.99999999999989
 20
284.99999999999989
 30
0.0
 40
5.0
  1
!GENTITLE-RU
  0
TEXT
  5
29F0
  8
AM_BOR
 10
420.0
 20
297.0
 30
0.0
 40
5.0
  1
!GENTITLE-MAX
  0
ENDBLK
  5
29F2
  8
0
  0
BLOCK
  8
0
  2
_ACMFILLEDHALF
 70
     0
 10
0.0
 20
0.0
 30
0.0
  3
_ACMFILLEDHALF
  1

  0
TRACE
  5
32A5
  8
0
 62
     0
 10
-0.8
 20
0.0
 30
0.0
 11
-1.0
 21
0.166666666
 31
0.0
 12
0.0
 22
0.0
 32
0.0
 13
0.0
 23
0.0
 33
0.0
  0
LINE
  5
32A6
  8
0
 62
     0
 10
-1.0
 20
0.0
 30
0.0
 11
-0.8
 21
0.0
 31
0.0
  0
ENDBLK
  5
32A4
  8
0
  0
BLOCK
  8
0
  2
_ACMFILLED
 70
     0
 10
0.0
 20
0.0
 30
0.0
  3
_ACMFILLED
  1

  0
TRACE
  5
32B1
  8
0
 62
     0
 10
-1.0
 20
-0.166666666
 30
0.0
 11
-1.0
 21
0.166666666
 31
0.0
 12
0.0
 22
0.0
 32
0.0
 13
0.0
 23
0.0
 33
0.0
  0
ENDBLK
  5
32B0
  8
0
  0
BLOCK
  8
0
  2
_ACMOPEN15
 70
     0
 10
0.0
 20
0.0
 30
0.0
  3
_ACMOPEN15
  1

  0
LINE
  5
32BB
  8
0
 62
     0
 10
-1.0
 20
0.0
 30
0.0
 11
0.0
 21
0.0
 31
0.0
  0
LINE
  5
32BC
  8
0
 62
     0
 10
-1.0
 20
-0.131652497
 30
0.0
 11
0.0
 21
0.0
 31
0.0
  0
LINE
  5
32BD
  8
0
 62
     0
 10
0.0
 20
0.0
 30
0.0
 11
-1.0
 21
0.131652497
 31
0.0
  0
ENDBLK
  5
32BA
  8
0
  0
BLOCK
  8
0
  2
_ACMFILLED15
 70
     0
 10
0.0
 20
0.0
 30
0.0
  3
_ACMFILLED15
  1

  0
TRACE
  5
32C9
  8
0
 62
     0
 10
-1.0
 20
-0.131652497
 30
0.0
 11
-1.0
 21
0.131652497
 31
0.0
 12
0.0
 22
0.0
 32
0.0
 13
0.0
 23
0.0
 33
0.0
  0
ENDBLK
  5
32C8
  8
0
  0
BLOCK
  8
0
  2
GENDOT
 70
     0
 10
0.0
 20
0.0
 30
0.0
  3
GENDOT
  1

  0
LINE
  5
769A
  8
0
 10
0.0
 20
0.0
 30
0.0
 11
-1.0
 21
0.0
 31
0.0
  0
POLYLINE
  5
769B
  8
0
 66
     1
 10
0.0
 20
0.0
 30
0.0
 70
     1
 40
0.25
 41
0.25
  0
VERTEX
  5
993A
  8
0
 10
-0.125
 20
0.0
 30
0.0
 42
1.0
  0
VERTEX
  5
993B
  8
0
 10
0.125
 20
0.0
 30
0.0
 42
1.0
  0
SEQEND
  5
993C
  8
0
  0
ENDBLK
  5
769D
  8
0
  0
BLOCK
  8
0
  2
*D14
 70
     1
 10
0.0
 20
0.0
 30
0.0
  3
*D14
  1

  0
LINE
  5
90AF
  8
AM_5
  6
CONTINUOUS
 62
     7
 10
202.594874675629
 20
181.39941706138291
 30
0.0
 11
202.594874675629
 21
195.35661778005431
 31
0.0
  0
LINE
  5
90B0
  8
AM_5
  6
CONTINUOUS
 62
     7
 10
212.09487467562909
 20
181.39941706138299
 30
0.0
 11
212.09487467562909
 21
195.35661778005431
 31
0.0
  0
LINE
  5
90B1
  8
AM_5
  6
CONTINUOUS
 62
     7
 10
209.59487467562909
 20
194.35661778005431
 30
0.0
 11
205.094874675629
 21
194.35661778005431
 31
0.0
  0
LINE
  5
90B2
  8
AM_5
  6
CONTINUOUS
 62
     7
 10
202.594874675629
 20
194.35661778005431
 30
0.0
 11
159.15457488137449
 21
194.35661778005431
 31
0.0
  0
INSERT
  5
90B3
  8
AM_5
 62
     7
  2
_OPEN30
 10
212.09487467562909
 20
194.35661778005431
 30
0.0
 41
2.5
 42
2.5
 43
2.5
  0
INSERT
  5
90B4
  8
AM_5
 62
     7
  2
_OPEN30
 10
202.594874675629
 20
194.35661778005431
 30
0.0
 41
2.5
 42
2.5
 43
2.5
 50
180.0
  0
INSERT
  5
90B5
  8
0
  2
*U48
 10
0.0
 20
0.0
 30
0.0
  0
POINT
  5
90B6
  8
DEFPOINTS
 62
     0
 10
202.594874675629
 20
180.39941706138291
 30
0.0
  0
POINT
  5
90B7
  8
DEFPOINTS
 62
     0
 10
212.09487467562909
 20
180.39941706138299
 30
0.0
  0
POINT
  5
90B8
  8
DEFPOINTS
 62
     0
 10
212.09487467562909
 20
194.35661778005431
 30
0.0
  0
ENDBLK
  5
906A
  8
0
  0
BLOCK
  8
0
  2
*D15
 70
     1
 10
0.0
 20
0.0
 30
0.0
  3
*D15
  1

  0
LINE
  5
9941
  8
AM_5
  6
CONTINUOUS
 62
     7
 10
179.34487467562909
 20
181.39941706138299
 30
0.0
 11
179.34487467562909
 21
202.35661778005431
 31
0.0
  0
LINE
  5
9942
  8
AM_5
  6
CONTINUOUS
 62
     7
 10
186.844874675629
 20
143.39941706138291
 30
0.0
 11
186.844874675629
 21
202.35661778005431
 31
0.0
  0
LINE
  5
9943
  8
AM_5
  6
CONTINUOUS
 62
     7
 10
184.344874675629
 20
201.35661778005431
 30
0.0
 11
181.84487467562909
 21
201.35661778005431
 31
0.0
  0
LINE
  5
9944
  8
AM_5
  6
CONTINUOUS
 62
     7
 10
179.34487467562909
 20
201.35661778005431
 30
0.0
 11
168.55916038991481
 21
201.35661778005431
 31
0.0
  0
INSERT
  5
9945
  8
AM_5
 62
     7
  2
GENDOT
 10
186.844874675629
 20
201.35661778005431
 30
0.0
 41
2.5
 42
2.5
 43
2.5
  0
INSERT
  5
9946
  8
AM_5
 62
     7
  2
_OPEN30
 10
179.34487467562909
 20
201.35661778005431
 30
0.0
 41
2.5
 42
2.5
 43
2.5
 50
180.0
  0
TEXT
  8
AM_5
  40
3
  5
99F9
  62
7
  72
0
  71
0
 10
172.702
 20
199.957
 30
0.000000
  1
7.5
  0
POINT
  5
9948
  8
DEFPOINTS
 62
     0
 10
179.34487467562909
 20
180.39941706138299
 30
0.0
  0
POINT
  5
9949
  8
DEFPOINTS
 62
     0
 10
186.844874675629
 20
142.39941706138291
 30
0.0
  0
POINT
  5
994A
  8
DEFPOINTS
 62
     0
 10
186.844874675629
 20
201.35661778005431
 30
0.0
  0
ENDBLK
  5
90BC
  8
0
  0
BLOCK
  8
0
  2
*D16
 70
     1
 10
0.0
 20
0.0
 30
0.0
  3
*D16
  1

  0
LINE
  5
994B
  8
AM_5
  6
CONTINUOUS
 62
     7
 10
190.844874675629
 20
176.39941706138291
 30
0.0
 11
190.844874675629
 21
202.35661778005431
 31
0.0
  0
LINE
  5
994C
  8
AM_5
  6
CONTINUOUS
 62
     7
 10
186.844874675629
 20
143.39941706138291
 30
0.0
 11
186.844874675629
 21
202.35661778005431
 31
0.0
  0
LINE
  5
994D
  8
AM_5
  6
CONTINUOUS
 62
     7
 10
193.344874675629
 20
201.35661778005431
 30
0.0
 11
195.844874675629
 21
201.35661778005431
 31
0.0
  0
LINE
  5
994E
  8
AM_5
  6
CONTINUOUS
 62
     7
 10
184.344874675629
 20
201.35661778005431
 30
0.0
 11
181.844874675629
 21
201.35661778005431
 31
0.0
  0
LINE
  5
994F
  8
AM_5
  6
CONTINUOUS
 62
     7
 10
188.844874675629
 20
201.35661778005431
 30
0.0
 11
185.7411241937761
 21
208.3865203842395
 31
0.0
  0
LINE
  5
9950
  8
AM_5
  6
CONTINUOUS
 62
     7
 10
185.7411241937761
 20
208.3865203842395
 30
0.0
 11
181.59826705091899
 21
208.3865203842395
 31
0.0
  0
TEXT
  8
AM_5
  40
3
  5
99FA
  62
7
  72
0
  71
0
 10
183.670
 20
206.987
 30
0.000000
  1
4
  0
LINE
  5
9952
  8
AM_5
  6
CONTINUOUS
 62
     7
 10
190.844874675629
 20
201.35661778005431
 30
0.0
 11
186.844874675629
 21
201.35661778005431
 31
0.0
  0
LINE
  5
9953
  8
AM_5
  6
CONTINUOUS
 62
     7
 10
190.844874675629
 20
201.35661778005431
 30
0.0
 11
186.844874675629
 21
201.35661778005431
 31
0.0
  0
INSERT
  5
9954
  8
AM_5
 62
     7
  2
_OPEN30
 10
190.844874675629
 20
201.35661778005431
 30
0.0
 41
2.5
 42
2.5
 43
2.5
 50
180.0
  0
INSERT
  5
9955
  8
AM_5
 62
     7
  2
GENDOT
 10
186.844874675629
 20
201.35661778005431
 30
0.0
 41
2.5
 42
2.5
 43
2.5
  0
POINT
  5
9956
  8
DEFPOINTS
 62
     0
 10
190.844874675629
 20
175.39941706138291
 30
0.0
  0
POINT
  5
9957
  8
DEFPOINTS
 62
     0
 10
186.844874675629
 20
142.39941706138291
 30
0.0
  0
POINT
  5
9958
  8
DEFPOINTS
 62
     0
 10
186.844874675629
 20
201.35661778005431
 30
0.0
  0
ENDBLK
  5
90F5
  8
0
  0
BLOCK
  8
0
  2
*D17
 70
     1
 10
0.0
 20
0.0
 30
0.0
  3
*D17
  1

  0
LINE
  5
9147
  8
AM_5
  6
CONTINUOUS
 62
     7
 10
207.34487467562909
 20
186.81322396571571
 30
0.0
 11
207.34487467562909
 21
202.35661778005431
 31
0.0
  0
LINE
  5
9148
  8
AM_5
  6
CONTINUOUS
 62
     7
 10
190.844874675629
 20
176.39941706138291
 30
0.0
 11
190.844874675629
 21
202.35661778005431
 31
0.0
  0
LINE
  5
9149
  8
AM_5
  6
CONTINUOUS
 62
     7
 10
204.84487467562909
 20
201.35661778005431
 30
0.0
 11
193.344874675629
 21
201.35661778005431
 31
0.0
  0
INSERT
  5
914A
  8
AM_5
 62
     7
  2
_OPEN30
 10
207.34487467562909
 20
201.35661778005431
 30
0.0
 41
2.5
 42
2.5
 43
2.5
  0
INSERT
  5
914B
  8
AM_5
 62
     7
  2
_OPEN30
 10
190.844874675629
 20
201.35661778005431
 30
0.0
 41
2.5
 42
2.5
 43
2.5
 50
180.0
  0
INSERT
  5
914C
  8
0
  2
*U49
 10
0.0
 20
0.0
 30
0.0
  0
POINT
  5
914D
  8
DEFPOINTS
 62
     0
 10
207.34487467562909
 20
185.81322396571571
 30
0.0
  0
POINT
  5
914E
  8
DEFPOINTS
 62
     0
 10
190.844874675629
 20
175.39941706138291
 30
0.0
  0
POINT
  5
914F
  8
DEFPOINTS
 62
     0
 10
190.844874675629
 20
201.35661778005431
 30
0.0
  0
ENDBLK
  5
9132
  8
0
  0
BLOCK
  8
0
  2
*D18
 70
     1
 10
0.0
 20
0.0
 30
0.0
  3
*D18
  1

  0
LINE
  5
9168
  8
AM_5
  6
CONTINUOUS
 62
     7
 10
223.84487467562909
 20
176.39941706138299
 30
0.0
 11
223.84487467562909
 21
202.35661778005431
 31
0.0
  0
LINE
  5
9169
  8
AM_5
  6
CONTINUOUS
 62
     7
 10
207.34487467562909
 20
186.81322396571571
 30
0.0
 11
207.34487467562909
 21
202.35661778005431
 31
0.0
  0
LINE
  5
916A
  8
AM_5
  6
CONTINUOUS
 62
     7
 10
221.34487467562909
 20
201.35661778005439
 30
0.0
 11
209.84487467562909
 21
201.35661778005439
 31
0.0
  0
INSERT
  5
916B
  8
AM_5
 62
     7
  2
_OPEN30
 10
223.84487467562909
 20
201.35661778005439
 30
0.0
 41
2.5
 42
2.5
 43
2.5
  0
INSERT
  5
916C
  8
AM_5
 62
     7
  2
_OPEN30
 10
207.34487467562909
 20
201.35661778005439
 30
0.0
 41
2.5
 42
2.5
 43
2.5
 50
180.0
  0
INSERT
  5
916D
  8
0
  2
*U50
 10
0.0
 20
0.0
 30
0.0
  0
POINT
  5
916E
  8
DEFPOINTS
 62
     0
 10
223.84487467562909
 20
175.39941706138299
 30
0.0
  0
POINT
  5
916F
  8
DEFPOINTS
 62
     0
 10
207.34487467562909
 20
185.81322396571571
 30
0.0
  0
POINT
  5
9170
  8
DEFPOINTS
 62
     0
 10
207.34487467562909
 20
201.35661778005439
 30
0.0
  0
ENDBLK
  5
9153
  8
0
  0
BLOCK
  8
0
  2
*D19
 70
     1
 10
0.0
 20
0.0
 30
0.0
  3
*D19
  1

  0
LINE
  5
9961
  8
AM_5
  6
CONTINUOUS
 62
     7
 10
227.84487467562909
 20
143.39941706138291
 30
0.0
 11
227.84487467562909
 21
202.35661778005431
 31
0.0
  0
LINE
  5
9962
  8
AM_5
  6
CONTINUOUS
 62
     7
 10
223.84487467562909
 20
176.39941706138299
 30
0.0
 11
223.84487467562909
 21
202.35661778005431
 31
0.0
  0
LINE
  5
9963
  8
AM_5
  6
CONTINUOUS
 62
     7
 10
230.344874675629
 20
201.35661778005431
 30
0.0
 11
232.844874675629
 21
201.35661778005431
 31
0.0
  0
LINE
  5
9964
  8
AM_5
  6
CONTINUOUS
 62
     7
 10
221.34487467562909
 20
201.35661778005431
 30
0.0
 11
218.84487467562909
 21
201.35661778005431
 31
0.0
  0
LINE
  5
9965
  8
AM_5
  6
CONTINUOUS
 62
     7
 10
225.84487467562909
 20
201.35661778005431
 30
0.0
 11
228.49504052348399
 21
208.3865203842395
 31
0.0
  0
LINE
  5
9966
  8
AM_5
  6
CONTINUOUS
 62
     7
 10
228.49504052348399
 20
208.3865203842395
 30
0.0
 11
232.6378976663411
 21
208.3865203842395
 31
0.0
  0
TEXT
  8
AM_5
  40
3
  5
99FB
  62
7
  72
0
  71
0
 10
230.566
 20
206.987
 30
0.000000
  1
4
  0
LINE
  5
9968
  8
AM_5
  6
CONTINUOUS
 62
     7
 10
227.84487467562909
 20
201.35661778005431
 30
0.0
 11
223.84487467562909
 21
201.35661778005431
 31
0.0
  0
LINE
  5
9969
  8
AM_5
  6
CONTINUOUS
 62
     7
 10
227.84487467562909
 20
201.35661778005431
 30
0.0
 11
223.84487467562909
 21
201.35661778005431
 31
0.0
  0
INSERT
  5
996A
  8
AM_5
 62
     7
  2
GENDOT
 10
227.84487467562909
 20
201.35661778005431
 30
0.0
 41
2.5
 42
2.5
 43
2.5
 50
180.0
  0
INSERT
  5
996B
  8
AM_5
 62
     7
  2
_OPEN30
 10
223.84487467562909
 20
201.35661778005431
 30
0.0
 41
2.5
 42
2.5
 43
2.5
  0
POINT
  5
996C
  8
DEFPOINTS
 62
     0
 10
227.84487467562909
 20
142.39941706138291
 30
0.0
  0
POINT
  5
996D
  8
DEFPOINTS
 62
     0
 10
223.84487467562909
 20
175.39941706138299
 30
0.0
  0
POINT
  5
996E
  8
DEFPOINTS
 62
     0
 10
223.84487467562909
 20
201.35661778005431
 30
0.0
  0
ENDBLK
  5
9174
  8
0
  0
BLOCK
  8
0
  2
*D20
 70
     1
 10
0.0
 20
0.0
 30
0.0
  3
*D20
  1

  0
LINE
  5
996F
  8
AM_5
  6
CONTINUOUS
 62
     7
 10
235.34487467562909
 20
181.39941706138291
 30
0.0
 11
235.34487467562909
 21
202.35661778005431
 31
0.0
  0
LINE
  5
9970
  8
AM_5
  6
CONTINUOUS
 62
     7
 10
227.84487467562909
 20
143.39941706138291
 30
0.0
 11
227.84487467562909
 21
202.35661778005431
 31
0.0
  0
LINE
  5
9971
  8
AM_5
  6
CONTINUOUS
 62
     7
 10
230.344874675629
 20
201.35661778005431
 30
0.0
 11
232.84487467562909
 21
201.35661778005431
 31
0.0
  0
LINE
  5
9972
  8
AM_5
  6
CONTINUOUS
 62
     7
 10
235.34487467562909
 20
201.35661778005431
 30
0.0
 11
246.13058896134339
 21
201.35661778005431
 31
0.0
  0
INSERT
  5
9973
  8
AM_5
 62
     7
  2
GENDOT
 10
227.84487467562909
 20
201.35661778005431
 30
0.0
 41
2.5
 42
2.5
 43
2.5
 50
180.0
  0
INSERT
  5
9974
  8
AM_5
 62
     7
  2
_OPEN30
 10
235.34487467562909
 20
201.35661778005431
 30
0.0
 41
2.5
 42
2.5
 43
2.5
  0
TEXT
  8
AM_5
  40
3
  5
99FC
  62
7
  72
0
  71
0
 10
241.988
 20
199.957
 30
0.000000
  1
7.5
  0
POINT
  5
9976
  8
DEFPOINTS
 62
     0
 10
235.34487467562909
 20
180.39941706138291
 30
0.0
  0
POINT
  5
9977
  8
DEFPOINTS
 62
     0
 10
227.84487467562909
 20
142.39941706138291
 30
0.0
  0
POINT
  5
9978
  8
DEFPOINTS
 62
     0
 10
227.84487467562909
 20
201.35661778005431
 30
0.0
  0
ENDBLK
  5
919B
  8
0
  0
BLOCK
  8
0
  2
*D21
 70
     1
 10
0.0
 20
0.0
 30
0.0
  3
*D21
  1

  0
LINE
  5
95BD
  8
AM_5
  6
CONTINUOUS
 62
     7
 10
179.34487467562909
 20
181.39941706138299
 30
0.0
 11
179.34487467562909
 21
216.35661778005431
 31
0.0
  0
LINE
  5
95BE
  8
AM_5
  6
CONTINUOUS
 62
     7
 10
207.34487467562909
 20
186.81322396571571
 30
0.0
 11
207.34487467562909
 21
216.35661778005431
 31
0.0
  0
LINE
  5
95BF
  8
AM_5
  6
CONTINUOUS
 62
     7
 10
181.84487467562909
 20
215.35661778005431
 30
0.0
 11
204.84487467562909
 21
215.35661778005431
 31
0.0
  0
INSERT
  5
95C0
  8
AM_5
 62
     7
  2
_OPEN30
 10
179.34487467562909
 20
215.35661778005431
 30
0.0
 41
2.5
 42
2.5
 43
2.5
 50
180.0
  0
INSERT
  5
95C1
  8
AM_5
 62
     7
  2
_OPEN30
 10
207.34487467562909
 20
215.35661778005431
 30
0.0
 41
2.5
 42
2.5
 43
2.5
  0
INSERT
  5
95C2
  8
0
  2
*U60
 10
0.0
 20
0.0
 30
0.0
  0
POINT
  5
95C3
  8
DEFPOINTS
 62
     0
 10
179.34487467562909
 20
180.39941706138299
 30
0.0
  0
POINT
  5
95C4
  8
DEFPOINTS
 62
     0
 10
207.34487467562909
 20
185.81322396571571
 30
0.0
  0
POINT
  5
95C5
  8
DEFPOINTS
 62
     0
 10
207.34487467562909
 20
215.35661778005431
 30
0.0
  0
ENDBLK
  5
91D7
  8
0
  0
BLOCK
  8
0
  2
*D22
 70
     1
 10
0.0
 20
0.0
 30
0.0
  3
*D22
  1

  0
LINE
  5
95C6
  8
AM_5
  6
CONTINUOUS
 62
     7
 10
235.34487467562909
 20
181.39941706138291
 30
0.0
 11
235.34487467562909
 21
216.35661778005431
 31
0.0
  0
LINE
  5
95C7
  8
AM_5
  6
CONTINUOUS
 62
     7
 10
207.34487467562909
 20
186.81322396571571
 30
0.0
 11
207.34487467562909
 21
216.35661778005431
 31
0.0
  0
LINE
  5
95C8
  8
AM_5
  6
CONTINUOUS
 62
     7
 10
232.84487467562909
 20
215.35661778005431
 30
0.0
 11
209.84487467562909
 21
215.35661778005431
 31
0.0
  0
INSERT
  5
95C9
  8
AM_5
 62
     7
  2
_OPEN30
 10
235.34487467562909
 20
215.35661778005431
 30
0.0
 41
2.5
 42
2.5
 43
2.5
  0
INSERT
  5
95CA
  8
AM_5
 62
     7
  2
_OPEN30
 10
207.34487467562909
 20
215.35661778005431
 30
0.0
 41
2.5
 42
2.5
 43
2.5
 50
180.0
  0
INSERT
  5
95CB
  8
0
  2
*U61
 10
0.0
 20
0.0
 30
0.0
  0
POINT
  5
95CC
  8
DEFPOINTS
 62
     0
 10
235.34487467562909
 20
180.39941706138291
 30
0.0
  0
POINT
  5
95CD
  8
DEFPOINTS
 62
     0
 10
207.34487467562909
 20
185.81322396571571
 30
0.0
  0
POINT
  5
95CE
  8
DEFPOINTS
 62
     0
 10
207.34487467562909
 20
215.35661778005431
 30
0.0
  0
ENDBLK
  5
920A
  8
0
  0
BLOCK
  8
0
  2
*D23
 70
     1
 10
0.0
 20
0.0
 30
0.0
  3
*D23
  1

  0
LINE
  5
95CF
  8
AM_5
  6
CONTINUOUS
 62
     7
 10
179.344874675629
 20
181.39941706138291
 30
0.0
 11
179.344874675629
 21
223.35661778005431
 31
0.0
  0
LINE
  5
95D0
  8
AM_5
  6
CONTINUOUS
 62
     7
 10
235.34487467562909
 20
181.39941706138291
 30
0.0
 11
235.34487467562909
 21
223.35661778005431
 31
0.0
  0
LINE
  5
95D1
  8
AM_5
  6
CONTINUOUS
 62
     7
 10
181.844874675629
 20
222.35661778005431
 30
0.0
 11
232.84487467562909
 21
222.35661778005431
 31
0.0
  0
INSERT
  5
95D2
  8
AM_5
 62
     7
  2
_OPEN30
 10
179.344874675629
 20
222.35661778005431
 30
0.0
 41
2.5
 42
2.5
 43
2.5
 50
180.0
  0
INSERT
  5
95D3
  8
AM_5
 62
     7
  2
_OPEN30
 10
235.34487467562909
 20
222.35661778005431
 30
0.0
 41
2.5
 42
2.5
 43
2.5
  0
INSERT
  5
95D4
  8
0
  2
*U62
 10
0.0
 20
0.0
 30
0.0
  0
POINT
  5
95D5
  8
DEFPOINTS
 62
     0
 10
179.344874675629
 20
180.39941706138291
 30
0.0
  0
POINT
  5
95D6
  8
DEFPOINTS
 62
     0
 10
235.34487467562909
 20
180.39941706138291
 30
0.0
  0
POINT
  5
95D7
  8
DEFPOINTS
 62
     0
 10
235.34487467562909
 20
222.35661778005431
 30
0.0
  0
ENDBLK
  5
922B
  8
0
  0
BLOCK
  8
0
  2
*D24
 70
     1
 10
0.0
 20
0.0
 30
0.0
  3
*D24
  1

  0
LINE
  5
9273
  8
AM_5
  6
CONTINUOUS
 62
     7
 10
178.34487467562909
 20
180.39941706138299
 30
0.0
 11
149.87174359955881
 21
180.39941706138299
 31
0.0
  0
LINE
  5
9274
  8
AM_5
  6
CONTINUOUS
 62
     7
 10
183.344874675629
 20
168.89941706138291
 30
0.0
 11
149.87174359955881
 21
168.89941706138291
 31
0.0
  0
LINE
  5
9275
  8
AM_5
  6
CONTINUOUS
 62
     7
 10
150.87174359955881
 20
177.8994170613831
 30
0.0
 11
150.87174359955881
 21
171.39941706138299
 31
0.0
  0
INSERT
  5
9276
  8
AM_5
 62
     7
  2
_OPEN30
 10
150.87174359955881
 20
180.39941706138299
 30
0.0
 41
2.5
 42
2.5
 43
2.5
 50
90.0
  0
INSERT
  5
9277
  8
AM_5
 62
     7
  2
_OPEN30
 10
150.87174359955881
 20
168.89941706138291
 30
0.0
 41
2.5
 42
2.5
 43
2.5
 50
270.0
  0
INSERT
  5
9278
  8
0
  2
*U51
 10
0.0
 20
0.0
 30
0.0
  0
POINT
  5
9279
  8
DEFPOINTS
 62
     0
 10
179.34487467562909
 20
180.39941706138299
 30
0.0
  0
POINT
  5
927A
  8
DEFPOINTS
 62
     0
 10
184.344874675629
 20
168.89941706138291
 30
0.0
  0
POINT
  5
927B
  8
DEFPOINTS
 62
     0
 10
150.87174359955881
 20
168.89941706138291
 30
0.0
  0
ENDBLK
  5
9255
  8
0
  0
BLOCK
  8
0
  2
*D25
 70
     1
 10
0.0
 20
0.0
 30
0.0
  3
*D25
  1

  0
LINE
  5
9294
  8
AM_5
  6
CONTINUOUS
 62
     7
 10
183.344874675629
 20
168.89941706138291
 30
0.0
 11
149.8717435995589
 21
168.89941706138291
 31
0.0
  0
LINE
  5
9295
  8
AM_5
  6
CONTINUOUS
 62
     7
 10
179.344874675629
 20
135.89941706138291
 30
0.0
 11
149.8717435995589
 21
135.89941706138291
 31
0.0
  0
LINE
  5
9296
  8
AM_5
  6
CONTINUOUS
 62
     7
 10
150.8717435995589
 20
166.39941706138291
 30
0.0
 11
150.8717435995589
 21
138.39941706138291
 31
0.0
  0
INSERT
  5
9297
  8
AM_5
 62
     7
  2
_OPEN30
 10
150.8717435995589
 20
168.89941706138291
 30
0.0
 41
2.5
 42
2.5
 43
2.5
 50
90.0
  0
INSERT
  5
9298
  8
AM_5
 62
     7
  2
_OPEN30
 10
150.8717435995589
 20
135.89941706138291
 30
0.0
 41
2.5
 42
2.5
 43
2.5
 50
270.0
  0
INSERT
  5
9299
  8
0
  2
*U52
 10
0.0
 20
0.0
 30
0.0
  0
POINT
  5
929A
  8
DEFPOINTS
 62
     0
 10
184.344874675629
 20
168.89941706138291
 30
0.0
  0
POINT
  5
929B
  8
DEFPOINTS
 62
     0
 10
180.344874675629
 20
135.89941706138291
 30
0.0
  0
POINT
  5
929C
  8
DEFPOINTS
 62
     0
 10
150.8717435995589
 20
135.89941706138291
 30
0.0
  0
ENDBLK
  5
927F
  8
0
  0
BLOCK
  8
0
  2
*D26
 70
     1
 10
0.0
 20
0.0
 30
0.0
  3
*D26
  1

  0
LINE
  5
93A2
  8
AM_5
  6
CONTINUOUS
 62
     7
 10
179.344874675629
 20
135.89941706138291
 30
0.0
 11
149.8717435995589
 21
135.89941706138291
 31
0.0
  0
LINE
  5
93A3
  8
AM_5
  6
CONTINUOUS
 62
     7
 10
183.344874675629
 20
102.89941706138291
 30
0.0
 11
149.8717435995589
 21
102.89941706138301
 31
0.0
  0
LINE
  5
93A4
  8
AM_5
  6
CONTINUOUS
 62
     7
 10
150.8717435995589
 20
133.39941706138291
 30
0.0
 11
150.8717435995589
 21
105.39941706138301
 31
0.0
  0
INSERT
  5
93A5
  8
AM_5
 62
     7
  2
_OPEN30
 10
150.8717435995589
 20
135.89941706138291
 30
0.0
 41
2.5
 42
2.5
 43
2.5
 50
90.0
  0
INSERT
  5
93A6
  8
AM_5
 62
     7
  2
_OPEN30
 10
150.8717435995589
 20
102.89941706138301
 30
0.0
 41
2.5
 42
2.5
 43
2.5
 50
270.0
  0
INSERT
  5
93A7
  8
0
  2
*U58
 10
0.0
 20
0.0
 30
0.0
  0
POINT
  5
93A8
  8
DEFPOINTS
 62
     0
 10
180.344874675629
 20
135.89941706138291
 30
0.0
  0
POINT
  5
93A9
  8
DEFPOINTS
 62
     0
 10
184.344874675629
 20
102.89941706138291
 30
0.0
  0
POINT
  5
93AA
  8
DEFPOINTS
 62
     0
 10
150.8717435995589
 20
102.89941706138301
 30
0.0
  0
ENDBLK
  5
92A0
  8
0
  0
BLOCK
  8
0
  2
*D27
 70
     1
 10
0.0
 20
0.0
 30
0.0
  3
*D27
  1

  0
LINE
  5
93AB
  8
AM_5
  6
CONTINUOUS
 62
     7
 10
183.344874675629
 20
102.89941706138291
 30
0.0
 11
149.8717435995589
 21
102.89941706138301
 31
0.0
  0
LINE
  5
93AC
  8
AM_5
  6
CONTINUOUS
 62
     7
 10
178.344874675629
 20
91.399417061383005
 30
0.0
 11
149.8717435995589
 21
91.399417061383005
 31
0.0
  0
LINE
  5
93AD
  8
AM_5
  6
CONTINUOUS
 62
     7
 10
150.8717435995589
 20
100.39941706138301
 30
0.0
 11
150.8717435995589
 21
93.899417061383005
 31
0.0
  0
INSERT
  5
93AE
  8
AM_5
 62
     7
  2
_OPEN30
 10
150.8717435995589
 20
102.89941706138301
 30
0.0
 41
2.5
 42
2.5
 43
2.5
 50
90.0
  0
INSERT
  5
93AF
  8
AM_5
 62
     7
  2
_OPEN30
 10
150.8717435995589
 20
91.399417061383005
 30
0.0
 41
2.5
 42
2.5
 43
2.5
 50
270.0
  0
INSERT
  5
93B0
  8
0
  2
*U59
 10
0.0
 20
0.0
 30
0.0
  0
POINT
  5
93B1
  8
DEFPOINTS
 62
     0
 10
184.344874675629
 20
102.89941706138291
 30
0.0
  0
POINT
  5
93B2
  8
DEFPOINTS
 62
     0
 10
179.344874675629
 20
91.399417061383005
 30
0.0
  0
POINT
  5
93B3
  8
DEFPOINTS
 62
     0
 10
150.8717435995589
 20
91.399417061383005
 30
0.0
  0
ENDBLK
  5
92C1
  8
0
  0
BLOCK
  8
0
  2
*D28
 70
     1
 10
0.0
 20
0.0
 30
0.0
  3
*D28
  1

  0
LINE
  5
9309
  8
AM_5
  6
CONTINUOUS
 62
     7
 10
236.34487467562909
 20
180.39941706138291
 30
0.0
 11
250.34487467562909
 21
180.39941706138291
 31
0.0
  0
LINE
  5
930A
  8
AM_5
  6
CONTINUOUS
 62
     7
 10
231.34487467562909
 20
168.89941706138291
 30
0.0
 11
250.34487467562909
 21
168.89941706138291
 31
0.0
  0
LINE
  5
930B
  8
AM_5
  6
CONTINUOUS
 62
     7
 10
249.34487467562909
 20
177.89941706138291
 30
0.0
 11
249.34487467562909
 21
171.39941706138299
 31
0.0
  0
INSERT
  5
930C
  8
AM_5
 62
     7
  2
_OPEN30
 10
249.34487467562909
 20
180.39941706138291
 30
0.0
 41
2.5
 42
2.5
 43
2.5
 50
90.0
  0
INSERT
  5
930D
  8
AM_5
 62
     7
  2
_OPEN30
 10
249.34487467562909
 20
168.89941706138291
 30
0.0
 41
2.5
 42
2.5
 43
2.5
 50
270.0
  0
INSERT
  5
930E
  8
0
  2
*U53
 10
0.0
 20
0.0
 30
0.0
  0
POINT
  5
930F
  8
DEFPOINTS
 62
     0
 10
235.34487467562909
 20
180.39941706138291
 30
0.0
  0
POINT
  5
9310
  8
DEFPOINTS
 62
     0
 10
230.34487467562909
 20
168.89941706138291
 30
0.0
  0
POINT
  5
9311
  8
DEFPOINTS
 62
     0
 10
249.34487467562909
 20
168.89941706138291
 30
0.0
  0
ENDBLK
  5
92E2
  8
0
  0
BLOCK
  8
0
  2
*D29
 70
     1
 10
0.0
 20
0.0
 30
0.0
  3
*D29
  1

  0
LINE
  5
932A
  8
AM_5
  6
CONTINUOUS
 62
     7
 10
236.34487467562909
 20
135.89941706138299
 30
0.0
 11
250.34487467562909
 21
135.89941706138299
 31
0.0
  0
LINE
  5
932B
  8
AM_5
  6
CONTINUOUS
 62
     7
 10
231.34487467562909
 20
168.89941706138291
 30
0.0
 11
250.34487467562909
 21
168.89941706138291
 31
0.0
  0
LINE
  5
932C
  8
AM_5
  6
CONTINUOUS
 62
     7
 10
249.34487467562909
 20
138.39941706138299
 30
0.0
 11
249.34487467562909
 21
166.39941706138291
 31
0.0
  0
INSERT
  5
932D
  8
AM_5
 62
     7
  2
_OPEN30
 10
249.34487467562909
 20
135.89941706138299
 30
0.0
 41
2.5
 42
2.5
 43
2.5
 50
270.0
  0
INSERT
  5
932E
  8
AM_5
 62
     7
  2
_OPEN30
 10
249.34487467562909
 20
168.89941706138291
 30
0.0
 41
2.5
 42
2.5
 43
2.5
 50
90.0
  0
INSERT
  5
932F
  8
0
  2
*U54
 10
0.0
 20
0.0
 30
0.0
  0
POINT
  5
9330
  8
DEFPOINTS
 62
     0
 10
235.34487467562909
 20
135.89941706138299
 30
0.0
  0
POINT
  5
9331
  8
DEFPOINTS
 62
     0
 10
230.34487467562909
 20
168.89941706138291
 30
0.0
  0
POINT
  5
9332
  8
DEFPOINTS
 62
     0
 10
249.34487467562909
 20
168.89941706138291
 30
0.0
  0
ENDBLK
  5
9315
  8
0
  0
BLOCK
  8
0
  2
*D30
 70
     1
 10
0.0
 20
0.0
 30
0.0
  3
*D30
  1

  0
LINE
  5
934B
  8
AM_5
  6
CONTINUOUS
 62
     7
 10
231.34487467562909
 20
102.89941706138301
 30
0.0
 11
250.34487467562909
 21
102.89941706138301
 31
0.0
  0
LINE
  5
934C
  8
AM_5
  6
CONTINUOUS
 62
     7
 10
236.34487467562909
 20
135.89941706138299
 30
0.0
 11
250.34487467562909
 21
135.89941706138299
 31
0.0
  0
LINE
  5
934D
  8
AM_5
  6
CONTINUOUS
 62
     7
 10
249.34487467562909
 20
105.39941706138301
 30
0.0
 11
249.34487467562909
 21
133.39941706138299
 31
0.0
  0
INSERT
  5
934E
  8
AM_5
 62
     7
  2
_OPEN30
 10
249.34487467562909
 20
102.89941706138301
 30
0.0
 41
2.5
 42
2.5
 43
2.5
 50
270.0
  0
INSERT
  5
934F
  8
AM_5
 62
     7
  2
_OPEN30
 10
249.34487467562909
 20
135.89941706138299
 30
0.0
 41
2.5
 42
2.5
 43
2.5
 50
90.0
  0
INSERT
  5
9350
  8
0
  2
*U55
 10
0.0
 20
0.0
 30
0.0
  0
POINT
  5
9351
  8
DEFPOINTS
 62
     0
 10
230.34487467562909
 20
102.89941706138301
 30
0.0
  0
POINT
  5
9352
  8
DEFPOINTS
 62
     0
 10
235.34487467562909
 20
135.89941706138299
 30
0.0
  0
POINT
  5
9353
  8
DEFPOINTS
 62
     0
 10
249.34487467562909
 20
135.89941706138299
 30
0.0
  0
ENDBLK
  5
9336
  8
0
  0
BLOCK
  8
0
  2
*D31
 70
     1
 10
0.0
 20
0.0
 30
0.0
  3
*D31
  1

  0
LINE
  5
936C
  8
AM_5
  6
CONTINUOUS
 62
     7
 10
236.34487467562909
 20
91.399417061383005
 30
0.0
 11
250.3448746756292
 21
91.399417061383005
 31
0.0
  0
LINE
  5
936D
  8
AM_5
  6
CONTINUOUS
 62
     7
 10
231.34487467562909
 20
102.89941706138301
 30
0.0
 11
250.3448746756292
 21
102.89941706138301
 31
0.0
  0
LINE
  5
936E
  8
AM_5
  6
CONTINUOUS
 62
     7
 10
249.34487467562909
 20
93.899417061383005
 30
0.0
 11
249.34487467562909
 21
100.39941706138301
 31
0.0
  0
INSERT
  5
936F
  8
AM_5
 62
     7
  2
_OPEN30
 10
249.34487467562909
 20
91.399417061383005
 30
0.0
 41
2.5
 42
2.5
 43
2.5
 50
270.0
  0
INSERT
  5
9370
  8
AM_5
 62
     7
  2
_OPEN30
 10
249.34487467562909
 20
102.89941706138301
 30
0.0
 41
2.5
 42
2.5
 43
2.5
 50
90.0
  0
INSERT
  5
9371
  8
0
  2
*U56
 10
0.0
 20
0.0
 30
0.0
  0
POINT
  5
9372
  8
DEFPOINTS
 62
     0
 10
235.34487467562909
 20
91.399417061383005
 30
0.0
  0
POINT
  5
9373
  8
DEFPOINTS
 62
     0
 10
230.34487467562909
 20
102.89941706138301
 30
0.0
  0
POINT
  5
9374
  8
DEFPOINTS
 62
     0
 10
249.34487467562909
 20
102.89941706138301
 30
0.0
  0
ENDBLK
  5
9357
  8
0
  0
BLOCK
  8
0
  2
*D32
 70
     1
 10
0.0
 20
0.0
 30
0.0
  3
*D32
  1

  0
LINE
  5
9396
  8
AM_5
  6
CONTINUOUS
 62
     7
 10
236.34487467562909
 20
180.39941706138291
 30
0.0
 11
257.34487467562923
 21
180.39941706138291
 31
0.0
  0
LINE
  5
9397
  8
AM_5
  6
CONTINUOUS
 62
     7
 10
236.34487467562909
 20
91.399417061383005
 30
0.0
 11
257.34487467562923
 21
91.399417061383005
 31
0.0
  0
LINE
  5
9398
  8
AM_5
  6
CONTINUOUS
 62
     7
 10
256.34487467562923
 20
177.89941706138291
 30
0.0
 11
256.34487467562923
 21
93.899417061383005
 31
0.0
  0
INSERT
  5
9399
  8
AM_5
 62
     7
  2
_OPEN30
 10
256.34487467562923
 20
180.39941706138291
 30
0.0
 41
2.5
 42
2.5
 43
2.5
 50
90.0
  0
INSERT
  5
939A
  8
AM_5
 62
     7
  2
_OPEN30
 10
256.34487467562923
 20
91.399417061383005
 30
0.0
 41
2.5
 42
2.5
 43
2.5
 50
270.0
  0
INSERT
  5
939B
  8
0
  2
*U57
 10
0.0
 20
0.0
 30
0.0
  0
POINT
  5
939C
  8
DEFPOINTS
 62
     0
 10
235.34487467562909
 20
180.39941706138291
 30
0.0
  0
POINT
  5
939D
  8
DEFPOINTS
 62
     0
 10
235.34487467562909
 20
91.399417061383005
 30
0.0
  0
POINT
  5
939E
  8
DEFPOINTS
 62
     0
 10
256.34487467562923
 20
91.399417061383005
 30
0.0
  0
ENDBLK
  5
9378
  8
0
  0
BLOCK
  8
0
  2
*D33
 70
     1
 10
0.0
 20
0.0
 30
0.0
  3
*D33
  1

  0
LINE
  5
999D
  8
AM_5
  6
CONTINUOUS
 62
     7
 10
178.34487467562889
 20
255.603952724951
 30
0.0
 11
150.34115976617861
 21
255.603952724951
 31
0.0
  0
LINE
  5
999E
  8
AM_5
  6
CONTINUOUS
 62
     7
 10
178.34487467562889
 20
253.603952724951
 30
0.0
 11
150.34115976617861
 21
253.603952724951
 31
0.0
  0
LINE
  5
999F
  8
AM_5
  6
CONTINUOUS
 62
     7
 10
151.34115976617861
 20
251.103952724951
 30
0.0
 11
151.34115976617861
 21
248.603952724951
 31
0.0
  0
LINE
  5
99A0
  8
AM_5
  6
CONTINUOUS
 62
     7
 10
151.34115976617861
 20
258.103952724951
 30
0.0
 11
151.34115976617861
 21
264.70364065919648
 31
0.0
  0
LINE
  5
99A1
  8
AM_5
  6
CONTINUOUS
 62
     7
 10
151.34115976617861
 20
253.603952724951
 30
0.0
 11
151.34115976617861
 21
255.603952724951
 31
0.0
  0
INSERT
  5
99A2
  8
AM_5
 62
     7
  2
GENDOT
 10
151.34115976617861
 20
253.603952724951
 30
0.0
 41
2.5
 42
2.5
 43
2.5
 50
90.0
  0
INSERT
  5
99A3
  8
AM_5
 62
     7
  2
_OPEN30
 10
151.34115976617861
 20
255.603952724951
 30
0.0
 41
2.5
 42
2.5
 43
2.5
 50
270.0
  0
TEXT
  8
AM_5
  40
3
  5
99FD
  62
7
  72
0
  71
0
 10
148.841
 20
258.804
 30
0.000000
  1
2
  0
POINT
  5
99A5
  8
DEFPOINTS
 62
     0
 10
179.34487467562889
 20
255.603952724951
 30
0.0
  0
POINT
  5
99A6
  8
DEFPOINTS
 62
     0
 10
179.34487467562889
 20
253.603952724951
 30
0.0
  0
POINT
  5
99A7
  8
DEFPOINTS
 62
     0
 10
151.34115976617861
 20
253.603952724951
 30
0.0
  0
ENDBLK
  5
93B7
  8
0
  0
BLOCK
  8
0
  2
*D34
 70
     1
 10
0.0
 20
0.0
 30
0.0
  3
*D34
  1

  0
LINE
  5
99A8
  8
AM_5
  6
CONTINUOUS
 62
     7
 10
178.34487467562889
 20
253.603952724951
 30
0.0
 11
150.29862185062689
 21
253.603952724951
 31
0.0
  0
LINE
  5
99A9
  8
AM_5
  6
CONTINUOUS
 62
     7
 10
178.344874675629
 20
251.603952724951
 30
0.0
 11
150.29862185062689
 21
251.603952724951
 31
0.0
  0
LINE
  5
99AA
  8
AM_5
  6
CONTINUOUS
 62
     7
 10
151.2986218506268
 20
256.103952724951
 30
0.0
 11
151.2986218506268
 21
258.603952724951
 31
0.0
  0
LINE
  5
99AB
  8
AM_5
  6
CONTINUOUS
 62
     7
 10
151.2986218506268
 20
249.103952724951
 30
0.0
 11
151.2986218506268
 21
246.603952724951
 31
0.0
  0
LINE
  5
99AC
  8
AM_5
  6
CONTINUOUS
 62
     7
 10
151.2986218506268
 20
252.603952724951
 30
0.0
 11
142.91766269625461
 21
248.08274753729361
 31
0.0
  0
LINE
  5
99AD
  8
AM_5
  6
CONTINUOUS
 62
     7
 10
142.91766269625461
 20
248.08274753729361
 30
0.0
 11
142.91766269625461
 21
244.08274753729361
 31
0.0
  0
TEXT
  8
AM_5
  40
3
  5
99FE
  62
7
  72
0
  71
0
 10
140.418
 20
242.183
 30
0.000000
  1
2
  0
LINE
  5
99AF
  8
AM_5
  6
CONTINUOUS
 62
     7
 10
151.2986218506268
 20
253.603952724951
 30
0.0
 11
151.2986218506268
 21
251.603952724951
 31
0.0
  0
LINE
  5
99B0
  8
AM_5
  6
CONTINUOUS
 62
     7
 10
151.2986218506268
 20
253.603952724951
 30
0.0
 11
151.2986218506268
 21
251.603952724951
 31
0.0
  0
INSERT
  5
99B1
  8
AM_5
 62
     7
  2
GENDOT
 10
151.2986218506268
 20
253.603952724951
 30
0.0
 41
2.5
 42
2.5
 43
2.5
 50
270.0
  0
INSERT
  5
99B2
  8
AM_5
 62
     7
  2
GENDOT
 10
151.2986218506268
 20
251.603952724951
 30
0.0
 41
2.5
 42
2.5
 43
2.5
 50
90.0
  0
POINT
  5
99B3
  8
DEFPOINTS
 62
     0
 10
179.34487467562889
 20
253.603952724951
 30
0.0
  0
POINT
  5
99B4
  8
DEFPOINTS
 62
     0
 10
179.344874675629
 20
251.603952724951
 30
0.0
  0
POINT
  5
99B5
  8
DEFPOINTS
 62
     0
 10
151.2986218506268
 20
251.603952724951
 30
0.0
  0
ENDBLK
  5
93F4
  8
0
  0
BLOCK
  8
0
  2
*D35
 70
     1
 10
0.0
 20
0.0
 30
0.0
  3
*D35
  1

  0
LINE
  5
99B6
  8
AM_5
  6
CONTINUOUS
 62
     7
 10
178.344874675629
 20
251.603952724951
 30
0.0
 11
150.34115976617861
 21
251.603952724951
 31
0.0
  0
LINE
  5
99B7
  8
AM_5
  6
CONTINUOUS
 62
     7
 10
178.344874675629
 20
249.60395272495089
 30
0.0
 11
150.34115976617861
 21
249.60395272495089
 31
0.0
  0
LINE
  5
99B8
  8
AM_5
  6
CONTINUOUS
 62
     7
 10
151.34115976617861
 20
254.103952724951
 30
0.0
 11
151.34115976617861
 21
256.603952724951
 31
0.0
  0
LINE
  5
99B9
  8
AM_5
  6
CONTINUOUS
 62
     7
 10
151.34115976617861
 20
247.10395272495089
 30
0.0
 11
151.34115976617861
 21
240.60395272495089
 31
0.0
  0
LINE
  5
99BA
  8
AM_5
  6
CONTINUOUS
 62
     7
 10
151.34115976617861
 20
251.603952724951
 30
0.0
 11
151.34115976617861
 21
249.60395272495089
 31
0.0
  0
INSERT
  5
99BB
  8
AM_5
 62
     7
  2
GENDOT
 10
151.34115976617861
 20
251.603952724951
 30
0.0
 41
2.5
 42
2.5
 43
2.5
 50
270.0
  0
INSERT
  5
99BC
  8
AM_5
 62
     7
  2
_OPEN30
 10
151.34115976617861
 20
249.60395272495089
 30
0.0
 41
2.5
 42
2.5
 43
2.5
 50
90.0
  0
TEXT
  8
AM_5
  40
3
  5
99FF
  62
7
  72
0
  71
0
 10
148.841
 20
238.704
 30
0.000000
  1
2
  0
POINT
  5
99BE
  8
DEFPOINTS
 62
     0
 10
179.344874675629
 20
251.603952724951
 30
0.0
  0
POINT
  5
99BF
  8
DEFPOINTS
 62
     0
 10
179.344874675629
 20
249.60395272495089
 30
0.0
  0
POINT
  5
99C0
  8
DEFPOINTS
 62
     0
 10
151.34115976617861
 20
249.60395272495089
 30
0.0
  0
ENDBLK
  5
9431
  8
0
  0
BLOCK
  8
0
  2
*D36
 70
     1
 10
0.0
 20
0.0
 30
0.0
  3
*D36
  1

  0
LINE
  5
97EB
  8
AM_5
  6
CONTINUOUS
 62
     7
 10
178.344874675629
 20
249.60395272495089
 30
0.0
 11
134.66671965193379
 21
249.60395272495089
 31
0.0
  0
LINE
  5
97EC
  8
AM_5
  6
CONTINUOUS
 62
     7
 10
178.34487467562889
 20
255.603952724951
 30
0.0
 11
134.66671965193379
 21
255.603952724951
 31
0.0
  0
LINE
  5
97ED
  8
AM_5
  6
CONTINUOUS
 62
     7
 10
135.66671965193379
 20
247.10395272495089
 30
0.0
 11
135.66671965193379
 21
244.60395272495089
 31
0.0
  0
LINE
  5
97EE
  8
AM_5
  6
CONTINUOUS
 62
     7
 10
135.66671965193379
 20
258.103952724951
 30
0.0
 11
135.66671965193379
 21
260.603952724951
 31
0.0
  0
LINE
  5
97EF
  8
AM_5
  6
CONTINUOUS
 62
     7
 10
135.66671965193379
 20
249.60395272495089
 30
0.0
 11
135.66671965193379
 21
255.603952724951
 31
0.0
  0
INSERT
  5
97F0
  8
AM_5
 62
     7
  2
_OPEN30
 10
135.66671965193379
 20
249.60395272495089
 30
0.0
 41
2.5
 42
2.5
 43
2.5
 50
90.0
  0
INSERT
  5
97F1
  8
AM_5
 62
     7
  2
_OPEN30
 10
135.66671965193379
 20
255.603952724951
 30
0.0
 41
2.5
 42
2.5
 43
2.5
 50
270.0
  0
INSERT
  5
97F2
  8
0
  2
*U72
 10
0.0
 20
0.0
 30
0.0
  0
POINT
  5
97F3
  8
DEFPOINTS
 62
     0
 10
179.344874675629
 20
249.60395272495089
 30
0.0
  0
POINT
  5
97F4
  8
DEFPOINTS
 62
     0
 10
179.34487467562889
 20
255.603952724951
 30
0.0
  0
POINT
  5
97F5
  8
DEFPOINTS
 62
     0
 10
135.66671965193379
 20
255.603952724951
 30
0.0
  0
ENDBLK
  5
94A0
  8
0
  0
BLOCK
  8
0
  2
*S47
 70
     1
 10
0.0
 20
0.0
 30
0.0
  3
*S47
  1

  0
LINE
  5
98D8
  8
AM_5
  6
CONTINUOUS
 62
     7
 10
131.684675958963
 20
73.787636796124815
 30
0.0
 11
165.84067989597091
 21
73.787636796124815
 31
0.0
  0
LINE
  5
98D9
  8
AM_5
  6
CONTINUOUS
 62
     7
 10
165.84067989597091
 20
73.787636796124815
 30
0.0
 11
186.023325087529
 21
97.285803290424667
 31
0.0
  0
LINE
  5
98DA
  8
AM_5
  6
CONTINUOUS
 62
     7
 10
186.023325087529
 20
97.285803290424667
 30
0.0
 11
188.07574146624731
 21
99.675382125359633
 31
0.0
  0
LINE
  5
98DB
  8
AM_5
  6
CONTINUOUS
 62
     7
 10
186.33791910792661
 20
97.015597549282703
 30
0.0
 11
188.07574146624731
 21
99.675382125359633
 31
0.0
  0
LINE
  5
98DC
  8
AM_5
  6
CONTINUOUS
 62
     7
 10
188.07574146624731
 20
99.675382125359633
 30
0.0
 11
185.70873106713151
 21
97.556009031566603
 31
0.0
  0
INSERT
  5
98DD
  8
0
  2
*U73
 10
0.0
 20
0.0
 30
0.0
  0
ENDBLK
  5
98DF
  8
0
  0
BLOCK
  8
0
  2
*U48
 70
     1
 10
0.0
 20
0.0
 30
0.0
  3
*U48
  1

  0
TEXT
  5
993E
  8
AM_5
 62
     7
 10
160.15457488137449
 20
196.35661778005431
 30
0.0
 40
3.0
  1
(\U+22059.5)
  0
ENDBLK
  5
9940
  8
0
  0
BLOCK
  8
0
  2
*U49
 70
     1
 10
0.0
 20
0.0
 30
0.0
  3
*U49
  1

  0
TEXT
  5
995A
  8
AM_5
 62
     7
 10
194.80916038991481
 20
202.35661778005431
 30
0.0
 40
3.0
  1
16.5
  0
ENDBLK
  5
995C
  8
0
  0
BLOCK
  8
0
  2
*U50
 70
     1
 10
0.0
 20
0.0
 30
0.0
  3
*U50
  1

  0
TEXT
  5
995E
  8
AM_5
 62
     7
 10
211.30916038991481
 20
202.35661778005431
 30
0.0
 40
3.0
  1
16.5
  0
ENDBLK
  5
9960
  8
0
  0
BLOCK
  8
0
  2
*U51
 70
     1
 10
0.0
 20
0.0
 30
0.0
  3
*U51
  1

  0
TEXT
  5
997A
  8
AM_5
 62
     7
 10
149.87174359955881
 20
170.64941706138299
 30
0.0
 40
3.0
  1
11.5
 50
90.0
  0
ENDBLK
  5
997C
  8
0
  0
BLOCK
  8
0
  2
*U52
 70
     1
 10
0.0
 20
0.0
 30
0.0
  3
*U52
  1

  0
TEXT
  5
997E
  8
AM_5
 62
     7
 10
149.87174359955881
 20
149.97084563281149
 30
0.0
 40
3.0
  1
33
 50
90.0
  0
ENDBLK
  5
9980
  8
0
  0
BLOCK
  8
0
  2
*U53
 70
     1
 10
0.0
 20
0.0
 30
0.0
  3
*U53
  1

  0
TEXT
  5
9982
  8
AM_5
 62
     7
 10
248.34487467562909
 20
170.64941706138299
 30
0.0
 40
3.0
  1
11.5
 50
90.0
  0
ENDBLK
  5
9984
  8
0
  0
BLOCK
  8
0
  2
*U54
 70
     1
 10
0.0
 20
0.0
 30
0.0
  3
*U54
  1

  0
TEXT
  5
9986
  8
AM_5
 62
     7
 10
248.34487467562909
 20
149.97084563281149
 30
0.0
 40
3.0
  1
33
 50
90.0
  0
ENDBLK
  5
9988
  8
0
  0
BLOCK
  8
0
  2
*U55
 70
     1
 10
0.0
 20
0.0
 30
0.0
  3
*U55
  1

  0
TEXT
  5
998A
  8
AM_5
 62
     7
 10
248.34487467562909
 20
116.9708456328116
 30
0.0
 40
3.0
  1
33
 50
90.0
  0
ENDBLK
  5
998C
  8
0
  0
BLOCK
  8
0
  2
*U56
 70
     1
 10
0.0
 20
0.0
 30
0.0
  3
*U56
  1

  0
TEXT
  5
998E
  8
AM_5
 62
     7
 10
248.34487467562909
 20
93.149417061383062
 30
0.0
 40
3.0
  1
11.5
 50
90.0
  0
ENDBLK
  5
9990
  8
0
  0
BLOCK
  8
0
  2
*U57
 70
     1
 10
0.0
 20
0.0
 30
0.0
  3
*U57
  1

  0
TEXT
  5
9992
  8
AM_5
 62
     7
 10
255.3448746756292
 20
133.5422742042401
 30
0.0
 40
3.0
  1
89
 50
90.0
  0
ENDBLK
  5
9994
  8
0
  0
BLOCK
  8
0
  2
*U58
 70
     1
 10
0.0
 20
0.0
 30
0.0
  3
*U58
  1

  0
TEXT
  5
9996
  8
AM_5
 62
     7
 10
149.8717435995589
 20
116.9708456328115
 30
0.0
 40
3.0
  1
33
 50
90.0
  0
ENDBLK
  5
9998
  8
0
  0
BLOCK
  8
0
  2
*U59
 70
     1
 10
0.0
 20
0.0
 30
0.0
  3
*U59
  1

  0
TEXT
  5
999A
  8
AM_5
 62
     7
 10
149.8717435995589
 20
93.149417061383005
 30
0.0
 40
3.0
  1
11.5
 50
90.0
  0
ENDBLK
  5
999C
  8
0
  0
BLOCK
  8
0
  2
*U60
 70
     1
 10
0.0
 20
0.0
 30
0.0
  3
*U60
  1

  0
TEXT
  5
99C2
  8
AM_5
 62
     7
 10
190.9163032470577
 20
216.35661778005431
 30
0.0
 40
3.0
  1
28
  0
ENDBLK
  5
99C4
  8
0
  0
BLOCK
  8
0
  2
*U61
 70
     1
 10
0.0
 20
0.0
 30
0.0
  3
*U61
  1

  0
TEXT
  5
99C6
  8
AM_5
 62
     7
 10
218.9163032470577
 20
216.35661778005431
 30
0.0
 40
3.0
  1
28
  0
ENDBLK
  5
99C8
  8
0
  0
BLOCK
  8
0
  2
*U62
 70
     1
 10
0.0
 20
0.0
 30
0.0
  3
*U62
  1

  0
TEXT
  5
99CA
  8
AM_5
 62
     7
 10
204.9877318184862
 20
223.35661778005431
 30
0.0
 40
3.0
  1
56
  0
ENDBLK
  5
99CC
  8
0
  0
BLOCK
  8
0
  2
*U63
 70
     1
 10
0.0
 20
0.0
 30
0.0
  3
*U63
  1

  0
TEXT
  5
99CE
  8
AM_5
 62
     7
 10
216.73890085545349
 20
133.82798848995441
 30
0.0
 40
3.0
  1
16
 50
90.0
  0
ENDBLK
  5
99D0
  8
0
  0
BLOCK
  8
0
  2
*U64
 70
     1
 10
0.0
 20
0.0
 30
0.0
  3
*U64
  1

  0
TEXT
  5
99D2
  8
AM_5
 62
     7
 10
216.73890085545349
 20
97.327988489954436
 30
0.0
 40
3.0
  1
16
 50
90.0
  0
ENDBLK
  5
99D4
  8
0
  0
BLOCK
  8
0
  2
*U65
 70
     1
 10
0.0
 20
0.0
 30
0.0
  3
*U65
  1

  0
TEXT
  5
99D6
  8
AM_5
 62
     7
 10
216.73890085545349
 20
107.39941706138301
 30
0.0
 40
3.0
  1
2
 50
90.0
  0
ENDBLK
  5
99D8
  8
0
  0
BLOCK
  8
0
  2
*U66
 70
     1
 10
0.0
 20
0.0
 30
0.0
  3
*U66
  1

  0
TEXT
  5
99DA
  8
AM_5
 62
     7
 10
216.73890085545349
 20
162.39941706138299
 30
0.0
 40
3.0
  1
2
 50
90.0
  0
ENDBLK
  5
99DC
  8
0
  0
BLOCK
  8
0
  2
*U67
 70
     1
 10
0.0
 20
0.0
 30
0.0
  3
*U67
  1

  0
TEXT
  5
99DE
  8
AM_5
 62
     7
 10
216.73890085545341
 20
170.32798848995449
 30
0.0
 40
3.0
  1
16
 50
90.0
  0
ENDBLK
  5
99E0
  8
0
  0
BLOCK
  8
0
  2
*U68
 70
     1
 10
0.0
 20
0.0
 30
0.0
  3
*U68
  1

  0
TEXT
  5
99E2
  8
AM_5
 62
     7
 10
216.73890085545349
 20
113.3637027756687
 30
0.0
 40
3.0
  1
16.5
 50
90.0
  0
ENDBLK
  5
99E4
  8
0
  0
BLOCK
  8
0
  2
*U69
 70
     1
 10
0.0
 20
0.0
 30
0.0
  3
*U69
  1

  0
TEXT
  5
99E6
  8
AM_5
 62
     7
 10
216.73890085545349
 20
125.89941706138301
 30
0.0
 40
3.0
  1
2
 50
90.0
  0
ENDBLK
  5
99E8
  8
0
  0
BLOCK
  8
0
  2
*U70
 70
     1
 10
0.0
 20
0.0
 30
0.0
  3
*U70
  1

  0
TEXT
  5
99EA
  8
AM_5
 62
     7
 10
216.73890085545349
 20
143.89941706138299
 30
0.0
 40
3.0
  1
2
 50
90.0
  0
ENDBLK
  5
99EC
  8
0
  0
BLOCK
  8
0
  2
*U71
 70
     1
 10
0.0
 20
0.0
 30
0.0
  3
*U71
  1

  0
TEXT
  5
99EE
  8
AM_5
 62
     7
 10
216.73890085545349
 20
149.86370277566871
 30
0.0
 40
3.0
  1
16.5
 50
90.0
  0
ENDBLK
  5
99F0
  8
0
  0
BLOCK
  8
0
  2
*U72
 70
     1
 10
0.0
 20
0.0
 30
0.0
  3
*U72
  1

  0
TEXT
  5
99F2
  8
AM_5
 62
     7
 10
134.66671965193379
 20
251.67538129637961
 30
0.0
 40
3.0
  1
6
 50
90.0
  0
ENDBLK
  5
99F4
  8
0
  0
BLOCK
  8
0
  2
*U73
 70
     1
 10
0.0
 20
0.0
 30
0.0
  3
*U73
  1

  0
TEXT
  5
99F6
  8
AM_5
 62
     7
 10
131.40067989597091
 20
75.362636796124832
 30
0.0
 40
3.149999999999999
  1
6-\U+22055.5\U+00D7\U+22058.5皿孔
  7
ACJISTS
  0
ENDBLK
  5
99F8
  8
0
  0
ENDSEC
  0
SECTION
  2
ENTITIES
  0
INSERT
  5
1BB5
  8
0
  2
ZUWAKU-A3H
 10
0.0
 20
0.0
 30
0.0
1001
GENIUS_GENOREF_13
1005
1C93
1001
GENIUS_GENOBJ-N-SDF_13
1002
{
1000
OWNER
1000
GEN
1002
}
1001
GENIUS_GENODEF_13
1002
{
1000
HIER
1070
     0
1002
}
1002
{
1000
MANEDIT
1070
     0
1002
}
1002
{
1000
NOSEL
1070
     0
1002
}
1002
{
1000
BEHIND
1070
     0
1002
}
1002
{
1000
OTHER
1070
     0
1002
}
1002
{
1000
REACTOR
1002
}
1001
GENIUS_GENSCREG_13
1040
1.0
1040
1.0
1011
24.999999999999979
1021
0.0
1031
0.0
1021
8.9999999999999964
1031
0.0
1011
411.99999999999989
1021
0.0
1031
0.0
1021
284.99999999999989
1031
0.0
1070
     3
  0
POINT
  5
1C93
  8
0
 10
0.0
 20
0.0
 30
0.0
1001
GENIUS_GENOBJ-N-TIT_13
1002
{
1000
OWNER
1000
GEN
1002
}
1001
GENIUS_GENODEF_13
1002
{
1000
HIER
1070
     1
1002
}
1002
{
1000
MANEDIT
1070
     1
1002
}
1002
{
1000
NOSEL
1070
     0
1002
}
1002
{
1000
BEHIND
1070
     0
1002
}
1002
{
1000
OTHER
1070
     0
1002
}
1002
{
1000
REACTOR
1002
}
1001
GENIUS_GENOLIS_13
1002
{
1000
ENT
1005
1BB5
1005
2A9C
1002
}
1001
GENIUS_GENTITLE_13
1002
{
1000
BORDER
1000
C:\Program Files\Autodesk\ACADM 2008\Acadm\gen\Dwg\Format\ZUWAKU-A3H
1002
}
1002
{
1000
TITLE
1000
C:\Program Files\Autodesk\ACADM 2008\Acadm\gen\Dwg\Title\N_Title
1002
}
1002
{
1000
ADDITIONAL1
1000

1002
}
1002
{
1000
ADDITIONAL2
1000

1002
}
1002
{
1000
SCALE
1000
1:1
1002
}
1002
{
1000
TITLESTD
1000
JIS
1002
}
1002
{
1000
HRA
1005
1BB5
1002
}
1002
{
1000
HTIT
1005
2A9C
1002
}
1002
{
1000
GENIUSID
1005
1C93
1002
}
1002
{
1000
INVTXTID
1005
0
1002
}
1002
{
1000
UNCHG
1002
{
1000
GEN-TITLE-SIZ
1000
GEN-TITLE-SCA
1002
}
1002
}
1001
GENIUS_GENOENT_13
1002
{
1000
MYREF
1005
1C93
1002
}
1002
{
1000
GRP
1005
0
1002
}
  0
INSERT
  5
20F2
  8
0
 66
     1
  2
A$C1C06296A
 10
135.5000001316065
 20
8.9999998268887005
 30
0.0
  0
ATTRIB
  5
20F3
  8
AM_BOR
 62
     7
 10
249.8107097069896
 20
9.4999999999999893
 30
0.0
 40
3.0
  1

 11
249.8107097069896
 21
10.999999999999989
 31
0.0
  2
SETS｛20｝
 70
     0
 74
     2
1001
AcDbAttr
1070
     0
1070
     1
  0
ATTRIB
  5
20F4
  8
AM_BOR
 62
     7
 10
154.5607097069896
 20
9.4999999999999893
 30
0.0
 40
3.0
  1

 11
154.5607097069896
 21
10.999999999999989
 31
0.0
  2
REMARKS｛20｝
 70
     0
 74
     2
1001
AcDbAttr
1070
     0
1070
     1
  0
ATTRIB
  5
20F5
  8
AM_BOR
 62
     7
 10
249.8107097069896
 20
14.499999999999989
 30
0.0
 40
3.0
  1

 11
249.8107097069896
 21
15.999999999999989
 31
0.0
  2
SETS｛20｝
 70
     0
 74
     2
1001
AcDbAttr
1070
     0
1070
     1
  0
ATTRIB
  5
20F6
  8
AM_BOR
 62
     7
 10
154.5607097069896
 20
14.499999999999989
 30
0.0
 40
3.0
  1

 11
154.5607097069896
 21
15.999999999999989
 31
0.0
  2
REMARKS｛20｝
 70
     0
 74
     2
1001
AcDbAttr
1070
     0
1070
     1
  0
ATTRIB
  5
20F7
  8
AM_BOR
 62
     7
 10
249.8107097069896
 20
19.499999999999989
 30
0.0
 40
3.0
  1

 11
249.8107097069896
 21
20.999999999999989
 31
0.0
  2
SETS｛20｝
 70
     0
 74
     2
1001
AcDbAttr
1070
     0
1070
     1
  0
ATTRIB
  5
20F8
  8
AM_BOR
 62
     7
 10
154.5607097069896
 20
19.499999999999989
 30
0.0
 40
3.0
  1

 11
154.5607097069896
 21
20.999999999999989
 31
0.0
  2
REMARKS｛20｝
 70
     0
 74
     2
1001
AcDbAttr
1070
     0
1070
     1
  0
ATTRIB
  5
20F9
  8
AM_BOR
 62
     7
 10
249.74999999999969
 20
32.499999999999993
 30
0.0
 40
3.0
  1
5K-89-2t
 11
249.74999999999969
 21
33.999999999999993
 31
0.0
  2
ART_NO｛20｝
 70
     0
 74
     2
1001
AcDbAttr
1070
     0
1070
     1
  0
ATTRIB
  5
20FA
  8
AM_BOR
 62
     7
 10
154.49999999999969
 20
32.499999999999993
 30
0.0
 40
3.0
  1
5管丁番
 11
154.49999999999969
 21
33.999999999999993
 31
0.0
  2
ARTICLE｛20｝
 70
     0
 74
     2
1001
AcDbAttr
1070
     0
1070
     1
  0
ATTRIB
  5
20FB
  8
AM_BOR
 62
     7
 10
249.74999999999969
 20
25.999999999999989
 30
0.0
 40
3.0
  1
ヘアライン
 11
249.74999999999969
 21
27.499999999999989
 31
0.0
  2
FINISH｛20｝
 70
     0
 74
     2
1001
AcDbAttr
1070
     0
1070
     1
  0
ATTRIB
  5
20FC
  8
AM_BOR
 62
     7
 10
154.49999999999969
 20
25.999999999999989
 30
0.0
 40
3.0
  1
ステンレス（リングは樹脂）
 11
154.49999999999969
 21
27.499999999999989
 31
0.0
  2
MATERIAK｛20｝
 70
     0
 74
     2
1001
AcDbAttr
1070
     0
1070
     1
  0
SEQEND
  5
20FD
  8
0
  0
LINE
  5
8E1D
  8
AM_7
 10
207.34487467562909
 20
185.81322396571571
 30
0.0
 11
207.34487467562909
 21
84.741337675103736
 31
0.0
  0
LINE
  5
8E1E
  8
AM_7
 10
196.10434620614569
 20
252.603952724951
 30
0.0
 11
218.44835276367701
 21
252.603952724951
 31
0.0
  0
LINE
  5
8E1F
  8
AM_7
 10
207.344874675629
 20
262.603952724951
 30
0.0
 11
207.344874675629
 21
242.603952724951
 31
0.0
  0
LINE
  5
8E20
  8
0
 10
235.34487467562909
 20
180.39941706138291
 30
0.0
 11
235.34487467562909
 21
91.399417061383005
 31
0.0
  0
LINE
  5
8E21
  8
0
 10
179.344874675629
 20
180.39941706138291
 30
0.0
 11
179.344874675629
 21
91.399417061383005
 31
0.0
  0
LINE
  5
8E22
  8
0
 10
235.34487467562909
 20
91.399417061383005
 30
0.0
 11
213.09487467562909
 21
91.399417061383005
 31
0.0
  0
LINE
  5
8E23
  8
0
 10
212.09487467562909
 20
91.399417061383005
 30
0.0
 11
202.594874675629
 21
91.399417061383005
 31
0.0
  0
LINE
  5
8E24
  8
0
 10
202.594874675629
 20
91.399417061383005
 30
0.0
 11
179.344874675629
 21
91.399417061383005
 31
0.0
  0
LINE
  5
8E25
  8
0
 10
212.09487467562909
 20
180.39941706138291
 30
0.0
 11
212.09487467562909
 21
91.399417061383005
 31
0.0
  0
LINE
  5
8E26
  8
0
 10
202.594874675629
 20
180.39941706138291
 30
0.0
 11
202.594874675629
 21
91.399417061383005
 31
0.0
  0
LINE
  5
8E27
  8
0
 10
213.09487467562909
 20
180.39941706138291
 30
0.0
 11
213.09487467562909
 21
162.39941706138291
 31
0.0
  0
LINE
  5
8E28
  8
0
 10
213.09487467562909
 20
145.89941706138291
 30
0.0
 11
213.09487467562909
 21
125.89941706138291
 31
0.0
  0
LINE
  5
8E29
  8
0
 10
213.09487467562909
 20
109.39941706138301
 30
0.0
 11
213.09487467562909
 21
91.399417061383005
 31
0.0
  0
LINE
  5
8E2A
  8
0
 10
201.594874675629
 20
164.39941706138291
 30
0.0
 11
201.594874675629
 21
143.89941706138291
 31
0.0
  0
LINE
  5
8E2B
  8
0
 10
201.594874675629
 20
127.89941706138291
 30
0.0
 11
201.594874675629
 21
107.39941706138301
 31
0.0
  0
LINE
  5
8E2C
  8
AM_7
 10
184.344874675629
 20
102.89941706138291
 30
0.0
 11
197.344874675629
 21
102.89941706138291
 31
0.0
  0
LINE
  5
8E2D
  8
AM_7
 10
190.844874675629
 20
109.39941706138301
 30
0.0
 11
190.844874675629
 21
96.399417061383005
 31
0.0
  0
LINE
  5
8E2E
  8
0
 10
235.34487467562909
 20
255.603952724951
 30
0.0
 11
211.0276046412931
 21
255.603952724951
 31
0.0
  0
LINE
  5
8E2F
  8
0
 10
202.29036607875071
 20
255.6039548542895
 30
0.0
 11
179.344874675629
 21
255.603952724951
 31
0.0
  0
LINE
  5
8E30
  8
0
 10
179.34487467562889
 20
253.603952724951
 30
0.0
 11
179.34487467562889
 21
255.603952724951
 31
0.0
  0
LINE
  5
8E31
  8
0
 10
235.34487467562909
 20
253.603952724951
 30
0.0
 11
235.34487467562909
 21
255.603952724951
 31
0.0
  0
LINE
  5
8E32
  8
AM_1
 10
203.6621439506919
 20
249.603954940021
 30
0.0
 11
179.344874675629
 21
249.60395272495089
 31
0.0
  0
LINE
  5
8E33
  8
AM_1
 10
202.70133042835309
 20
251.603954940021
 30
0.0
 11
179.344874675629
 21
251.603952724951
 31
0.0
  0
LINE
  5
8E34
  8
AM_1
 10
179.344874675629
 20
251.603952724951
 30
0.0
 11
179.344874675629
 21
249.603952724951
 31
0.0
  0
LINE
  5
8E35
  8
AM_7
 10
186.84487467562909
 20
245.93136470093711
 30
0.0
 11
186.84487467562909
 21
257.7999670184069
 31
0.0
  0
LINE
  5
8E36
  8
AM_7
 10
190.84487467562909
 20
245.93136470093719
 30
0.0
 11
190.844874675629
 21
257.79996701840702
 31
0.0
  0
LINE
  5
8E37
  8
AM_7
 10
227.84487467562909
 20
251.68568973486691
 30
0.0
 11
227.84487467562909
 21
257.79996701840702
 31
0.0
  0
LINE
  5
8E38
  8
AM_7
 10
223.844874675629
 20
251.68568973486691
 30
0.0
 11
223.844874675629
 21
257.79996701840702
 31
0.0
  0
CIRCLE
  5
8E39
  8
0
 10
190.844874675629
 20
102.89941706138291
 30
0.0
 40
4.25
  0
CIRCLE
  5
8E3A
  8
0
 10
190.844874675629
 20
102.89941706138291
 30
0.0
 40
2.75
  0
LINE
  5
8E3B
  8
AM_7
 10
180.344874675629
 20
135.89941706138291
 30
0.0
 11
193.344874675629
 21
135.89941706138291
 31
0.0
  0
LINE
  5
8E3C
  8
AM_7
 10
186.844874675629
 20
142.39941706138291
 30
0.0
 11
186.844874675629
 21
129.39941706138291
 31
0.0
  0
CIRCLE
  5
8E3D
  8
0
 10
186.844874675629
 20
135.89941706138291
 30
0.0
 40
4.25
  0
CIRCLE
  5
8E3E
  8
0
 10
186.844874675629
 20
135.89941706138291
 30
0.0
 40
2.75
  0
LINE
  5
8E3F
  8
AM_7
 10
184.344874675629
 20
168.89941706138291
 30
0.0
 11
197.344874675629
 21
168.89941706138291
 31
0.0
  0
LINE
  5
8E40
  8
AM_7
 10
190.844874675629
 20
175.39941706138291
 30
0.0
 11
190.844874675629
 21
162.39941706138291
 31
0.0
  0
CIRCLE
  5
8E41
  8
0
 10
190.844874675629
 20
168.89941706138299
 30
0.0
 40
4.25
  0
CIRCLE
  5
8E42
  8
0
 10
190.844874675629
 20
168.89941706138299
 30
0.0
 40
2.75
  0
LINE
  5
8E43
  8
AM_7
 10
217.344874675629
 20
168.89941706138291
 30
0.0
 11
230.34487467562909
 21
168.89941706138291
 31
0.0
  0
LINE
  5
8E44
  8
AM_7
 10
223.84487467562909
 20
175.39941706138291
 30
0.0
 11
223.84487467562909
 21
162.39941706138291
 31
0.0
  0
CIRCLE
  5
8E45
  8
0
 10
223.844874675629
 20
168.89941706138299
 30
0.0
 40
4.25
  0
CIRCLE
  5
8E46
  8
0
 10
223.844874675629
 20
168.89941706138299
 30
0.0
 40
2.75
  0
LINE
  5
8E47
  8
AM_7
 10
221.344874675629
 20
135.89941706138291
 30
0.0
 11
234.34487467562909
 21
135.89941706138291
 31
0.0
  0
LINE
  5
8E48
  8
AM_7
 10
227.84487467562909
 20
142.39941706138291
 30
0.0
 11
227.84487467562909
 21
129.39941706138291
 31
0.0
  0
CIRCLE
  5
8E49
  8
0
 10
227.844874675629
 20
135.89941706138291
 30
0.0
 40
4.25
  0
CIRCLE
  5
8E4A
  8
0
 10
227.844874675629
 20
135.89941706138291
 30
0.0
 40
2.75
  0
LINE
  5
8E4B
  8
AM_7
 10
217.344874675629
 20
102.89941706138291
 30
0.0
 11
230.34487467562909
 21
102.89941706138301
 31
0.0
  0
LINE
  5
8E4C
  8
AM_7
 10
223.84487467562909
 20
109.39941706138301
 30
0.0
 11
223.84487467562909
 21
96.399417061383005
 31
0.0
  0
CIRCLE
  5
8E4D
  8
0
 10
223.844874675629
 20
102.89941706138291
 30
0.0
 40
4.25
  0
CIRCLE
  5
8E4E
  8
0
 10
223.844874675629
 20
102.89941706138291
 30
0.0
 40
2.75
  0
LINE
  5
8E4F
  8
0
 10
212.09487467562909
 20
164.39941706138291
 30
0.0
 11
201.594874675629
 21
164.39941706138291
 31
0.0
  0
LINE
  5
8E50
  8
0
 10
212.09487467562909
 20
143.89941706138291
 30
0.0
 11
201.594874675629
 21
143.89941706138291
 31
0.0
  0
LINE
  5
8E51
  8
0
 10
212.09487467562909
 20
127.89941706138291
 30
0.0
 11
201.594874675629
 21
127.89941706138291
 31
0.0
  0
LINE
  5
8E52
  8
0
 10
212.09487467562909
 20
107.39941706138301
 30
0.0
 11
201.594874675629
 21
107.39941706138301
 31
0.0
  0
LINE
  5
8E53
  8
0
 10
213.094874675629
 20
109.39941706138301
 30
0.0
 11
202.594874675629
 21
109.39941706138301
 31
0.0
  0
LINE
  5
8E54
  8
0
 10
213.094874675629
 20
125.89941706138291
 30
0.0
 11
202.594874675629
 21
125.89941706138291
 31
0.0
  0
LINE
  5
8E55
  8
0
 10
213.09487467562909
 20
145.89941706138291
 30
0.0
 11
202.594874675629
 21
145.89941706138291
 31
0.0
  0
LINE
  5
8E56
  8
0
 10
213.09487467562909
 20
162.39941706138291
 30
0.0
 11
202.594874675629
 21
162.39941706138291
 31
0.0
  0
ARC
  5
8E57
  8
0
 10
207.344874675629
 20
173.86816706138291
 30
0.0
 40
7.5312500000000133
 50
60.137165643724991
 51
119.862834356275
  0
ARC
  5
8E58
  8
0
 10
207.344874675629
 20
97.930667061382906
 30
0.0
 40
7.5312499999999121
 50
240.13716564372501
 51
299.86283435627502
  0
LINE
  5
8E59
  8
0
 10
213.094874675629
 20
253.603952724951
 30
0.0
 11
213.094874675629
 21
255.603952724951
 31
0.0
  0
LINE
  5
8E63
  8
0
 10
235.34487467562909
 20
180.39941706138299
 30
0.0
 11
213.09487467562909
 21
180.39941706138299
 31
0.0
  0
LINE
  5
8E64
  8
0
 10
212.09487467562909
 20
180.39941706138299
 30
0.0
 11
179.34487467562909
 21
180.39941706138299
 31
0.0
  0
LINE
  5
8E65
  8
0
 10
202.2903661695168
 20
253.60395481506509
 30
0.0
 11
179.34487467562889
 21
253.603952724951
 31
0.0
  0
LINE
  5
8E66
  8
0
 10
235.34487467562909
 20
253.6039527249512
 30
0.0
 11
211.98841810385869
 21
253.60395494002111
 31
0.0
  0
ARC
  5
8E73
  8
0
 10
207.34487467562909
 20
252.603952724951
 30
0.0
 40
4.75
 50
167.8467762795799
 51
113.2233164315216
  0
CIRCLE
  5
8E74
  8
0
 10
207.34487467562909
 20
252.603952724951
 30
0.0
 40
2.75
  0
LINE
  5
8E75
  8
0
 10
204.65650741679471
 20
253.182901325111
 30
0.0
 11
202.70133122855151
 21
253.6039548525001
 31
0.0
  0
LINE
  5
8E76
  8
0
 10
203.07899782275271
 20
253.76600491689939
 30
0.0
 11
206.26050590193111
 21
255.1311338349289
 31
0.0
  0
LINE
  5
8E77
  8
0
 10
202.29036607875071
 20
255.6039548542895
 30
0.0
 11
205.47187406651449
 21
256.96908373309458
 31
0.0
  0
ARC
  5
8E78
  8
0
 10
202.290365987336
 20
255.60395481506509
 30
0.0
 40
2.0
 50
270.0
 51
293.22331643152148
  0
DIMENSION
  5
9067
  8
AM_5
  2
*D14
 10
212.09487467562909
 20
194.35661778005431
 30
0.0
 11
166.5831463099459
 21
194.35661778005431
 31
0.0
 70
   128
  1
(%%c<>)
 13
202.594874675629
 23
180.39941706138291
 33
0.0
 14
212.09487467562909
 24
180.39941706138299
 34
0.0
 50
0.0000000000000114
1001
ACAD_DSTYLE_DIMINSPECT
1070
   396
1000
100%
1070
   395
1000

1070
   394
1070
    33
1070
   393
1070
     0
  0
DIMENSION
  5
90B9
  8
AM_5
  2
*D15
 10
186.844874675629
 20
201.35661778005431
 30
0.0
 11
172.702017532772
 21
201.35661778005431
 31
0.0
 70
   128
 13
179.34487467562909
 23
180.39941706138299
 33
0.0
 14
186.844874675629
 24
142.39941706138291
 34
0.0
 50
0.0000000000000114
1001
ACAD_DSTYLE_DIMINSPECT
1070
   396
1000
100%
1070
   395
1000

1070
   394
1070
    33
1070
   393
1070
     0
1001
ACAD
1000
DSTYLE
1002
{
1070
   173
1070
     1
1070
   174
1070
     1
1070
     6
1000
OPEN30
1070
     7
1000
GENDOT
1002
}
  0
DIMENSION
  5
90F2
  8
AM_5
  2
*D16
 10
186.844874675629
 20
201.35661778005431
 30
0.0
 11
184.7411241937761
 21
208.3865203842395
 31
0.0
 70
   128
 13
190.844874675629
 23
175.39941706138291
 33
0.0
 14
186.844874675629
 24
142.39941706138291
 34
0.0
1001
ACAD_DSTYLE_DIMINSPECT
1070
   396
1000
100%
1070
   395
1000

1070
   394
1070
    33
1070
   393
1070
     0
1001
ACAD
1000
DSTYLE
1002
{
1070
   287
1070
     4
1070
   173
1070
     1
1070
   174
1070
     1
1070
   279
1070
     1
1070
     6
1000
OPEN30
1070
     7
1000
GENDOT
1002
}
  0
DIMENSION
  5
912F
  8
AM_5
  2
*D17
 10
190.844874675629
 20
201.35661778005431
 30
0.0
 11
199.094874675629
 21
203.85661778005431
 31
0.0
 70
     0
 13
207.34487467562909
 23
185.81322396571571
 33
0.0
 14
190.844874675629
 24
175.39941706138291
 34
0.0
1001
ACAD
1000
DSTYLE
1002
{
1070
   174
1070
     1
1002
}
1001
ACAD_DSTYLE_DIMINSPECT
1070
   396
1000
100%
1070
   395
1000

1070
   394
1070
    33
1070
   393
1070
     0
  0
DIMENSION
  5
9150
  8
AM_5
  2
*D18
 10
207.34487467562909
 20
201.35661778005439
 30
0.0
 11
215.59487467562909
 21
203.85661778005431
 31
0.0
 70
     0
 13
223.84487467562909
 23
175.39941706138299
 33
0.0
 14
207.34487467562909
 24
185.81322396571571
 34
0.0
1001
ACAD
1000
DSTYLE
1002
{
1070
   174
1070
     1
1002
}
1001
ACAD_DSTYLE_DIMINSPECT
1070
   396
1000
100%
1070
   395
1000

1070
   394
1070
    33
1070
   393
1070
     0
  0
DIMENSION
  5
9171
  8
AM_5
  2
*D19
 10
223.84487467562909
 20
201.35661778005431
 30
0.0
 11
229.49504052348399
 21
208.3865203842395
 31
0.0
 70
   128
 13
227.84487467562909
 23
142.39941706138291
 33
0.0
 14
223.84487467562909
 24
175.39941706138299
 34
0.0
1001
ACAD_DSTYLE_DIMINSPECT
1070
   396
1000
100%
1070
   395
1000

1070
   394
1070
    33
1070
   393
1070
     0
1001
ACAD
1000
DSTYLE
1002
{
1070
   287
1070
     4
1070
   173
1070
     1
1070
   174
1070
     1
1070
   279
1070
     1
1070
     6
1000
GENDOT
1070
     7
1000
OPEN30
1002
}
  0
DIMENSION
  5
9198
  8
AM_5
  2
*D20
 10
227.84487467562909
 20
201.35661778005431
 30
0.0
 11
241.9877318184862
 21
201.35661778005431
 31
0.0
 70
   128
 13
235.34487467562909
 23
180.39941706138291
 33
0.0
 14
227.84487467562909
 24
142.39941706138291
 34
0.0
1001
ACAD_DSTYLE_DIMINSPECT
1070
   396
1000
100%
1070
   395
1000

1070
   394
1070
    33
1070
   393
1070
     0
1001
ACAD
1000
DSTYLE
1002
{
1070
   173
1070
     1
1070
   174
1070
     1
1070
     6
1000
OPEN30
1070
     7
1000
GENDOT
1002
}
  0
DIMENSION
  5
91D4
  8
AM_5
  2
*D21
 10
207.34487467562909
 20
215.35661778005431
 30
0.0
 11
193.34487467562909
 21
217.85661778005431
 31
0.0
 70
     0
 13
179.34487467562909
 23
180.39941706138299
 33
0.0
 14
207.34487467562909
 24
185.81322396571571
 34
0.0
 50
0.0000000000000114
1001
ACAD_DSTYLE_DIMINSPECT
1070
   396
1000
100%
1070
   395
1000

1070
   394
1070
    33
1070
   393
1070
     0
1001
ACAD
1000
DSTYLE
1002
{
1070
   174
1070
     1
1002
}
  0
DIMENSION
  5
9207
  8
AM_5
  2
*D22
 10
207.34487467562909
 20
215.35661778005431
 30
0.0
 11
221.34487467562909
 21
217.85661778005439
 31
0.0
 70
     0
 13
235.34487467562909
 23
180.39941706138291
 33
0.0
 14
207.34487467562909
 24
185.81322396571571
 34
0.0
1001
ACAD
1000
DSTYLE
1002
{
1070
   174
1070
     1
1002
}
1001
ACAD_DSTYLE_DIMINSPECT
1070
   396
1000
100%
1070
   395
1000

1070
   394
1070
    33
1070
   393
1070
     0
  0
DIMENSION
  5
9228
  8
AM_5
  2
*D23
 10
235.34487467562909
 20
222.35661778005431
 30
0.0
 11
207.344874675629
 21
224.85661778005431
 31
0.0
 70
     0
 13
179.344874675629
 23
180.39941706138291
 33
0.0
 14
235.34487467562909
 24
180.39941706138291
 34
0.0
 50
0.0000000000000114
1001
ACAD_DSTYLE_DIMINSPECT
1070
   396
1000
100%
1070
   395
1000

1070
   394
1070
    33
1070
   393
1070
     0
  0
DIMENSION
  5
9252
  8
AM_5
  2
*D24
 10
150.87174359955881
 20
168.89941706138291
 30
0.0
 11
148.37174359955881
 21
174.64941706138299
 31
0.0
 70
     0
 13
179.34487467562909
 23
180.39941706138299
 33
0.0
 14
184.344874675629
 24
168.89941706138291
 34
0.0
 50
90.000000000000057
1001
ACAD_DSTYLE_DIMINSPECT
1070
   396
1000
100%
1070
   395
1000

1070
   394
1070
    33
1070
   393
1070
     0
1001
ACAD
1000
DSTYLE
1002
{
1070
   174
1070
     1
1002
}
  0
DIMENSION
  5
927C
  8
AM_5
  2
*D25
 10
150.8717435995589
 20
135.89941706138291
 30
0.0
 11
148.37174359955881
 21
152.39941706138299
 31
0.0
 70
     0
 13
184.344874675629
 23
168.89941706138291
 33
0.0
 14
180.344874675629
 24
135.89941706138291
 34
0.0
 50
90.0
1001
ACAD
1000
DSTYLE
1002
{
1070
   174
1070
     1
1002
}
1001
ACAD_DSTYLE_DIMINSPECT
1070
   396
1000
100%
1070
   395
1000

1070
   394
1070
    33
1070
   393
1070
     0
  0
DIMENSION
  5
929D
  8
AM_5
  2
*D26
 10
150.8717435995589
 20
102.89941706138301
 30
0.0
 11
148.37174359955881
 21
119.39941706138301
 31
0.0
 70
     0
 13
180.344874675629
 23
135.89941706138291
 33
0.0
 14
184.344874675629
 24
102.89941706138291
 34
0.0
 50
90.0
1001
ACAD
1000
DSTYLE
1002
{
1070
   174
1070
     1
1002
}
1001
ACAD_DSTYLE_DIMINSPECT
1070
   396
1000
100%
1070
   395
1000

1070
   394
1070
    33
1070
   393
1070
     0
  0
DIMENSION
  5
92BE
  8
AM_5
  2
*D27
 10
150.8717435995589
 20
91.399417061383005
 30
0.0
 11
148.37174359955881
 21
97.149417061383005
 31
0.0
 70
     0
 13
184.344874675629
 23
102.89941706138291
 33
0.0
 14
179.344874675629
 24
91.399417061383005
 34
0.0
 50
90.0
1001
ACAD
1000
DSTYLE
1002
{
1070
   174
1070
     1
1002
}
1001
ACAD_DSTYLE_DIMINSPECT
1070
   396
1000
100%
1070
   395
1000

1070
   394
1070
    33
1070
   393
1070
     0
  0
DIMENSION
  5
92DF
  8
AM_5
  2
*D28
 10
249.34487467562909
 20
168.89941706138291
 30
0.0
 11
246.84487467562909
 21
174.64941706138299
 31
0.0
 70
     0
 13
235.34487467562909
 23
180.39941706138291
 33
0.0
 14
230.34487467562909
 24
168.89941706138291
 34
0.0
 50
90.000000000000028
1001
ACAD_DSTYLE_DIMINSPECT
1070
   396
1000
100%
1070
   395
1000

1070
   394
1070
    33
1070
   393
1070
     0
1001
ACAD
1000
DSTYLE
1002
{
1070
   174
1070
     1
1002
}
  0
DIMENSION
  5
9312
  8
AM_5
  2
*D29
 10
249.34487467562909
 20
168.89941706138291
 30
0.0
 11
246.84487467562909
 21
152.39941706138299
 31
0.0
 70
     0
 13
235.34487467562909
 23
135.89941706138299
 33
0.0
 14
230.34487467562909
 24
168.89941706138291
 34
0.0
 50
90.0
1001
ACAD
1000
DSTYLE
1002
{
1070
   174
1070
     1
1002
}
1001
ACAD_DSTYLE_DIMINSPECT
1070
   396
1000
100%
1070
   395
1000

1070
   394
1070
    33
1070
   393
1070
     0
  0
DIMENSION
  5
9333
  8
AM_5
  2
*D30
 10
249.34487467562909
 20
135.89941706138299
 30
0.0
 11
246.84487467562909
 21
119.39941706138301
 31
0.0
 70
     0
 13
230.34487467562909
 23
102.89941706138301
 33
0.0
 14
235.34487467562909
 24
135.89941706138299
 34
0.0
 50
90.0
1001
ACAD
1000
DSTYLE
1002
{
1070
   174
1070
     1
1002
}
1001
ACAD_DSTYLE_DIMINSPECT
1070
   396
1000
100%
1070
   395
1000

1070
   394
1070
    33
1070
   393
1070
     0
  0
DIMENSION
  5
9354
  8
AM_5
  2
*D31
 10
249.34487467562909
 20
102.89941706138301
 30
0.0
 11
246.84487467562909
 21
97.149417061383062
 31
0.0
 70
     0
 13
235.34487467562909
 23
91.399417061383005
 33
0.0
 14
230.34487467562909
 24
102.89941706138301
 34
0.0
 50
90.0
1001
ACAD
1000
DSTYLE
1002
{
1070
   174
1070
     1
1002
}
1001
ACAD_DSTYLE_DIMINSPECT
1070
   396
1000
100%
1070
   395
1000

1070
   394
1070
    33
1070
   393
1070
     0
  0
DIMENSION
  5
9375
  8
AM_5
  2
*D32
 10
256.34487467562923
 20
91.399417061383005
 30
0.0
 11
253.8448746756292
 21
135.89941706138299
 31
0.0
 70
     0
 13
235.34487467562909
 23
180.39941706138291
 33
0.0
 14
235.34487467562909
 24
91.399417061383005
 34
0.0
 50
90.000000000000028
1001
ACAD_DSTYLE_DIMINSPECT
1070
   396
1000
100%
1070
   395
1000

1070
   394
1070
    33
1070
   393
1070
     0
  0
INSERT
  5
93A0
  8
AM_5
  2
*S47
 10
0.0
 20
0.0
 30
0.0
  0
DIMENSION
  5
93B4
  8
AM_5
  2
*D33
 10
151.34115976617861
 20
253.603952724951
 30
0.0
 11
151.34115976617861
 21
262.70364065919659
 31
0.0
 70
   128
 13
179.34487467562889
 23
255.603952724951
 33
0.0
 14
179.34487467562889
 24
253.603952724951
 34
0.0
 50
90.000000000000028
1001
ACAD_DSTYLE_DIMINSPECT
1070
   396
1000
100%
1070
   395
1000

1070
   394
1070
    33
1070
   393
1070
     0
1001
ACAD
1000
DSTYLE
1002
{
1070
   173
1070
     1
1070
   174
1070
     1
1070
     6
1000
OPEN30
1070
     7
1000
GENDOT
1002
}
  0
DIMENSION
  5
93F1
  8
AM_5
  2
*D34
 10
151.2986218506268
 20
251.603952724951
 30
0.0
 11
142.91766269625461
 21
247.08274753729361
 31
0.0
 70
   128
 13
179.34487467562889
 23
253.603952724951
 33
0.0
 14
179.344874675629
 24
251.603952724951
 34
0.0
 50
90.0
1001
ACAD_DSTYLE_DIMINSPECT
1070
   396
1000
100%
1070
   395
1000

1070
   394
1070
    33
1070
   393
1070
     0
1001
ACAD
1000
DSTYLE
1002
{
1070
   287
1070
     4
1070
   174
1070
     1
1070
   279
1070
     1
1070
     5
1000
GENDOT
1002
}
  0
DIMENSION
  5
942E
  8
AM_5
  2
*D35
 10
151.34115976617861
 20
249.60395272495089
 30
0.0
 11
151.34115976617861
 21
242.603952724951
 31
0.0
 70
   128
 13
179.344874675629
 23
251.603952724951
 33
0.0
 14
179.344874675629
 24
249.60395272495089
 34
0.0
 50
90.0
1001
ACAD_DSTYLE_DIMINSPECT
1070
   396
1000
100%
1070
   395
1000

1070
   394
1070
    33
1070
   393
1070
     0
1001
ACAD
1000
DSTYLE
1002
{
1070
   173
1070
     1
1070
   174
1070
     1
1070
     6
1000
GENDOT
1070
     7
1000
OPEN30
1002
}
  0
DIMENSION
  5
949D
  8
AM_5
  2
*D36
 10
135.66671965193379
 20
255.603952724951
 30
0.0
 11
133.16671965193379
 21
252.603952724951
 31
0.0
 70
     0
 13
179.344874675629
 23
249.60395272495089
 33
0.0
 14
179.34487467562889
 24
255.603952724951
 34
0.0
 50
90.000000000000028
1001
ACAD_DSTYLE_DIMINSPECT
1070
   396
1000
100%
1070
   395
1000

1070
   394
1070
    33
1070
   393
1070
     0
  0
VIEWPORT
  5
95A
 67
     1
  8
0
  6
CONTINUOUS
 10
128.5
 20
97.5
 30
0.0
 40
386.73855140186919
 41
222.18000000000001
 68
     1
 69
     1
1001
ACAD
1000
MVIEW
1002
{
1070
    16
1010
0.0
1020
0.0
1030
0.0
1010
0.0
1020
0.0
1030
1.0
1040
0.0
1040
222.18000000000001
1040
128.5
1040
97.5
1040
50.0
1040
0.0
1040
0.0
1070
     0
1070
   100
1070
     1
1070
     1
1070
     0
1070
     0
1070
     0
1070
     0
1040
0.0
1040
0.0
1040
0.0
1040
10.0
1040
10.0
1040
10.0
1040
10.0
1070
     0
1002
{
1002
}
1002
}
1001
GENIUS_GENODEF_13
1002
{
1000
HIER
1070
     0
1002
}
1002
{
1000
MANEDIT
1070
     0
1002
}
1002
{
1000
NOSEL
1070
     0
1002
}
1002
{
1000
BEHIND
1070
     0
1002
}
1002
{
1000
OTHER
1070
     0
1002
}
1002
{
1000
REACTOR
1002
}
1001
GENIUS_GENOBJ-N-SDF_13
1002
{
1000
OWNER
1000
GEN
1002
}
1001
GENIUS_GENSCREG_15
1000
PF
1040
1.0
1000
DF
1040
1.0
1000
MIN
1011
-64.869275700934566
1021
0.0
1031
0.0
1021
-13.59
1031
0.0
1000
MAX
1011
321.86927570093462
1021
0.0
1031
0.0
1021
208.59
1031
0.0
1000
FLAGS
1070
     4
  0
ENDSEC
  0
EOF
