  0
SECTION
  2
HEADER
  9
$ACADVER
  1
AC1009
  9
$INSBASE
 10
0.0
 20
0.0
 30
0.0
  9
$EXTMIN
 10
12.9485625334103798
 20
9.9941679040871918
 30
-0.0015258207003583
  9
$EXTMAX
 10
289.4654387545234044
 20
201.1265329858815107
 30
0.0000000349246037
  9
$LIMMIN
 10
12.9569999999950802
 20
10.0
  9
$LIMMAX
 10
289.4570000003852783
 20
201.1206999999936045
  9
$ORTHOMODE
 70
     0
  9
$REGENMODE
 70
     1
  9
$FILLMODE
 70
     1
  9
$QTEXTMODE
 70
     0
  9
$MIRRTEXT
 70
     1
  9
$DRAGMODE
 70
     2
  9
$LTSCALE
 40
5.0
  9
$OSMODE
 70
    53
  9
$ATTMODE
 70
     1
  9
$TEXTSIZE
 40
3.0
  9
$TRACEWID
 40
0.05
  9
$TEXTSTYLE
  7
STANDARD
  9
$CLAYER
  8
0
  9
$CELTYPE
  6
BYLAYER
  9
$CECOLOR
 62
   256
  9
$DIMSCALE
 40
1.0
  9
$DIMASZ
 40
2.5
  9
$DIMEXO
 40
1.0
  9
$DIMDLI
 40
7.0
  9
$DIMRND
 40
0.0
  9
$DIMDLE
 40
0.0
  9
$DIMEXE
 40
1.0
  9
$DIMTP
 40
0.1
  9
$DIMTM
 40
0.1
  9
$DIMTXT
 40
3.0
  9
$DIMCEN
 40
0.0
  9
$DIMTSZ
 40
0.0
  9
$DIMTOL
 70
     0
  9
$DIMLIM
 70
     0
  9
$DIMTIH
 70
     0
  9
$DIMTOH
 70
     0
  9
$DIMSE1
 70
     0
  9
$DIMSE2
 70
     0
  9
$DIMTAD
 70
     3
  9
$DIMZIN
 70
     8
  9
$DIMBLK
  1
OPEN30
  9
$DIMASO
 70
     1
  9
$DIMSHO
 70
     1
  9
$DIMPOST
  1

  9
$DIMAPOST
  1
"
  9
$DIMALT
 70
     0
  9
$DIMALTD
 70
     2
  9
$DIMALTF
 40
0.0393701
  9
$DIMLFAC
 40
1.0
  9
$DIMTOFL
 70
     1
  9
$DIMTVP
 40
0.0
  9
$DIMTIX
 70
     0
  9
$DIMSOXD
 70
     0
  9
$DIMSAH
 70
     0
  9
$DIMBLK1
  1

  9
$DIMBLK2
  1

  9
$DIMSTYLE
  2
AM_JIS
  9
$DIMCLRD
 70
     7
  9
$DIMCLRE
 70
     7
  9
$DIMCLRT
 70
     7
  9
$DIMTFAC
 40
0.71
  9
$DIMGAP
 40
1.0
  9
$LUNITS
 70
     2
  9
$LUPREC
 70
     4
  9
$SKETCHINC
 40
0.1
  9
$FILLETRAD
 40
0.0
  9
$AUNITS
 70
     0
  9
$AUPREC
 70
     0
  9
$MENU
  1
acad
  9
$ELEVATION
 40
0.0
  9
$PELEVATION
 40
0.0
  9
$THICKNESS
 40
0.0
  9
$LIMCHECK
 70
     0
  9
$BLIPMODE
 70
     0
  9
$CHAMFERA
 40
0.0
  9
$CHAMFERB
 40
0.0
  9
$SKPOLY
 70
     0
  9
$TDCREATE
 40
2455755.6568634258583188
  9
$TDUPDATE
 40
2459005.3982175928540528
  9
$TDINDWG
 40
0.2174428588
  9
$TDUSRTIMER
 40
0.2174426736
  9
$USRTIMER
 70
     1
  9
$ANGBASE
 50
0.0
  9
$ANGDIR
 70
     0
  9
$PDMODE
 70
     0
  9
$PDSIZE
 40
0.0
  9
$PLINEWID
 40
0.0
  9
$COORDS
 70
     1
  9
$SPLFRAME
 70
     0
  9
$SPLINETYPE
 70
     6
  9
$SPLINESEGS
 70
     8
  9
$ATTDIA
 70
     1
  9
$ATTREQ
 70
     1
  9
$HANDLING
 70
     1
  9
$HANDSEED
  5
3CD8
  9
$SURFTAB1
 70
     6
  9
$SURFTAB2
 70
     6
  9
$SURFTYPE
 70
     6
  9
$SURFU
 70
     6
  9
$SURFV
 70
     6
  9
$UCSNAME
  2

  9
$UCSORG
 10
0.0
 20
0.0
 30
0.0
  9
$UCSXDIR
 10
1.0
 20
0.0
 30
0.0
  9
$UCSYDIR
 10
0.0
 20
1.0
 30
0.0
  9
$PUCSNAME
  2

  9
$PUCSORG
 10
0.0
 20
0.0
 30
0.0
  9
$PUCSXDIR
 10
1.0
 20
0.0
 30
0.0
  9
$PUCSYDIR
 10
0.0
 20
1.0
 30
0.0
  9
$USERI1
 70
     0
  9
$USERI2
 70
     0
  9
$USERI3
 70
     0
  9
$USERI4
 70
     0
  9
$USERI5
 70
     0
  9
$USERR1
 40
0.0
  9
$USERR2
 40
0.0
  9
$USERR3
 40
0.0
  9
$USERR4
 40
0.0
  9
$USERR5
 40
0.0
  9
$WORLDVIEW
 70
     1
  9
$SHADEDGE
 70
     3
  9
$SHADEDIF
 70
    70
  9
$TILEMODE
 70
     1
  9
$MAXACTVP
 70
    16
  9
$PLIMCHECK
 70
     0
  9
$PEXTMIN
 10
1.0000000000000000E+20
 20
1.0000000000000000E+20
 30
1.0000000000000000E+20
  9
$PEXTMAX
 10
-1.0000000000000000E+20
 20
-1.0000000000000000E+20
 30
-1.0000000000000000E+20
  9
$PLIMMIN
 10
-20.0
 20
-7.5
  9
$PLIMMAX
 10
277.0
 20
202.5
  9
$UNITMODE
 70
     0
  9
$VISRETAIN
 70
     0
  9
$PLINEGEN
 70
     1
  9
$PSLTSCALE
 70
     0
  0
ENDSEC
  0
SECTION
  2
TABLES
  0
TABLE
  2
VPORT
 70
     1
  0
VPORT
  2
*ACTIVE
 70
     0
 10
0.0
 20
0.0
 11
1.0
 21
1.0
 12
151.207000643966893
 22
105.5603504449842944
 13
0.0
 23
0.0
 14
2.5
 24
2.5
 15
10.0
 25
10.0
 16
0.0
 26
0.0
 36
1.0
 17
0.0
 27
0.0
 37
0.0
 40
192.7305012655700978
 41
2.1597222222222219
 42
50.0
 43
0.0
 44
0.0
 50
0.0
 51
0.0
 71
    16
 72
   100
 73
     1
 74
     3
 75
     0
 76
     0
 77
     0
 78
     1
  0
ENDTAB
  0
TABLE
  2
LTYPE
 70
    22
  0
LTYPE
  2
CONTINUOUS
 70
     0
  3
Solid line (NEC CAE2D for Win R7.2 : 2008.02.20
 72
    65
 73
     0
 40
0.0
  0
LTYPE
  2
HIDDEN
 70
     0
  3
Hidden __ __ __ __ __ __ __ __ __ __ __ __ __ _
 72
    65
 73
     2
 40
0.375
 49
0.25
 49
-0.125
  0
LTYPE
  2
PHANTOM2
 70
     0
  3
Phantom (.5x) ___ _ _ ___ _ _ ___ _ _ ___ _ _
 72
    65
 73
     6
 40
1.25
 49
0.625
 49
-0.125
 49
0.125
 49
-0.125
 49
0.125
 49
-0.125
  0
LTYPE
  2
CENTER
 70
     0
  3
Center ____ _ ____ _ ____ _ ____ _ ____ _ ____
 72
    65
 73
     4
 40
2.0
 49
1.25
 49
-0.25
 49
0.25
 49
-0.25
  0
LTYPE
  2
CENTER2
 70
     0
  3
Center (.5x) ___ _ ___ _ ___ _ ___ _ ___ _ ___
 72
    65
 73
     4
 40
1.125
 49
0.75
 49
-0.125
 49
0.125
 49
-0.125
  0
LTYPE
  2
HIDDEN2
 70
     0
  3
Hidden (.5x) _ _ _ _ _ _ _ _ _ _ _ _ _ _ _ _ _
 72
    65
 73
     2
 40
0.1875
 49
0.125
 49
-0.0625
  0
LTYPE
  2
ACANSTGB
 70
     0
  3
__ . . __ . .
 72
    65
 73
     6
 40
0.35433070866
 49
0.15748031496
 49
-0.03937007874
 49
0.03937007874
 49
-0.03937007874
 49
0.03937007874
 49
-0.03937007874
  0
LTYPE
  2
ACANSTGL
 70
     0
  3
_ _ _ _ _
 72
    65
 73
     2
 40
0.11811023622
 49
0.07874015748
 49
-0.03937007874
  0
LTYPE
  2
ACJISWELD
 70
     0
  3
_ _ _ _ _
 72
    65
 73
     2
 40
2.0
 49
2.0
 49
-1.0
  0
LTYPE
  2
ACJISTGB
 70
     0
  3
__ . . __ . .
 72
    65
 73
     6
 40
9.0
 49
4.0
 49
-1.0
 49
1.0
 49
-1.0
 49
1.0
 49
-1.0
  0
LTYPE
  2
ACJISTGL
 70
     0
  3
_ _ _ _ _
 72
    65
 73
     2
 40
3.0
 49
2.0
 49
-1.0
  0
LTYPE
  2
ACISOWELD
 70
     0
  3
_ _ _ _ _
 72
    65
 73
     2
 40
2.0
 49
2.0
 49
-1.0
  0
LTYPE
  2
ACISOTGB
 70
     0
  3
__ . . __ . .
 72
    65
 73
     6
 40
9.0
 49
4.0
 49
-1.0
 49
1.0
 49
-1.0
 49
1.0
 49
-1.0
  0
LTYPE
  2
ACISOTGL
 70
     0
  3
_ _ _ _ _
 72
    65
 73
     2
 40
3.0
 49
2.0
 49
-1.0
  0
LTYPE
  2
AM_ISO02W050
 70
     0
  3
__ __ __ __ __ __ __ __ __ __ __ __ __ __ __
 72
    65
 73
     2
 40
7.5
 49
6.0
 49
-1.5
  0
LTYPE
  2
AM_ISO08W050
 70
     0
  3
____ . ____ . ____ . ____ . ____ . ____ . ____
 72
    65
 73
     4
 40
18.0
 49
12.0
 49
-1.5
 49
3.0
 49
-1.5
  0
LTYPE
  2
AM_ISO09W050
 70
     0
  3
_____ . . _____ . . _____ . . ____ .. ____
 72
    65
 73
     6
 40
22.5
 49
12.0
 49
-1.5
 49
3.0
 49
-1.5
 49
3.0
 49
-1.5
  0
LTYPE
  2
AMCONSTR
 70
     0
  3
_______________________
 72
    65
 73
     2
 40
9999.0
 49
9999.0
 49
0.0
  0
LTYPE
  2
AM_ISO08W050X2
 70
     0
  3
__ . __ . __ . __ . __ . __
 72
    65
 73
     4
 40
9.0
 49
6.0
 49
-0.75
 49
1.5
 49
-0.75
  0
LTYPE
  2
AM_ISO02W050X2
 70
     0
  3
 _ _ _ _ _ _ _ _ _ _ _ _
 72
    65
 73
     2
 40
3.75
 49
3.0
 49
-0.75
  0
LTYPE
  2
AMZIGZAG
 70
     0
  3
/\/-/\/-/\/-/\/-/\/-/\/
 72
    65
 73
     2
 40
11.0000999999999998
 49
0.0001
 49
-11.0
  0
ENDTAB
  0
TABLE
  2
LAYER
 70
    22
  0
LAYER
  2
0
 70
     0
 62
     3
  6
CONTINUOUS
  0
LAYER
  2
SYS-BUHIN0
 70
     0
 62
     7
  6
CONTINUOUS
  0
LAYER
  2
AM_0
 70
     0
 62
     3
  6
CONTINUOUS
  0
LAYER
  2
DEFPOINTS
 70
     0
 62
     7
  6
CONTINUOUS
  0
LAYER
  2
AM_5
 70
     0
 62
     7
  6
CONTINUOUS
  0
LAYER
  2
AM_BOR
 70
     0
 62
     7
  6
CONTINUOUS
  0
LAYER
  2
SYS-BUHINCODE
 70
     0
 62
     7
  6
CONTINUOUS
  0
LAYER
  2
AM_7
 70
     0
 62
     4
  6
CENTER
  0
LAYER
  2
AM_3
 70
     0
 62
     7
  6
HIDDEN
  0
LAYER
  2
AM_12
 70
     0
 62
   253
  6
CONTINUOUS
  0
LAYER
  2
AM_PAREF
 70
     0
 62
     4
  6
CONTINUOUS
  0
LAYER
  2
AM_6
 70
     0
 62
     7
  6
CONTINUOUS
  0
LAYER
  2
AM_8
 70
     0
 62
   253
  6
CONTINUOUS
  0
LAYER
  2
AM_4
 70
     0
 62
     6
  6
CONTINUOUS
  0
LAYER
  2
AM_10
 70
     0
 62
     7
  6
CONTINUOUS
  0
LAYER
  2
AM_CL
 70
     0
 62
     1
  6
CONTINUOUS
  0
LAYER
  2
AM_2
 70
     0
 62
     5
  6
PHANTOM2
  0
LAYER
  2
AM_1N
 70
     0
 62
    14
  6
CONTINUOUS
  0
LAYER
  2
AM_1
 70
     0
 62
    14
  6
PHANTOM2
  0
LAYER
  2
AM_9
 70
     0
 62
    -7
  6
CONTINUOUS
  0
LAYER
  2
SYS-TEISEI0
 70
     0
 62
     7
  6
CONTINUOUS
  0
ENDTAB
  0
TABLE
  2
STYLE
 70
    15
  0
STYLE
  2
STANDARD
 70
     0
 40
0.0
 41
1.0
 50
0.0
 71
     0
 42
3.0
  3
dim.shx
  4
extfont.shx
  0
STYLE
  2
KNJYOKO
 70
     0
 40
0.0
 41
1.0
 50
0.0
 71
     0
 42
3.099999904632567
  3
TXT.shx
  4
extfont.shx
  0
STYLE
  2
ACANSTS
 70
     0
 40
1.0
 41
1.0
 50
0.0
 71
     0
 42
0.2
  3
romans.shx
  4
extfont.shx
  0
STYLE
  2
ACANSGDT
 70
     0
 40
0.0
 41
1.0
 50
0.0
 71
     0
 42
0.2
  3
amgdt.shx
  4

  0
STYLE
  2
ACJISTS
 70
     0
 40
1.0
 41
1.0
 50
0.0
 71
     0
 42
0.2
  3
isocp.shx
  4
extfont.shx
  0
STYLE
  2
ACJISGDT
 70
     0
 40
0.0
 41
1.0
 50
0.0
 71
     0
 42
0.2
  3
amgdt.shx
  4

  0
STYLE
  2
MINNTYOU
 70
     0
 40
0.0
 41
1.0
 50
0.0
 71
     0
 42
3.0
  3
txt
  4

  0
STYLE
  2
R寸法
 70
     0
 40
2.0
 41
1.0
 50
0.0
 71
     0
 42
3.0
  3
dim.shx
  4
extfont.shx
  0
STYLE
  2
ANKTATE
 70
     4
 40
0.0
 41
1.0
 50
0.0
 71
     0
 42
3.099999904632567
  3
TXT
  4

  0
STYLE
  2
KNJTATE
 70
     4
 40
0.0
 41
1.0
 50
0.0
 71
     0
 42
3.099999904632567
  3
TXT
  4
BIGFONT
  0
STYLE
  2
ACISOTS
 70
     0
 40
1.0
 41
1.0
 50
0.0
 71
     0
 42
2.5
  3
isocp.shx
  4
extfont.shx
  0
STYLE
  2
ACISOGDT
 70
     0
 40
0.0
 41
1.0
 50
0.0
 71
     0
 42
2.5
  3
amgdt.shx
  4

  0
STYLE
  2

 70
     1
 40
0.0
 41
1.0
 50
0.0
 71
     0
 42
3.0
  3
genltshp.shx
  4

  0
STYLE
  2
MtXpl_isocp_shxextfo
 70
     0
 40
0.0
 41
1.0
 50
0.0
 71
     0
 42
3.0
  3
isocp.shx
  4
extfont.shx
  0
ENDTAB
  0
TABLE
  2
VIEW
 70
     6
  0
VIEW
  2
AM_VIEW1
 70
     0
 40
95.560349999996788
 10
100.7985233311002986
 20
153.3405249999952105
 41
175.683046662210387
 11
0.0
 21
0.0
 31
1.0
 12
0.0
 22
0.0
 32
0.0
 42
50.0
 43
0.0
 44
0.0
 50
0.0
 71
    16
  0
VIEW
  2
AM_VIEW2
 70
     0
 40
95.560349999996788
 10
201.615476669280099
 20
153.3405249999952105
 41
175.683046662210387
 11
0.0
 21
0.0
 31
1.0
 12
0.0
 22
0.0
 32
0.0
 42
50.0
 43
0.0
 44
0.0
 50
0.0
 71
    16
  0
VIEW
  2
AM_VIEW3
 70
     0
 40
95.560349999996788
 10
100.7985233311002986
 20
57.7801749999984011
 41
175.683046662210387
 11
0.0
 21
0.0
 31
1.0
 12
0.0
 22
0.0
 32
0.0
 42
50.0
 43
0.0
 44
0.0
 50
0.0
 71
    16
  0
VIEW
  2
AM_VIEW4
 70
     0
 40
95.560349999996788
 10
201.615476669280099
 20
57.7801749999984011
 41
175.683046662210387
 11
0.0
 21
0.0
 31
1.0
 12
0.0
 22
0.0
 32
0.0
 42
50.0
 43
0.0
 44
0.0
 50
0.0
 71
    16
  0
VIEW
  2
AM_VIEW5
 70
     0
 40
95.5603499999968165
 10
151.2070000001901064
 20
105.5603499999968022
 41
175.683046662210387
 11
0.0
 21
0.0
 31
1.0
 12
0.0
 22
0.0
 32
0.0
 42
50.0
 43
0.0
 44
0.0
 50
0.0
 71
    16
  0
VIEW
  2
AM_VIEW6
 70
     0
 40
191.1187887929935982
 10
151.2070000001901917
 20
105.5603499999968022
 41
351.3625796634876224
 11
0.0
 21
0.0
 31
1.0
 12
0.0
 22
0.0
 32
0.0
 42
50.0
 43
0.0
 44
0.0
 50
0.0
 71
    16
  0
ENDTAB
  0
TABLE
  2
UCS
 70
     0
  0
ENDTAB
  0
TABLE
  2
APPID
 70
    64
  0
APPID
  2
ACAD
 70
     0
  0
APPID
  2
ACADANNOTATIVE
 70
     0
  0
APPID
  2
ACAD_MLEADERVER
 70
     0
  0
APPID
  2
MCAD_NO_VIS
 70
     0
  0
APPID
  2
ACAD_TEMP_GRAPHIC
 70
     0
  0
APPID
  2
AD_DRAW
 70
     0
  0
APPID
  2
ACATTRIBSERVICES
 70
     0
  0
APPID
  2
DESIGNERASSEMBLIES
 70
     0
  0
APPID
  2
ACADM_DIM_EDIT
 70
     0
  0
APPID
  2
AMDT_DM_ADJ
 70
     0
  0
APPID
  2
ACADANNOPO
 70
     0
  0
APPID
  2
ACAECLAYERSTANDARD
 70
     0
  0
APPID
  2
ACDBDYNAMICBLOCKGUID
 70
     0
  0
APPID
  2
ACDBBLOCKREPETAG
 70
     0
  0
APPID
  2
ACAUTHENVIRON
 70
     0
  0
APPID
  2
ACDBDYNAMICBLOCKTRUENAME
 70
     0
  0
APPID
  2
GENIUS_GENREC_14
 70
     0
  0
APPID
  2
GENIUS_GENOBJ-N-REC_13
 70
     0
  0
APPID
  2
GENIUS_GENODEF_13
 70
     0
  0
APPID
  2
ACAD_EXEMPT_FROM_CAD_STANDARDS
 70
     0
  0
APPID
  2
GENIUS_GENOBJ-N-CEN_13
 70
     0
  0
APPID
  2
GENIUS_GENCEN_19
 70
     0
  0
APPID
  2
ACAD_DSTYLE_DIMINSPECT
 70
     0
  0
APPID
  2
DCO15
 70
     0
  0
APPID
  2
ACAD_PSEXT
 70
     0
  0
APPID
  2
GENIUS_GENBH_13
 70
     0
  0
APPID
  2
GENIUS_GENOENT_13
 70
     0
  0
APPID
  2
GENIUS_GENOLIS_13
 70
     0
  0
APPID
  2
GENIUS_GENOBJ-NBEHI-BHF_13
 70
     0
  0
APPID
  2
GENIUS_GENOREF_13
 70
     0
  0
APPID
  2
GENIUS_GENOBJ-NBEHI-BHB_13
 70
     0
  0
APPID
  2
AMG_2DHIDE
 70
     0
  0
APPID
  2
AMG_2DSTRUCT_BTR
 70
     0
  0
APPID
  2
GENIUS_AMGTXT_16
 70
     0
  0
APPID
  2
GENIUS_GENOBJ-N-HTC_13
 70
     0
  0
APPID
  2
GENIUS_GENHATCH_13
 70
     0
  0
APPID
  2
GEVID1208849169
 70
     0
  0
APPID
  2
GEVDC
 70
     0
  0
APPID
  2
ACADM_2DVIEW_IGN_NOTIFY
 70
     0
  0
APPID
  2
GEVID1208849170
 70
     0
  0
APPID
  2
GEVID1208849171
 70
     0
  0
APPID
  2
GEVRADREF
 70
     0
  0
APPID
  2
ACAD_DSTYLE_DIMJAG
 70
     0
  0
APPID
  2
ACAD_DSTYLE_DIMTALN
 70
     0
  0
APPID
  2
GENIUS_GENDTOL_13
 70
     0
  0
APPID
  2
GENIUS_GENTRA_14
 70
     0
  0
APPID
  2
GENIUS_GENOBJ-N-TIT_13
 70
     0
  0
APPID
  2
GENIUS_GENTITLE_13
 70
     0
  0
APPID
  2
GENIUS_GENSCREG_15
 70
     0
  0
APPID
  2
GENIUS_GENOBJ-N-SDF_13
 70
     0
  0
APPID
  2
ACAD_DSTYLE_DIMRADIAL_EXTENSION
 70
     0
  0
APPID
  2
GENIUS_GENOBJ-N-FIL_13
 70
     0
  0
APPID
  2
GENIUS_GENOBJ-N-CRS_13
 70
     0
  0
APPID
  2
GENIUS_GENDIMSH_14
 70
     0
  0
APPID
  2
ACAD_DSTYLE_DIMANGULAR_EXT
 70
     0
  0
APPID
  2
ACAD_NAV_VCDISPLAY
 70
     0
  0
APPID
  2
ACAD_DSTYLE_DIMARC_LENGTH_
 70
     0
  0
APPID
  2
ACAD_DSTYLE_DIM_LINETYPE
 70
     0
  0
APPID
  2
ACAD_DSTYLE_DIM_EXT1_LINETYPE
 70
     0
  0
APPID
  2
ACAD_DSTYLE_DIM_EXT2_LINETYPE
 70
     0
  0
APPID
  2
ACDBATTR
 70
     0
  0
APPID
  2
ACAD_DSTYLE_DIMBREAK
 70
     0
  0
APPID
  2
GENIUS_GENSCREG_13
 70
     0
  0
APPID
  2
CONTENTBLOCKICON
 70
     0
  0
ENDTAB
  0
TABLE
  2
DIMSTYLE
 70
    26
  0
DIMSTYLE
  2
STANDARD
 70
     0
  3

  4

  5

  6

  7

 40
1.0
 41
1.0
 42
0.8
 43
0.38
 44
1.0
 45
0.0
 46
0.0
 47
0.0
 48
0.0
140
3.1000000000000001
141
0.09
142
0.0
143
25.3999999999999986
144
1.0
145
0.5
146
1.0
147
0.09
 71
     0
 72
     0
 73
     0
 74
     0
 75
     0
 76
     0
 77
     1
 78
     0
170
     0
171
     2
172
     0
173
     0
174
     0
175
     0
176
     0
177
     0
178
     0
  0
DIMSTYLE
  2
AM_ANSI
 70
     0
  3

  4
mm
  5

  6

  7

 40
1.0
 41
0.1
 42
0.05
 43
0.5
 44
0.1
 45
0.0
 46
0.0
 47
0.1
 48
0.1
140
0.12
141
0.0
142
0.0
143
25.3999999999999986
144
1.0
145
0.0
146
0.71
147
0.06
 71
     0
 72
     0
 73
     1
 74
     1
 75
     0
 76
     0
 77
     0
 78
     7
170
     0
171
     2
172
     0
173
     0
174
     0
175
     0
176
   256
177
   256
178
     2
  0
DIMSTYLE
  2
AM_ANSI$3
 70
     0
  3

  4
mm
  5

  6

  7

 40
1.0
 41
0.1
 42
0.05
 43
0.5
 44
0.1
 45
0.0
 46
0.0
 47
0.1
 48
0.1
140
0.12
141
0.0
142
0.0
143
25.3999999999999986
144
1.0
145
0.0
146
0.71
147
0.06
 71
     0
 72
     0
 73
     1
 74
     1
 75
     0
 76
     0
 77
     0
 78
     7
170
     0
171
     2
172
     0
173
     0
174
     0
175
     0
176
   256
177
   256
178
     2
  0
DIMSTYLE
  2
AM_ANSI$4
 70
     0
  3

  4
mm
  5

  6

  7

 40
1.0
 41
0.1
 42
0.05
 43
0.5
 44
0.1
 45
0.0
 46
0.0
 47
0.1
 48
0.1
140
0.12
141
0.0
142
0.0
143
25.3999999999999986
144
1.0
145
0.0
146
0.71
147
0.06
 71
     0
 72
     0
 73
     1
 74
     1
 75
     0
 76
     0
 77
     0
 78
     7
170
     0
171
     2
172
     0
173
     0
174
     0
175
     0
176
   256
177
   256
178
     2
  0
DIMSTYLE
  2
AM_ANSI$7
 70
     0
  3

  4
mm
  5

  6

  7

 40
1.0
 41
0.1
 42
0.05
 43
0.5
 44
0.1
 45
0.0
 46
0.0
 47
0.1
 48
0.1
140
0.24
141
0.0
142
0.0
143
25.3999999999999986
144
1.0
145
0.0
146
0.71
147
0.06
 71
     0
 72
     0
 73
     1
 74
     1
 75
     0
 76
     0
 77
     0
 78
     7
170
     0
171
     2
172
     0
173
     0
174
     0
175
     0
176
   256
177
   256
178
     2
  0
DIMSTYLE
  2
AM_ANSI$SF
 70
     0
  3

  4
mm
  5

  6

  7

 40
1.0
 41
0.1
 42
0.05
 43
0.5
 44
0.1
 45
0.0
 46
0.0
 47
0.1
 48
0.1
140
0.12
141
0.0
142
0.0
143
25.3999999999999986
144
1.0
145
0.0
146
0.71
147
0.06
 71
     0
 72
     0
 73
     1
 74
     1
 75
     1
 76
     1
 77
     0
 78
     7
170
     0
171
     2
172
     0
173
     0
174
     0
175
     0
176
   256
177
   256
178
     2
  0
DIMSTYLE
  2
AM_ANSI$SH
 70
     0
  3

  4
mm
  5

  6
GENAXEH
  7

 40
1.0
 41
0.1
 42
0.05
 43
0.5
 44
0.1
 45
0.0
 46
0.0
 47
0.1
 48
0.1
140
0.12
141
0.0
142
0.0
143
25.3999999999999986
144
1.0
145
0.0
146
0.71
147
0.06
 71
     0
 72
     0
 73
     1
 74
     1
 75
     1
 76
     1
 77
     0
 78
     7
170
     0
171
     2
172
     0
173
     1
174
     0
175
     0
176
   256
177
   256
178
     2
  0
DIMSTYLE
  2
AM_JIS
 70
     0
  3

  4
"
  5
OPEN30
  6

  7

 40
1.0
 41
2.5
 42
1.0
 43
7.0
 44
1.0
 45
0.0
 46
0.0
 47
0.1
 48
0.1
140
3.0
141
0.0
142
0.0
143
0.0393701
144
1.0
145
0.0
146
0.71
147
1.0
 71
     0
 72
     0
 73
     0
 74
     0
 75
     0
 76
     0
 77
     3
 78
     8
170
     0
171
     2
172
     1
173
     0
174
     0
175
     0
176
     7
177
     7
178
     7
  0
DIMSTYLE
  2
AM_JIS$3
 70
     0
  3

  4
"
  5
OPEN30
  6

  7

 40
1.0
 41
2.5
 42
1.0
 43
10.0
 44
1.0
 45
0.0
 46
0.0
 47
0.1
 48
0.1
140
3.0
141
0.0
142
0.0
143
0.0393701
144
1.0
145
0.0
146
0.71
147
1.0
 71
     0
 72
     0
 73
     0
 74
     1
 75
     0
 76
     0
 77
     3
 78
     8
170
     0
171
     2
172
     0
173
     0
174
     0
175
     0
176
     7
177
     7
178
     7
  0
DIMSTYLE
  2
AM_JIS$4
 70
     0
  3

  4
"
  5
OPEN30
  6

  7

 40
1.0
 41
2.5
 42
1.0
 43
10.0
 44
1.0
 45
0.0
 46
0.0
 47
0.1
 48
0.1
140
2.0
141
0.0
142
0.0
143
0.0393701
144
1.0
145
0.0
146
0.71
147
1.0
 71
     0
 72
     0
 73
     0
 74
     0
 75
     0
 76
     0
 77
     3
 78
     8
170
     0
171
     2
172
     0
173
     0
174
     0
175
     0
176
     7
177
     7
178
     7
  0
DIMSTYLE
  2
AM_JIS$6
 70
     0
  3

  4
"
  5
OPEN30
  6

  7

 40
1.0
 41
2.5
 42
1.0
 43
10.0
 44
1.0
 45
0.0
 46
0.0
 47
0.1
 48
0.1
140
3.0
141
0.0
142
0.0
143
0.0393701
144
1.0
145
0.0
146
0.71
147
1.0
 71
     0
 72
     0
 73
     0
 74
     0
 75
     0
 76
     0
 77
     0
 78
     8
170
     0
171
     2
172
     1
173
     0
174
     0
175
     0
176
   256
177
     7
178
     7
  0
DIMSTYLE
  2
AM_JIS$7
 70
     0
  3

  4
"
  5
OPEN30
  6

  7

 40
1.0
 41
2.5
 42
1.0
 43
10.0
 44
1.0
 45
0.0
 46
0.0
 47
0.1
 48
0.1
140
3.0
141
0.0
142
0.0
143
0.0393701
144
1.0
145
0.0
146
0.71
147
1.0
 71
     0
 72
     0
 73
     0
 74
     0
 75
     0
 76
     0
 77
     3
 78
     8
170
     0
171
     2
172
     1
173
     0
174
     0
175
     0
176
     7
177
   256
178
     7
  0
DIMSTYLE
  2
AM_JIS$SF
 70
     0
  3

  4
"
  5
OPEN30
  6

  7

 40
1.0
 41
2.5
 42
1.0
 43
7.0
 44
1.0
 45
0.0
 46
0.0
 47
0.1
 48
0.1
140
3.0
141
0.0
142
0.0
143
0.0393701
144
1.0
145
0.0
146
0.71
147
1.0
 71
     0
 72
     0
 73
     0
 74
     0
 75
     1
 76
     1
 77
     3
 78
     8
170
     0
171
     2
172
     1
173
     0
174
     0
175
     0
176
     7
177
   256
178
     7
  0
DIMSTYLE
  2
AM_JIS$SH
 70
     0
  3

  4
"
  5

  6
GENAXEH
  7
OPEN30
 40
1.0
 41
2.5
 42
1.0
 43
7.0
 44
1.0
 45
0.0
 46
0.0
 47
0.1
 48
0.1
140
3.0
141
0.0
142
0.0
143
0.0393701
144
2.0
145
0.0
146
0.71
147
1.0
 71
     0
 72
     0
 73
     0
 74
     0
 75
     1
 76
     1
 77
     3
 78
     8
170
     0
171
     2
172
     1
173
     1
174
     0
175
     0
176
     7
177
   256
178
     7
  0
DIMSTYLE
  2
AM_JIS$2
 70
     0
  3

  4
"
  5
OPEN30
  6

  7

 40
1.0
 41
2.5
 42
1.0
 43
7.0
 44
1.0
 45
0.0
 46
0.0
 47
0.1
 48
0.1
140
3.0
141
0.0
142
0.0
143
0.0393701
144
1.0
145
0.0
146
0.71
147
1.0
 71
     0
 72
     0
 73
     0
 74
     0
 75
     0
 76
     0
 77
     3
 78
     8
170
     0
171
     2
172
     1
173
     0
174
     0
175
     0
176
     7
177
     7
178
     7
  0
DIMSTYLE
  2
AM_JIS$0
 70
     0
  3

  4
"
  5
OPEN30
  6

  7

 40
1.0
 41
2.5
 42
1.0
 43
7.0
 44
1.0
 45
0.0
 46
0.0
 47
0.1
 48
0.1
140
3.0
141
0.0
142
0.0
143
0.0393701
144
1.0
145
0.0
146
0.71
147
1.0
 71
     0
 72
     0
 73
     0
 74
     0
 75
     0
 76
     0
 77
     3
 78
     8
170
     0
171
     2
172
     1
173
     0
174
     0
175
     0
176
     7
177
     7
178
     7
  0
DIMSTYLE
  2
STANDARD$0
 70
     0
  3

  4

  5

  6

  7

 40
1.0
 41
1.0
 42
0.8
 43
0.38
 44
1.0
 45
0.0
 46
0.0
 47
0.0
 48
0.0
140
3.1000000000000001
141
0.09
142
0.0
143
25.3999999999999986
144
1.0
145
0.5
146
1.0
147
0.09
 71
     0
 72
     0
 73
     0
 74
     0
 75
     0
 76
     0
 77
     1
 78
     0
170
     0
171
     2
172
     0
173
     0
174
     0
175
     0
176
     0
177
     0
178
     0
  0
DIMSTYLE
  2
ANNOTATIVE
 70
     0
  3

  4

  5

  6

  7

 40
1.0
 41
0.18
 42
0.0625
 43
0.38
 44
0.18
 45
0.0
 46
0.0
 47
0.0
 48
0.0
140
0.18
141
0.09
142
0.0
143
25.3999999999999986
144
1.0
145
0.0
146
1.0
147
0.09
 71
     0
 72
     0
 73
     1
 74
     1
 75
     0
 76
     0
 77
     0
 78
     0
170
     0
171
     2
172
     0
173
     0
174
     0
175
     0
176
     0
177
     0
178
     0
  0
DIMSTYLE
  2
AM_ISO
 70
     0
  3

  4
"
  5

  6

  7

 40
1.0
 41
2.5
 42
1.0
 43
10.0
 44
1.0
 45
0.0
 46
0.0
 47
0.1
 48
0.1
140
3.5
141
0.0
142
0.0
143
0.0393701
144
1.0
145
0.0
146
0.71
147
1.5
 71
     0
 72
     0
 73
     0
 74
     0
 75
     0
 76
     0
 77
     1
 78
     8
170
     0
171
     2
172
     1
173
     0
174
     0
175
     0
176
   256
177
   256
178
     2
  0
DIMSTYLE
  2
AM_ISO$3
 70
     0
  3

  4
"
  5

  6

  7

 40
1.0
 41
2.5
 42
1.0
 43
10.0
 44
1.0
 45
0.0
 46
0.0
 47
0.1
 48
0.1
140
3.5
141
0.0
142
0.0
143
0.0393701
144
1.0
145
0.0
146
0.71
147
1.5
 71
     0
 72
     0
 73
     0
 74
     1
 75
     0
 76
     0
 77
     1
 78
     8
170
     0
171
     2
172
     0
173
     0
174
     0
175
     0
176
   256
177
   256
178
     2
  0
DIMSTYLE
  2
AM_ISO$4
 70
     0
  3

  4
"
  5

  6

  7

 40
1.0
 41
2.5
 42
1.0
 43
10.0
 44
1.0
 45
0.0
 46
0.0
 47
0.1
 48
0.1
140
3.5
141
0.0
142
0.0
143
0.0393701
144
1.0
145
0.0
146
0.71
147
1.5
 71
     0
 72
     0
 73
     0
 74
     1
 75
     0
 76
     0
 77
     1
 78
     8
170
     0
171
     2
172
     0
173
     0
174
     0
175
     0
176
   256
177
   256
178
     2
  0
DIMSTYLE
  2
AM_ISO$6
 70
     0
  3

  4
"
  5

  6

  7

 40
1.0
 41
2.5
 42
1.0
 43
10.0
 44
1.0
 45
0.0
 46
0.0
 47
0.1
 48
0.1
140
3.5
141
0.0
142
0.0
143
0.0393701
144
1.0
145
0.0
146
0.71
147
1.5
 71
     0
 72
     0
 73
     0
 74
     0
 75
     0
 76
     0
 77
     0
 78
     8
170
     0
171
     2
172
     1
173
     0
174
     0
175
     0
176
   256
177
   256
178
     2
  0
DIMSTYLE
  2
AM_ISO$7
 70
     0
  3

  4
"
  5

  6

  7

 40
1.0
 41
2.5
 42
1.0
 43
10.0
 44
1.0
 45
0.0
 46
0.0
 47
0.1
 48
0.1
140
5.0
141
0.0
142
0.0
143
0.0393701
144
1.0
145
0.0
146
0.71
147
1.5
 71
     0
 72
     0
 73
     0
 74
     0
 75
     0
 76
     0
 77
     1
 78
     8
170
     0
171
     2
172
     1
173
     0
174
     0
175
     0
176
   256
177
   256
178
     2
  0
DIMSTYLE
  2
AM_ISO$SF
 70
     0
  3

  4
"
  5

  6

  7

 40
1.0
 41
2.5
 42
1.0
 43
10.0
 44
1.0
 45
0.0
 46
0.0
 47
0.1
 48
0.1
140
3.5
141
0.0
142
0.0
143
0.0393701
144
1.0
145
0.0
146
0.71
147
1.5
 71
     0
 72
     0
 73
     0
 74
     0
 75
     1
 76
     1
 77
     1
 78
     8
170
     0
171
     2
172
     1
173
     0
174
     0
175
     0
176
   256
177
   256
178
     2
  0
DIMSTYLE
  2
AM_ISO$SH
 70
     0
  3

  4
"
  5

  6
GENAXEH
  7

 40
1.0
 41
2.5
 42
1.0
 43
10.0
 44
1.0
 45
0.0
 46
0.0
 47
0.1
 48
0.1
140
3.5
141
0.0
142
0.0
143
0.0393701
144
2.0
145
0.0
146
0.71
147
1.5
 71
     0
 72
     0
 73
     0
 74
     0
 75
     1
 76
     1
 77
     1
 78
     8
170
     0
171
     2
172
     1
173
     1
174
     0
175
     0
176
   256
177
   256
178
     2
  0
ENDTAB
  0
ENDSEC
  0
SECTION
  2
BLOCKS
  0
BLOCK
  8
0
  2
$MODEL_SPACE
 70
     0
 10
0.0
 20
0.0
 30
0.0
  3
$MODEL_SPACE
  1

  0
ENDBLK
  5
1D3
  8
0
  0
BLOCK
 67
     1
  8
0
  2
$PAPER_SPACE
 70
     0
 10
0.0
 20
0.0
 30
0.0
  3
$PAPER_SPACE
  1

  0
ENDBLK
  5
1D1
 67
     1
  8
0
  0
BLOCK
  8
0
  2
GENAXEH
 70
     0
 10
0.0
 20
0.0
 30
0.0
  3
GENAXEH
  1

  0
LINE
  5
264
  8
0
 10
-1.0
 20
0.0
 30
0.0
 11
1.0
 21
0.0
 31
0.0
  0
ENDBLK
  5
266
  8
0
  0
BLOCK
  8
0
  2
_OPEN30
 70
     0
 10
0.0
 20
0.0
 30
0.0
  3
_OPEN30
  1

  0
LINE
  5
2FA
  8
0
  6
BYBLOCK
 62
     0
 10
-1.0
 20
0.26794919
 30
0.0
 11
0.0
 21
0.0
 31
0.0
  0
LINE
  5
2FB
  8
0
  6
BYBLOCK
 62
     0
 10
0.0
 20
0.0
 30
0.0
 11
-1.0
 21
-0.26794919
 31
0.0
  0
LINE
  5
2FC
  8
0
  6
BYBLOCK
 62
     0
 10
0.0
 20
0.0
 30
0.0
 11
-1.0
 21
0.0
 31
0.0
  0
ENDBLK
  5
2FE
  8
0
  0
BLOCK
  8
0
  2
MYPLIST0
 70
     2
 10
0.0
 20
0.0
 30
0.0
  3
MYPLIST0
  1

  0
LINE
  5
346
  8
SYS-BUHIN0
  6
CONTINUOUS
 62
     4
 10
-170.0
 20
7.0
 30
0.0
 11
0.0
 21
7.0
 31
0.0
  0
LINE
  5
347
  8
SYS-BUHIN0
  6
CONTINUOUS
 62
     4
 10
-170.0
 20
-0.0000000000030695
 30
0.0
 11
0.0
 21
-0.0000000000001137
 31
0.0
  0
LINE
  5
348
  8
SYS-BUHIN0
  6
CONTINUOUS
 62
     4
 10
-170.0
 20
7.0
 30
0.0
 11
-170.0
 21
0.0
 31
0.0
  0
LINE
  5
349
  8
SYS-BUHIN0
  6
CONTINUOUS
 62
     4
 10
0.0
 20
7.0
 30
0.0
 11
0.0
 21
0.0
 31
0.0
  0
LINE
  5
34A
  8
SYS-BUHIN0
  6
CONTINUOUS
 62
     4
 10
-161.0
 20
7.0
 30
0.0
 11
-161.0
 21
0.0
 31
0.0
  0
LINE
  5
34B
  8
SYS-BUHIN0
  6
CONTINUOUS
 62
     4
 10
-99.0
 20
7.0
 30
0.0
 11
-99.0
 21
0.0
 31
0.0
  0
LINE
  5
34C
  8
SYS-BUHIN0
  6
CONTINUOUS
 62
     4
 10
-72.0
 20
7.0
 30
0.0
 11
-72.0
 21
0.0
 31
0.0
  0
LINE
  5
34D
  8
SYS-BUHIN0
  6
CONTINUOUS
 62
     4
 10
-63.0
 20
7.0
 30
0.0
 11
-63.0
 21
0.0
 31
0.0
  0
LINE
  5
34E
  8
SYS-BUHIN0
  6
CONTINUOUS
 62
     4
 10
-16.0
 20
7.0
 30
0.0
 11
-16.0
 21
0.0
 31
0.0
  0
TEXT
  5
34F
  8
SYS-BUHIN0
  6
CONTINUOUS
 62
     7
 10
-13.61264708219346
 20
0.6000000119208835
 30
0.0
 40
1.1000000000000001
  1
PARTS NO.
 41
1.3
  0
TEXT
  5
350
  8
SYS-BUHIN0
  6
CONTINUOUS
 62
     7
 10
-14.3642941911601802
 20
3.0691472933651762
 30
0.0
 40
2.2000000000000002
  1
部品コード
  0
TEXT
  5
351
  8
SYS-BUHIN0
  6
CONTINUOUS
 62
     7
 10
-43.8524548079375265
 20
0.6000000119208835
 30
0.0
 40
1.1000000000000001
  1
REMARKS
 41
1.3
  0
TEXT
  5
352
  8
SYS-BUHIN0
  6
CONTINUOUS
 62
     7
 10
-47.3700002431869507
 20
2.7500000476836699
 30
0.0
 40
2.7999999999999989
  1
備    考
  0
TEXT
  5
353
  8
SYS-BUHIN0
  6
CONTINUOUS
 62
     7
 10
-69.144963642251696
 20
0.6000000119208835
 30
0.0
 40
1.1000000000000001
  1
UNIT
  0
TEXT
  5
354
  8
SYS-BUHIN0
  6
CONTINUOUS
 62
     7
 10
-70.2722623709344134
 20
2.6949072988287521
 30
0.0
 40
2.7999999999999989
  1
数量
  0
TEXT
  5
355
  8
SYS-BUHIN0
  6
CONTINUOUS
 62
     7
 10
-90.5592343834632629
 20
0.6000000119208835
 30
0.0
 40
1.1000000000000001
  1
MATERIAL
 41
1.3
  0
TEXT
  5
357
  8
SYS-BUHIN0
  6
CONTINUOUS
 62
     7
 10
-138.9093619295485951
 20
0.6000000119208835
 30
0.0
 40
1.1000000000000001
  1
  DESCRIPTION
 41
1.3
  0
TEXT
  5
358
  8
SYS-BUHIN0
  6
CONTINUOUS
 62
     7
 10
-142.0050003230572031
 20
2.7500000476836699
 30
0.0
 40
2.7999999999999989
  1
 部  品  名
  0
TEXT
  5
359
  8
SYS-BUHIN0
  6
CONTINUOUS
 62
     7
 10
-166.6340487395731884
 20
0.6000000119208835
 30
0.0
 40
1.1000000000000001
  1
NO.
  0
TEXT
  5
35A
  8
SYS-BUHIN0
  6
CONTINUOUS
 62
     7
 10
-168.2900000810622885
 20
2.7500000476836699
 30
0.0
 40
2.7999999999999989
  1
項番
  0
ATTDEF
  5
35B
  8
AM_0
 62
     7
 10
-168.7900000810622885
 20
3.5
 30
0.0
 40
3.1000000000000001
  1

  3

  2
ITEM
 70
     1
1001
ACDBATTR
1070
     0
1070
     1
  0
TEXT
  5
C0B
  8
AM_BOR
 62
     7
 10
-91.7700001597404338
 20
2.7000000476837149
 30
0.0
 40
2.7999999999999989
  1
材　　質
  0
ENDBLK
  5
35C
  8
0
  0
BLOCK
  8
0
  2
MYPLIST1
 70
     2
 10
0.0
 20
0.0
 30
0.0
  3
MYPLIST1
  1

  0
LINE
  5
393
  8
SYS-BUHIN0
  6
CONTINUOUS
 62
     4
 10
-170.0
 20
6.0
 30
0.0
 11
0.0
 21
6.0
 31
0.0
  0
LINE
  5
394
  8
SYS-BUHIN0
  6
CONTINUOUS
 62
     4
 10
-170.0
 20
0.0
 30
0.0
 11
-170.0
 21
6.0
 31
0.0
  0
LINE
  5
395
  8
SYS-BUHIN0
  6
CONTINUOUS
 62
     4
 10
-161.0
 20
0.0
 30
0.0
 11
-161.0
 21
6.0
 31
0.0
  0
LINE
  5
396
  8
SYS-BUHIN0
  6
CONTINUOUS
 62
     4
 10
-99.0
 20
0.0
 30
0.0
 11
-99.0
 21
6.0
 31
0.0
  0
LINE
  5
397
  8
SYS-BUHIN0
  6
CONTINUOUS
 62
     4
 10
-72.0
 20
0.0
 30
0.0
 11
-72.0
 21
6.0
 31
0.0
  0
LINE
  5
398
  8
SYS-BUHIN0
  6
CONTINUOUS
 62
     4
 10
-63.0
 20
0.0
 30
0.0
 11
-63.0
 21
6.0
 31
0.0
  0
LINE
  5
399
  8
SYS-BUHIN0
  6
CONTINUOUS
 62
     4
 10
-16.0
 20
0.0
 30
0.0
 11
-16.0
 21
6.0
 31
0.0
  0
LINE
  5
39A
  8
SYS-BUHIN0
  6
CONTINUOUS
 62
     4
 10
0.0
 20
0.0
 30
0.0
 11
0.0
 21
6.0
 31
0.0
  0
LINE
  5
39B
  8
SYS-BUHIN0
  6
CONTINUOUS
 62
     4
 10
-170.0
 20
0.0
 30
0.0
 11
0.0
 21
0.0
 31
0.0
  0
ATTDEF
  5
39C
  8
SYS-BUHINCODE
 10
-14.0
 20
2.5
 30
0.0
 40
1.0
  1

 11
-14.0
 21
3.0
 31
0.0
  3
部品コード
  2
PCODE
 70
     0
 74
     2
1001
ACDBATTR
1070
     0
1070
     1
  0
ATTDEF
  5
39D
  8
SYS-BUHIN0
  6
CONTINUOUS
 62
     7
 10
-61.0
 20
2.0
 30
0.0
 40
2.0
  1

 11
-61.0
 21
3.0
 31
0.0
  3
備考
  2
NOTE
 70
     0
 74
     2
1001
ACDBATTR
1070
     0
1070
     1
  0
ATTDEF
  5
39E
  8
SYS-BUHIN0
  6
CONTINUOUS
 62
     7
 10
-67.5
 20
3.0
 30
0.0
 40
2.5
  1

 72
     4
 11
-67.5
 21
3.0
 31
0.0
  3
数量
  2
QTY
 70
     0
1001
ACDBATTR
1070
     0
1070
     1
  0
ATTDEF
  5
39F
  8
SYS-BUHIN0
  6
CONTINUOUS
 62
     7
 10
-97.5959581602098751
 20
2.0
 30
0.0
 40
2.0
  1

 11
-97.5959581602098751
 21
3.0
 31
0.0
  3
材質
  2
MATERIAL
 70
     0
 74
     2
1001
ACDBATTR
1070
     0
1070
     1
  0
ATTDEF
  5
3A0
  8
SYS-BUHIN0
  6
CONTINUOUS
 62
     7
 10
-159.0
 20
1.75
 30
0.0
 40
2.5
  1

 11
-159.0
 21
3.0
 31
0.0
  3
部品名
  2
DESCR
 70
     0
 74
     2
1001
ACDBATTR
1070
     0
1070
     1
  0
ATTDEF
  5
3A1
  8
SYS-BUHIN0
  6
CONTINUOUS
 62
     7
 10
-165.5
 20
3.0
 30
0.0
 40
2.5
  1

 72
     4
 11
-165.5
 21
3.0
 31
0.0
  3
項番
  2
ITEM
 70
     0
1001
ACDBATTR
1070
     0
1070
     1
  0
ENDBLK
  5
370
  8
0
  0
BLOCK
  8
0
  2
ZUWAKU-A4H
 70
     0
 10
0.0
 20
0.0
 30
0.0
  3
ZUWAKU-A4H
  1

  0
LINE
  5
1B9F
  8
AM_BOR
 62
     3
 10
12.9569999999950891
 20
201.1206999999936045
 30
0.0
 11
12.9569999999997592
 21
10.0
 31
0.0
  0
LINE
  5
1BA0
  8
AM_BOR
 62
     3
 10
289.4570000003852783
 20
201.1206999998576919
 30
0.0
 11
289.4570000000192067
 21
10.0
 31
0.0
  0
LINE
  5
1BA1
  8
AM_BOR
 62
     3
 10
12.9569999999950802
 20
201.1206999999936045
 30
0.0
 11
289.4570000003852783
 21
201.1206999998576919
 31
0.0
  0
LINE
  5
1BA2
  8
AM_BOR
 62
     3
 10
12.9569999999997396
 20
10.0
 30
0.0
 11
289.4570000000192067
 21
10.0
 31
0.0
  0
TEXT
  5
1BA3
  8
SYS-TEISEI0
  6
CONTINUOUS
 62
     3
 10
21.8420000176578597
 20
20.9500000476837194
 30
0.0
 40
3.099999904632567
  1
 
  0
TEXT
  5
1BA4
  8
SYS-TEISEI0
  6
CONTINUOUS
 62
     3
 10
47.3420000444799385
 20
20.9500000476837194
 30
0.0
 40
3.099999904632567
  1
 
  0
TEXT
  5
1BA5
  8
SYS-TEISEI0
  6
CONTINUOUS
 62
     3
 10
106.7019999570845954
 20
20.9500000476837194
 30
0.0
 40
3.099999904632567
  1
 
  0
TEXT
  5
1BA6
  8
SYS-TEISEI0
  6
CONTINUOUS
 62
     3
 10
114.4019999570845982
 20
20.9500000476837194
 30
0.0
 40
3.099999904632567
  1
 
  0
TEXT
  5
1BA7
  8
SYS-TEISEI0
  6
CONTINUOUS
 62
     3
 10
21.8420000176578597
 20
25.9500000476837194
 30
0.0
 40
3.099999904632567
  1
 
  0
TEXT
  5
1BA8
  8
SYS-TEISEI0
  6
CONTINUOUS
 62
     3
 10
47.3420000444799385
 20
25.9500000476837194
 30
0.0
 40
3.099999904632567
  1
 
  0
TEXT
  5
1BA9
  8
SYS-TEISEI0
  6
CONTINUOUS
 62
     3
 10
106.7019999570845954
 20
25.9500000476837194
 30
0.0
 40
3.099999904632567
  1
 
  0
TEXT
  5
1BAA
  8
SYS-TEISEI0
  6
CONTINUOUS
 62
     3
 10
114.4019999570845982
 20
25.9500000476837194
 30
0.0
 40
3.099999904632567
  1
 
  0
TEXT
  5
1BAB
  8
SYS-BUHIN0
  6
CONTINUOUS
 62
     3
 10
260.7069999999999936
 20
52.4500000476837229
 30
0.0
 40
3.099999904632567
  1
 
  0
TEXT
  5
1BAC
  8
SYS-BUHIN0
  6
CONTINUOUS
 62
     3
 10
260.7069999999999936
 20
58.45000004768373
 30
0.0
 40
3.099999904632567
  1
 
  0
TEXT
  5
1BAD
  8
SYS-BUHIN0
  6
CONTINUOUS
 62
     3
 10
260.7069999999999936
 20
64.4500000476837158
 30
0.0
 40
3.099999904632567
  1
 
  0
TEXT
  5
1BAE
  8
AM_BOR
 10
12.9569999999997592
 20
10.0
 30
0.0
 40
5.0
  1
!GENTITLE-LL
  0
TEXT
  5
1BAF
  8
AM_BOR
 10
289.4570000000192067
 20
10.0
 30
0.0
 40
5.0
  1
!GENTITLE-INSERT
  0
TEXT
  5
1BB0
  8
AM_BOR
 10
289.4570000003852783
 20
201.1206999998576919
 30
0.0
 40
5.0
  1
!GENTITLE-RU
  0
TEXT
  5
1BB1
  8
AM_BOR
 10
297.0
 20
210.0
 30
0.0
 40
5.0
  1
!GENTITLE-MAX
  0
ENDBLK
  5
1BB3
  8
0
  0
BLOCK
  8
0
  2
A$C1C06296A
 70
     2
 10
0.0
 20
0.0
 30
0.0
  3
A$C1C06296A
  1

  0
LINE
  5
204C
  8
AM_BOR
 10
198.8685188039937088
 20
17.8867445779319887
 30
0.0
 11
203.2337455721774973
 21
13.5215178097486195
 31
0.0
  0
LINE
  5
204D
  8
AM_BOR
 10
198.8685188039935952
 20
17.8667153513160386
 30
0.0
 11
198.8685188039939931
 21
14.1289643611789106
 31
0.0
  0
LINE
  5
204E
  8
AM_BOR
 10
204.7045172738833969
 20
17.8667153264694107
 30
0.0
 11
204.7045172738839085
 21
14.1811288456255493
 31
0.0
  0
LINE
  5
204F
  8
AM_BOR
 10
204.2042888336073077
 20
17.7930102901758609
 30
0.0
 11
204.204288833606995
 21
14.6986103577410798
 31
0.0
  0
LINE
  5
2050
  8
AM_BOR
 10
199.3687472442697981
 20
17.1760524653333491
 30
0.0
 11
199.3687472442705939
 21
14.1978003551034107
 31
0.0
  0
LINE
  5
2051
  8
AM_BOR
 10
200.4375646203926919
 20
18.4653345709555303
 30
0.0
 11
204.2042888336073077
 21
14.6986103577405203
 31
0.0
  0
LINE
  5
2052
  8
AM_BOR
 10
199.3687472442697128
 20
17.1760524653325497
 30
0.0
 11
203.0271328720340875
 21
13.5176668375685196
 31
0.0
  0
ARC
  5
2053
  8
AM_BOR
 10
198.3682903686870134
 20
17.8667153513160493
 30
0.0
 40
0.500228440276212
 50
0.0
 51
50.265515568291427
  0
ARC
  5
2054
  8
AM_BOR
 10
198.3682903438408118
 20
14.1289643611789195
 30
0.0
 40
0.500228440276212
 50
304.6975967840527915
 51
0.0
  0
ARC
  5
2055
  8
AM_BOR
 10
205.2047457340366918
 20
17.8667153264694107
 30
0.0
 40
0.500228440276212
 50
127.0284887689632995
 51
180.0000050089562933
  0
ARC
  5
2056
  8
AM_BOR
 10
203.5373175699668877
 20
17.7930102901758183
 30
0.0
 40
0.6669712537016159
 50
0.0
 51
74.7148235688661515
  0
ARC
  5
2057
  8
AM_BOR
 10
200.0357184979716862
 20
14.1978003551033893
 30
0.0
 40
0.6669712537016159
 50
180.0000050089562933
 51
256.4857883914604031
  0
LINE
  5
2058
  8
AM_BOR
 10
210.9573727773361895
 20
15.9934456649946792
 30
0.0
 11
210.9224749062998967
 21
16.211434571273589
 31
0.0
  0
LINE
  5
2059
  8
AM_BOR
 10
210.9224749062994135
 20
16.2114345712734114
 30
0.0
 11
210.8180468870608024
 21
16.4277644503503701
 31
0.0
  0
LINE
  5
205A
  8
AM_BOR
 10
210.8180468870604045
 20
16.4277644503503701
 30
0.0
 11
210.6448834799014946
 21
16.6407889012216685
 31
0.0
  0
LINE
  5
205B
  8
AM_BOR
 10
210.6448834799012957
 20
16.6407889012216188
 30
0.0
 11
210.4043025629098054
 21
16.8488866791887588
 31
0.0
  0
LINE
  5
205C
  8
AM_BOR
 10
210.4043025629094927
 20
16.8488866791890004
 30
0.0
 11
210.098135102129703
 21
17.0504740345086887
 31
0.0
  0
LINE
  5
205D
  8
AM_BOR
 10
210.0981351021299872
 20
17.0504740345085501
 30
0.0
 11
209.7287112168075964
 21
17.2440167656851386
 31
0.0
  0
LINE
  5
205E
  8
AM_BOR
 10
209.7287112168071133
 20
17.2440167656852097
 30
0.0
 11
209.2988424457736869
 21
17.4280418956699883
 31
0.0
  0
LINE
  5
205F
  8
AM_BOR
 10
209.2988424457736869
 20
17.4280418956700807
 30
0.0
 11
208.8118003499388919
 21
17.6011488821063686
 31
0.0
  0
LINE
  5
2060
  8
AM_BOR
 10
208.8118003499388919
 20
17.6011488821064397
 30
0.0
 11
208.2712916137359116
 21
17.7620202763029695
 31
0.0
  0
LINE
  5
2061
  8
AM_BOR
 10
208.2712916137361105
 20
17.7620202763030903
 30
0.0
 11
207.681429835015507
 21
17.9094317498130806
 31
0.0
  0
LINE
  5
2062
  8
AM_BOR
 10
207.6814298350153081
 20
17.9094317498129705
 30
0.0
 11
207.0467042180816861
 21
18.0422614123133584
 31
0.0
  0
LINE
  5
2063
  8
AM_BOR
 10
207.0467042180816861
 20
18.0422614123134402
 30
0.0
 11
206.371945408137293
 21
18.1594983498679703
 31
0.0
  0
LINE
  5
2064
  8
AM_BOR
 10
206.371945408137492
 20
18.1594983498678815
 30
0.0
 11
205.6622887271568061
 21
18.2602503185922984
 31
0.0
  0
LINE
  5
2065
  8
AM_BOR
 10
205.6622887271566071
 20
18.2602503185923695
 30
0.0
 11
205.022423745999788
 21
18.3325341603967402
 31
0.0
  0
LINE
  5
2066
  8
AM_BOR
 10
205.0224237459993901
 20
18.3325341603967793
 30
0.0
 11
204.923135090983692
 21
18.3437505351688195
 31
0.0
  0
LINE
  5
2067
  8
AM_BOR
 10
204.923135090983692
 20
18.3437505351687484
 30
0.0
 11
204.1601099051040933
 21
18.409363512530259
 31
0.0
  0
LINE
  5
2068
  8
AM_BOR
 10
204.1601099051048038
 20
18.409363512530259
 30
0.0
 11
203.713146860105013
 21
18.4363878729324711
 31
0.0
  0
LINE
  5
2069
  8
AM_BOR
 10
200.437564620392493
 20
18.4653345709555694
 30
0.0
 11
200.1940158259679094
 21
18.4565898963008799
 31
0.0
  0
LINE
  5
206A
  8
AM_BOR
 10
200.1940158259679947
 20
18.4565898963009012
 30
0.0
 11
199.4129261727725861
 21
18.4093635125303088
 31
0.0
  0
LINE
  5
206B
  8
AM_BOR
 10
199.4129261727725861
 20
18.4093635125302484
 30
0.0
 11
198.6499009868929875
 21
18.3437505351687591
 31
0.0
  0
LINE
  5
206C
  8
AM_BOR
 10
198.550612373156298
 20
18.3325341650599789
 30
0.0
 11
197.9107473507208965
 21
18.2602503185924689
 31
0.0
  0
LINE
  5
206D
  8
AM_BOR
 10
198.6499009868929875
 20
18.3437505351687911
 30
0.0
 11
198.550612373156298
 21
18.3325341650599185
 31
0.0
  0
LINE
  5
206E
  8
AM_BOR
 10
197.9107473507212092
 20
18.2602503185924299
 30
0.0
 11
197.2010906697404948
 21
18.1594983498680413
 31
0.0
  0
LINE
  5
206F
  8
AM_BOR
 10
197.2010906697404096
 20
18.1594983498680911
 30
0.0
 11
196.5263318597957891
 21
18.042261412313529
 31
0.0
  0
LINE
  5
2070
  8
AM_BOR
 10
196.5263318597959028
 20
18.0422614123135894
 30
0.0
 11
195.8916062428623945
 21
17.9094317498132192
 31
0.0
  0
LINE
  5
2071
  8
AM_BOR
 10
195.8916062428617124
 20
17.9094317498130202
 30
0.0
 11
195.3017444641411942
 21
17.7620202763030584
 31
0.0
  0
LINE
  5
2072
  8
AM_BOR
 10
195.3017444641409952
 20
17.7620202763031614
 30
0.0
 11
194.7612357279377875
 21
17.6011488821066102
 31
0.0
  0
LINE
  5
2073
  8
AM_BOR
 10
194.7612357279377875
 20
17.6011488821065605
 30
0.0
 11
194.2741936321029925
 21
17.4280418956701517
 31
0.0
  0
LINE
  5
2074
  8
AM_BOR
 10
194.2741936321033904
 20
17.4280418956701517
 30
0.0
 11
193.8443248610695946
 21
17.2440167656852594
 31
0.0
  0
LINE
  5
2075
  8
AM_BOR
 10
193.8443248610695946
 20
17.2440167656852097
 30
0.0
 11
193.4749009757472038
 21
17.0504740345086496
 31
0.0
  0
LINE
  5
2076
  8
AM_BOR
 10
193.4749009757472038
 20
17.0504740345086709
 30
0.0
 11
193.1687335149671867
 21
16.8488866791889293
 31
0.0
  0
LINE
  5
2077
  8
AM_BOR
 10
193.1687335149673004
 20
16.8488866791889507
 30
0.0
 11
192.9281525979749858
 21
16.6407889012216188
 31
0.0
  0
LINE
  5
2078
  8
AM_BOR
 10
192.9281525979752985
 20
16.6407889012218106
 30
0.0
 11
192.7549891908163886
 21
16.4277644503504199
 31
0.0
  0
LINE
  5
2079
  8
AM_BOR
 10
192.7549891908163886
 20
16.4277644503503488
 30
0.0
 11
192.6505611715776922
 21
16.2114345712734789
 31
0.0
  0
LINE
  5
207A
  8
AM_BOR
 10
192.6505611715778912
 20
16.2114345712737311
 30
0.0
 11
192.6156633005415131
 21
15.9934456649946792
 31
0.0
  0
LINE
  5
207B
  8
AM_BOR
 10
192.6156633005406889
 20
15.9934456649946402
 30
0.0
 11
192.6505611715772091
 21
15.7754567587157908
 31
0.0
  0
LINE
  5
207C
  8
AM_BOR
 10
192.6505611715776922
 20
15.7754567587159293
 30
0.0
 11
192.7549891908163033
 21
15.5591268796391304
 31
0.0
  0
LINE
  5
207D
  8
AM_BOR
 10
192.7549891908163886
 20
15.5591268796390292
 30
0.0
 11
192.9281525979752985
 21
15.3461024287676402
 31
0.0
  0
LINE
  5
207E
  8
AM_BOR
 10
192.9281525979750995
 20
15.3461024287676899
 30
0.0
 11
193.1687335149671867
 21
15.1380046508005002
 31
0.0
  0
LINE
  5
207F
  8
AM_BOR
 10
193.1687335149669025
 20
15.1380046508005002
 30
0.0
 11
193.4749009757468912
 21
14.9364172954808101
 31
0.0
  0
LINE
  5
2080
  8
AM_BOR
 10
193.4749009757472891
 20
14.9364172954807106
 30
0.0
 11
193.8443248610695946
 21
14.7428745643040795
 31
0.0
  0
LINE
  5
2081
  8
AM_BOR
 10
193.8443248610695093
 20
14.7428745643041701
 30
0.0
 11
194.2741936321027083
 21
14.5588494343193506
 31
0.0
  0
LINE
  5
2082
  8
AM_BOR
 10
194.2741936321031915
 20
14.5588494343194395
 30
0.0
 11
194.7612357279379012
 21
14.3857424478829596
 31
0.0
  0
LINE
  5
2083
  8
AM_BOR
 10
194.7612357279377875
 20
14.3857424478827696
 30
0.0
 11
195.3017444641409952
 21
14.2248710536861704
 31
0.0
  0
LINE
  5
2084
  8
AM_BOR
 10
195.3017444641409952
 20
14.2248710536863108
 30
0.0
 11
195.8916062428619966
 21
14.0774595801763507
 31
0.0
  0
LINE
  5
2085
  8
AM_BOR
 10
195.8916062428619114
 20
14.0774595801762192
 30
0.0
 11
196.5263318597957891
 21
13.9446299176757904
 31
0.0
  0
LINE
  5
2086
  8
AM_BOR
 10
196.5263318597953912
 20
13.9446299176758206
 30
0.0
 11
197.201090669739699
 21
13.8273929801213207
 31
0.0
  0
LINE
  5
2087
  8
AM_BOR
 10
197.2010906697404948
 20
13.8273929801213296
 30
0.0
 11
197.9107473507208965
 21
13.7266410113970494
 31
0.0
  0
LINE
  5
2088
  8
AM_BOR
 10
197.9107473507204986
 20
13.7266410113971098
 30
0.0
 11
198.5412166771806994
 21
13.6554185716662193
 31
0.0
  0
LINE
  5
2089
  8
AM_BOR
 10
198.5412166771799889
 20
13.6554185716662495
 30
0.0
 11
198.6499009868925896
 21
13.6431407948207308
 31
0.0
  0
LINE
  5
208A
  8
AM_BOR
 10
198.6499009868929022
 20
13.6431407948206793
 30
0.0
 11
199.4129261727725861
 21
13.57752781745919
 31
0.0
  0
LINE
  5
208B
  8
AM_BOR
 10
199.4129261727725861
 20
13.5775278174592007
 30
0.0
 11
199.8798563250743996
 21
13.5492962022068202
 31
0.0
  0
LINE
  5
208C
  8
AM_BOR
 10
203.0271328720324959
 20
13.5176668375699904
 30
0.0
 11
203.379020251909111
 21
13.5303014336886491
 31
0.0
  0
LINE
  5
208D
  8
AM_BOR
 10
203.3790202519091963
 20
13.5303014336885994
 30
0.0
 11
204.1601099051044059
 21
13.57752781745919
 31
0.0
  0
LINE
  5
208E
  8
AM_BOR
 10
204.7045172738839938
 20
13.6243417221955792
 30
0.0
 11
204.9231350909844025
 21
13.6431407948207504
 31
0.0
  0
LINE
  5
208F
  8
AM_BOR
 10
204.1601099051044059
 20
13.5775278174591705
 30
0.0
 11
204.7045172738837948
 21
13.6243417221955099
 31
0.0
  0
LINE
  5
2090
  8
AM_BOR
 10
204.9231350909840899
 20
13.6431407948207593
 30
0.0
 11
205.6622887271566924
 21
13.7266410113971506
 31
0.0
  0
LINE
  5
2091
  8
AM_BOR
 10
205.6622887271566071
 20
13.7266410113971098
 30
0.0
 11
206.3719454081370941
 21
13.8273929801214006
 31
0.0
  0
LINE
  5
2092
  8
AM_BOR
 10
206.371945408137492
 20
13.8273929801214503
 30
0.0
 11
207.0467042180819135
 21
13.9446299176759396
 31
0.0
  0
LINE
  5
2093
  8
AM_BOR
 10
207.0467042180816861
 20
13.9446299176759698
 30
0.0
 11
207.6814298350155923
 21
14.0774595801763702
 31
0.0
  0
LINE
  5
2094
  8
AM_BOR
 10
207.681429835015507
 20
14.0774595801762903
 30
0.0
 11
208.2712916137361105
 21
14.2248710536862504
 31
0.0
  0
LINE
  5
2095
  8
AM_BOR
 10
208.2712916137361958
 20
14.2248710536862895
 30
0.0
 11
208.8118003499392898
 21
14.3857424478828904
 31
0.0
  0
LINE
  5
2096
  8
AM_BOR
 10
208.8118003499392898
 20
14.3857424478829206
 30
0.0
 11
209.2988424457741132
 21
14.5588494343193506
 31
0.0
  0
LINE
  5
2097
  8
AM_BOR
 10
209.2988424457739995
 20
14.5588494343193204
 30
0.0
 11
209.7287112168075112
 21
14.7428745643042198
 31
0.0
  0
LINE
  5
2098
  8
AM_BOR
 10
209.7287112168071133
 20
14.7428745643041506
 30
0.0
 11
210.098135102129703
 21
14.9364172954808296
 31
0.0
  0
LINE
  5
2099
  8
AM_BOR
 10
210.0981351021299872
 20
14.9364172954808101
 30
0.0
 11
210.4043025629098906
 21
15.1380046508003598
 31
0.0
  0
LINE
  5
209A
  8
AM_BOR
 10
210.4043025629100043
 20
15.1380046508005499
 30
0.0
 11
210.6448834799020062
 21
15.3461024287677308
 31
0.0
  0
LINE
  5
209B
  8
AM_BOR
 10
210.6448834799016936
 20
15.3461024287678303
 30
0.0
 11
210.8180468870608024
 21
15.5591268796390292
 31
0.0
  0
LINE
  5
209C
  8
AM_BOR
 10
210.8180468870606887
 20
15.5591268796390594
 30
0.0
 11
210.9224749062989872
 21
15.7754567587158601
 31
0.0
  0
LINE
  5
209D
  8
AM_BOR
 10
210.9224749062998114
 20
15.7754567587157908
 30
0.0
 11
210.9573727773361895
 21
15.9934456649946206
 31
0.0
  0
LINE
  5
209E
  8
AM_BOR
 10
199.1051424870479138
 20
18.3828970152541906
 30
0.0
 11
203.9247425107741094
 21
13.5632969915274995
 31
0.0
  0
ARC
  5
209F
  8
AM_BOR
 10
205.2047457141601967
 20
14.1811288456255493
 30
0.0
 40
0.500228440276212
 50
180.0
 51
244.5184856857075033
  0
LINE
  5
20A0
  8
AM_BOR
 10
199.3652192817665139
 20
18.405261169360589
 30
0.0
 11
204.1903520906298866
 21
13.5801283604962197
 31
0.0
  0
LINE
  5
20A1
  8
AM_BOR
 10
199.6304084355469968
 20
18.4225129644057191
 30
0.0
 11
204.4504288853489982
 21
13.6024925146027709
 31
0.0
  0
LINE
  5
20A2
  8
AM_BOR
 10
199.8967460324556953
 20
18.4386163163227188
 30
0.0
 11
204.7077689502328894
 21
13.6275933985446098
 31
0.0
  0
LINE
  5
20A3
  8
AM_BOR
 10
200.1630836293643085
 20
18.4547196682397612
 30
0.0
 11
204.9488987968830997
 21
13.66890450072008
 31
0.0
  0
LINE
  5
20A4
  8
AM_BOR
 10
198.8450656923284043
 20
18.3605328611475898
 30
0.0
 11
203.6584049138650983
 21
13.5471936396104091
 31
0.0
  0
LINE
  5
20A5
  8
AM_BOR
 10
198.7943784573330959
 20
18.1287791473180704
 30
0.0
 11
203.3920673169571103
 21
13.5310902876933596
 31
0.0
  0
LINE
  5
20A6
  8
AM_BOR
 10
199.0183057366432138
 20
18.3754298728270093
 30
0.0
 11
199.0183057366432138
 21
13.6114614571624397
 31
0.0
  0
LINE
  5
20A7
  8
AM_BOR
 10
199.2180216468426011
 20
18.3926035595376796
 30
0.0
 11
199.2180216468426011
 21
13.5942877704517908
 31
0.0
  0
LINE
  5
20A8
  8
AM_BOR
 10
204.5547303412338067
 20
18.3754298728269987
 30
0.0
 11
204.5547303412338067
 21
13.6114614571624504
 31
0.0
  0
LINE
  5
20A9
  8
AM_BOR
 10
204.35501443103459
 20
18.3926035595376405
 30
0.0
 11
204.35501443103459
 21
13.5942877704517908
 31
0.0
  0
LINE
  5
20AA
  8
AM_BOR
 62
     4
 10
-0.0000001316067255
 20
15.0000001731112906
 30
0.0
 11
190.4999998683931892
 21
15.0000001731112906
 31
0.0
  0
LINE
  5
20AB
  8
AM_BOR
 62
     4
 10
276.4999998683932745
 20
28.0000001731112889
 30
0.0
 11
276.4999998683932745
 21
0.000000173111296
 31
0.0
  0
LINE
  5
20AC
  8
AM_BOR
 62
     4
 10
-0.0000001316067255
 20
15.0000001731112906
 30
0.0
 11
-0.0000001316067255
 21
0.000000173111296
 31
0.0
  0
LINE
  5
20AD
  8
AM_BOR
 62
     4
 10
-0.0000001316067255
 20
28.0000001731112889
 30
0.0
 11
276.4999998683932745
 21
28.0000001731112889
 31
0.0
  0
LINE
  5
20AE
  8
AM_BOR
 62
     4
 10
15.9999998683932692
 20
15.0000001731112906
 30
0.0
 11
15.9999998683932692
 21
0.000000173111296
 31
0.0
  0
TEXT
  5
20AF
  8
AM_BOR
 62
     4
 10
215.1799998683933097
 20
10.0000001731112906
 30
0.0
 40
1.5
  1
NAKANISHI　INDUSTRIAL CO., LTD.
 41
1.5
  0
TEXT
  5
20B0
  8
AM_BOR
 62
     3
 10
213.1999998683932915
 20
13.5000001731112906
 30
0.0
 40
5.5
  1
中西産業株式会社
 41
1.1999999999999991
  0
TEXT
  5
20B1
  8
AM_BOR
 62
     4
 10
196.1927879374059955
 20
10.0000001731112906
 30
0.0
 40
1.5
  1
Nakanishi
 41
1.1999999999999991
  0
TEXT
  5
20B2
  8
AM_BOR
 62
     7
 10
98.104999768257457
 20
15.6500001850322192
 30
0.0
 40
1.0
  1
FINISH
 41
1.6000000000000001
  0
TEXT
  5
20B3
  8
AM_BOR
 62
     7
 10
96.9799997086527981
 20
17.7000002207950082
 30
0.0
 40
2.7999999999999989
  1
仕　　上
  0
TEXT
  5
20B4
  8
AM_BOR
 62
     7
 10
3.1549997801784002
 20
15.6500001850322192
 30
0.0
 40
1.0
  1
MATERIAL
 41
1.6000000000000001
  0
TEXT
  5
20B5
  8
AM_BOR
 62
     7
 10
1.729999708652826
 20
17.7000002207950082
 30
0.0
 40
2.7999999999999989
  1
材　　質
  0
LINE
  5
20B6
  8
AM_BOR
 62
     4
 10
190.4999998683931892
 20
28.0000001731112889
 30
0.0
 11
190.4999998683931892
 21
0.000000173111296
 31
0.0
  0
LINE
  5
20B7
  8
AM_BOR
 62
     4
 10
-0.0000001316067255
 20
28.0000001731112889
 30
0.0
 11
-0.0000001316067255
 21
15.0000001731112906
 31
0.0
  0
LINE
  5
20B8
  8
AM_BOR
 62
     4
 10
-0.0000001316067255
 20
21.5000001731112889
 30
0.0
 11
190.4999998683931892
 21
21.5000001731112889
 31
0.0
  0
LINE
  5
20B9
  8
AM_BOR
 62
     4
 10
15.9999998683932692
 20
28.0000001731112889
 30
0.0
 11
15.9999998683932692
 21
15.0000001731112906
 31
0.0
  0
TEXT
  5
20BA
  8
AM_BOR
 62
     7
 10
98.104999768257457
 20
22.1500001850322192
 30
0.0
 40
1.0
  1
ART. NO.
 41
1.6000000000000001
  0
TEXT
  5
20BB
  8
AM_BOR
 62
     7
 10
96.9799997086526844
 20
24.2000002207950082
 30
0.0
 40
2.7999999999999989
  1
品　　番
  0
TEXT
  5
20BC
  8
AM_BOR
 62
     7
 10
3.1549997801784002
 20
22.1500001850322192
 30
0.0
 40
1.0
  1
ARTICLE
 41
1.6000000000000001
  0
TEXT
  5
20BD
  8
AM_BOR
 62
     7
 10
1.7299997086527119
 20
24.2000002207950082
 30
0.0
 40
2.7999999999999989
  1
品　　名
  0
LINE
  5
20BE
  8
AM_BOR
 62
     4
 10
-0.0000001316067255
 20
15.0000001731112906
 30
0.0
 11
-0.0000001316067255
 21
0.0000001731112924
 31
0.0
  0
LINE
  5
20BF
  8
AM_BOR
 62
     4
 10
95.2499998683932461
 20
28.0000001731112889
 30
0.0
 11
95.2499998683932461
 21
0.000000173111296
 31
0.0
  0
TEXT
  5
20C0
  8
AM_BOR
 62
     7
 10
3.1549997801784002
 20
9.1500001850322192
 30
0.0
 40
1.0
  1
REMARKS
 41
1.6000000000000001
  0
TEXT
  5
20C1
  8
AM_BOR
 62
     7
 10
1.7299997086527119
 20
11.20000022079501
 30
0.0
 40
2.7999999999999989
  1
備　　考
  0
LINE
  5
20C2
  8
AM_BOR
 62
     4
 10
111.2499998683932034
 20
28.0000001731112889
 30
0.0
 11
111.2499998683932034
 21
0.000000173111296
 31
0.0
  0
LINE
  5
20C3
  8
AM_BOR
 62
     4
 10
-0.0000001316067255
 20
0.000000173111296
 30
0.0
 11
276.4999998683932745
 21
0.000000173111296
 31
0.0
  0
TEXT
  5
20C4
  8
AM_BOR
 62
     7
 10
98.404999780178386
 20
9.1500001850322157
 30
0.0
 40
1.0
  1
SETS
 41
1.6000000000000001
  0
TEXT
  5
20C5
  8
AM_BOR
 62
     7
 10
96.9799997086526844
 20
11.20000022079501
 30
0.0
 40
2.7999999999999989
  1
セット品
  0
ATTDEF
  5
20C6
  8
AM_BOR
 62
     7
 10
114.3107095753831004
 20
0.5000001731112853
 30
0.0
 40
3.0
  1

 11
114.3107095753831004
 21
2.0000001731112849
 31
0.0
  3
セット
  2
SETS｛20｝
 70
     0
 74
     2
1001
ACADANNOTATIVE
1000
AnnotativeData
1002
{
1070
     1
1070
     0
1002
}
1001
ACDBATTR
1070
     0
1070
     1
  0
ATTDEF
  5
20CA
  8
AM_BOR
 62
     7
 10
19.0607095753831608
 20
0.5000001731112889
 30
0.0
 40
3.0
  1

 11
19.0607095753831608
 21
2.000000173111288
 31
0.0
  3
備　　考
  2
REMARKS｛20｝
 70
     0
 74
     2
1001
ACADANNOTATIVE
1000
AnnotativeData
1002
{
1070
     1
1070
     0
1002
}
1001
ACDBATTR
1070
     0
1070
     1
  0
ATTDEF
  5
20CE
  8
AM_BOR
 62
     7
 10
114.3107095753831004
 20
5.5000001731112853
 30
0.0
 40
3.0
  1

 11
114.3107095753831004
 21
7.0000001731112853
 31
0.0
  3
セット
  2
SETS｛20｝
 70
     0
 74
     2
1001
ACADANNOTATIVE
1000
AnnotativeData
1002
{
1070
     1
1070
     0
1002
}
1001
ACDBATTR
1070
     0
1070
     1
  0
ATTDEF
  5
20D2
  8
AM_BOR
 62
     7
 10
19.0607095753831608
 20
5.500000173111288
 30
0.0
 40
3.0
  1

 11
19.0607095753831608
 21
7.000000173111288
 31
0.0
  3
備　　考
  2
REMARKS｛20｝
 70
     0
 74
     2
1001
ACADANNOTATIVE
1000
AnnotativeData
1002
{
1070
     1
1070
     0
1002
}
1001
ACDBATTR
1070
     0
1070
     1
  0
ATTDEF
  5
20D6
  8
AM_BOR
 62
     7
 10
114.3107095753831004
 20
10.50000017311128
 30
0.0
 40
3.0
  1

 11
114.3107095753831004
 21
12.00000017311128
 31
0.0
  3
セット
  2
SETS｛20｝
 70
     0
 74
     2
1001
ACADANNOTATIVE
1000
AnnotativeData
1002
{
1070
     1
1070
     0
1002
}
1001
ACDBATTR
1070
     0
1070
     1
  0
ATTDEF
  5
20DA
  8
AM_BOR
 62
     7
 10
19.0607095753831608
 20
10.5000001731112906
 30
0.0
 40
3.0
  1

 11
19.0607095753831608
 21
12.0000001731112906
 31
0.0
  3
備　　考
  2
REMARKS｛20｝
 70
     0
 74
     2
1001
ACADANNOTATIVE
1000
AnnotativeData
1002
{
1070
     1
1070
     0
1002
}
1001
ACDBATTR
1070
     0
1070
     1
  0
ATTDEF
  5
20DE
  8
AM_BOR
 62
     7
 10
114.2499998683932034
 20
23.5000001731112889
 30
0.0
 40
3.0
  1

 11
114.2499998683932034
 21
25.0000001731112889
 31
0.0
  3
品    番
  2
ART_NO｛20｝
 70
     0
 74
     2
1001
ACADANNOTATIVE
1000
AnnotativeData
1002
{
1070
     1
1070
     0
1002
}
1001
ACDBATTR
1070
     0
1070
     1
  0
ATTDEF
  5
20E2
  8
AM_BOR
 62
     7
 10
18.9999998683932709
 20
23.5000001731112889
 30
0.0
 40
3.0
  1

 11
18.9999998683932709
 21
25.0000001731112889
 31
0.0
  3
品    名
  2
ARTICLE｛20｝
 70
     0
 74
     2
1001
ACADANNOTATIVE
1000
AnnotativeData
1002
{
1070
     1
1070
     0
1002
}
1001
ACDBATTR
1070
     0
1070
     1
  0
ATTDEF
  5
20E6
  8
AM_BOR
 62
     7
 10
114.2499998683932034
 20
17.0000001731112889
 30
0.0
 40
3.0
  1

 11
114.2499998683932034
 21
18.5000001731112889
 31
0.0
  3
仕上
  2
FINISH｛20｝
 70
     0
 74
     2
1001
ACADANNOTATIVE
1000
AnnotativeData
1002
{
1070
     1
1070
     0
1002
}
1001
ACDBATTR
1070
     0
1070
     1
  0
ATTDEF
  5
20EA
  8
AM_BOR
 62
     7
 10
18.9999998683932709
 20
17.0000001731112889
 30
0.0
 40
3.0
  1

 11
18.9999998683932709
 21
18.5000001731112889
 31
0.0
  3
材　　質
  2
MATERIAK｛20｝
 70
     0
 74
     2
1001
ACADANNOTATIVE
1000
AnnotativeData
1002
{
1070
     1
1070
     0
1002
}
1001
ACDBATTR
1070
     0
1070
     1
  0
ENDBLK
  5
20F1
  8
0
  0
BLOCK
  8
0
  2
_ACMFILLEDHALF
 70
     0
 10
0.0
 20
0.0
 30
0.0
  3
_ACMFILLEDHALF
  1

  0
TRACE
  5
29C3
  8
0
 62
     0
 10
-0.8
 20
0.0
 30
0.0
 11
-1.0
 21
0.166666666
 31
0.0
 12
0.0
 22
0.0
 32
0.0
 13
0.0
 23
0.0
 33
0.0
  0
LINE
  5
29C4
  8
0
 62
     0
 10
-1.0
 20
0.0
 30
0.0
 11
-0.8
 21
0.0
 31
0.0
  0
ENDBLK
  5
29C2
  8
0
  0
BLOCK
  8
0
  2
_ACMFILLED
 70
     0
 10
0.0
 20
0.0
 30
0.0
  3
_ACMFILLED
  1

  0
TRACE
  5
29CF
  8
0
 62
     0
 10
-1.0
 20
-0.166666666
 30
0.0
 11
-1.0
 21
0.166666666
 31
0.0
 12
0.0
 22
0.0
 32
0.0
 13
0.0
 23
0.0
 33
0.0
  0
ENDBLK
  5
29CE
  8
0
  0
BLOCK
  8
0
  2
_ACMOPEN15
 70
     0
 10
0.0
 20
0.0
 30
0.0
  3
_ACMOPEN15
  1

  0
LINE
  5
29D9
  8
0
 62
     0
 10
-1.0
 20
0.0
 30
0.0
 11
0.0
 21
0.0
 31
0.0
  0
LINE
  5
29DA
  8
0
 62
     0
 10
-1.0
 20
-0.131652497
 30
0.0
 11
0.0
 21
0.0
 31
0.0
  0
LINE
  5
29DB
  8
0
 62
     0
 10
0.0
 20
0.0
 30
0.0
 11
-1.0
 21
0.131652497
 31
0.0
  0
ENDBLK
  5
29D8
  8
0
  0
BLOCK
  8
0
  2
_ACMFILLED15
 70
     0
 10
0.0
 20
0.0
 30
0.0
  3
_ACMFILLED15
  1

  0
TRACE
  5
29E7
  8
0
 62
     0
 10
-1.0
 20
-0.131652497
 30
0.0
 11
-1.0
 21
0.131652497
 31
0.0
 12
0.0
 22
0.0
 32
0.0
 13
0.0
 23
0.0
 33
0.0
  0
ENDBLK
  5
29E6
  8
0
  0
BLOCK
  8
0
  2
GENDOT
 70
     0
 10
0.0
 20
0.0
 30
0.0
  3
GENDOT
  1

  0
LINE
  5
29F9
  8
0
 10
0.0
 20
0.0
 30
0.0
 11
-1.0
 21
0.0
 31
0.0
  0
POLYLINE
  5
29FA
  8
0
 66
     1
 10
0.0
 20
0.0
 30
0.0
 70
     1
 40
0.25
 41
0.25
  0
VERTEX
  5
3C59
  8
0
 10
-0.125
 20
0.0
 30
0.0
 42
1.0
  0
VERTEX
  5
3C5A
  8
0
 10
0.125
 20
0.0
 30
0.0
 42
1.0
  0
SEQEND
  5
3C5B
  8
0
  0
ENDBLK
  5
29FB
  8
0
  0
BLOCK
  8
0
  2
*D11
 70
     1
 10
0.0
 20
0.0
 30
0.0
  3
*D11
  1

  0
LINE
  5
36F2
  8
AM_5
  6
CONTINUOUS
 62
     7
 10
157.7762478919181888
 20
119.8592522410263967
 30
0.0
 11
157.7762478919181888
 21
137.1449665267406886
 31
0.0
  0
LINE
  5
36F3
  8
AM_5
  6
CONTINUOUS
 62
     7
 10
152.3762478919182115
 20
119.8592522410263967
 30
0.0
 11
152.3762478919182115
 21
137.1449665267406886
 31
0.0
  0
LINE
  5
36F4
  8
AM_5
  6
CONTINUOUS
 62
     7
 10
160.2762478919181888
 20
136.1449665267406886
 30
0.0
 11
162.7762478919181888
 21
136.1449665267406886
 31
0.0
  0
LINE
  5
36F5
  8
AM_5
  6
CONTINUOUS
 62
     7
 10
149.8762478919182115
 20
136.1449665267406886
 30
0.0
 11
117.8620387901786017
 21
136.1449665267406886
 31
0.0
  0
LINE
  5
36F6
  8
AM_5
  6
CONTINUOUS
 62
     7
 10
157.7762478919181888
 20
136.1449665267406886
 30
0.0
 11
152.3762478919182115
 21
136.1449665267406886
 31
0.0
  0
INSERT
  5
36F7
  8
AM_5
 62
     7
  2
_OPEN30
 10
157.7762478919181888
 20
136.1449665267406886
 30
0.0
 41
2.5
 42
2.5
 43
2.5
 50
180.0
  0
INSERT
  5
36F8
  8
AM_5
 62
     7
  2
_OPEN30
 10
152.3762478919182115
 20
136.1449665267406886
 30
0.0
 41
2.5
 42
2.5
 43
2.5
  0
INSERT
  5
36F9
  8
0
  2
*U36
 10
0.0
 20
0.0
 30
0.0
  0
POINT
  5
36FA
  8
DEFPOINTS
 62
     0
 10
157.7762478919181888
 20
118.8592522410263967
 30
0.0
  0
POINT
  5
36FB
  8
DEFPOINTS
 62
     0
 10
152.3762478919182115
 20
118.8592522410263967
 30
0.0
  0
POINT
  5
36FC
  8
DEFPOINTS
 62
     0
 10
152.3762478919182115
 20
136.1449665267406886
 30
0.0
  0
ENDBLK
  5
314A
  8
0
  0
BLOCK
  8
0
  2
*D12
 70
     1
 10
0.0
 20
0.0
 30
0.0
  3
*D12
  1

  0
LINE
  5
384A
  8
AM_5
  6
CONTINUOUS
 62
     7
 10
135.5762478919182001
 20
119.8592522410263967
 30
0.0
 11
135.5762478919182001
 21
144.1449665267406886
 31
0.0
  0
LINE
  5
384B
  8
AM_5
  6
CONTINUOUS
 62
     7
 10
142.5762478919182001
 20
114.4820747914669994
 30
0.0
 11
142.5762478919182001
 21
144.1449665267406886
 31
0.0
  0
LINE
  5
384C
  8
AM_5
  6
CONTINUOUS
 62
     7
 10
138.0762478919182001
 20
143.1449665267406886
 30
0.0
 11
140.0762478919182001
 21
143.1449665267406886
 31
0.0
  0
INSERT
  5
384D
  8
AM_5
 62
     7
  2
_OPEN30
 10
135.5762478919182001
 20
143.1449665267406886
 30
0.0
 41
2.5
 42
2.5
 43
2.5
 50
180.0
  0
INSERT
  5
384E
  8
AM_5
 62
     7
  2
_OPEN30
 10
142.5762478919182001
 20
143.1449665267406886
 30
0.0
 41
2.5
 42
2.5
 43
2.5
  0
INSERT
  5
384F
  8
0
  2
*U47
 10
0.0
 20
0.0
 30
0.0
  0
POINT
  5
3850
  8
DEFPOINTS
 62
     0
 10
135.5762478919182001
 20
118.8592522410263967
 30
0.0
  0
POINT
  5
3851
  8
DEFPOINTS
 62
     0
 10
142.5762478919182001
 20
113.4820747914669994
 30
0.0
  0
POINT
  5
3852
  8
DEFPOINTS
 62
     0
 10
142.5762478919182001
 20
143.1449665267406886
 30
0.0
  0
ENDBLK
  5
3158
  8
0
  0
BLOCK
  8
0
  2
*D13
 70
     1
 10
0.0
 20
0.0
 30
0.0
  3
*D13
  1

  0
LINE
  5
3853
  8
AM_5
  6
CONTINUOUS
 62
     7
 10
155.0762478919182001
 20
126.0749006868754947
 30
0.0
 11
155.0762478919182001
 21
144.1449665267406886
 31
0.0
  0
LINE
  5
3854
  8
AM_5
  6
CONTINUOUS
 62
     7
 10
142.5762478919182001
 20
114.4820747914669994
 30
0.0
 11
142.5762478919182001
 21
144.1449665267406886
 31
0.0
  0
LINE
  5
3855
  8
AM_5
  6
CONTINUOUS
 62
     7
 10
152.5762478919182001
 20
143.1449665267406886
 30
0.0
 11
145.0762478919182001
 21
143.1449665267406886
 31
0.0
  0
INSERT
  5
3856
  8
AM_5
 62
     7
  2
_OPEN30
 10
155.0762478919182001
 20
143.1449665267406886
 30
0.0
 41
2.5
 42
2.5
 43
2.5
  0
INSERT
  5
3857
  8
AM_5
 62
     7
  2
_OPEN30
 10
142.5762478919182001
 20
143.1449665267406886
 30
0.0
 41
2.5
 42
2.5
 43
2.5
 50
180.0
  0
INSERT
  5
3858
  8
0
  2
*U48
 10
0.0
 20
0.0
 30
0.0
  0
POINT
  5
3859
  8
DEFPOINTS
 62
     0
 10
155.0762478919182001
 20
125.0749006868754947
 30
0.0
  0
POINT
  5
385A
  8
DEFPOINTS
 62
     0
 10
142.5762478919182001
 20
113.4820747914669994
 30
0.0
  0
POINT
  5
385B
  8
DEFPOINTS
 62
     0
 10
142.5762478919182001
 20
143.1449665267406886
 30
0.0
  0
ENDBLK
  5
3164
  8
0
  0
BLOCK
  8
0
  2
*D14
 70
     1
 10
0.0
 20
0.0
 30
0.0
  3
*D14
  1

  0
LINE
  5
37D8
  8
AM_5
  6
CONTINUOUS
 62
     7
 10
167.5762478919182001
 20
114.4820747914669994
 30
0.0
 11
167.5762478919182001
 21
144.1449665267406033
 31
0.0
  0
LINE
  5
37D9
  8
AM_5
  6
CONTINUOUS
 62
     7
 10
155.0762478919182001
 20
126.0749006868754947
 30
0.0
 11
155.0762478919182001
 21
144.1449665267406033
 31
0.0
  0
LINE
  5
37DA
  8
AM_5
  6
CONTINUOUS
 62
     7
 10
165.0762478919180865
 20
143.1449665267406033
 30
0.0
 11
157.5762478919182001
 21
143.1449665267406033
 31
0.0
  0
INSERT
  5
37DB
  8
AM_5
 62
     7
  2
_OPEN30
 10
167.5762478919182001
 20
143.1449665267406033
 30
0.0
 41
2.5
 42
2.5
 43
2.5
  0
INSERT
  5
37DC
  8
AM_5
 62
     7
  2
_OPEN30
 10
155.0762478919182001
 20
143.1449665267406033
 30
0.0
 41
2.5
 42
2.5
 43
2.5
 50
180.0
  0
INSERT
  5
37DD
  8
0
  2
*U42
 10
0.0
 20
0.0
 30
0.0
  0
POINT
  5
37DE
  8
DEFPOINTS
 62
     0
 10
167.5762478919182001
 20
113.4820747914669994
 30
0.0
  0
POINT
  5
37DF
  8
DEFPOINTS
 62
     0
 10
155.0762478919182001
 20
125.0749006868754947
 30
0.0
  0
POINT
  5
37E0
  8
DEFPOINTS
 62
     0
 10
155.0762478919182001
 20
143.1449665267406033
 30
0.0
  0
ENDBLK
  5
3170
  8
0
  0
BLOCK
  8
0
  2
*D15
 70
     1
 10
0.0
 20
0.0
 30
0.0
  3
*D15
  1

  0
LINE
  5
37E1
  8
AM_5
  6
CONTINUOUS
 62
     7
 10
174.5762478919182001
 20
119.8592522410263967
 30
0.0
 11
174.5762478919182001
 21
144.1449665267406886
 31
0.0
  0
LINE
  5
37E2
  8
AM_5
  6
CONTINUOUS
 62
     7
 10
167.5762478919182001
 20
114.4820747914669994
 30
0.0
 11
167.5762478919182001
 21
144.1449665267406886
 31
0.0
  0
LINE
  5
37E3
  8
AM_5
  6
CONTINUOUS
 62
     7
 10
172.0762478919182001
 20
143.1449665267406886
 30
0.0
 11
170.0762478919180865
 21
143.1449665267406886
 31
0.0
  0
INSERT
  5
37E4
  8
AM_5
 62
     7
  2
_OPEN30
 10
174.5762478919182001
 20
143.1449665267406886
 30
0.0
 41
2.5
 42
2.5
 43
2.5
  0
INSERT
  5
37E5
  8
AM_5
 62
     7
  2
_OPEN30
 10
167.5762478919182001
 20
143.1449665267406886
 30
0.0
 41
2.5
 42
2.5
 43
2.5
 50
180.0
  0
INSERT
  5
37E6
  8
0
  2
*U43
 10
0.0
 20
0.0
 30
0.0
  0
POINT
  5
37E7
  8
DEFPOINTS
 62
     0
 10
174.5762478919182001
 20
118.8592522410263967
 30
0.0
  0
POINT
  5
37E8
  8
DEFPOINTS
 62
     0
 10
167.5762478919182001
 20
113.4820747914669994
 30
0.0
  0
POINT
  5
37E9
  8
DEFPOINTS
 62
     0
 10
167.5762478919182001
 20
143.1449665267406886
 30
0.0
  0
ENDBLK
  5
317C
  8
0
  0
BLOCK
  8
0
  2
*D16
 70
     1
 10
0.0
 20
0.0
 30
0.0
  3
*D16
  1

  0
LINE
  5
3721
  8
AM_5
  6
CONTINUOUS
 62
     7
 10
135.5762478919182001
 20
119.8592522410263967
 30
0.0
 11
135.5762478919182001
 21
151.1449665267406886
 31
0.0
  0
LINE
  5
3722
  8
AM_5
  6
CONTINUOUS
 62
     7
 10
155.0762478919182001
 20
126.0749006868754947
 30
0.0
 11
155.0762478919182001
 21
151.1449665267406886
 31
0.0
  0
LINE
  5
3723
  8
AM_5
  6
CONTINUOUS
 62
     7
 10
138.0762478919182001
 20
150.1449665267406886
 30
0.0
 11
152.5762478919182001
 21
150.1449665267406886
 31
0.0
  0
INSERT
  5
3724
  8
AM_5
 62
     7
  2
_OPEN30
 10
135.5762478919182001
 20
150.1449665267406886
 30
0.0
 41
2.5
 42
2.5
 43
2.5
 50
180.0
  0
INSERT
  5
3725
  8
AM_5
 62
     7
  2
_OPEN30
 10
155.0762478919182001
 20
150.1449665267406886
 30
0.0
 41
2.5
 42
2.5
 43
2.5
  0
INSERT
  5
3726
  8
0
  2
*U37
 10
0.0
 20
0.0
 30
0.0
  0
POINT
  5
3727
  8
DEFPOINTS
 62
     0
 10
135.5762478919182001
 20
118.8592522410263967
 30
0.0
  0
POINT
  5
3728
  8
DEFPOINTS
 62
     0
 10
155.0762478919182001
 20
125.0749006868754947
 30
0.0
  0
POINT
  5
3729
  8
DEFPOINTS
 62
     0
 10
155.0762478919182001
 20
150.1449665267406886
 30
0.0
  0
ENDBLK
  5
3188
  8
0
  0
BLOCK
  8
0
  2
*D17
 70
     1
 10
0.0
 20
0.0
 30
0.0
  3
*D17
  1

  0
LINE
  5
372A
  8
AM_5
  6
CONTINUOUS
 62
     7
 10
174.5762478919182001
 20
119.8592522410263967
 30
0.0
 11
174.5762478919182001
 21
151.1449665267406886
 31
0.0
  0
LINE
  5
372B
  8
AM_5
  6
CONTINUOUS
 62
     7
 10
155.0762478919182001
 20
126.0749006868754947
 30
0.0
 11
155.0762478919182001
 21
151.1449665267406886
 31
0.0
  0
LINE
  5
372C
  8
AM_5
  6
CONTINUOUS
 62
     7
 10
172.0762478919182001
 20
150.1449665267406886
 30
0.0
 11
157.5762478919182001
 21
150.1449665267406886
 31
0.0
  0
INSERT
  5
372D
  8
AM_5
 62
     7
  2
_OPEN30
 10
174.5762478919182001
 20
150.1449665267406886
 30
0.0
 41
2.5
 42
2.5
 43
2.5
  0
INSERT
  5
372E
  8
AM_5
 62
     7
  2
_OPEN30
 10
155.0762478919182001
 20
150.1449665267406886
 30
0.0
 41
2.5
 42
2.5
 43
2.5
 50
180.0
  0
INSERT
  5
372F
  8
0
  2
*U38
 10
0.0
 20
0.0
 30
0.0
  0
POINT
  5
3730
  8
DEFPOINTS
 62
     0
 10
174.5762478919182001
 20
118.8592522410263967
 30
0.0
  0
POINT
  5
3731
  8
DEFPOINTS
 62
     0
 10
155.0762478919182001
 20
125.0749006868754947
 30
0.0
  0
POINT
  5
3732
  8
DEFPOINTS
 62
     0
 10
155.0762478919182001
 20
150.1449665267406886
 30
0.0
  0
ENDBLK
  5
3194
  8
0
  0
BLOCK
  8
0
  2
*D18
 70
     1
 10
0.0
 20
0.0
 30
0.0
  3
*D18
  1

  0
LINE
  5
3733
  8
AM_5
  6
CONTINUOUS
 62
     7
 10
135.5762478919182001
 20
119.8592522410263967
 30
0.0
 11
135.5762478919182001
 21
158.1449665267406886
 31
0.0
  0
LINE
  5
3734
  8
AM_5
  6
CONTINUOUS
 62
     7
 10
174.5762478919180865
 20
119.8592522410263967
 30
0.0
 11
174.5762478919180865
 21
158.1449665267406886
 31
0.0
  0
LINE
  5
3735
  8
AM_5
  6
CONTINUOUS
 62
     7
 10
138.0762478919182001
 20
157.1449665267406033
 30
0.0
 11
172.0762478919182001
 21
157.1449665267406033
 31
0.0
  0
INSERT
  5
3736
  8
AM_5
 62
     7
  2
_OPEN30
 10
135.5762478919182001
 20
157.1449665267406033
 30
0.0
 41
2.5
 42
2.5
 43
2.5
 50
180.0
  0
INSERT
  5
3737
  8
AM_5
 62
     7
  2
_OPEN30
 10
174.5762478919180865
 20
157.1449665267406033
 30
0.0
 41
2.5
 42
2.5
 43
2.5
  0
INSERT
  5
3738
  8
0
  2
*U39
 10
0.0
 20
0.0
 30
0.0
  0
POINT
  5
3739
  8
DEFPOINTS
 62
     0
 10
135.5762478919182001
 20
118.8592522410263967
 30
0.0
  0
POINT
  5
373A
  8
DEFPOINTS
 62
     0
 10
174.5762478919180865
 20
118.8592522410263967
 30
0.0
  0
POINT
  5
373B
  8
DEFPOINTS
 62
     0
 10
174.5762478919180865
 20
157.1449665267406033
 30
0.0
  0
ENDBLK
  5
31A0
  8
0
  0
BLOCK
  8
0
  2
*D19
 70
     1
 10
0.0
 20
0.0
 30
0.0
  3
*D19
  1

  0
LINE
  5
373C
  8
AM_5
  6
CONTINUOUS
 62
     7
 10
134.5762478919182001
 20
118.8592522410263967
 30
0.0
 11
107.3744710837303984
 21
118.8592522410263967
 31
0.0
  0
LINE
  5
373D
  8
AM_5
  6
CONTINUOUS
 62
     7
 10
137.3525929334790021
 20
108.3592522410263967
 30
0.0
 11
107.3744710837303984
 21
108.3592522410263967
 31
0.0
  0
LINE
  5
373E
  8
AM_5
  6
CONTINUOUS
 62
     7
 10
108.3744710837303984
 20
121.3592522410263967
 30
0.0
 11
108.3744710837303984
 21
123.8592522410263967
 31
0.0
  0
LINE
  5
373F
  8
AM_5
  6
CONTINUOUS
 62
     7
 10
108.3744710837303984
 20
105.8592522410263967
 30
0.0
 11
108.3744710837303984
 21
103.3592522410263967
 31
0.0
  0
LINE
  5
3740
  8
AM_5
  6
CONTINUOUS
 62
     7
 10
108.3744710837303984
 20
118.8592522410263967
 30
0.0
 11
108.3744710837303984
 21
108.3592522410263967
 31
0.0
  0
INSERT
  5
3741
  8
AM_5
 62
     7
  2
_OPEN30
 10
108.3744710837303984
 20
118.8592522410263967
 30
0.0
 41
2.5
 42
2.5
 43
2.5
 50
270.0
  0
INSERT
  5
3742
  8
AM_5
 62
     7
  2
_OPEN30
 10
108.3744710837303984
 20
108.3592522410263967
 30
0.0
 41
2.5
 42
2.5
 43
2.5
 50
90.0
  0
INSERT
  5
3743
  8
0
  2
*U40
 10
0.0
 20
0.0
 30
0.0
  0
POINT
  5
3744
  8
DEFPOINTS
 62
     0
 10
135.5762478919182001
 20
118.8592522410263967
 30
0.0
  0
POINT
  5
3745
  8
DEFPOINTS
 62
     0
 10
138.3525929334790021
 20
108.3592522410263967
 30
0.0
  0
POINT
  5
3746
  8
DEFPOINTS
 62
     0
 10
108.3744710837303984
 20
108.3592522410263967
 30
0.0
  0
ENDBLK
  5
31AC
  8
0
  0
BLOCK
  8
0
  2
*D20
 70
     1
 10
0.0
 20
0.0
 30
0.0
  3
*D20
  1

  0
LINE
  5
385C
  8
AM_5
  6
CONTINUOUS
 62
     7
 10
137.3525929334790021
 20
108.3592522410263967
 30
0.0
 11
107.3744710837303984
 21
108.3592522410263967
 31
0.0
  0
LINE
  5
385D
  8
AM_5
  6
CONTINUOUS
 62
     7
 10
137.185254285705696
 20
93.359252241026411
 30
0.0
 11
107.3744710837303984
 21
93.359252241026411
 31
0.0
  0
LINE
  5
385E
  8
AM_5
  6
CONTINUOUS
 62
     7
 10
108.3744710837303984
 20
105.8592522410263967
 30
0.0
 11
108.3744710837303984
 21
95.859252241026411
 31
0.0
  0
INSERT
  5
385F
  8
AM_5
 62
     7
  2
_OPEN30
 10
108.3744710837303984
 20
108.3592522410263967
 30
0.0
 41
2.5
 42
2.5
 43
2.5
 50
90.0
  0
INSERT
  5
3860
  8
AM_5
 62
     7
  2
_OPEN30
 10
108.3744710837303984
 20
93.359252241026411
 30
0.0
 41
2.5
 42
2.5
 43
2.5
 50
270.0
  0
INSERT
  5
3861
  8
0
  2
*U49
 10
0.0
 20
0.0
 30
0.0
  0
POINT
  5
3862
  8
DEFPOINTS
 62
     0
 10
138.3525929334790021
 20
108.3592522410263967
 30
0.0
  0
POINT
  5
3863
  8
DEFPOINTS
 62
     0
 10
138.185254285705696
 20
93.359252241026411
 30
0.0
  0
POINT
  5
3864
  8
DEFPOINTS
 62
     0
 10
108.3744710837303984
 20
93.359252241026411
 30
0.0
  0
ENDBLK
  5
31BA
  8
0
  0
BLOCK
  8
0
  2
*D21
 70
     1
 10
0.0
 20
0.0
 30
0.0
  3
*D21
  1

  0
LINE
  5
3865
  8
AM_5
  6
CONTINUOUS
 62
     7
 10
137.185254285705696
 20
93.359252241026411
 30
0.0
 11
107.3744710837303984
 21
93.359252241026411
 31
0.0
  0
LINE
  5
3866
  8
AM_5
  6
CONTINUOUS
 62
     7
 10
137.185254285705696
 20
78.3592522410264678
 30
0.0
 11
107.3744710837303984
 21
78.3592522410264678
 31
0.0
  0
LINE
  5
3867
  8
AM_5
  6
CONTINUOUS
 62
     7
 10
108.3744710837303984
 20
90.859252241026411
 30
0.0
 11
108.3744710837303984
 21
80.8592522410264678
 31
0.0
  0
INSERT
  5
3868
  8
AM_5
 62
     7
  2
_OPEN30
 10
108.3744710837303984
 20
93.359252241026411
 30
0.0
 41
2.5
 42
2.5
 43
2.5
 50
90.0
  0
INSERT
  5
3869
  8
AM_5
 62
     7
  2
_OPEN30
 10
108.3744710837303984
 20
78.3592522410264678
 30
0.0
 41
2.5
 42
2.5
 43
2.5
 50
270.0
  0
INSERT
  5
386A
  8
0
  2
*U50
 10
0.0
 20
0.0
 30
0.0
  0
POINT
  5
386B
  8
DEFPOINTS
 62
     0
 10
138.185254285705696
 20
93.359252241026411
 30
0.0
  0
POINT
  5
386C
  8
DEFPOINTS
 62
     0
 10
138.185254285705696
 20
78.3592522410264678
 30
0.0
  0
POINT
  5
386D
  8
DEFPOINTS
 62
     0
 10
108.3744710837303984
 20
78.3592522410264678
 30
0.0
  0
ENDBLK
  5
31C6
  8
0
  0
BLOCK
  8
0
  2
*D22
 70
     1
 10
0.0
 20
0.0
 30
0.0
  3
*D22
  1

  0
LINE
  5
382D
  8
AM_5
  6
CONTINUOUS
 62
     7
 10
137.185254285705696
 20
78.3592522410264678
 30
0.0
 11
107.3744710837303984
 21
78.3592522410264678
 31
0.0
  0
LINE
  5
382E
  8
AM_5
  6
CONTINUOUS
 62
     7
 10
134.5762478919182001
 20
67.8592522410264678
 30
0.0
 11
107.3744710837303984
 21
67.8592522410264678
 31
0.0
  0
LINE
  5
382F
  8
AM_5
  6
CONTINUOUS
 62
     7
 10
108.3744710837303984
 20
80.8592522410264678
 30
0.0
 11
108.3744710837303984
 21
83.3592522410264678
 31
0.0
  0
LINE
  5
3830
  8
AM_5
  6
CONTINUOUS
 62
     7
 10
108.3744710837303984
 20
65.3592522410264678
 30
0.0
 11
108.3744710837303984
 21
62.859252241026482
 31
0.0
  0
LINE
  5
3831
  8
AM_5
  6
CONTINUOUS
 62
     7
 10
108.3744710837303984
 20
78.3592522410264678
 30
0.0
 11
108.3744710837303984
 21
67.8592522410264678
 31
0.0
  0
INSERT
  5
3832
  8
AM_5
 62
     7
  2
_OPEN30
 10
108.3744710837303984
 20
78.3592522410264678
 30
0.0
 41
2.5
 42
2.5
 43
2.5
 50
270.0
  0
INSERT
  5
3833
  8
AM_5
 62
     7
  2
_OPEN30
 10
108.3744710837303984
 20
67.8592522410264678
 30
0.0
 41
2.5
 42
2.5
 43
2.5
 50
90.0
  0
INSERT
  5
3834
  8
0
  2
*U46
 10
0.0
 20
0.0
 30
0.0
  0
POINT
  5
3835
  8
DEFPOINTS
 62
     0
 10
138.185254285705696
 20
78.3592522410264678
 30
0.0
  0
POINT
  5
3836
  8
DEFPOINTS
 62
     0
 10
135.5762478919182001
 20
67.8592522410264678
 30
0.0
  0
POINT
  5
3837
  8
DEFPOINTS
 62
     0
 10
108.3744710837303984
 20
67.8592522410264678
 30
0.0
  0
ENDBLK
  5
31D2
  8
0
  0
BLOCK
  8
0
  2
*D23
 70
     1
 10
0.0
 20
0.0
 30
0.0
  3
*D23
  1

  0
LINE
  5
37EA
  8
AM_5
  6
CONTINUOUS
 62
     7
 10
175.5762478919180865
 20
118.8592522410263967
 30
0.0
 11
198.9771221311063982
 21
118.8592522410263967
 31
0.0
  0
LINE
  5
37EB
  8
AM_5
  6
CONTINUOUS
 62
     7
 10
173.5422516635250929
 20
108.3592522410263967
 30
0.0
 11
198.9771221311063982
 21
108.3592522410263967
 31
0.0
  0
LINE
  5
37EC
  8
AM_5
  6
CONTINUOUS
 62
     7
 10
197.9771221311063982
 20
121.3592522410263967
 30
0.0
 11
197.9771221311063982
 21
123.8592522410263967
 31
0.0
  0
LINE
  5
37ED
  8
AM_5
  6
CONTINUOUS
 62
     7
 10
197.9771221311063982
 20
105.8592522410263967
 30
0.0
 11
197.9771221311063982
 21
103.3592522410263967
 31
0.0
  0
LINE
  5
37EE
  8
AM_5
  6
CONTINUOUS
 62
     7
 10
197.9771221311063982
 20
118.8592522410263967
 30
0.0
 11
197.9771221311063982
 21
108.3592522410263967
 31
0.0
  0
INSERT
  5
37EF
  8
AM_5
 62
     7
  2
_OPEN30
 10
197.9771221311063982
 20
118.8592522410263967
 30
0.0
 41
2.5
 42
2.5
 43
2.5
 50
270.0
  0
INSERT
  5
37F0
  8
AM_5
 62
     7
  2
_OPEN30
 10
197.9771221311063982
 20
108.3592522410263967
 30
0.0
 41
2.5
 42
2.5
 43
2.5
 50
90.0
  0
INSERT
  5
37F1
  8
0
  2
*U44
 10
0.0
 20
0.0
 30
0.0
  0
POINT
  5
37F2
  8
DEFPOINTS
 62
     0
 10
174.5762478919180865
 20
118.8592522410263967
 30
0.0
  0
POINT
  5
37F3
  8
DEFPOINTS
 62
     0
 10
172.5422516635250929
 20
108.3592522410263967
 30
0.0
  0
POINT
  5
37F4
  8
DEFPOINTS
 62
     0
 10
197.9771221311063982
 20
108.3592522410263967
 30
0.0
  0
ENDBLK
  5
31E0
  8
0
  0
BLOCK
  8
0
  2
*D24
 70
     1
 10
0.0
 20
0.0
 30
0.0
  3
*D24
  1

  0
LINE
  5
386E
  8
AM_5
  6
CONTINUOUS
 62
     7
 10
173.5422516635250929
 20
93.359252241026411
 30
0.0
 11
198.9771221311063982
 21
93.359252241026411
 31
0.0
  0
LINE
  5
386F
  8
AM_5
  6
CONTINUOUS
 62
     7
 10
173.5422516635250929
 20
108.3592522410263967
 30
0.0
 11
198.9771221311063982
 21
108.3592522410263967
 31
0.0
  0
LINE
  5
3870
  8
AM_5
  6
CONTINUOUS
 62
     7
 10
197.9771221311063982
 20
95.859252241026411
 30
0.0
 11
197.9771221311063982
 21
105.8592522410263967
 31
0.0
  0
INSERT
  5
3871
  8
AM_5
 62
     7
  2
_OPEN30
 10
197.9771221311063982
 20
93.359252241026411
 30
0.0
 41
2.5
 42
2.5
 43
2.5
 50
270.0
  0
INSERT
  5
3872
  8
AM_5
 62
     7
  2
_OPEN30
 10
197.9771221311063982
 20
108.3592522410263967
 30
0.0
 41
2.5
 42
2.5
 43
2.5
 50
90.0
  0
INSERT
  5
3873
  8
0
  2
*U51
 10
0.0
 20
0.0
 30
0.0
  0
POINT
  5
3874
  8
DEFPOINTS
 62
     0
 10
172.5422516635250929
 20
93.359252241026411
 30
0.0
  0
POINT
  5
3875
  8
DEFPOINTS
 62
     0
 10
172.5422516635250929
 20
108.3592522410263967
 30
0.0
  0
POINT
  5
3876
  8
DEFPOINTS
 62
     0
 10
197.9771221311063982
 20
108.3592522410263967
 30
0.0
  0
ENDBLK
  5
31EE
  8
0
  0
BLOCK
  8
0
  2
*D25
 70
     1
 10
0.0
 20
0.0
 30
0.0
  3
*D25
  1

  0
LINE
  5
3877
  8
AM_5
  6
CONTINUOUS
 62
     7
 10
173.5422516635250929
 20
78.3592522410264536
 30
0.0
 11
198.9771221311063982
 21
78.3592522410264536
 31
0.0
  0
LINE
  5
3878
  8
AM_5
  6
CONTINUOUS
 62
     7
 10
173.5422516635250929
 20
93.359252241026411
 30
0.0
 11
198.9771221311063982
 21
93.359252241026411
 31
0.0
  0
LINE
  5
3879
  8
AM_5
  6
CONTINUOUS
 62
     7
 10
197.9771221311063982
 20
80.8592522410264536
 30
0.0
 11
197.9771221311063982
 21
90.859252241026411
 31
0.0
  0
INSERT
  5
387A
  8
AM_5
 62
     7
  2
_OPEN30
 10
197.9771221311063982
 20
78.3592522410264536
 30
0.0
 41
2.5
 42
2.5
 43
2.5
 50
270.0
  0
INSERT
  5
387B
  8
AM_5
 62
     7
  2
_OPEN30
 10
197.9771221311063982
 20
93.359252241026411
 30
0.0
 41
2.5
 42
2.5
 43
2.5
 50
90.0
  0
INSERT
  5
387C
  8
0
  2
*U52
 10
0.0
 20
0.0
 30
0.0
  0
POINT
  5
387D
  8
DEFPOINTS
 62
     0
 10
172.5422516635250929
 20
78.3592522410264536
 30
0.0
  0
POINT
  5
387E
  8
DEFPOINTS
 62
     0
 10
172.5422516635250929
 20
93.359252241026411
 30
0.0
  0
POINT
  5
387F
  8
DEFPOINTS
 62
     0
 10
197.9771221311063982
 20
93.359252241026411
 30
0.0
  0
ENDBLK
  5
31FA
  8
0
  0
BLOCK
  8
0
  2
*D26
 70
     1
 10
0.0
 20
0.0
 30
0.0
  3
*D26
  1

  0
LINE
  5
3819
  8
AM_5
  6
CONTINUOUS
 62
     7
 10
175.5762478919182001
 20
67.8592522410264678
 30
0.0
 11
198.9771221311063982
 21
67.8592522410264678
 31
0.0
  0
LINE
  5
381A
  8
AM_5
  6
CONTINUOUS
 62
     7
 10
173.5422516635250929
 20
78.3592522410264536
 30
0.0
 11
198.9771221311063982
 21
78.3592522410264536
 31
0.0
  0
LINE
  5
381B
  8
AM_5
  6
CONTINUOUS
 62
     7
 10
197.9771221311063982
 20
65.3592522410264678
 30
0.0
 11
197.977122131106313
 21
62.8592522410264678
 31
0.0
  0
LINE
  5
381C
  8
AM_5
  6
CONTINUOUS
 62
     7
 10
197.9771221311063982
 20
80.8592522410264536
 30
0.0
 11
197.9771221311063982
 21
83.3592522410264536
 31
0.0
  0
LINE
  5
381D
  8
AM_5
  6
CONTINUOUS
 62
     7
 10
197.9771221311063982
 20
67.8592522410264678
 30
0.0
 11
197.9771221311063982
 21
78.3592522410264536
 31
0.0
  0
INSERT
  5
381E
  8
AM_5
 62
     7
  2
_OPEN30
 10
197.9771221311063982
 20
67.8592522410264678
 30
0.0
 41
2.5
 42
2.5
 43
2.5
 50
90.0
  0
INSERT
  5
381F
  8
AM_5
 62
     7
  2
_OPEN30
 10
197.9771221311063982
 20
78.3592522410264536
 30
0.0
 41
2.5
 42
2.5
 43
2.5
 50
270.0
  0
INSERT
  5
3820
  8
0
  2
*U45
 10
0.0
 20
0.0
 30
0.0
  0
POINT
  5
3821
  8
DEFPOINTS
 62
     0
 10
174.5762478919182001
 20
67.8592522410264678
 30
0.0
  0
POINT
  5
3822
  8
DEFPOINTS
 62
     0
 10
172.5422516635250929
 20
78.3592522410264536
 30
0.0
  0
POINT
  5
3823
  8
DEFPOINTS
 62
     0
 10
197.9771221311063982
 20
78.3592522410264536
 30
0.0
  0
ENDBLK
  5
3206
  8
0
  0
BLOCK
  8
0
  2
*D27
 70
     1
 10
0.0
 20
0.0
 30
0.0
  3
*D27
  1

  0
LINE
  5
378C
  8
AM_5
  6
CONTINUOUS
 62
     7
 10
175.5762478919182001
 20
118.8592522410263967
 30
0.0
 11
205.977122131106313
 21
118.8592522410263967
 31
0.0
  0
LINE
  5
378D
  8
AM_5
  6
CONTINUOUS
 62
     7
 10
175.5762478919182001
 20
67.8592522410264678
 30
0.0
 11
205.977122131106313
 21
67.8592522410264678
 31
0.0
  0
LINE
  5
378E
  8
AM_5
  6
CONTINUOUS
 62
     7
 10
204.977122131106313
 20
116.3592522410263967
 30
0.0
 11
204.977122131106313
 21
70.3592522410264678
 31
0.0
  0
INSERT
  5
378F
  8
AM_5
 62
     7
  2
_OPEN30
 10
204.977122131106313
 20
118.8592522410263967
 30
0.0
 41
2.5
 42
2.5
 43
2.5
 50
90.0
  0
INSERT
  5
3790
  8
AM_5
 62
     7
  2
_OPEN30
 10
204.977122131106313
 20
67.8592522410264678
 30
0.0
 41
2.5
 42
2.5
 43
2.5
 50
270.0
  0
INSERT
  5
3791
  8
0
  2
*U41
 10
0.0
 20
0.0
 30
0.0
  0
POINT
  5
3792
  8
DEFPOINTS
 62
     0
 10
174.5762478919182001
 20
118.8592522410263967
 30
0.0
  0
POINT
  5
3793
  8
DEFPOINTS
 62
     0
 10
174.5762478919182001
 20
67.8592522410264678
 30
0.0
  0
POINT
  5
3794
  8
DEFPOINTS
 62
     0
 10
204.977122131106313
 20
67.8592522410264678
 30
0.0
  0
ENDBLK
  5
3214
  8
0
  0
BLOCK
  8
0
  2
*D28
 70
     1
 10
0.0
 20
0.0
 30
0.0
  3
*D28
  1

  0
LINE
  5
3CA4
  8
AM_5
  6
CONTINUOUS
 62
     7
 10
134.5762478919183138
 20
183.2819518416006872
 30
0.0
 11
118.0762478919182001
 21
183.2819518416006872
 31
0.0
  0
LINE
  5
3CA5
  8
AM_5
  6
CONTINUOUS
 62
     7
 10
134.5762478919183138
 20
182.0819518416006986
 30
0.0
 11
118.0762478919182001
 21
182.0819518416006986
 31
0.0
  0
LINE
  5
3CA6
  8
AM_5
  6
CONTINUOUS
 62
     7
 10
119.0762478919182001
 20
179.5819518416006986
 30
0.0
 11
119.0762478919182001
 21
177.0819518416006986
 31
0.0
  0
LINE
  5
3CA7
  8
AM_5
  6
CONTINUOUS
 62
     7
 10
119.0762478919182001
 20
185.7819518416006872
 30
0.0
 11
119.0762478919182001
 21
195.9962375558864949
 31
0.0
  0
LINE
  5
3CA8
  8
AM_5
  6
CONTINUOUS
 62
     7
 10
119.0762478919182001
 20
182.0819518416006986
 30
0.0
 11
119.0762478919182001
 21
183.2819518416006872
 31
0.0
  0
INSERT
  5
3CA9
  8
AM_5
 62
     7
  2
GENDOT
 10
119.0762478919182001
 20
182.0819518416006986
 30
0.0
 41
2.5
 42
2.5
 43
2.5
 50
90.0
  0
INSERT
  5
3CAA
  8
AM_5
 62
     7
  2
_OPEN30
 10
119.0762478919182001
 20
183.2819518416006872
 30
0.0
 41
2.5
 42
2.5
 43
2.5
 50
270.0
  0
TEXT
  8
AM_5
  40
3
  5
3CD5
  62
7
  72
0
  71
0
 10
116.576
 20
188.239
 30
0.000000
  1
1.2
  0
POINT
  5
3CAC
  8
DEFPOINTS
 62
     0
 10
135.5762478919183138
 20
183.2819518416006872
 30
0.0
  0
POINT
  5
3CAD
  8
DEFPOINTS
 62
     0
 10
135.5762478919183138
 20
182.0819518416006986
 30
0.0
  0
POINT
  5
3CAE
  8
DEFPOINTS
 62
     0
 10
119.0762478919182001
 20
182.0819518416006986
 30
0.0
  0
ENDBLK
  5
3937
  8
0
  0
BLOCK
  8
0
  2
*D29
 70
     1
 10
0.0
 20
0.0
 30
0.0
  3
*D29
  1

  0
LINE
  5
3CAF
  8
AM_5
  6
CONTINUOUS
 62
     7
 10
134.5762478919183138
 20
182.0819518416006986
 30
0.0
 11
118.0762478919182996
 21
182.0819518416006986
 31
0.0
  0
LINE
  5
3CB0
  8
AM_5
  6
CONTINUOUS
 62
     7
 10
134.5762478919183138
 20
179.0819518416006986
 30
0.0
 11
118.0762478919182996
 21
179.0819518416006986
 31
0.0
  0
LINE
  5
3CB1
  8
AM_5
  6
CONTINUOUS
 62
     7
 10
119.0762478919182996
 20
184.5819518416006986
 30
0.0
 11
119.0762478919182996
 21
187.0819518416006986
 31
0.0
  0
LINE
  5
3CB2
  8
AM_5
  6
CONTINUOUS
 62
     7
 10
119.0762478919182996
 20
176.5819518416006986
 30
0.0
 11
119.0762478919182996
 21
174.0819518416006986
 31
0.0
  0
LINE
  5
3CB3
  8
AM_5
  6
CONTINUOUS
 62
     7
 10
119.0762478919182996
 20
180.5819518416006986
 30
0.0
 11
109.6427910287819003
 21
173.3839697536903941
 31
0.0
  0
LINE
  5
3CB4
  8
AM_5
  6
CONTINUOUS
 62
     7
 10
109.6427910287819003
 20
173.3839697536903941
 30
0.0
 11
109.6427910287819003
 21
169.3839697536903941
 31
0.0
  0
TEXT
  8
AM_5
  40
3
  5
3CD6
  62
7
  72
0
  71
0
 10
107.143
 20
167.484
 30
0.000000
  1
3
  0
LINE
  5
3CB6
  8
AM_5
  6
CONTINUOUS
 62
     7
 10
119.0762478919182996
 20
182.0819518416006986
 30
0.0
 11
119.0762478919182996
 21
179.0819518416006986
 31
0.0
  0
LINE
  5
3CB7
  8
AM_5
  6
CONTINUOUS
 62
     7
 10
119.0762478919182996
 20
182.0819518416006986
 30
0.0
 11
119.0762478919182996
 21
179.0819518416006986
 31
0.0
  0
INSERT
  5
3CB8
  8
AM_5
 62
     7
  2
GENDOT
 10
119.0762478919182996
 20
182.0819518416006986
 30
0.0
 41
2.5
 42
2.5
 43
2.5
 50
270.0
  0
INSERT
  5
3CB9
  8
AM_5
 62
     7
  2
GENDOT
 10
119.0762478919182996
 20
179.0819518416006986
 30
0.0
 41
2.5
 42
2.5
 43
2.5
 50
90.0
  0
POINT
  5
3CBA
  8
DEFPOINTS
 62
     0
 10
135.5762478919183138
 20
182.0819518416006986
 30
0.0
  0
POINT
  5
3CBB
  8
DEFPOINTS
 62
     0
 10
135.5762478919183138
 20
179.0819518416006986
 30
0.0
  0
POINT
  5
3CBC
  8
DEFPOINTS
 62
     0
 10
119.0762478919182996
 20
179.0819518416006986
 30
0.0
  0
ENDBLK
  5
3945
  8
0
  0
BLOCK
  8
0
  2
*D30
 70
     1
 10
0.0
 20
0.0
 30
0.0
  3
*D30
  1

  0
LINE
  5
3CBD
  8
AM_5
  6
CONTINUOUS
 62
     7
 10
134.5762478919183138
 20
179.0819518416006986
 30
0.0
 11
118.0762478919182001
 21
179.0819518416006986
 31
0.0
  0
LINE
  5
3CBE
  8
AM_5
  6
CONTINUOUS
 62
     7
 10
134.5762478919183138
 20
177.8819518416007099
 30
0.0
 11
118.0762478919182001
 21
177.8819518416007099
 31
0.0
  0
LINE
  5
3CBF
  8
AM_5
  6
CONTINUOUS
 62
     7
 10
119.0762478919182001
 20
181.5819518416006986
 30
0.0
 11
119.0762478919182001
 21
184.0819518416006986
 31
0.0
  0
LINE
  5
3CC0
  8
AM_5
  6
CONTINUOUS
 62
     7
 10
119.0762478919182001
 20
175.3819518416007099
 30
0.0
 11
119.0762478919182001
 21
164.6228759420860968
 31
0.0
  0
LINE
  5
3CC1
  8
AM_5
  6
CONTINUOUS
 62
     7
 10
119.0762478919182001
 20
179.0819518416006986
 30
0.0
 11
119.0762478919182001
 21
177.8819518416007099
 31
0.0
  0
INSERT
  5
3CC2
  8
AM_5
 62
     7
  2
GENDOT
 10
119.0762478919182001
 20
179.0819518416006986
 30
0.0
 41
2.5
 42
2.5
 43
2.5
 50
270.0
  0
INSERT
  5
3CC3
  8
AM_5
 62
     7
  2
_OPEN30
 10
119.0762478919182001
 20
177.8819518416007099
 30
0.0
 41
2.5
 42
2.5
 43
2.5
 50
90.0
  0
TEXT
  8
AM_5
  40
3
  5
3CD7
  62
7
  72
0
  71
0
 10
116.576
 20
164.580
 30
0.000000
  1
1.2
  0
POINT
  5
3CC5
  8
DEFPOINTS
 62
     0
 10
135.5762478919183138
 20
179.0819518416006986
 30
0.0
  0
POINT
  5
3CC6
  8
DEFPOINTS
 62
     0
 10
135.5762478919183138
 20
177.8819518416007099
 30
0.0
  0
POINT
  5
3CC7
  8
DEFPOINTS
 62
     0
 10
119.0762478919182001
 20
177.8819518416007099
 30
0.0
  0
ENDBLK
  5
3956
  8
0
  0
BLOCK
  8
0
  2
*D31
 70
     1
 10
0.0
 20
0.0
 30
0.0
  3
*D31
  1

  0
LINE
  5
3A21
  8
AM_5
  6
CONTINUOUS
 62
     7
 10
134.5762478919183138
 20
177.8819518416005963
 30
0.0
 11
99.9949877996247238
 21
177.8819518416005963
 31
0.0
  0
LINE
  5
3A22
  8
AM_5
  6
CONTINUOUS
 62
     7
 10
134.5762478919183138
 20
183.2819518416006019
 30
0.0
 11
99.9949877996247238
 21
183.2819518416006019
 31
0.0
  0
LINE
  5
3A23
  8
AM_5
  6
CONTINUOUS
 62
     7
 10
100.9949877996246954
 20
175.3819518416005963
 30
0.0
 11
100.9949877996246954
 21
172.8819518416005963
 31
0.0
  0
LINE
  5
3A24
  8
AM_5
  6
CONTINUOUS
 62
     7
 10
100.9949877996246954
 20
185.7819518416006019
 30
0.0
 11
100.9949877996246954
 21
196.7105232701721036
 31
0.0
  0
LINE
  5
3A25
  8
AM_5
  6
CONTINUOUS
 62
     7
 10
100.9949877996246954
 20
177.8819518416005963
 30
0.0
 11
100.9949877996246954
 21
183.2819518416006019
 31
0.0
  0
INSERT
  5
3A26
  8
AM_5
 62
     7
  2
_OPEN30
 10
100.9949877996246954
 20
177.8819518416005963
 30
0.0
 41
2.5
 42
2.5
 43
2.5
 50
90.0
  0
INSERT
  5
3A27
  8
AM_5
 62
     7
  2
_OPEN30
 10
100.9949877996246954
 20
183.2819518416006019
 30
0.0
 41
2.5
 42
2.5
 43
2.5
 50
270.0
  0
INSERT
  5
3A28
  8
0
  2
*U53
 10
0.0
 20
0.0
 30
0.0
  0
POINT
  5
3A29
  8
DEFPOINTS
 62
     0
 10
135.5762478919183138
 20
177.8819518416005963
 30
0.0
  0
POINT
  5
3A2A
  8
DEFPOINTS
 62
     0
 10
135.5762478919183138
 20
183.2819518416006019
 30
0.0
  0
POINT
  5
3A2B
  8
DEFPOINTS
 62
     0
 10
100.9949877996246954
 20
183.2819518416006019
 30
0.0
  0
ENDBLK
  5
3964
  8
0
  0
BLOCK
  8
0
  2
*S32
 70
     1
 10
0.0
 20
0.0
 30
0.0
  3
*S32
  1

  0
LINE
  5
3AB0
  8
AM_5
  6
CONTINUOUS
 62
     7
 10
88.7720590438375154
 20
50.535996483553717
 30
0.0
 11
123.2430629808453943
 21
50.535996483553717
 31
0.0
  0
LINE
  5
3AB1
  8
AM_5
  6
CONTINUOUS
 62
     7
 10
123.2430629808453943
 20
50.535996483553717
 30
0.0
 11
138.9242519061583039
 21
73.1035005992540192
 31
0.0
  0
LINE
  5
3AB2
  8
AM_5
  6
CONTINUOUS
 62
     7
 10
138.9242519061583039
 20
73.1035005992540192
 30
0.0
 11
140.7217186803995048
 21
75.6903158604388864
 31
0.0
  0
LINE
  5
3AB3
  8
AM_5
  6
CONTINUOUS
 62
     7
 10
139.2648125945709978
 20
72.8668596101506267
 30
0.0
 11
140.7217186803995048
 21
75.6903158604388864
 31
0.0
  0
LINE
  5
3AB4
  8
AM_5
  6
CONTINUOUS
 62
     7
 10
140.7217186803995048
 20
75.6903158604388864
 30
0.0
 11
138.5836912177456099
 21
73.3401415883573833
 31
0.0
  0
INSERT
  5
3AB5
  8
0
  2
*U54
 10
0.0
 20
0.0
 30
0.0
  0
ENDBLK
  5
3AB7
  8
0
  0
BLOCK
  8
0
  2
*S35
 70
     1
 10
0.0
 20
0.0
 30
0.0
  3
*S35
  1

  0
LINE
  5
3C09
  8
AM_5
 10
85.1446986550880638
 20
46.1137444868507203
 30
0.0
 11
123.4458141406523026
 21
46.1137444868507203
 31
0.0
  0
LINE
  5
3C0A
  8
AM_5
 10
123.4458141406523026
 20
46.1137444868507203
 30
0.0
 11
139.7189246436379904
 21
73.5430603994531253
 31
0.0
  0
TRACE
  5
3C0B
  8
AM_5
  6
CONTINUOUS
 10
140.0772722494644995
 20
73.3304619443302954
 30
0.0
 11
139.3605770378115096
 21
73.7556588545759553
 31
0.0
 12
140.9945153794774058
 22
75.6931460430126464
 32
0.0
 13
140.9945153794774058
 23
75.6931460430126464
 33
0.0
  0
INSERT
  5
3C0C
  8
0
  2
*U55
 10
0.0
 20
0.0
 30
0.0
  0
ENDBLK
  5
3C0E
  8
0
  0
BLOCK
  8
0
  2
*U36
 70
     1
 10
0.0
 20
0.0
 30
0.0
  3
*U36
  1

  0
TEXT
  5
3C61
  8
AM_5
 62
     7
 10
118.8620387901786017
 20
138.1449665267406033
 30
0.0
 40
3.0
  1
(\U+22055.4)
  0
ENDBLK
  5
3C63
  8
0
  0
BLOCK
  8
0
  2
*U37
 70
     1
 10
0.0
 20
0.0
 30
0.0
  3
*U37
  1

  0
TEXT
  5
3C65
  8
AM_5
 62
     7
 10
141.0405336062038941
 20
151.1449665267406886
 30
0.0
 40
3.0
  1
19.5
  0
ENDBLK
  5
3C67
  8
0
  0
BLOCK
  8
0
  2
*U38
 70
     1
 10
0.0
 20
0.0
 30
0.0
  3
*U38
  1

  0
TEXT
  5
3C69
  8
AM_5
 62
     7
 10
160.5405336062038941
 20
151.1449665267406886
 30
0.0
 40
3.0
  1
19.5
  0
ENDBLK
  5
3C6B
  8
0
  0
BLOCK
  8
0
  2
*U39
 70
     1
 10
0.0
 20
0.0
 30
0.0
  3
*U39
  1

  0
TEXT
  5
3C6D
  8
AM_5
 62
     7
 10
152.7191050347753105
 20
158.1449665267406886
 30
0.0
 40
3.0
  1
39
  0
ENDBLK
  5
3C6F
  8
0
  0
BLOCK
  8
0
  2
*U40
 70
     1
 10
0.0
 20
0.0
 30
0.0
  3
*U40
  1

  0
TEXT
  5
3C71
  8
AM_5
 62
     7
 10
107.3744710837303984
 20
109.3235379553121049
 30
0.0
 40
3.0
  1
10.5
 50
90.0
  0
ENDBLK
  5
3C73
  8
0
  0
BLOCK
  8
0
  2
*U41
 70
     1
 10
0.0
 20
0.0
 30
0.0
  3
*U41
  1

  0
TEXT
  5
3C75
  8
AM_5
 62
     7
 10
203.977122131106313
 20
91.573537955312176
 30
0.0
 40
3.0
  1
51
 50
90.0
  0
ENDBLK
  5
3C77
  8
0
  0
BLOCK
  8
0
  2
*U42
 70
     1
 10
0.0
 20
0.0
 30
0.0
  3
*U42
  1

  0
TEXT
  5
3C79
  8
AM_5
 62
     7
 10
157.0405336062038941
 20
144.1449665267406033
 30
0.0
 40
3.0
  1
12.5
  0
ENDBLK
  5
3C7B
  8
0
  0
BLOCK
  8
0
  2
*U43
 70
     1
 10
0.0
 20
0.0
 30
0.0
  3
*U43
  1

  0
TEXT
  5
3C7D
  8
AM_5
 62
     7
 10
170.0762478919182001
 20
144.1449665267406886
 30
0.0
 40
3.0
  1
7
  0
ENDBLK
  5
3C7F
  8
0
  0
BLOCK
  8
0
  2
*U44
 70
     1
 10
0.0
 20
0.0
 30
0.0
  3
*U44
  1

  0
TEXT
  5
3C81
  8
AM_5
 62
     7
 10
196.977122131106313
 20
109.3235379553121049
 30
0.0
 40
3.0
  1
10.5
 50
90.0
  0
ENDBLK
  5
3C83
  8
0
  0
BLOCK
  8
0
  2
*U45
 70
     1
 10
0.0
 20
0.0
 30
0.0
  3
*U45
  1

  0
TEXT
  5
3C85
  8
AM_5
 62
     7
 10
196.977122131106313
 20
68.8235379553121902
 30
0.0
 40
3.0
  1
10.5
 50
90.0
  0
ENDBLK
  5
3C87
  8
0
  0
BLOCK
  8
0
  2
*U46
 70
     1
 10
0.0
 20
0.0
 30
0.0
  3
*U46
  1

  0
TEXT
  5
3C89
  8
AM_5
 62
     7
 10
107.3744710837303984
 20
68.8235379553122044
 30
0.0
 40
3.0
  1
10.5
 50
90.0
  0
ENDBLK
  5
3C8B
  8
0
  0
BLOCK
  8
0
  2
*U47
 70
     1
 10
0.0
 20
0.0
 30
0.0
  3
*U47
  1

  0
TEXT
  5
3C8D
  8
AM_5
 62
     7
 10
138.0762478919182001
 20
144.1449665267406886
 30
0.0
 40
3.0
  1
7
  0
ENDBLK
  5
3C8F
  8
0
  0
BLOCK
  8
0
  2
*U48
 70
     1
 10
0.0
 20
0.0
 30
0.0
  3
*U48
  1

  0
TEXT
  5
3C91
  8
AM_5
 62
     7
 10
144.5405336062038941
 20
144.1449665267406886
 30
0.0
 40
3.0
  1
12.5
  0
ENDBLK
  5
3C93
  8
0
  0
BLOCK
  8
0
  2
*U49
 70
     1
 10
0.0
 20
0.0
 30
0.0
  3
*U49
  1

  0
TEXT
  5
3C95
  8
AM_5
 62
     7
 10
107.3744710837303984
 20
98.7163950981693006
 30
0.0
 40
3.0
  1
15
 50
90.0
  0
ENDBLK
  5
3C97
  8
0
  0
BLOCK
  8
0
  2
*U50
 70
     1
 10
0.0
 20
0.0
 30
0.0
  3
*U50
  1

  0
TEXT
  5
3C99
  8
AM_5
 62
     7
 10
107.3744710837303984
 20
83.716395098169329
 30
0.0
 40
3.0
  1
15
 50
90.0
  0
ENDBLK
  5
3C9B
  8
0
  0
BLOCK
  8
0
  2
*U51
 70
     1
 10
0.0
 20
0.0
 30
0.0
  3
*U51
  1

  0
TEXT
  5
3C9D
  8
AM_5
 62
     7
 10
196.977122131106313
 20
98.7163950981693006
 30
0.0
 40
3.0
  1
15
 50
90.0
  0
ENDBLK
  5
3C9F
  8
0
  0
BLOCK
  8
0
  2
*U52
 70
     1
 10
0.0
 20
0.0
 30
0.0
  3
*U52
  1

  0
TEXT
  5
3CA1
  8
AM_5
 62
     7
 10
196.977122131106313
 20
83.7163950981693148
 30
0.0
 40
3.0
  1
15
 50
90.0
  0
ENDBLK
  5
3CA3
  8
0
  0
BLOCK
  8
0
  2
*U53
 70
     1
 10
0.0
 20
0.0
 30
0.0
  3
*U53
  1

  0
TEXT
  5
3CC9
  8
AM_5
 62
     7
 10
99.9949877996246812
 20
189.2819518416006872
 30
0.0
 40
3.0
  1
5.4
 50
90.0
  0
ENDBLK
  5
3CCB
  8
0
  0
BLOCK
  8
0
  2
*U54
 70
     1
 10
0.0
 20
0.0
 30
0.0
  3
*U54
  1

  0
TEXT
  5
3CCD
  8
AM_5
 62
     7
 10
88.4880629808453847
 20
52.1109964835537127
 30
0.0
 40
3.149999999999999
  1
6-\U+22054.5×\U+22056.5皿孔
  7
ACJISTS
  0
ENDBLK
  5
3CCF
  8
0
  0
BLOCK
  8
0
  2
*U55
 70
     1
 10
0.0
 20
0.0
 30
0.0
  3
*U55
  1

  0
TEXT
  5
3CD2
  8
AM_5
 62
     7
 10
84.8291474739856994
 20
47.8637444868507203
 30
0.0
 40
3.5
  1
6-\U+22054.2×\U+22056.2皿孔
  7
MtXpl_isocp_shxextfo
  0
ENDBLK
  5
3CD4
  8
0
  0
ENDSEC
  0
SECTION
  2
ENTITIES
  0
INSERT
  5
1BB5
  8
0
  2
ZUWAKU-A4H
 10
0.0
 20
0.0
 30
0.0
1001
GENIUS_GENOREF_13
1005
1C93
1001
GENIUS_GENOBJ-N-SDF_13
1002
{
1000
OWNER
1000
GEN
1002
}
1001
GENIUS_GENODEF_13
1002
{
1000
HIER
1070
     0
1002
}
1002
{
1000
MANEDIT
1070
     0
1002
}
1002
{
1000
NOSEL
1070
     0
1002
}
1002
{
1000
BEHIND
1070
     0
1002
}
1002
{
1000
OTHER
1070
     0
1002
}
1002
{
1000
REACTOR
1002
}
1001
GENIUS_GENSCREG_13
1040
1.0
1040
1.0
1011
12.9569999999950802
1021
0.0
1031
0.0
1021
10.0
1031
0.0
1011
289.4570000003852783
1021
0.0
1031
0.0
1021
201.1206999999936045
1031
0.0
1070
     3
  0
POINT
  5
1C93
  8
0
 10
0.0
 20
0.0
 30
0.0
1001
GENIUS_GENOLIS_13
1002
{
1000
ENT
1005
1C84
1005
1BB5
1002
}
1001
GENIUS_GENOENT_13
1002
{
1000
MYREF
1005
1C93
1002
}
1002
{
1000
GRP
1005
0
1002
}
1001
GENIUS_GENOBJ-N-TIT_13
1002
{
1000
OWNER
1000
GEN
1002
}
1001
GENIUS_GENTITLE_13
1002
{
1000
BORDER
1000
C:\Program Files\Autodesk\ACADM 2008\Acadm\gen\Dwg\Format\ZUWAKU-A4H
1002
}
1002
{
1000
TITLE
1000
C:\Program Files\Autodesk\ACADM 2008\Acadm\gen\Dwg\Title\N_Title
1002
}
1002
{
1000
ADDITIONAL1
1000

1002
}
1002
{
1000
ADDITIONAL2
1000

1002
}
1002
{
1000
SCALE
1000
1:1
1002
}
1002
{
1000
TITLESTD
1000
JIS
1002
}
1002
{
1000
HRA
1005
1BB5
1002
}
1002
{
1000
HTIT
1005
1C84
1002
}
1002
{
1000
INVTXTID
1005
0
1002
}
1002
{
1000
UNCHG
1002
{
1000
GEN-TITLE-SIZ
1000
GEN-TITLE-SCA
1002
}
1002
}
1002
{
1000
GENIUSID
1005
1C93
1002
}
1001
GENIUS_GENODEF_13
1002
{
1000
HIER
1070
     1
1002
}
1002
{
1000
MANEDIT
1070
     1
1002
}
1002
{
1000
NOSEL
1070
     0
1002
}
1002
{
1000
BEHIND
1070
     0
1002
}
1002
{
1000
OTHER
1070
     0
1002
}
1002
{
1000
REACTOR
1002
}
  0
INSERT
  5
20F2
  8
0
 66
     1
  2
A$C1C06296A
 10
12.9570001316259305
 20
9.9999998268887111
 30
0.0
  0
ATTRIB
  5
20F3
  8
AM_BOR
 62
     7
 10
127.2677097070090042
 20
10.5
 30
0.0
 40
3.0
  1

 11
127.2677097070090042
 21
12.0
 31
0.0
  2
SETS｛20｝
 70
     0
 74
     2
1001
ACDBATTR
1070
     0
1070
     1
  0
ATTRIB
  5
20F4
  8
AM_BOR
 62
     7
 10
32.0177097070090895
 20
10.5
 30
0.0
 40
3.0
  1

 11
32.0177097070090895
 21
12.0
 31
0.0
  2
REMARKS｛20｝
 70
     0
 74
     2
1001
ACDBATTR
1070
     0
1070
     1
  0
ATTRIB
  5
20F5
  8
AM_BOR
 62
     7
 10
127.2677097070090042
 20
15.5
 30
0.0
 40
3.0
  1

 11
127.2677097070090042
 21
17.0
 31
0.0
  2
SETS｛20｝
 70
     0
 74
     2
1001
ACDBATTR
1070
     0
1070
     1
  0
ATTRIB
  5
20F6
  8
AM_BOR
 62
     7
 10
32.0177097070090895
 20
15.5
 30
0.0
 40
3.0
  1

 11
32.0177097070090895
 21
17.0
 31
0.0
  2
REMARKS｛20｝
 70
     0
 74
     2
1001
ACDBATTR
1070
     0
1070
     1
  0
ATTRIB
  5
20F7
  8
AM_BOR
 62
     7
 10
127.2677097070090042
 20
20.5
 30
0.0
 40
3.0
  1

 11
127.2677097070090042
 21
22.0
 31
0.0
  2
SETS｛20｝
 70
     0
 74
     2
1001
ACDBATTR
1070
     0
1070
     1
  0
ATTRIB
  5
20F8
  8
AM_BOR
 62
     7
 10
32.0177097070090895
 20
20.5
 30
0.0
 40
3.0
  1

 11
32.0177097070090895
 21
22.0
 31
0.0
  2
REMARKS｛20｝
 70
     0
 74
     2
1001
ACDBATTR
1070
     0
1070
     1
  0
ATTRIB
  5
20F9
  8
AM_BOR
 62
     7
 10
127.2070000000192067
 20
33.5
 30
0.0
 40
3.0
  1
5K-51-3
 11
127.2070000000192067
 21
35.0
 31
0.0
  2
ART_NO｛20｝
 70
     0
 74
     2
1001
ACDBATTR
1070
     0
1070
     1
  0
ATTRIB
  5
20FA
  8
AM_BOR
 62
     7
 10
31.9570000000192103
 20
33.5
 30
0.0
 40
3.0
  1
5管丁番
 11
31.9570000000192103
 21
35.0
 31
0.0
  2
ARTICLE｛20｝
 70
     0
 74
     2
1001
ACDBATTR
1070
     0
1070
     1
  0
ATTRIB
  5
20FB
  8
AM_BOR
 62
     7
 10
127.2070000000192067
 20
27.0
 30
0.0
 40
3.0
  1
ヘアライン
 11
127.2070000000192067
 21
28.5
 31
0.0
  2
FINISH｛20｝
 70
     0
 74
     2
1001
ACDBATTR
1070
     0
1070
     1
  0
ATTRIB
  5
20FC
  8
AM_BOR
 62
     7
 10
31.9570000000192103
 20
27.0
 30
0.0
 40
3.0
  1
ステンレス（リングは樹脂）
 11
31.9570000000192103
 21
28.5
 31
0.0
  2
MATERIAK｛20｝
 70
     0
 74
     2
1001
ACDBATTR
1070
     0
1070
     1
  0
SEQEND
  5
20FD
  8
0
  0
LINE
  5
30C3
  8
0
 10
135.5762478919182001
 20
67.8592522410264678
 30
0.0
 11
135.5762478919182001
 21
118.8592522410263967
 31
0.0
  0
LINE
  5
30C4
  8
0
 10
174.5762478919180865
 20
67.8592522410264394
 30
0.0
 11
174.5762478919180865
 21
118.8592522410263967
 31
0.0
  0
LINE
  5
30CA
  8
AM_7
 10
172.5422516635250929
 20
78.3592522410264536
 30
0.0
 11
162.6102441203111937
 21
78.3592522410264536
 31
0.0
  0
LINE
  5
30CB
  8
AM_7
 10
146.9672414981307043
 20
78.3592522410264678
 30
0.0
 11
138.185254285705696
 21
78.3592522410264678
 31
0.0
  0
LINE
  5
30CC
  8
AM_7
 10
172.5422516635250929
 20
93.359252241026411
 30
0.0
 11
162.6102441203111937
 21
93.359252241026411
 31
0.0
  0
LINE
  5
30CD
  8
AM_7
 10
146.9672414981307043
 20
93.359252241026411
 30
0.0
 11
138.185254285705696
 21
93.359252241026411
 31
0.0
  0
LINE
  5
30CE
  8
AM_7
 10
172.5422516635250929
 20
108.3592522410263967
 30
0.0
 11
162.6102441203111937
 21
108.3592522410263967
 31
0.0
  0
LINE
  5
30CF
  8
AM_7
 10
146.9672414981307043
 20
108.3592522410263967
 30
0.0
 11
138.185254285705696
 21
108.3592522410263967
 31
0.0
  0
LINE
  5
30D0
  8
AM_7
 10
142.5762478919182001
 20
103.2364296905856946
 30
0.0
 11
142.5762478919182001
 21
113.4820747914669994
 31
0.0
  0
LINE
  5
30D1
  8
AM_7
 10
142.5762478919182001
 20
73.6023421686155643
 30
0.0
 11
142.5762478919182001
 21
83.1161623134373571
 31
0.0
  0
LINE
  5
30D2
  8
AM_7
 10
142.5762478919182001
 20
88.550069242337571
 30
0.0
 11
142.5762478919182001
 21
98.1684352397152651
 31
0.0
  0
LINE
  5
30D3
  8
AM_7
 10
167.5762478919182001
 20
73.2887006227793876
 30
0.0
 11
167.5762478919182001
 21
83.4298038592735338
 31
0.0
  0
LINE
  5
30D4
  8
AM_7
 10
167.5762478919182001
 20
88.550069242337571
 30
0.0
 11
167.5762478919182001
 21
98.1684352397152651
 31
0.0
  0
LINE
  5
30D5
  8
AM_7
 10
167.5762478919182001
 20
103.2364296905856946
 30
0.0
 11
167.5762478919182001
 21
113.4820747914669994
 31
0.0
  0
LINE
  5
30D8
  8
AM_7
 10
155.0762478919182001
 20
62.6481437512431114
 30
0.0
 11
155.0762478919182001
 21
125.0749006868754947
 31
0.0
  0
LINE
  5
30E8
  8
0
 10
174.5762478919182001
 20
118.8592522410263967
 30
0.0
 11
158.5762478919182001
 21
118.8592522410263967
 31
0.0
  0
LINE
  5
30E9
  8
0
 10
157.7762478919181888
 20
118.8592522410263967
 30
0.0
 11
135.5762478919182001
 21
118.8592522410263967
 31
0.0
  0
LINE
  5
30EA
  8
0
 10
174.5762478919182001
 20
67.8592522410264678
 30
0.0
 11
158.5762478919182001
 21
67.8592522410264678
 31
0.0
  0
LINE
  5
30EB
  8
0
 10
157.7762478919181888
 20
67.8592522410264678
 30
0.0
 11
135.5762478919182001
 21
67.8592522410264678
 31
0.0
  0
CIRCLE
  5
30F9
  8
0
 10
142.5762478919182001
 20
78.3592522410264536
 30
0.0
 40
2.1000000000000001
  0
CIRCLE
  5
30FA
  8
0
 10
142.5762478919182001
 20
78.3592522410264536
 30
0.0
 40
3.1000000000000001
  0
CIRCLE
  5
30FB
  8
0
 10
142.5762478919182001
 20
93.359252241026411
 30
0.0
 40
2.1000000000000001
  0
CIRCLE
  5
30FC
  8
0
 10
142.5762478919182001
 20
93.359252241026411
 30
0.0
 40
3.1000000000000001
  0
CIRCLE
  5
30FD
  8
0
 10
142.5762478919182001
 20
108.3592522410263967
 30
0.0
 40
2.1000000000000001
  0
CIRCLE
  5
30FE
  8
0
 10
142.5762478919182001
 20
108.3592522410263967
 30
0.0
 40
3.1000000000000001
  0
CIRCLE
  5
30FF
  8
0
 10
167.5762478919182001
 20
108.3592522410263967
 30
0.0
 40
2.1000000000000001
  0
CIRCLE
  5
3100
  8
0
 10
167.5762478919182001
 20
108.3592522410263967
 30
0.0
 40
3.1000000000000001
  0
CIRCLE
  5
3101
  8
0
 10
167.5762478919182001
 20
93.359252241026411
 30
0.0
 40
2.1000000000000001
  0
CIRCLE
  5
3102
  8
0
 10
167.5762478919182001
 20
93.359252241026411
 30
0.0
 40
3.1000000000000001
  0
CIRCLE
  5
3103
  8
0
 10
167.5762478919182001
 20
78.3592522410264536
 30
0.0
 40
2.1000000000000001
  0
CIRCLE
  5
3104
  8
0
 10
167.5762478919182001
 20
78.3592522410264536
 30
0.0
 40
3.1000000000000001
  0
DIMENSION
  5
3106
  8
AM_5
  2
*D11
 10
152.3762478919182115
 20
136.1449665267406886
 30
0.0
 11
125.2906102187501034
 21
136.1449665267406886
 31
0.0
 70
   128
  1
(%%c<>)
 13
157.7762478919181888
 23
118.8592522410263967
 33
0.0
 14
152.3762478919182115
 24
118.8592522410263967
 34
0.0
1001
ACAD_DSTYLE_DIMINSPECT
1070
   396
1000
100%
1070
   395
1000

1070
   394
1070
    33
1070
   393
1070
     0
  0
DIMENSION
  5
3109
  8
AM_5
  2
*D12
 10
142.5762478919182001
 20
143.1449665267406886
 30
0.0
 11
139.0762478919182001
 21
145.6449665267406886
 31
0.0
 70
     0
 13
135.5762478919182001
 23
118.8592522410263967
 33
0.0
 14
142.5762478919182001
 24
113.4820747914669994
 34
0.0
1001
ACAD_DSTYLE_DIMINSPECT
1070
   396
1000
100%
1070
   395
1000

1070
   394
1070
    33
1070
   393
1070
     0
1001
ACAD
1000
DSTYLE
1002
{
1070
   174
1070
     1
1002
}
  0
DIMENSION
  5
310C
  8
AM_5
  2
*D13
 10
142.5762478919182001
 20
143.1449665267406886
 30
0.0
 11
148.8262478919182001
 21
145.6449665267406886
 31
0.0
 70
     0
 13
155.0762478919182001
 23
125.0749006868754947
 33
0.0
 14
142.5762478919182001
 24
113.4820747914669994
 34
0.0
1001
ACAD
1000
DSTYLE
1002
{
1070
   174
1070
     1
1002
}
1001
ACAD_DSTYLE_DIMINSPECT
1070
   396
1000
100%
1070
   395
1000

1070
   394
1070
    33
1070
   393
1070
     0
  0
DIMENSION
  5
310F
  8
AM_5
  2
*D14
 10
155.0762478919182001
 20
143.1449665267406033
 30
0.0
 11
161.3262478919182001
 21
145.6449665267406033
 31
0.0
 70
     0
 13
167.5762478919182001
 23
113.4820747914669994
 33
0.0
 14
155.0762478919182001
 24
125.0749006868754947
 34
0.0
1001
ACAD
1000
DSTYLE
1002
{
1070
   174
1070
     1
1002
}
1001
ACAD_DSTYLE_DIMINSPECT
1070
   396
1000
100%
1070
   395
1000

1070
   394
1070
    33
1070
   393
1070
     0
  0
DIMENSION
  5
3112
  8
AM_5
  2
*D15
 10
167.5762478919182001
 20
143.1449665267406886
 30
0.0
 11
171.0762478919182001
 21
145.6449665267406886
 31
0.0
 70
     0
 13
174.5762478919182001
 23
118.8592522410263967
 33
0.0
 14
167.5762478919182001
 24
113.4820747914669994
 34
0.0
1001
ACAD
1000
DSTYLE
1002
{
1070
   174
1070
     1
1002
}
1001
ACAD_DSTYLE_DIMINSPECT
1070
   396
1000
100%
1070
   395
1000

1070
   394
1070
    33
1070
   393
1070
     0
  0
DIMENSION
  5
3115
  8
AM_5
  2
*D16
 10
155.0762478919182001
 20
150.1449665267406886
 30
0.0
 11
145.3262478919182001
 21
152.6449665267406886
 31
0.0
 70
     0
 13
135.5762478919182001
 23
118.8592522410263967
 33
0.0
 14
155.0762478919182001
 24
125.0749006868754947
 34
0.0
1001
ACAD_DSTYLE_DIMINSPECT
1070
   396
1000
100%
1070
   395
1000

1070
   394
1070
    33
1070
   393
1070
     0
1001
ACAD
1000
DSTYLE
1002
{
1070
   174
1070
     1
1002
}
  0
DIMENSION
  5
3118
  8
AM_5
  2
*D17
 10
155.0762478919182001
 20
150.1449665267406886
 30
0.0
 11
164.8262478919182001
 21
152.6449665267406886
 31
0.0
 70
     0
 13
174.5762478919182001
 23
118.8592522410263967
 33
0.0
 14
155.0762478919182001
 24
125.0749006868754947
 34
0.0
1001
ACAD
1000
DSTYLE
1002
{
1070
   174
1070
     1
1002
}
1001
ACAD_DSTYLE_DIMINSPECT
1070
   396
1000
100%
1070
   395
1000

1070
   394
1070
    33
1070
   393
1070
     0
  0
DIMENSION
  5
311B
  8
AM_5
  2
*D18
 10
174.5762478919180865
 20
157.1449665267406033
 30
0.0
 11
155.0762478919182001
 21
159.6449665267406886
 31
0.0
 70
     0
 13
135.5762478919182001
 23
118.8592522410263967
 33
0.0
 14
174.5762478919180865
 24
118.8592522410263967
 34
0.0
1001
ACAD_DSTYLE_DIMINSPECT
1070
   396
1000
100%
1070
   395
1000

1070
   394
1070
    33
1070
   393
1070
     0
  0
DIMENSION
  5
311E
  8
AM_5
  2
*D19
 10
108.3744710837303984
 20
108.3592522410263967
 30
0.0
 11
105.8744710837303984
 21
113.6092522410263967
 31
0.0
 70
     0
 13
135.5762478919182001
 23
118.8592522410263967
 33
0.0
 14
138.3525929334790021
 24
108.3592522410263967
 34
0.0
 50
90.0
1001
ACAD_DSTYLE_DIMINSPECT
1070
   396
1000
100%
1070
   395
1000

1070
   394
1070
    33
1070
   393
1070
     0
1001
ACAD
1000
DSTYLE
1002
{
1070
   174
1070
     1
1002
}
  0
DIMENSION
  5
3121
  8
AM_5
  2
*D20
 10
108.3744710837303984
 20
93.359252241026411
 30
0.0
 11
105.8744710837303984
 21
100.8592522410263967
 31
0.0
 70
     0
 13
138.3525929334790021
 23
108.3592522410263967
 33
0.0
 14
138.185254285705696
 24
93.359252241026411
 34
0.0
 50
90.0
1001
ACAD_DSTYLE_DIMINSPECT
1070
   396
1000
100%
1070
   395
1000

1070
   394
1070
    33
1070
   393
1070
     0
1001
ACAD
1000
DSTYLE
1002
{
1070
   174
1070
     1
1002
}
  0
DIMENSION
  5
3124
  8
AM_5
  2
*D21
 10
108.3744710837303984
 20
78.3592522410264678
 30
0.0
 11
105.8744710837303984
 21
85.8592522410264678
 31
0.0
 70
     0
 13
138.185254285705696
 23
93.359252241026411
 33
0.0
 14
138.185254285705696
 24
78.3592522410264678
 34
0.0
 50
90.0
1001
ACAD_DSTYLE_DIMINSPECT
1070
   396
1000
100%
1070
   395
1000

1070
   394
1070
    33
1070
   393
1070
     0
1001
ACAD
1000
DSTYLE
1002
{
1070
   174
1070
     1
1002
}
  0
DIMENSION
  5
3127
  8
AM_5
  2
*D22
 10
108.3744710837303984
 20
67.8592522410264678
 30
0.0
 11
105.8744710837303984
 21
73.1092522410264962
 31
0.0
 70
     0
 13
138.185254285705696
 23
78.3592522410264678
 33
0.0
 14
135.5762478919182001
 24
67.8592522410264678
 34
0.0
 50
90.0
1001
ACAD
1000
DSTYLE
1002
{
1070
   174
1070
     1
1002
}
1001
ACAD_DSTYLE_DIMINSPECT
1070
   396
1000
100%
1070
   395
1000

1070
   394
1070
    33
1070
   393
1070
     0
  0
DIMENSION
  5
312A
  8
AM_5
  2
*D23
 10
197.9771221311063982
 20
108.3592522410263967
 30
0.0
 11
195.477122131106313
 21
113.6092522410263967
 31
0.0
 70
     0
 13
174.5762478919180865
 23
118.8592522410263967
 33
0.0
 14
172.5422516635250929
 24
108.3592522410263967
 34
0.0
 50
90.0
1001
ACAD_DSTYLE_DIMINSPECT
1070
   396
1000
100%
1070
   395
1000

1070
   394
1070
    33
1070
   393
1070
     0
1001
ACAD
1000
DSTYLE
1002
{
1070
   174
1070
     1
1002
}
  0
DIMENSION
  5
312D
  8
AM_5
  2
*D24
 10
197.9771221311063982
 20
108.3592522410263967
 30
0.0
 11
195.477122131106313
 21
100.8592522410263967
 31
0.0
 70
     0
 13
172.5422516635250929
 23
93.359252241026411
 33
0.0
 14
172.5422516635250929
 24
108.3592522410263967
 34
0.0
 50
90.0
1001
ACAD_DSTYLE_DIMINSPECT
1070
   396
1000
100%
1070
   395
1000

1070
   394
1070
    33
1070
   393
1070
     0
1001
ACAD
1000
DSTYLE
1002
{
1070
   174
1070
     1
1002
}
  0
DIMENSION
  5
3130
  8
AM_5
  2
*D25
 10
197.9771221311063982
 20
93.359252241026411
 30
0.0
 11
195.477122131106313
 21
85.8592522410264536
 31
0.0
 70
     0
 13
172.5422516635250929
 23
78.3592522410264536
 33
0.0
 14
172.5422516635250929
 24
93.359252241026411
 34
0.0
 50
90.0
1001
ACAD_DSTYLE_DIMINSPECT
1070
   396
1000
100%
1070
   395
1000

1070
   394
1070
    33
1070
   393
1070
     0
1001
ACAD
1000
DSTYLE
1002
{
1070
   174
1070
     1
1002
}
  0
DIMENSION
  5
3133
  8
AM_5
  2
*D26
 10
197.9771221311063982
 20
78.3592522410264536
 30
0.0
 11
195.477122131106313
 21
73.109252241026482
 31
0.0
 70
     0
 13
174.5762478919182001
 23
67.8592522410264678
 33
0.0
 14
172.5422516635250929
 24
78.3592522410264536
 34
0.0
 50
90.0
1001
ACAD
1000
DSTYLE
1002
{
1070
   174
1070
     1
1002
}
1001
ACAD_DSTYLE_DIMINSPECT
1070
   396
1000
100%
1070
   395
1000

1070
   394
1070
    33
1070
   393
1070
     0
  0
DIMENSION
  5
3136
  8
AM_5
  2
*D27
 10
204.977122131106313
 20
67.8592522410264678
 30
0.0
 11
202.477122131106313
 21
93.3592522410264678
 31
0.0
 70
     0
 13
174.5762478919182001
 23
118.8592522410263967
 33
0.0
 14
174.5762478919182001
 24
67.8592522410264678
 34
0.0
 50
90.0
1001
ACAD_DSTYLE_DIMINSPECT
1070
   396
1000
100%
1070
   395
1000

1070
   394
1070
    33
1070
   393
1070
     0
  0
LINE
  5
3607
  8
0
 10
157.7762478919181888
 20
67.8592522410263967
 30
0.0
 11
157.7762478919181888
 21
77.8592522410263967
 31
0.0
  0
LINE
  5
3608
  8
0
 10
157.7762478919181888
 20
78.3592522410263967
 30
0.0
 11
157.7762478919181888
 21
88.8592522410263967
 31
0.0
  0
LINE
  5
3609
  8
0
 10
157.7762478919181888
 20
89.359252241026411
 30
0.0
 11
157.7762478919181888
 21
99.359252241026411
 31
0.0
  0
LINE
  5
360A
  8
0
 10
157.7762478919181888
 20
99.8592522410264252
 30
0.0
 11
157.7762478919181888
 21
110.3592522410263967
 31
0.0
  0
LINE
  5
360B
  8
0
 10
157.7762478919181888
 20
110.8592522410262973
 30
0.0
 11
157.7762478919181888
 21
118.8592522410263967
 31
0.0
  0
LINE
  5
360C
  8
0
 10
152.3762478919182968
 20
67.8592522410264252
 30
0.0
 11
152.3762478919182968
 21
77.8592522410264252
 31
0.0
  0
LINE
  5
360D
  8
0
 10
152.3762478919182115
 20
78.3592522410263967
 30
0.0
 11
152.3762478919180978
 21
88.8592522410263967
 31
0.0
  0
LINE
  5
360E
  8
0
 10
152.3762478919182115
 20
89.359252241026411
 30
0.0
 11
152.3762478919182968
 21
99.359252241026411
 31
0.0
  0
LINE
  5
360F
  8
0
 10
152.3762478919182115
 20
99.8592522410264252
 30
0.0
 11
152.3762478919182968
 21
110.3592522410263967
 31
0.0
  0
LINE
  5
3610
  8
0
 10
152.3762478919182968
 20
110.8592522410262973
 30
0.0
 11
152.3762478919182968
 21
118.8592522410263967
 31
0.0
  0
LINE
  5
3611
  8
0
 10
157.7762478919181888
 20
75.8592522410263967
 30
0.0
 11
151.5762478919182001
 21
75.8592522410263967
 31
0.0
  0
LINE
  5
3612
  8
0
 10
157.7762478919181888
 20
110.8592522410263967
 30
0.0
 11
151.5762478919182001
 21
110.8592522410263967
 31
0.0
  0
LINE
  5
3613
  8
0
 10
158.5762478919182001
 20
99.8592522410264252
 30
0.0
 11
152.3762478919182968
 21
99.8592522410264252
 31
0.0
  0
LINE
  5
3614
  8
0
 10
158.5762478919182001
 20
108.3592522410263967
 30
0.0
 11
152.3762478919182968
 21
108.3592522410263967
 31
0.0
  0
LINE
  5
3615
  8
0
 10
157.7762478919181888
 20
110.3592522410263967
 30
0.0
 11
152.3762478919182968
 21
110.3592522410263967
 31
0.0
  0
LINE
  5
3616
  8
0
 10
158.5762478919182001
 20
78.3592522410263967
 30
0.0
 11
152.3762478919182968
 21
78.3592522410263967
 31
0.0
  0
LINE
  5
3617
  8
0
 10
158.5762478919182001
 20
86.859252241026411
 30
0.0
 11
152.3762478919182968
 21
86.859252241026411
 31
0.0
  0
ARC
  5
3618
  8
0
 10
155.0762478919180865
 20
116.9392522410262956
 30
0.0
 40
2.9199999999999982
 50
41.1120904391663586
 51
138.8879095608336058
  0
ARC
  5
3619
  8
0
 10
155.0762478919182001
 20
69.7792522410263558
 30
0.0
 40
2.9199999999999662
 50
221.1120904391663942
 51
318.8879095608335206
  0
LINE
  5
361A
  8
0
 10
158.5762478919182001
 20
78.3592522410263967
 30
0.0
 11
158.5762478919182001
 21
67.8592522410263967
 31
0.0
  0
LINE
  5
361B
  8
0
 10
158.5762478919182001
 20
86.8592522410263541
 30
0.0
 11
158.5762478919182001
 21
99.8592522410264252
 31
0.0
  0
LINE
  5
361C
  8
0
 10
158.5762478919182001
 20
108.3592522410263967
 30
0.0
 11
158.5762478919182001
 21
118.8592522410263967
 31
0.0
  0
LINE
  5
361D
  8
0
 10
151.5762478919182001
 20
97.3592522410264252
 30
0.0
 11
151.5762478919182001
 21
110.8592522410263967
 31
0.0
  0
LINE
  5
361E
  8
0
 10
151.5762478919182001
 20
89.359252241026411
 30
0.0
 11
151.5762478919182001
 21
75.8592522410263967
 31
0.0
  0
LINE
  5
3620
  8
0
 10
156.5762478919180865
 20
110.3592522410262973
 30
0.0
 11
156.5762478919180865
 21
110.8592522410263967
 31
0.0
1001
GENIUS_GENOBJ-N-CEN_13
1002
{
1000
OWNER
1000
GEN
1002
}
1001
GENIUS_GENODEF_13
1002
{
1000
HIER
1070
     0
1002
}
1002
{
1000
MANEDIT
1070
     0
1002
}
1002
{
1000
NOSEL
1070
     0
1002
}
1002
{
1000
BEHIND
1070
     0
1002
}
1002
{
1000
OTHER
1070
     0
1002
}
1002
{
1000
REACTOR
1002
}
1001
GENIUS_GENCEN_19
1002
{
1040
3.0
1002
}
  0
LINE
  5
3621
  8
0
 10
153.5762478919180865
 20
110.3592522410262973
 30
0.0
 11
153.5762478919180865
 21
110.8592522410263967
 31
0.0
1001
GENIUS_GENOBJ-N-CEN_13
1002
{
1000
OWNER
1000
GEN
1002
}
1001
GENIUS_GENODEF_13
1002
{
1000
HIER
1070
     0
1002
}
1002
{
1000
MANEDIT
1070
     0
1002
}
1002
{
1000
NOSEL
1070
     0
1002
}
1002
{
1000
BEHIND
1070
     0
1002
}
1002
{
1000
OTHER
1070
     0
1002
}
1002
{
1000
REACTOR
1002
}
1001
GENIUS_GENCEN_19
1002
{
1040
3.0
1002
}
  0
LINE
  5
3622
  8
0
 10
157.7762478919181888
 20
77.8592522410263967
 30
0.0
 11
152.3762478919182968
 21
77.8592522410263967
 31
0.0
  0
LINE
  5
3623
  8
0
 10
157.7762478919181888
 20
88.8592522410263967
 30
0.0
 11
152.3762478919182968
 21
88.8592522410263967
 31
0.0
  0
LINE
  5
3624
  8
0
 10
157.7762478919181888
 20
97.3592522410264252
 30
0.0
 11
151.5762478919182001
 21
97.3592522410264252
 31
0.0
  0
LINE
  5
3625
  8
0
 10
157.7762478919181888
 20
99.359252241026411
 30
0.0
 11
152.3762478919182968
 21
99.359252241026411
 31
0.0
  0
LINE
  5
3626
  8
0
 10
157.7762478919181888
 20
89.359252241026411
 30
0.0
 11
151.5762478919182001
 21
89.359252241026411
 31
0.0
  0
LINE
  5
3627
  8
0
 10
156.5762478919180865
 20
99.359252241026411
 30
0.0
 11
156.5762478919180865
 21
99.8592522410264252
 31
0.0
1001
GENIUS_GENOBJ-N-CEN_13
1002
{
1000
OWNER
1000
GEN
1002
}
1001
GENIUS_GENODEF_13
1002
{
1000
HIER
1070
     0
1002
}
1002
{
1000
MANEDIT
1070
     0
1002
}
1002
{
1000
NOSEL
1070
     0
1002
}
1002
{
1000
BEHIND
1070
     0
1002
}
1002
{
1000
OTHER
1070
     0
1002
}
1002
{
1000
REACTOR
1002
}
1001
GENIUS_GENCEN_19
1002
{
1040
3.0
1002
}
  0
LINE
  5
3628
  8
0
 10
153.5762478919180865
 20
99.359252241026411
 30
0.0
 11
153.5762478919180865
 21
99.8592522410264252
 31
0.0
1001
GENIUS_GENOBJ-N-CEN_13
1002
{
1000
OWNER
1000
GEN
1002
}
1001
GENIUS_GENODEF_13
1002
{
1000
HIER
1070
     0
1002
}
1002
{
1000
MANEDIT
1070
     0
1002
}
1002
{
1000
NOSEL
1070
     0
1002
}
1002
{
1000
BEHIND
1070
     0
1002
}
1002
{
1000
OTHER
1070
     0
1002
}
1002
{
1000
REACTOR
1002
}
1001
GENIUS_GENCEN_19
1002
{
1040
3.0
1002
}
  0
LINE
  5
3629
  8
0
 10
156.5762478919180865
 20
88.8592522410263967
 30
0.0
 11
156.5762478919180865
 21
89.359252241026411
 31
0.0
1001
GENIUS_GENOBJ-N-CEN_13
1002
{
1000
OWNER
1000
GEN
1002
}
1001
GENIUS_GENODEF_13
1002
{
1000
HIER
1070
     0
1002
}
1002
{
1000
MANEDIT
1070
     0
1002
}
1002
{
1000
NOSEL
1070
     0
1002
}
1002
{
1000
BEHIND
1070
     0
1002
}
1002
{
1000
OTHER
1070
     0
1002
}
1002
{
1000
REACTOR
1002
}
1001
GENIUS_GENCEN_19
1002
{
1040
3.0
1002
}
  0
LINE
  5
362A
  8
0
 10
153.5762478919180865
 20
88.8592522410263967
 30
0.0
 11
153.5762478919180865
 21
89.359252241026411
 31
0.0
1001
GENIUS_GENOBJ-N-CEN_13
1002
{
1000
OWNER
1000
GEN
1002
}
1001
GENIUS_GENODEF_13
1002
{
1000
HIER
1070
     0
1002
}
1002
{
1000
MANEDIT
1070
     0
1002
}
1002
{
1000
NOSEL
1070
     0
1002
}
1002
{
1000
BEHIND
1070
     0
1002
}
1002
{
1000
OTHER
1070
     0
1002
}
1002
{
1000
REACTOR
1002
}
1001
GENIUS_GENCEN_19
1002
{
1040
3.0
1002
}
  0
LINE
  5
362B
  8
0
 10
156.5762478919180865
 20
77.8592522410263683
 30
0.0
 11
156.5762478919180865
 21
78.3592522410263967
 31
0.0
1001
GENIUS_GENOBJ-N-CEN_13
1002
{
1000
OWNER
1000
GEN
1002
}
1001
GENIUS_GENODEF_13
1002
{
1000
HIER
1070
     0
1002
}
1002
{
1000
MANEDIT
1070
     0
1002
}
1002
{
1000
NOSEL
1070
     0
1002
}
1002
{
1000
BEHIND
1070
     0
1002
}
1002
{
1000
OTHER
1070
     0
1002
}
1002
{
1000
REACTOR
1002
}
1001
GENIUS_GENCEN_19
1002
{
1040
3.0
1002
}
  0
LINE
  5
362C
  8
0
 10
153.5762478919180865
 20
77.8592522410263683
 30
0.0
 11
153.5762478919180865
 21
78.3592522410263967
 31
0.0
1001
GENIUS_GENOBJ-N-CEN_13
1002
{
1000
OWNER
1000
GEN
1002
}
1001
GENIUS_GENODEF_13
1002
{
1000
HIER
1070
     0
1002
}
1002
{
1000
MANEDIT
1070
     0
1002
}
1002
{
1000
NOSEL
1070
     0
1002
}
1002
{
1000
BEHIND
1070
     0
1002
}
1002
{
1000
OTHER
1070
     0
1002
}
1002
{
1000
REACTOR
1002
}
1001
GENIUS_GENCEN_19
1002
{
1040
3.0
1002
}
  0
LINE
  5
3919
  8
0
 10
174.5762478919182001
 20
182.0819518416006133
 30
0.0
 11
174.5762478919182001
 21
183.2819518416006019
 31
0.0
  0
LINE
  5
391A
  8
AM_1
 10
155.0762478919182001
 20
177.8819518416005963
 30
0.0
 11
135.5762478919183138
 21
177.8819518416005963
 31
0.0
  0
LINE
  5
391B
  8
AM_1
 10
152.8312534598539116
 20
179.0819518416006133
 30
0.0
 11
135.5762478919183138
 21
179.0819518416006133
 31
0.0
  0
LINE
  5
391C
  8
AM_1
 10
135.5762478919183138
 20
177.8819518416005963
 30
0.0
 11
135.5762478919183138
 21
179.0819518416006133
 31
0.0
  0
LINE
  5
391D
  8
0
 10
135.5762478919183138
 20
182.0819518416006133
 30
0.0
 11
135.5762478919183138
 21
183.2819518416006019
 31
0.0
  0
LINE
  5
391E
  8
AM_7
 10
142.5762478918593104
 20
175.3213770662372042
 30
0.0
 11
142.5762478918593104
 21
185.4785562779566135
 31
0.0
  0
LINE
  5
391F
  8
0
 10
174.5762478919182001
 20
183.2819518416006019
 30
0.0
 11
135.5762478919183138
 21
183.2819518416006019
 31
0.0
  0
LINE
  5
3920
  8
0
 10
155.0762478919183138
 20
182.0819518416006133
 30
0.0
 11
135.5762478919183138
 21
182.0819518416006133
 31
0.0
  0
LINE
  5
3921
  8
0
 10
174.5762478919182001
 20
182.0819518416006133
 30
0.0
 11
157.3212423239826876
 21
182.0819518416006133
 31
0.0
  0
LINE
  5
3922
  8
AM_7
 10
149.3762478919182115
 20
180.5819518416006133
 30
0.0
 11
160.7762478919181888
 21
180.5819518416006133
 31
0.0
  0
LINE
  5
3923
  8
AM_7
 10
155.0762478919182001
 20
186.2819518416006019
 30
0.0
 11
155.0762478919182001
 21
174.8819518416005963
 31
0.0
  0
ARC
  5
3924
  8
0
 10
155.0762478919183138
 20
180.5819518416006133
 30
0.0
 40
2.7000000000000002
 50
146.2510114041103009
 51
90.0
  0
CIRCLE
  5
3925
  8
0
 10
155.0762478919183138
 20
180.5819518416006133
 30
0.0
 40
1.5
  0
LINE
  5
3926
  8
0
 10
153.829028762993687
 20
181.4152851749338993
 30
0.0
 11
152.8312534598539969
 21
182.0819518416006133
 31
0.0
  0
LINE
  5
3927
  8
0
 10
158.5762478918119029
 20
182.0819518416006133
 30
0.0
 11
158.5762478918109082
 21
183.2819518415830942
 31
0.0
  0
DIMENSION
  5
3928
  8
AM_5
  2
*D28
 10
119.0762478919182001
 20
182.0819518416006986
 30
0.0
 11
119.0762478919182001
 21
192.1390946987434916
 31
0.0
 70
   128
 13
135.5762478919183138
 23
183.2819518416006019
 33
0.0
 14
135.5762478919183138
 24
182.0819518416006133
 34
0.0
 50
90.0
1001
ACAD_DSTYLE_DIMINSPECT
1070
   396
1000
100%
1070
   395
1000

1070
   394
1070
    33
1070
   393
1070
     0
1001
ACAD
1000
DSTYLE
1002
{
1070
   173
1070
     1
1070
   174
1070
     1
1070
     6
1000
OPEN30
1070
     7
1000
GENDOT
1002
}
  0
DIMENSION
  5
392B
  8
AM_5
  2
*D29
 10
119.0762478919182996
 20
179.0819518416006986
 30
0.0
 11
109.6427910287819998
 21
172.3839697536903088
 31
0.0
 70
   128
 13
135.5762478919183138
 23
182.0819518416006133
 33
0.0
 14
135.5762478919183138
 24
179.0819518416006133
 34
0.0
 50
90.0
1001
ACAD_DSTYLE_DIMINSPECT
1070
   396
1000
100%
1070
   395
1000

1070
   394
1070
    33
1070
   393
1070
     0
1001
ACAD
1000
DSTYLE
1002
{
1070
   287
1070
     4
1070
   174
1070
     1
1070
   279
1070
     1
1070
     5
1000
GENDOT
1002
}
  0
DIMENSION
  5
392E
  8
AM_5
  2
*D30
 10
119.0762478919182001
 20
177.8819518416007099
 30
0.0
 11
119.0762478919182001
 21
168.4800187992289864
 31
0.0
 70
   128
 13
135.5762478919183138
 23
179.0819518416006133
 33
0.0
 14
135.5762478919183138
 24
177.8819518416005963
 34
0.0
 50
90.0
1001
ACAD_DSTYLE_DIMINSPECT
1070
   396
1000
100%
1070
   395
1000

1070
   394
1070
    33
1070
   393
1070
     0
1001
ACAD
1000
DSTYLE
1002
{
1070
   173
1070
     1
1070
   174
1070
     1
1070
     6
1000
GENDOT
1070
     7
1000
OPEN30
1002
}
  0
DIMENSION
  5
3931
  8
AM_5
  2
*D31
 10
100.9949877996246954
 20
183.2819518416006019
 30
0.0
 11
98.4949877996246812
 21
192.4962375558864096
 31
0.0
 70
     0
 13
135.5762478919183138
 23
177.8819518416005963
 33
0.0
 14
135.5762478919183138
 24
183.2819518416006019
 34
0.0
 50
90.0
1001
ACAD_DSTYLE_DIMINSPECT
1070
   396
1000
100%
1070
   395
1000

1070
   394
1070
    33
1070
   393
1070
     0
  0
LINE
  5
3934
  8
AM_7
 10
167.5762478919772036
 20
175.3213770662372042
 30
0.0
 11
167.5762478919772036
 21
185.4785562779566135
 31
0.0
  0
INSERT
  5
3B9C
  8
AM_5
  2
*S35
 10
0.0
 20
0.0
 30
0.0
  0
VIEWPORT
  5
95A
 67
     1
  8
0
  6
CONTINUOUS
 10
128.5
 20
97.5
 30
0.0
 40
386.7385514018691879
 41
222.1800000000000068
 68
     1
 69
     1
1001
ACAD
1000
MVIEW
1002
{
1070
    16
1010
0.0
1020
0.0
1030
0.0
1010
0.0
1020
0.0
1030
1.0
1040
0.0
1040
222.1800000000000068
1040
128.5
1040
97.5
1040
50.0
1040
0.0
1040
0.0
1070
     0
1070
   100
1070
     1
1070
     1
1070
     0
1070
     0
1070
     0
1070
     0
1040
0.0
1040
0.0
1040
0.0
1040
10.0
1040
10.0
1040
10.0
1040
10.0
1070
     0
1002
{
1002
}
1002
}
1001
GENIUS_GENODEF_13
1002
{
1000
HIER
1070
     0
1002
}
1002
{
1000
MANEDIT
1070
     0
1002
}
1002
{
1000
NOSEL
1070
     0
1002
}
1002
{
1000
BEHIND
1070
     0
1002
}
1002
{
1000
OTHER
1070
     0
1002
}
1002
{
1000
REACTOR
1002
}
1001
GENIUS_GENOBJ-N-SDF_13
1002
{
1000
OWNER
1000
GEN
1002
}
1001
GENIUS_GENSCREG_15
1000
PF
1040
1.0
1000
DF
1040
1.0
1000
MIN
1011
-64.8692757009345655
1021
0.0
1031
0.0
1021
-13.5899999999999999
1031
0.0
1000
MAX
1011
321.8692757009346224
1021
0.0
1031
0.0
1021
208.5900000000000034
1031
0.0
1000
FLAGS
1070
     4
  0
ENDSEC
  0
EOF
