  0
SECTION
  2
HEADER
  9
$ACADVER
  1
AC1009
  9
$INSBASE
 10
0.0
 20
0.0
 30
0.0
  9
$EXTMIN
 10
12.94012455184361
 20
9.9883354522114587
 30
-0.0000000349181948
  9
$EXTMAX
 10
289.47387802372208
 20
201.13236632778651
 30
0.0000000814935746
  9
$LIMMIN
 10
12.95699999999508
 20
10.0
  9
$LIMMAX
 10
289.45700000038528
 20
201.1206999999936
  9
$ORTHOMODE
 70
     1
  9
$REGENMODE
 70
     1
  9
$FILLMODE
 70
     1
  9
$QTEXTMODE
 70
     0
  9
$MIRRTEXT
 70
     1
  9
$DRAGMODE
 70
     2
  9
$LTSCALE
 40
7.0
  9
$OSMODE
 70
    39
  9
$ATTMODE
 70
     1
  9
$TEXTSIZE
 40
3.0
  9
$TRACEWID
 40
0.05
  9
$TEXTSTYLE
  7
STANDARD
  9
$CLAYER
  8
0
  9
$CELTYPE
  6
BYLAYER
  9
$CECOLOR
 62
   256
  9
$DIMSCALE
 40
1.0
  9
$DIMASZ
 40
2.5
  9
$DIMEXO
 40
1.0
  9
$DIMDLI
 40
7.0
  9
$DIMRND
 40
0.0
  9
$DIMDLE
 40
0.0
  9
$DIMEXE
 40
1.0
  9
$DIMTP
 40
0.1
  9
$DIMTM
 40
0.1
  9
$DIMTXT
 40
3.0
  9
$DIMCEN
 40
0.0
  9
$DIMTSZ
 40
0.0
  9
$DIMTOL
 70
     0
  9
$DIMLIM
 70
     0
  9
$DIMTIH
 70
     0
  9
$DIMTOH
 70
     0
  9
$DIMSE1
 70
     0
  9
$DIMSE2
 70
     0
  9
$DIMTAD
 70
     3
  9
$DIMZIN
 70
     8
  9
$DIMBLK
  1
OPEN30
  9
$DIMASO
 70
     1
  9
$DIMSHO
 70
     1
  9
$DIMPOST
  1

  9
$DIMAPOST
  1
"
  9
$DIMALT
 70
     0
  9
$DIMALTD
 70
     2
  9
$DIMALTF
 40
0.0393701
  9
$DIMLFAC
 40
1.0
  9
$DIMTOFL
 70
     1
  9
$DIMTVP
 40
0.0
  9
$DIMTIX
 70
     0
  9
$DIMSOXD
 70
     0
  9
$DIMSAH
 70
     0
  9
$DIMBLK1
  1

  9
$DIMBLK2
  1

  9
$DIMSTYLE
  2
AM_JIS
  9
$DIMCLRD
 70
     7
  9
$DIMCLRE
 70
     7
  9
$DIMCLRT
 70
     7
  9
$DIMTFAC
 40
0.71
  9
$DIMGAP
 40
1.0
  9
$LUNITS
 70
     2
  9
$LUPREC
 70
     4
  9
$SKETCHINC
 40
0.1
  9
$FILLETRAD
 40
0.0
  9
$AUNITS
 70
     0
  9
$AUPREC
 70
     0
  9
$MENU
  1
acad
  9
$ELEVATION
 40
0.0
  9
$PELEVATION
 40
0.0
  9
$THICKNESS
 40
0.0
  9
$LIMCHECK
 70
     0
  9
$BLIPMODE
 70
     0
  9
$CHAMFERA
 40
0.0
  9
$CHAMFERB
 40
0.0
  9
$SKPOLY
 70
     0
  9
$TDCREATE
 40
2455755.6568701151
  9
$TDUPDATE
 40
2457596.7195000001
  9
$TDINDWG
 40
0.1720421991
  9
$TDUSRTIMER
 40
0.1720420139
  9
$USRTIMER
 70
     1
  9
$ANGBASE
 50
0.0
  9
$ANGDIR
 70
     0
  9
$PDMODE
 70
     0
  9
$PDSIZE
 40
0.0
  9
$PLINEWID
 40
0.0
  9
$COORDS
 70
     1
  9
$SPLFRAME
 70
     0
  9
$SPLINETYPE
 70
     6
  9
$SPLINESEGS
 70
     8
  9
$ATTDIA
 70
     1
  9
$ATTREQ
 70
     1
  9
$HANDLING
 70
     1
  9
$HANDSEED
  5
335E
  9
$SURFTAB1
 70
     6
  9
$SURFTAB2
 70
     6
  9
$SURFTYPE
 70
     6
  9
$SURFU
 70
     6
  9
$SURFV
 70
     6
  9
$UCSNAME
  2

  9
$UCSORG
 10
0.0
 20
0.0
 30
0.0
  9
$UCSXDIR
 10
1.0
 20
0.0
 30
0.0
  9
$UCSYDIR
 10
0.0
 20
1.0
 30
0.0
  9
$PUCSNAME
  2

  9
$PUCSORG
 10
0.0
 20
0.0
 30
0.0
  9
$PUCSXDIR
 10
1.0
 20
0.0
 30
0.0
  9
$PUCSYDIR
 10
0.0
 20
1.0
 30
0.0
  9
$USERI1
 70
     0
  9
$USERI2
 70
     0
  9
$USERI3
 70
     0
  9
$USERI4
 70
     0
  9
$USERI5
 70
     0
  9
$USERR1
 40
0.0
  9
$USERR2
 40
0.0
  9
$USERR3
 40
0.0
  9
$USERR4
 40
0.0
  9
$USERR5
 40
0.0
  9
$WORLDVIEW
 70
     1
  9
$SHADEDGE
 70
     3
  9
$SHADEDIF
 70
    70
  9
$TILEMODE
 70
     1
  9
$MAXACTVP
 70
    16
  9
$PLIMCHECK
 70
     0
  9
$PEXTMIN
 10
1.0000000000000000E+020
 20
1.0000000000000000E+020
 30
1.0000000000000000E+020
  9
$PEXTMAX
 10
-1.0000000000000000E+020
 20
-1.0000000000000000E+020
 30
-1.0000000000000000E+020
  9
$PLIMMIN
 10
-20.0
 20
-7.5
  9
$PLIMMAX
 10
277.0
 20
202.5
  9
$UNITMODE
 70
     0
  9
$VISRETAIN
 70
     0
  9
$PLINEGEN
 70
     1
  9
$PSLTSCALE
 70
     0
  0
ENDSEC
  0
SECTION
  2
TABLES
  0
TABLE
  2
VPORT
 70
     1
  0
VPORT
  2
*ACTIVE
 70
     0
 10
0.0
 20
0.0
 11
1.0
 21
1.0
 12
151.2070012877829
 22
105.5603508899989
 13
0.0
 23
0.0
 14
2.5
 24
2.5
 15
10.0
 25
10.0
 16
0.0
 26
0.0
 36
1.0
 17
0.0
 27
0.0
 37
0.0
 40
192.7780969911212
 41
2.0759493670886071
 42
50.0
 43
0.0
 44
0.0
 50
0.0
 51
0.0
 71
    16
 72
   100
 73
     1
 74
     3
 75
     0
 76
     0
 77
     0
 78
     1
  0
ENDTAB
  0
TABLE
  2
LTYPE
 70
    21
  0
LTYPE
  2
CONTINUOUS
 70
     0
  3
Solid line (NEC CAE2D for Win R7.2 : 2008.02.20
 72
    65
 73
     0
 40
0.0
  0
LTYPE
  2
CENTER2
 70
     0
  3
Center (.5x) ___ _ ___ _ ___ _ ___ _ ___ _ ___
 72
    65
 73
     4
 40
1.125
 49
0.75
 49
-0.125
 49
0.125
 49
-0.125
  0
LTYPE
  2
HIDDEN2
 70
     0
  3
Hidden (.5x) _ _ _ _ _ _ _ _ _ _ _ _ _ _ _ _ _
 72
    65
 73
     2
 40
0.1875
 49
0.125
 49
-0.0625
  0
LTYPE
  2
ACISOWELD
 70
     0
  3
_ _ _ _ _
 72
    65
 73
     2
 40
2.0
 49
2.0
 49
-1.0
  0
LTYPE
  2
ACISOTGB
 70
     0
  3
__ . . __ . .
 72
    65
 73
     6
 40
9.0
 49
4.0
 49
-1.0
 49
1.0
 49
-1.0
 49
1.0
 49
-1.0
  0
LTYPE
  2
ACISOTGL
 70
     0
  3
_ _ _ _ _
 72
    65
 73
     2
 40
3.0
 49
2.0
 49
-1.0
  0
LTYPE
  2
AM_ISO02W050
 70
     0
  3
__ __ __ __ __ __ __ __ __ __ __ __ __ __ __
 72
    65
 73
     2
 40
7.5
 49
6.0
 49
-1.5
  0
LTYPE
  2
AM_ISO08W050
 70
     0
  3
____ . ____ . ____ . ____ . ____ . ____ . ____
 72
    65
 73
     4
 40
18.0
 49
12.0
 49
-1.5
 49
3.0
 49
-1.5
  0
LTYPE
  2
AM_ISO09W050
 70
     0
  3
_____ . . _____ . . _____ . . ____ .. ____
 72
    65
 73
     6
 40
22.5
 49
12.0
 49
-1.5
 49
3.0
 49
-1.5
 49
3.0
 49
-1.5
  0
LTYPE
  2
AMCONSTR
 70
     0
  3
_______________________
 72
    65
 73
     2
 40
9999.0
 49
9999.0
 49
0.0
  0
LTYPE
  2
AM_ISO08W050X2
 70
     0
  3
__ . __ . __ . __ . __ . __
 72
    65
 73
     4
 40
9.0
 49
6.0
 49
-0.75
 49
1.5
 49
-0.75
  0
LTYPE
  2
AM_ISO02W050X2
 70
     0
  3
 _ _ _ _ _ _ _ _ _ _ _ _
 72
    65
 73
     2
 40
3.75
 49
3.0
 49
-0.75
  0
LTYPE
  2
AMZIGZAG
 70
     0
  3
/\/-/\/-/\/-/\/-/\/-/\/
 72
    65
 73
     2
 40
11.0001
 49
0.0001
 49
-11.0
  0
ENDTAB
  0
TABLE
  2
LAYER
 70
    12
  0
LAYER
  2
0
 70
     0
 62
     3
  6
CONTINUOUS
  0
LAYER
  2
SYS-BUHIN0
 70
     0
 62
     7
  6
CONTINUOUS
  0
LAYER
  2
DEFPOINTS
 70
     0
 62
     7
  6
CONTINUOUS
  0
LAYER
  2
AM_BOR
 70
     0
 62
     7
  6
CONTINUOUS
  0
LAYER
  2
SYS-TEISEI0
 70
     0
 62
     7
  6
CONTINUOUS
  0
LAYER
  2
実線
 70
     0
 62
     3
  6
CONTINUOUS
  0
LAYER
  2
中心線
 70
     0
 62
     4
  6
CENTER2
  0
LAYER
  2
寸法線
 70
     0
 62
     2
  6
CONTINUOUS
  0
LAYER
  2
隠れ線
 70
     0
 62
     5
  6
HIDDEN2
  0
ENDTAB
  0
TABLE
  2
STYLE
 70
    12
  0
STYLE
  2
STANDARD
 70
     0
 40
0.0
 41
1.0
 50
0.0
 71
     0
 42
3.0
  3
dim.shx
  4
extfont.shx
  0
STYLE
  2
ACISOGDT
 70
     0
 40
0.0
 41
1.0
 50
0.0
 71
     0
 42
2.5
  3
amgdt.shx
  4

  0
STYLE
  2

 70
     1
 40
0.0
 41
1.0
 50
0.0
 71
     0
 42
3.0
  3
genltshp.shx
  4

  0
ENDTAB
  0
TABLE
  2
VIEW
 70
     6
  0
VIEW
  2
AM_VIEW1
 70
     0
 40
95.560349999996788
 10
100.7985233311003
 20
153.34052499999521
 41
175.68304666221039
 11
0.0
 21
0.0
 31
1.0
 12
0.0
 22
0.0
 32
0.0
 42
50.0
 43
0.0
 44
0.0
 50
0.0
 71
    16
  0
VIEW
  2
AM_VIEW2
 70
     0
 40
95.560349999996788
 10
201.6154766692801
 20
153.34052499999521
 41
175.68304666221039
 11
0.0
 21
0.0
 31
1.0
 12
0.0
 22
0.0
 32
0.0
 42
50.0
 43
0.0
 44
0.0
 50
0.0
 71
    16
  0
VIEW
  2
AM_VIEW3
 70
     0
 40
95.560349999996788
 10
100.7985233311003
 20
57.780174999998401
 41
175.68304666221039
 11
0.0
 21
0.0
 31
1.0
 12
0.0
 22
0.0
 32
0.0
 42
50.0
 43
0.0
 44
0.0
 50
0.0
 71
    16
  0
VIEW
  2
AM_VIEW4
 70
     0
 40
95.560349999996788
 10
201.6154766692801
 20
57.780174999998401
 41
175.68304666221039
 11
0.0
 21
0.0
 31
1.0
 12
0.0
 22
0.0
 32
0.0
 42
50.0
 43
0.0
 44
0.0
 50
0.0
 71
    16
  0
VIEW
  2
AM_VIEW5
 70
     0
 40
95.560349999996816
 10
151.20700000019011
 20
105.5603499999968
 41
175.68304666221039
 11
0.0
 21
0.0
 31
1.0
 12
0.0
 22
0.0
 32
0.0
 42
50.0
 43
0.0
 44
0.0
 50
0.0
 71
    16
  0
VIEW
  2
AM_VIEW6
 70
     0
 40
191.1187887929936
 10
151.20700000019019
 20
105.5603499999968
 41
351.36257966348762
 11
0.0
 21
0.0
 31
1.0
 12
0.0
 22
0.0
 32
0.0
 42
50.0
 43
0.0
 44
0.0
 50
0.0
 71
    16
  0
ENDTAB
  0
TABLE
  2
UCS
 70
     0
  0
ENDTAB
  0
TABLE
  2
APPID
 70
    63
  0
APPID
  2
ACAD
 70
     0
  0
APPID
  2
ACADANNOTATIVE
 70
     0
  0
APPID
  2
ACAD_MLEADERVER
 70
     0
  0
APPID
  2
MCAD_NO_VIS
 70
     0
  0
APPID
  2
ACAD_TEMP_GRAPHIC
 70
     0
  0
APPID
  2
AD_DRAW
 70
     0
  0
APPID
  2
ACATTRIBSERVICES
 70
     0
  0
APPID
  2
DESIGNERASSEMBLIES
 70
     0
  0
APPID
  2
ACADM_DIM_EDIT
 70
     0
  0
APPID
  2
AMDT_DM_ADJ
 70
     0
  0
APPID
  2
ACADANNOPO
 70
     0
  0
APPID
  2
ACAECLAYERSTANDARD
 70
     0
  0
APPID
  2
ACDBDYNAMICBLOCKGUID
 70
     0
  0
APPID
  2
ACDBBLOCKREPETAG
 70
     0
  0
APPID
  2
ACAUTHENVIRON
 70
     0
  0
APPID
  2
ACDBDYNAMICBLOCKTRUENAME
 70
     0
  0
APPID
  2
GENIUS_GENREC_14
 70
     0
  0
APPID
  2
GENIUS_GENOBJ-N-REC_13
 70
     0
  0
APPID
  2
GENIUS_GENODEF_13
 70
     0
  0
APPID
  2
ACAD_EXEMPT_FROM_CAD_STANDARDS
 70
     0
  0
APPID
  2
GENIUS_GENOBJ-N-CEN_13
 70
     0
  0
APPID
  2
GENIUS_GENCEN_19
 70
     0
  0
APPID
  2
ACAD_DSTYLE_DIMINSPECT
 70
     0
  0
APPID
  2
DCO15
 70
     0
  0
APPID
  2
ACAD_PSEXT
 70
     0
  0
APPID
  2
GENIUS_GENBH_13
 70
     0
  0
APPID
  2
GENIUS_GENOENT_13
 70
     0
  0
APPID
  2
GENIUS_GENOLIS_13
 70
     0
  0
APPID
  2
GENIUS_GENOBJ-NBEHI-BHF_13
 70
     0
  0
APPID
  2
GENIUS_GENOREF_13
 70
     0
  0
APPID
  2
GENIUS_GENOBJ-NBEHI-BHB_13
 70
     0
  0
APPID
  2
AMG_2DHIDE
 70
     0
  0
APPID
  2
AMG_2DSTRUCT_BTR
 70
     0
  0
APPID
  2
GENIUS_AMGTXT_16
 70
     0
  0
APPID
  2
GENIUS_GENOBJ-N-HTC_13
 70
     0
  0
APPID
  2
GENIUS_GENHATCH_13
 70
     0
  0
APPID
  2
GEVID1208849169
 70
     0
  0
APPID
  2
GEVDC
 70
     0
  0
APPID
  2
ACADM_2DVIEW_IGN_NOTIFY
 70
     0
  0
APPID
  2
GEVID1208849170
 70
     0
  0
APPID
  2
GEVID1208849171
 70
     0
  0
APPID
  2
GEVRADREF
 70
     0
  0
APPID
  2
ACAD_DSTYLE_DIMJAG
 70
     0
  0
APPID
  2
ACAD_DSTYLE_DIMTALN
 70
     0
  0
APPID
  2
GENIUS_GENDTOL_13
 70
     0
  0
APPID
  2
GENIUS_GENTRA_14
 70
     0
  0
APPID
  2
GENIUS_GENOBJ-N-TIT_13
 70
     0
  0
APPID
  2
GENIUS_GENTITLE_13
 70
     0
  0
APPID
  2
GENIUS_GENSCREG_15
 70
     0
  0
APPID
  2
GENIUS_GENOBJ-N-SDF_13
 70
     0
  0
APPID
  2
ACAD_DSTYLE_DIMRADIAL_EXTENSION
 70
     0
  0
APPID
  2
GENIUS_GENOBJ-N-FIL_13
 70
     0
  0
APPID
  2
GENIUS_GENOBJ-N-CRS_13
 70
     0
  0
APPID
  2
GENIUS_GENDIMSH_14
 70
     0
  0
APPID
  2
ACAD_DSTYLE_DIMANGULAR_EXT
 70
     0
  0
APPID
  2
ACAD_NAV_VCDISPLAY
 70
     0
  0
APPID
  2
ACAD_DSTYLE_DIMBREAK
 70
     0
  0
APPID
  2
ACAD_DSTYLE_DIMARC_LENGTH_
 70
     0
  0
APPID
  2
ACAD_DSTYLE_DIM_LINETYPE
 70
     0
  0
APPID
  2
ACAD_DSTYLE_DIM_EXT1_LINETYPE
 70
     0
  0
APPID
  2
ACAD_DSTYLE_DIM_EXT2_LINETYPE
 70
     0
  0
APPID
  2
ACDBATTR
 70
     0
  0
APPID
  2
GENIUS_GENSCREG_13
 70
     0
  0
ENDTAB
  0
TABLE
  2
DIMSTYLE
 70
    26
  0
DIMSTYLE
  2
STANDARD
 70
     0
  3

  4

  5

  6

  7

 40
1.0
 41
1.0
 42
0.8
 43
0.38
 44
1.0
 45
0.0
 46
0.0
 47
0.0
 48
0.0
140
3.1000000000000001
141
0.09
142
0.0
143
25.399999999999999
144
1.0
145
0.5
146
1.0
147
0.09
 71
     0
 72
     0
 73
     0
 74
     0
 75
     0
 76
     0
 77
     1
 78
     0
170
     0
171
     2
172
     0
173
     0
174
     0
175
     0
176
     0
177
     0
178
     0
  0
DIMSTYLE
  2
AM_JIS
 70
     0
  3

  4
"
  5
OPEN30
  6

  7

 40
1.0
 41
2.5
 42
1.0
 43
7.0
 44
1.0
 45
0.0
 46
0.0
 47
0.1
 48
0.1
140
3.0
141
0.0
142
0.0
143
0.0393701
144
1.0
145
0.0
146
0.71
147
1.0
 71
     0
 72
     0
 73
     0
 74
     0
 75
     0
 76
     0
 77
     3
 78
     8
170
     0
171
     2
172
     1
173
     0
174
     0
175
     0
176
     7
177
     7
178
     7
  0
DIMSTYLE
  2
AM_ISO
 70
     0
  3

  4
"
  5

  6

  7

 40
1.0
 41
2.5
 42
1.0
 43
10.0
 44
1.0
 45
0.0
 46
0.0
 47
0.1
 48
0.1
140
3.5
141
0.0
142
0.0
143
0.0393701
144
1.0
145
0.0
146
0.71
147
1.5
 71
     0
 72
     0
 73
     0
 74
     0
 75
     0
 76
     0
 77
     1
 78
     8
170
     0
171
     2
172
     1
173
     0
174
     0
175
     0
176
   256
177
   256
178
     2
  0
DIMSTYLE
  2
AM_ISO$3
 70
     0
  3

  4
"
  5

  6

  7

 40
1.0
 41
2.5
 42
1.0
 43
10.0
 44
1.0
 45
0.0
 46
0.0
 47
0.1
 48
0.1
140
3.5
141
0.0
142
0.0
143
0.0393701
144
1.0
145
0.0
146
0.71
147
1.5
 71
     0
 72
     0
 73
     0
 74
     1
 75
     0
 76
     0
 77
     1
 78
     8
170
     0
171
     2
172
     0
173
     0
174
     0
175
     0
176
   256
177
   256
178
     2
  0
DIMSTYLE
  2
AM_ISO$4
 70
     0
  3

  4
"
  5

  6

  7

 40
1.0
 41
2.5
 42
1.0
 43
10.0
 44
1.0
 45
0.0
 46
0.0
 47
0.1
 48
0.1
140
3.5
141
0.0
142
0.0
143
0.0393701
144
1.0
145
0.0
146
0.71
147
1.5
 71
     0
 72
     0
 73
     0
 74
     1
 75
     0
 76
     0
 77
     1
 78
     8
170
     0
171
     2
172
     0
173
     0
174
     0
175
     0
176
   256
177
   256
178
     2
  0
DIMSTYLE
  2
AM_ISO$6
 70
     0
  3

  4
"
  5

  6

  7

 40
1.0
 41
2.5
 42
1.0
 43
10.0
 44
1.0
 45
0.0
 46
0.0
 47
0.1
 48
0.1
140
3.5
141
0.0
142
0.0
143
0.0393701
144
1.0
145
0.0
146
0.71
147
1.5
 71
     0
 72
     0
 73
     0
 74
     0
 75
     0
 76
     0
 77
     0
 78
     8
170
     0
171
     2
172
     1
173
     0
174
     0
175
     0
176
   256
177
   256
178
     2
  0
DIMSTYLE
  2
AM_ISO$7
 70
     0
  3

  4
"
  5

  6

  7

 40
1.0
 41
2.5
 42
1.0
 43
10.0
 44
1.0
 45
0.0
 46
0.0
 47
0.1
 48
0.1
140
5.0
141
0.0
142
0.0
143
0.0393701
144
1.0
145
0.0
146
0.71
147
1.5
 71
     0
 72
     0
 73
     0
 74
     0
 75
     0
 76
     0
 77
     1
 78
     8
170
     0
171
     2
172
     1
173
     0
174
     0
175
     0
176
   256
177
   256
178
     2
  0
DIMSTYLE
  2
AM_ISO$SF
 70
     0
  3

  4
"
  5

  6

  7

 40
1.0
 41
2.5
 42
1.0
 43
10.0
 44
1.0
 45
0.0
 46
0.0
 47
0.1
 48
0.1
140
3.5
141
0.0
142
0.0
143
0.0393701
144
1.0
145
0.0
146
0.71
147
1.5
 71
     0
 72
     0
 73
     0
 74
     0
 75
     1
 76
     1
 77
     1
 78
     8
170
     0
171
     2
172
     1
173
     0
174
     0
175
     0
176
   256
177
   256
178
     2
  0
DIMSTYLE
  2
AM_ISO$SH
 70
     0
  3

  4
"
  5

  6
GENAXEH
  7

 40
1.0
 41
2.5
 42
1.0
 43
10.0
 44
1.0
 45
0.0
 46
0.0
 47
0.1
 48
0.1
140
3.5
141
0.0
142
0.0
143
0.0393701
144
2.0
145
0.0
146
0.71
147
1.5
 71
     0
 72
     0
 73
     0
 74
     0
 75
     1
 76
     1
 77
     1
 78
     8
170
     0
171
     2
172
     1
173
     1
174
     0
175
     0
176
   256
177
   256
178
     2
  0
ENDTAB
  0
ENDSEC
  0
SECTION
  2
BLOCKS
  0
BLOCK
  8
0
  2
$MODEL_SPACE
 70
     0
 10
0.0
 20
0.0
 30
0.0
  3
$MODEL_SPACE
  1

  0
ENDBLK
  5
1D3
  8
0
  0
BLOCK
 67
     1
  8
0
  2
$PAPER_SPACE
 70
     0
 10
0.0
 20
0.0
 30
0.0
  3
$PAPER_SPACE
  1

  0
ENDBLK
  5
1D1
 67
     1
  8
0
  0
BLOCK
  8
0
  2
GENAXEH
 70
     0
 10
0.0
 20
0.0
 30
0.0
  3
GENAXEH
  1

  0
LINE
  5
264
  8
0
 10
-1.0
 20
0.0
 30
0.0
 11
1.0
 21
0.0
 31
0.0
  0
ENDBLK
  5
266
  8
0
  0
BLOCK
  8
0
  2
_OPEN30
 70
     0
 10
0.0
 20
0.0
 30
0.0
  3
_OPEN30
  1

  0
LINE
  5
2FA
  8
0
  6
BYBLOCK
 62
     0
 10
-1.0
 20
0.26794919
 30
0.0
 11
0.0
 21
0.0
 31
0.0
  0
LINE
  5
2FB
  8
0
  6
BYBLOCK
 62
     0
 10
0.0
 20
0.0
 30
0.0
 11
-1.0
 21
-0.26794919
 31
0.0
  0
LINE
  5
2FC
  8
0
  6
BYBLOCK
 62
     0
 10
0.0
 20
0.0
 30
0.0
 11
-1.0
 21
0.0
 31
0.0
  0
ENDBLK
  5
2FE
  8
0
  0
BLOCK
  8
0
  2
ZUWAKU-A4H
 70
     0
 10
0.0
 20
0.0
 30
0.0
  3
ZUWAKU-A4H
  1

  0
LINE
  5
1B9F
  8
AM_BOR
 62
     3
 10
12.956999999995089
 20
201.1206999999936
 30
0.0
 11
12.956999999999759
 21
10.0
 31
0.0
  0
LINE
  5
1BA0
  8
AM_BOR
 62
     3
 10
289.45700000038528
 20
201.12069999985769
 30
0.0
 11
289.45700000001921
 21
10.0
 31
0.0
  0
LINE
  5
1BA1
  8
AM_BOR
 62
     3
 10
12.95699999999508
 20
201.1206999999936
 30
0.0
 11
289.45700000038528
 21
201.12069999985769
 31
0.0
  0
LINE
  5
1BA2
  8
AM_BOR
 62
     3
 10
12.95699999999974
 20
10.0
 30
0.0
 11
289.45700000001921
 21
10.0
 31
0.0
  0
TEXT
  5
1BA3
  8
SYS-TEISEI0
  6
CONTINUOUS
 62
     3
 10
21.84200001765786
 20
20.950000047683719
 30
0.0
 40
3.099999904632567
  1
 
  0
TEXT
  5
1BA4
  8
SYS-TEISEI0
  6
CONTINUOUS
 62
     3
 10
47.342000044479938
 20
20.950000047683719
 30
0.0
 40
3.099999904632567
  1
 
  0
TEXT
  5
1BA5
  8
SYS-TEISEI0
  6
CONTINUOUS
 62
     3
 10
106.7019999570846
 20
20.950000047683719
 30
0.0
 40
3.099999904632567
  1
 
  0
TEXT
  5
1BA6
  8
SYS-TEISEI0
  6
CONTINUOUS
 62
     3
 10
114.4019999570846
 20
20.950000047683719
 30
0.0
 40
3.099999904632567
  1
 
  0
TEXT
  5
1BA7
  8
SYS-TEISEI0
  6
CONTINUOUS
 62
     3
 10
21.84200001765786
 20
25.950000047683719
 30
0.0
 40
3.099999904632567
  1
 
  0
TEXT
  5
1BA8
  8
SYS-TEISEI0
  6
CONTINUOUS
 62
     3
 10
47.342000044479938
 20
25.950000047683719
 30
0.0
 40
3.099999904632567
  1
 
  0
TEXT
  5
1BA9
  8
SYS-TEISEI0
  6
CONTINUOUS
 62
     3
 10
106.7019999570846
 20
25.950000047683719
 30
0.0
 40
3.099999904632567
  1
 
  0
TEXT
  5
1BAA
  8
SYS-TEISEI0
  6
CONTINUOUS
 62
     3
 10
114.4019999570846
 20
25.950000047683719
 30
0.0
 40
3.099999904632567
  1
 
  0
TEXT
  5
1BAB
  8
SYS-BUHIN0
  6
CONTINUOUS
 62
     3
 10
260.70699999999999
 20
52.450000047683723
 30
0.0
 40
3.099999904632567
  1
 
  0
TEXT
  5
1BAC
  8
SYS-BUHIN0
  6
CONTINUOUS
 62
     3
 10
260.70699999999999
 20
58.45000004768373
 30
0.0
 40
3.099999904632567
  1
 
  0
TEXT
  5
1BAD
  8
SYS-BUHIN0
  6
CONTINUOUS
 62
     3
 10
260.70699999999999
 20
64.450000047683716
 30
0.0
 40
3.099999904632567
  1
 
  0
TEXT
  5
1BAE
  8
AM_BOR
 10
12.956999999999759
 20
10.0
 30
0.0
 40
5.0
  1
!GENTITLE-LL
  0
TEXT
  5
1BAF
  8
AM_BOR
 10
289.45700000001921
 20
10.0
 30
0.0
 40
5.0
  1
!GENTITLE-INSERT
  0
TEXT
  5
1BB0
  8
AM_BOR
 10
289.45700000038528
 20
201.12069999985769
 30
0.0
 40
5.0
  1
!GENTITLE-RU
  0
TEXT
  5
1BB1
  8
AM_BOR
 10
297.0
 20
210.0
 30
0.0
 40
5.0
  1
!GENTITLE-MAX
  0
ENDBLK
  5
1BB3
  8
0
  0
BLOCK
  8
0
  2
A$C1C06296A
 70
     2
 10
0.0
 20
0.0
 30
0.0
  3
A$C1C06296A
  1

  0
LINE
  5
204C
  8
AM_BOR
 10
198.86851880399371
 20
17.886744577931989
 30
0.0
 11
203.2337455721775
 21
13.521517809748619
 31
0.0
  0
LINE
  5
204D
  8
AM_BOR
 10
198.8685188039936
 20
17.866715351316039
 30
0.0
 11
198.86851880399399
 21
14.128964361178911
 31
0.0
  0
LINE
  5
204E
  8
AM_BOR
 10
204.7045172738834
 20
17.866715326469411
 30
0.0
 11
204.70451727388391
 21
14.181128845625549
 31
0.0
  0
LINE
  5
204F
  8
AM_BOR
 10
204.20428883360731
 20
17.793010290175861
 30
0.0
 11
204.204288833607
 21
14.69861035774108
 31
0.0
  0
LINE
  5
2050
  8
AM_BOR
 10
199.3687472442698
 20
17.176052465333349
 30
0.0
 11
199.36874724427059
 21
14.197800355103411
 31
0.0
  0
LINE
  5
2051
  8
AM_BOR
 10
200.43756462039269
 20
18.46533457095553
 30
0.0
 11
204.20428883360731
 21
14.69861035774052
 31
0.0
  0
LINE
  5
2052
  8
AM_BOR
 10
199.36874724426971
 20
17.17605246533255
 30
0.0
 11
203.02713287203409
 21
13.51766683756852
 31
0.0
  0
ARC
  5
2053
  8
AM_BOR
 10
198.36829036868701
 20
17.866715351316049
 30
0.0
 40
0.5002284402762121
 50
0.0
 51
50.265515568291427
  0
ARC
  5
2054
  8
AM_BOR
 10
198.36829034384081
 20
14.12896436117892
 30
0.0
 40
0.5002284402762121
 50
304.69759678405279
 51
0.0
  0
ARC
  5
2055
  8
AM_BOR
 10
205.20474573403669
 20
17.866715326469411
 30
0.0
 40
0.5002284402762121
 50
127.0284887689633
 51
180.00000500895629
  0
ARC
  5
2056
  8
AM_BOR
 10
203.53731756996689
 20
17.793010290175818
 30
0.0
 40
0.6669712537016159
 50
0.0
 51
74.714823568866152
  0
ARC
  5
2057
  8
AM_BOR
 10
200.03571849797169
 20
14.197800355103389
 30
0.0
 40
0.6669712537016159
 50
180.00000500895629
 51
256.4857883914604
  0
LINE
  5
2058
  8
AM_BOR
 10
210.95737277733619
 20
15.993445664994679
 30
0.0
 11
210.9224749062999
 21
16.211434571273589
 31
0.0
  0
LINE
  5
2059
  8
AM_BOR
 10
210.92247490629941
 20
16.211434571273411
 30
0.0
 11
210.8180468870608
 21
16.42776445035037
 31
0.0
  0
LINE
  5
205A
  8
AM_BOR
 10
210.8180468870604
 20
16.42776445035037
 30
0.0
 11
210.64488347990149
 21
16.640788901221669
 31
0.0
  0
LINE
  5
205B
  8
AM_BOR
 10
210.6448834799013
 20
16.640788901221619
 30
0.0
 11
210.40430256290981
 21
16.848886679188759
 31
0.0
  0
LINE
  5
205C
  8
AM_BOR
 10
210.40430256290949
 20
16.848886679189
 30
0.0
 11
210.0981351021297
 21
17.050474034508689
 31
0.0
  0
LINE
  5
205D
  8
AM_BOR
 10
210.09813510212999
 20
17.05047403450855
 30
0.0
 11
209.7287112168076
 21
17.244016765685139
 31
0.0
  0
LINE
  5
205E
  8
AM_BOR
 10
209.72871121680711
 20
17.24401676568521
 30
0.0
 11
209.29884244577369
 21
17.428041895669988
 31
0.0
  0
LINE
  5
205F
  8
AM_BOR
 10
209.29884244577369
 20
17.428041895670081
 30
0.0
 11
208.81180034993889
 21
17.601148882106369
 31
0.0
  0
LINE
  5
2060
  8
AM_BOR
 10
208.81180034993889
 20
17.60114888210644
 30
0.0
 11
208.27129161373591
 21
17.76202027630297
 31
0.0
  0
LINE
  5
2061
  8
AM_BOR
 10
208.27129161373611
 20
17.76202027630309
 30
0.0
 11
207.68142983501551
 21
17.909431749813081
 31
0.0
  0
LINE
  5
2062
  8
AM_BOR
 10
207.68142983501531
 20
17.90943174981297
 30
0.0
 11
207.04670421808169
 21
18.042261412313358
 31
0.0
  0
LINE
  5
2063
  8
AM_BOR
 10
207.04670421808169
 20
18.04226141231344
 30
0.0
 11
206.37194540813729
 21
18.15949834986797
 31
0.0
  0
LINE
  5
2064
  8
AM_BOR
 10
206.37194540813749
 20
18.159498349867881
 30
0.0
 11
205.66228872715681
 21
18.260250318592298
 31
0.0
  0
LINE
  5
2065
  8
AM_BOR
 10
205.66228872715661
 20
18.260250318592369
 30
0.0
 11
205.02242374599979
 21
18.33253416039674
 31
0.0
  0
LINE
  5
2066
  8
AM_BOR
 10
205.02242374599939
 20
18.332534160396779
 30
0.0
 11
204.92313509098369
 21
18.343750535168819
 31
0.0
  0
LINE
  5
2067
  8
AM_BOR
 10
204.92313509098369
 20
18.343750535168748
 30
0.0
 11
204.16010990510409
 21
18.409363512530259
 31
0.0
  0
LINE
  5
2068
  8
AM_BOR
 10
204.1601099051048
 20
18.409363512530259
 30
0.0
 11
203.71314686010501
 21
18.436387872932471
 31
0.0
  0
LINE
  5
2069
  8
AM_BOR
 10
200.43756462039249
 20
18.465334570955569
 30
0.0
 11
200.19401582596791
 21
18.45658989630088
 31
0.0
  0
LINE
  5
206A
  8
AM_BOR
 10
200.19401582596799
 20
18.456589896300901
 30
0.0
 11
199.41292617277259
 21
18.409363512530309
 31
0.0
  0
LINE
  5
206B
  8
AM_BOR
 10
199.41292617277259
 20
18.409363512530248
 30
0.0
 11
198.64990098689299
 21
18.343750535168759
 31
0.0
  0
LINE
  5
206C
  8
AM_BOR
 10
198.5506123731563
 20
18.332534165059979
 30
0.0
 11
197.9107473507209
 21
18.260250318592469
 31
0.0
  0
LINE
  5
206D
  8
AM_BOR
 10
198.64990098689299
 20
18.343750535168791
 30
0.0
 11
198.5506123731563
 21
18.332534165059919
 31
0.0
  0
LINE
  5
206E
  8
AM_BOR
 10
197.91074735072121
 20
18.26025031859243
 30
0.0
 11
197.20109066974049
 21
18.159498349868041
 31
0.0
  0
LINE
  5
206F
  8
AM_BOR
 10
197.20109066974041
 20
18.159498349868091
 30
0.0
 11
196.52633185979579
 21
18.042261412313529
 31
0.0
  0
LINE
  5
2070
  8
AM_BOR
 10
196.5263318597959
 20
18.042261412313589
 30
0.0
 11
195.89160624286239
 21
17.909431749813219
 31
0.0
  0
LINE
  5
2071
  8
AM_BOR
 10
195.89160624286171
 20
17.90943174981302
 30
0.0
 11
195.30174446414119
 21
17.762020276303058
 31
0.0
  0
LINE
  5
2072
  8
AM_BOR
 10
195.301744464141
 20
17.762020276303161
 30
0.0
 11
194.76123572793779
 21
17.60114888210661
 31
0.0
  0
LINE
  5
2073
  8
AM_BOR
 10
194.76123572793779
 20
17.60114888210656
 30
0.0
 11
194.27419363210299
 21
17.428041895670152
 31
0.0
  0
LINE
  5
2074
  8
AM_BOR
 10
194.27419363210339
 20
17.428041895670152
 30
0.0
 11
193.84432486106959
 21
17.244016765685259
 31
0.0
  0
LINE
  5
2075
  8
AM_BOR
 10
193.84432486106959
 20
17.24401676568521
 30
0.0
 11
193.4749009757472
 21
17.05047403450865
 31
0.0
  0
LINE
  5
2076
  8
AM_BOR
 10
193.4749009757472
 20
17.050474034508671
 30
0.0
 11
193.16873351496719
 21
16.848886679188929
 31
0.0
  0
LINE
  5
2077
  8
AM_BOR
 10
193.1687335149673
 20
16.848886679188951
 30
0.0
 11
192.92815259797499
 21
16.640788901221619
 31
0.0
  0
LINE
  5
2078
  8
AM_BOR
 10
192.9281525979753
 20
16.640788901221811
 30
0.0
 11
192.75498919081639
 21
16.42776445035042
 31
0.0
  0
LINE
  5
2079
  8
AM_BOR
 10
192.75498919081639
 20
16.427764450350349
 30
0.0
 11
192.65056117157769
 21
16.211434571273479
 31
0.0
  0
LINE
  5
207A
  8
AM_BOR
 10
192.65056117157789
 20
16.211434571273731
 30
0.0
 11
192.61566330054151
 21
15.993445664994679
 31
0.0
  0
LINE
  5
207B
  8
AM_BOR
 10
192.61566330054069
 20
15.99344566499464
 30
0.0
 11
192.65056117157721
 21
15.775456758715791
 31
0.0
  0
LINE
  5
207C
  8
AM_BOR
 10
192.65056117157769
 20
15.775456758715929
 30
0.0
 11
192.7549891908163
 21
15.55912687963913
 31
0.0
  0
LINE
  5
207D
  8
AM_BOR
 10
192.75498919081639
 20
15.559126879639029
 30
0.0
 11
192.9281525979753
 21
15.34610242876764
 31
0.0
  0
LINE
  5
207E
  8
AM_BOR
 10
192.9281525979751
 20
15.34610242876769
 30
0.0
 11
193.16873351496719
 21
15.1380046508005
 31
0.0
  0
LINE
  5
207F
  8
AM_BOR
 10
193.1687335149669
 20
15.1380046508005
 30
0.0
 11
193.47490097574689
 21
14.93641729548081
 31
0.0
  0
LINE
  5
2080
  8
AM_BOR
 10
193.47490097574729
 20
14.936417295480711
 30
0.0
 11
193.84432486106959
 21
14.742874564304079
 31
0.0
  0
LINE
  5
2081
  8
AM_BOR
 10
193.84432486106951
 20
14.74287456430417
 30
0.0
 11
194.27419363210271
 21
14.558849434319351
 31
0.0
  0
LINE
  5
2082
  8
AM_BOR
 10
194.27419363210319
 20
14.558849434319439
 30
0.0
 11
194.7612357279379
 21
14.38574244788296
 31
0.0
  0
LINE
  5
2083
  8
AM_BOR
 10
194.76123572793779
 20
14.38574244788277
 30
0.0
 11
195.301744464141
 21
14.22487105368617
 31
0.0
  0
LINE
  5
2084
  8
AM_BOR
 10
195.301744464141
 20
14.224871053686311
 30
0.0
 11
195.891606242862
 21
14.077459580176351
 31
0.0
  0
LINE
  5
2085
  8
AM_BOR
 10
195.89160624286191
 20
14.077459580176219
 30
0.0
 11
196.52633185979579
 21
13.94462991767579
 31
0.0
  0
LINE
  5
2086
  8
AM_BOR
 10
196.52633185979539
 20
13.944629917675821
 30
0.0
 11
197.2010906697397
 21
13.827392980121321
 31
0.0
  0
LINE
  5
2087
  8
AM_BOR
 10
197.20109066974049
 20
13.82739298012133
 30
0.0
 11
197.9107473507209
 21
13.726641011397049
 31
0.0
  0
LINE
  5
2088
  8
AM_BOR
 10
197.9107473507205
 20
13.72664101139711
 30
0.0
 11
198.5412166771807
 21
13.655418571666219
 31
0.0
  0
LINE
  5
2089
  8
AM_BOR
 10
198.54121667717999
 20
13.65541857166625
 30
0.0
 11
198.64990098689259
 21
13.643140794820731
 31
0.0
  0
LINE
  5
208A
  8
AM_BOR
 10
198.6499009868929
 20
13.643140794820679
 30
0.0
 11
199.41292617277259
 21
13.57752781745919
 31
0.0
  0
LINE
  5
208B
  8
AM_BOR
 10
199.41292617277259
 20
13.577527817459201
 30
0.0
 11
199.8798563250744
 21
13.54929620220682
 31
0.0
  0
LINE
  5
208C
  8
AM_BOR
 10
203.0271328720325
 20
13.51766683756999
 30
0.0
 11
203.37902025190911
 21
13.530301433688649
 31
0.0
  0
LINE
  5
208D
  8
AM_BOR
 10
203.3790202519092
 20
13.530301433688599
 30
0.0
 11
204.16010990510441
 21
13.57752781745919
 31
0.0
  0
LINE
  5
208E
  8
AM_BOR
 10
204.70451727388399
 20
13.624341722195579
 30
0.0
 11
204.9231350909844
 21
13.64314079482075
 31
0.0
  0
LINE
  5
208F
  8
AM_BOR
 10
204.16010990510441
 20
13.57752781745917
 30
0.0
 11
204.70451727388379
 21
13.62434172219551
 31
0.0
  0
LINE
  5
2090
  8
AM_BOR
 10
204.92313509098409
 20
13.643140794820759
 30
0.0
 11
205.66228872715669
 21
13.726641011397151
 31
0.0
  0
LINE
  5
2091
  8
AM_BOR
 10
205.66228872715661
 20
13.72664101139711
 30
0.0
 11
206.37194540813709
 21
13.827392980121401
 31
0.0
  0
LINE
  5
2092
  8
AM_BOR
 10
206.37194540813749
 20
13.82739298012145
 30
0.0
 11
207.04670421808191
 21
13.94462991767594
 31
0.0
  0
LINE
  5
2093
  8
AM_BOR
 10
207.04670421808169
 20
13.94462991767597
 30
0.0
 11
207.68142983501559
 21
14.07745958017637
 31
0.0
  0
LINE
  5
2094
  8
AM_BOR
 10
207.68142983501551
 20
14.07745958017629
 30
0.0
 11
208.27129161373611
 21
14.22487105368625
 31
0.0
  0
LINE
  5
2095
  8
AM_BOR
 10
208.2712916137362
 20
14.224871053686289
 30
0.0
 11
208.81180034993929
 21
14.38574244788289
 31
0.0
  0
LINE
  5
2096
  8
AM_BOR
 10
208.81180034993929
 20
14.385742447882921
 30
0.0
 11
209.29884244577411
 21
14.558849434319351
 31
0.0
  0
LINE
  5
2097
  8
AM_BOR
 10
209.298842445774
 20
14.55884943431932
 30
0.0
 11
209.72871121680751
 21
14.74287456430422
 31
0.0
  0
LINE
  5
2098
  8
AM_BOR
 10
209.72871121680711
 20
14.742874564304151
 30
0.0
 11
210.0981351021297
 21
14.93641729548083
 31
0.0
  0
LINE
  5
2099
  8
AM_BOR
 10
210.09813510212999
 20
14.93641729548081
 30
0.0
 11
210.40430256290989
 21
15.13800465080036
 31
0.0
  0
LINE
  5
209A
  8
AM_BOR
 10
210.40430256291
 20
15.13800465080055
 30
0.0
 11
210.64488347990201
 21
15.346102428767731
 31
0.0
  0
LINE
  5
209B
  8
AM_BOR
 10
210.64488347990169
 20
15.34610242876783
 30
0.0
 11
210.8180468870608
 21
15.559126879639029
 31
0.0
  0
LINE
  5
209C
  8
AM_BOR
 10
210.81804688706069
 20
15.559126879639059
 30
0.0
 11
210.92247490629899
 21
15.77545675871586
 31
0.0
  0
LINE
  5
209D
  8
AM_BOR
 10
210.92247490629981
 20
15.775456758715791
 30
0.0
 11
210.95737277733619
 21
15.993445664994621
 31
0.0
  0
LINE
  5
209E
  8
AM_BOR
 10
199.10514248704791
 20
18.382897015254191
 30
0.0
 11
203.92474251077411
 21
13.563296991527499
 31
0.0
  0
ARC
  5
209F
  8
AM_BOR
 10
205.2047457141602
 20
14.181128845625549
 30
0.0
 40
0.5002284402762121
 50
180.0
 51
244.5184856857075
  0
LINE
  5
20A0
  8
AM_BOR
 10
199.36521928176651
 20
18.405261169360589
 30
0.0
 11
204.19035209062989
 21
13.58012836049622
 31
0.0
  0
LINE
  5
20A1
  8
AM_BOR
 10
199.630408435547
 20
18.422512964405719
 30
0.0
 11
204.450428885349
 21
13.602492514602771
 31
0.0
  0
LINE
  5
20A2
  8
AM_BOR
 10
199.8967460324557
 20
18.438616316322719
 30
0.0
 11
204.70776895023289
 21
13.62759339854461
 31
0.0
  0
LINE
  5
20A3
  8
AM_BOR
 10
200.16308362936431
 20
18.454719668239761
 30
0.0
 11
204.9488987968831
 21
13.66890450072008
 31
0.0
  0
LINE
  5
20A4
  8
AM_BOR
 10
198.8450656923284
 20
18.36053286114759
 30
0.0
 11
203.6584049138651
 21
13.547193639610409
 31
0.0
  0
LINE
  5
20A5
  8
AM_BOR
 10
198.7943784573331
 20
18.12877914731807
 30
0.0
 11
203.39206731695711
 21
13.53109028769336
 31
0.0
  0
LINE
  5
20A6
  8
AM_BOR
 10
199.01830573664321
 20
18.375429872827009
 30
0.0
 11
199.01830573664321
 21
13.61146145716244
 31
0.0
  0
LINE
  5
20A7
  8
AM_BOR
 10
199.2180216468426
 20
18.39260355953768
 30
0.0
 11
199.2180216468426
 21
13.594287770451791
 31
0.0
  0
LINE
  5
20A8
  8
AM_BOR
 10
204.55473034123381
 20
18.375429872826999
 30
0.0
 11
204.55473034123381
 21
13.61146145716245
 31
0.0
  0
LINE
  5
20A9
  8
AM_BOR
 10
204.35501443103459
 20
18.39260355953764
 30
0.0
 11
204.35501443103459
 21
13.594287770451791
 31
0.0
  0
LINE
  5
20AA
  8
AM_BOR
 62
     4
 10
-0.0000001316067255
 20
15.000000173111291
 30
0.0
 11
190.49999986839319
 21
15.000000173111291
 31
0.0
  0
LINE
  5
20AB
  8
AM_BOR
 62
     4
 10
276.49999986839327
 20
28.000000173111289
 30
0.0
 11
276.49999986839327
 21
0.000000173111296
 31
0.0
  0
LINE
  5
20AC
  8
AM_BOR
 62
     4
 10
-0.0000001316067255
 20
15.000000173111291
 30
0.0
 11
-0.0000001316067255
 21
0.000000173111296
 31
0.0
  0
LINE
  5
20AD
  8
AM_BOR
 62
     4
 10
-0.0000001316067255
 20
28.000000173111289
 30
0.0
 11
276.49999986839327
 21
28.000000173111289
 31
0.0
  0
LINE
  5
20AE
  8
AM_BOR
 62
     4
 10
15.999999868393269
 20
15.000000173111291
 30
0.0
 11
15.999999868393269
 21
0.000000173111296
 31
0.0
  0
TEXT
  5
20AF
  8
AM_BOR
 62
     4
 10
215.17999986839331
 20
10.000000173111291
 30
0.0
 40
1.5
  1
NAKANISHI　INDUSTRIAL CO., LTD.
 41
1.5
  0
TEXT
  5
20B0
  8
AM_BOR
 62
     3
 10
213.19999986839329
 20
13.500000173111291
 30
0.0
 40
5.5
  1
中西産業株式会社
 41
1.1999999999999991
  0
TEXT
  5
20B1
  8
AM_BOR
 62
     4
 10
196.192787937406
 20
10.000000173111291
 30
0.0
 40
1.5
  1
Nakanishi
 41
1.1999999999999991
  0
TEXT
  5
20B2
  8
AM_BOR
 62
     7
 10
98.104999768257457
 20
15.650000185032219
 30
0.0
 40
1.0
  1
FINISH
 41
1.6000000000000001
  0
TEXT
  5
20B3
  8
AM_BOR
 62
     7
 10
96.979999708652798
 20
17.700000220795008
 30
0.0
 40
2.7999999999999989
  1
仕　　上
  0
TEXT
  5
20B4
  8
AM_BOR
 62
     7
 10
3.1549997801784002
 20
15.650000185032219
 30
0.0
 40
1.0
  1
MATERIAL
 41
1.6000000000000001
  0
TEXT
  5
20B5
  8
AM_BOR
 62
     7
 10
1.729999708652826
 20
17.700000220795008
 30
0.0
 40
2.7999999999999989
  1
材　　質
  0
LINE
  5
20B6
  8
AM_BOR
 62
     4
 10
190.49999986839319
 20
28.000000173111289
 30
0.0
 11
190.49999986839319
 21
0.000000173111296
 31
0.0
  0
LINE
  5
20B7
  8
AM_BOR
 62
     4
 10
-0.0000001316067255
 20
28.000000173111289
 30
0.0
 11
-0.0000001316067255
 21
15.000000173111291
 31
0.0
  0
LINE
  5
20B8
  8
AM_BOR
 62
     4
 10
-0.0000001316067255
 20
21.500000173111289
 30
0.0
 11
190.49999986839319
 21
21.500000173111289
 31
0.0
  0
LINE
  5
20B9
  8
AM_BOR
 62
     4
 10
15.999999868393269
 20
28.000000173111289
 30
0.0
 11
15.999999868393269
 21
15.000000173111291
 31
0.0
  0
TEXT
  5
20BA
  8
AM_BOR
 62
     7
 10
98.104999768257457
 20
22.150000185032219
 30
0.0
 40
1.0
  1
ART. NO.
 41
1.6000000000000001
  0
TEXT
  5
20BB
  8
AM_BOR
 62
     7
 10
96.979999708652684
 20
24.200000220795008
 30
0.0
 40
2.7999999999999989
  1
品　　番
  0
TEXT
  5
20BC
  8
AM_BOR
 62
     7
 10
3.1549997801784002
 20
22.150000185032219
 30
0.0
 40
1.0
  1
ARTICLE
 41
1.6000000000000001
  0
TEXT
  5
20BD
  8
AM_BOR
 62
     7
 10
1.7299997086527119
 20
24.200000220795008
 30
0.0
 40
2.7999999999999989
  1
品　　名
  0
LINE
  5
20BE
  8
AM_BOR
 62
     4
 10
-0.0000001316067255
 20
15.000000173111291
 30
0.0
 11
-0.0000001316067255
 21
0.0000001731112924
 31
0.0
  0
LINE
  5
20BF
  8
AM_BOR
 62
     4
 10
95.249999868393246
 20
28.000000173111289
 30
0.0
 11
95.249999868393246
 21
0.000000173111296
 31
0.0
  0
TEXT
  5
20C0
  8
AM_BOR
 62
     7
 10
3.1549997801784002
 20
9.1500001850322192
 30
0.0
 40
1.0
  1
REMARKS
 41
1.6000000000000001
  0
TEXT
  5
20C1
  8
AM_BOR
 62
     7
 10
1.7299997086527119
 20
11.20000022079501
 30
0.0
 40
2.7999999999999989
  1
備　　考
  0
LINE
  5
20C2
  8
AM_BOR
 62
     4
 10
111.2499998683932
 20
28.000000173111289
 30
0.0
 11
111.2499998683932
 21
0.000000173111296
 31
0.0
  0
LINE
  5
20C3
  8
AM_BOR
 62
     4
 10
-0.0000001316067255
 20
0.000000173111296
 30
0.0
 11
276.49999986839327
 21
0.000000173111296
 31
0.0
  0
TEXT
  5
20C4
  8
AM_BOR
 62
     7
 10
98.404999780178386
 20
9.1500001850322157
 30
0.0
 40
1.0
  1
SETS
 41
1.6000000000000001
  0
TEXT
  5
20C5
  8
AM_BOR
 62
     7
 10
96.979999708652684
 20
11.20000022079501
 30
0.0
 40
2.7999999999999989
  1
セット品
  0
ATTDEF
  5
20C6
  8
AM_BOR
 62
     7
 10
114.3107095753831
 20
0.5000001731112853
 30
0.0
 40
3.0
  1

 11
114.3107095753831
 21
2.0000001731112849
 31
0.0
  3
セット
  2
SETS｛20｝
 70
     0
 74
     2
1001
ACADANNOTATIVE
1000
AnnotativeData
1002
{
1070
     1
1070
     0
1002
}
1001
ACDBATTR
1070
     0
1070
     1
  0
ATTDEF
  5
20CA
  8
AM_BOR
 62
     7
 10
19.060709575383161
 20
0.5000001731112889
 30
0.0
 40
3.0
  1

 11
19.060709575383161
 21
2.000000173111288
 31
0.0
  3
備　　考
  2
REMARKS｛20｝
 70
     0
 74
     2
1001
ACADANNOTATIVE
1000
AnnotativeData
1002
{
1070
     1
1070
     0
1002
}
1001
ACDBATTR
1070
     0
1070
     1
  0
ATTDEF
  5
20CE
  8
AM_BOR
 62
     7
 10
114.3107095753831
 20
5.5000001731112853
 30
0.0
 40
3.0
  1

 11
114.3107095753831
 21
7.0000001731112853
 31
0.0
  3
セット
  2
SETS｛20｝
 70
     0
 74
     2
1001
ACADANNOTATIVE
1000
AnnotativeData
1002
{
1070
     1
1070
     0
1002
}
1001
ACDBATTR
1070
     0
1070
     1
  0
ATTDEF
  5
20D2
  8
AM_BOR
 62
     7
 10
19.060709575383161
 20
5.500000173111288
 30
0.0
 40
3.0
  1

 11
19.060709575383161
 21
7.000000173111288
 31
0.0
  3
備　　考
  2
REMARKS｛20｝
 70
     0
 74
     2
1001
ACADANNOTATIVE
1000
AnnotativeData
1002
{
1070
     1
1070
     0
1002
}
1001
ACDBATTR
1070
     0
1070
     1
  0
ATTDEF
  5
20D6
  8
AM_BOR
 62
     7
 10
114.3107095753831
 20
10.50000017311128
 30
0.0
 40
3.0
  1

 11
114.3107095753831
 21
12.00000017311128
 31
0.0
  3
セット
  2
SETS｛20｝
 70
     0
 74
     2
1001
ACADANNOTATIVE
1000
AnnotativeData
1002
{
1070
     1
1070
     0
1002
}
1001
ACDBATTR
1070
     0
1070
     1
  0
ATTDEF
  5
20DA
  8
AM_BOR
 62
     7
 10
19.060709575383161
 20
10.500000173111291
 30
0.0
 40
3.0
  1

 11
19.060709575383161
 21
12.000000173111291
 31
0.0
  3
備　　考
  2
REMARKS｛20｝
 70
     0
 74
     2
1001
ACADANNOTATIVE
1000
AnnotativeData
1002
{
1070
     1
1070
     0
1002
}
1001
ACDBATTR
1070
     0
1070
     1
  0
ATTDEF
  5
20DE
  8
AM_BOR
 62
     7
 10
114.2499998683932
 20
23.500000173111289
 30
0.0
 40
3.0
  1

 11
114.2499998683932
 21
25.000000173111289
 31
0.0
  3
品    番
  2
ART_NO｛20｝
 70
     0
 74
     2
1001
ACADANNOTATIVE
1000
AnnotativeData
1002
{
1070
     1
1070
     0
1002
}
1001
ACDBATTR
1070
     0
1070
     1
  0
ATTDEF
  5
20E2
  8
AM_BOR
 62
     7
 10
18.999999868393271
 20
23.500000173111289
 30
0.0
 40
3.0
  1

 11
18.999999868393271
 21
25.000000173111289
 31
0.0
  3
品    名
  2
ARTICLE｛20｝
 70
     0
 74
     2
1001
ACADANNOTATIVE
1000
AnnotativeData
1002
{
1070
     1
1070
     0
1002
}
1001
ACDBATTR
1070
     0
1070
     1
  0
ATTDEF
  5
20E6
  8
AM_BOR
 62
     7
 10
114.2499998683932
 20
17.000000173111289
 30
0.0
 40
3.0
  1

 11
114.2499998683932
 21
18.500000173111289
 31
0.0
  3
仕上
  2
FINISH｛20｝
 70
     0
 74
     2
1001
ACADANNOTATIVE
1000
AnnotativeData
1002
{
1070
     1
1070
     0
1002
}
1001
ACDBATTR
1070
     0
1070
     1
  0
ATTDEF
  5
20EA
  8
AM_BOR
 62
     7
 10
18.999999868393271
 20
17.000000173111289
 30
0.0
 40
3.0
  1

 11
18.999999868393271
 21
18.500000173111289
 31
0.0
  3
材　　質
  2
MATERIAK｛20｝
 70
     0
 74
     2
1001
ACADANNOTATIVE
1000
AnnotativeData
1002
{
1070
     1
1070
     0
1002
}
1001
ACDBATTR
1070
     0
1070
     1
  0
ENDBLK
  5
20F1
  8
0
  0
BLOCK
  8
0
  2
*D43
 70
     1
 10
0.0
 20
0.0
 30
0.0
  3
*D43
  1

  0
LINE
  5
32A7
  8
寸法線
 62
     0
 10
106.15917565586059
 20
162.57918663389009
 30
0.0
 11
106.15917565586059
 21
169.3891821203791
 31
0.0
  0
LINE
  5
32A8
  8
寸法線
 62
     0
 10
103.15917565586059
 20
162.57918663389009
 30
0.0
 11
103.15917565586059
 21
169.3891821203791
 31
0.0
  0
LINE
  5
32A9
  8
寸法線
 62
     0
 10
108.65917565586059
 20
168.1391821203791
 30
0.0
 11
111.15917565586059
 21
168.1391821203791
 31
0.0
  0
LINE
  5
32AA
  8
寸法線
 62
     0
 10
100.65917565586059
 20
168.1391821203791
 30
0.0
 11
98.159175655860622
 21
168.1391821203791
 31
0.0
  0
LINE
  5
32AB
  8
寸法線
 62
     0
 10
106.15917565586059
 20
168.1391821203791
 30
0.0
 11
103.15917565586059
 21
168.1391821203791
 31
0.0
  0
SOLID
  5
32AC
  8
寸法線
 62
     0
 10
108.65917565586059
 20
168.55584878704579
 30
0.0
 11
108.65917565586059
 21
167.7225154537125
 31
0.0
 12
106.15917565586059
 22
168.1391821203791
 32
0.0
 13
106.15917565586059
 23
168.1391821203791
 33
0.0
  0
SOLID
  5
32AD
  8
寸法線
 62
     0
 10
100.65917565586059
 20
168.55584878704579
 30
0.0
 11
100.65917565586059
 21
167.7225154537125
 31
0.0
 12
103.15917565586059
 22
168.1391821203791
 32
0.0
 13
103.15917565586059
 23
168.1391821203791
 33
0.0
  0
TEXT
  8
寸法線
  40
2.5
  5
334F
  62
0
  72
0
  71
0
 10
99.6592
 20
165.589
 30
0.000000
  1
3
  0
POINT
  5
32AF
  8
DEFPOINTS
 62
     0
 10
106.15917565586059
 20
161.95418663389009
 30
0.0
  0
POINT
  5
32B0
  8
DEFPOINTS
 62
     0
 10
103.15917565586059
 20
161.95418663389009
 30
0.0
  0
POINT
  5
32B1
  8
DEFPOINTS
 62
     0
 10
103.15917565586059
 20
168.1391821203791
 30
0.0
  0
ENDBLK
  5
306E
  8
0
  0
BLOCK
  8
0
  2
*D44
 70
     1
 10
0.0
 20
0.0
 30
0.0
  3
*D44
  1

  0
LINE
  5
32B2
  8
寸法線
 62
     0
 10
203.15917565586059
 20
106.0791866338901
 30
0.0
 11
203.15917565586059
 21
177.77318358035291
 31
0.0
  0
LINE
  5
32B3
  8
寸法線
 62
     0
 10
103.15917565586059
 20
162.57918663389009
 30
0.0
 11
103.15917565586059
 21
177.77318358035291
 31
0.0
  0
LINE
  5
32B4
  8
寸法線
 62
     0
 10
200.65917565586059
 20
176.52318358035291
 30
0.0
 11
105.65917565586059
 21
176.52318358035291
 31
0.0
  0
SOLID
  5
32B5
  8
寸法線
 62
     0
 10
200.65917565586059
 20
176.93985024701951
 30
0.0
 11
200.65917565586059
 21
176.10651691368619
 31
0.0
 12
203.15917565586059
 22
176.52318358035291
 32
0.0
 13
203.15917565586059
 23
176.52318358035291
 33
0.0
  0
SOLID
  5
32B6
  8
寸法線
 62
     0
 10
105.65917565586059
 20
176.93985024701951
 30
0.0
 11
105.65917565586059
 21
176.10651691368619
 31
0.0
 12
103.15917565586059
 22
176.52318358035291
 32
0.0
 13
103.15917565586059
 23
176.52318358035291
 33
0.0
  0
TEXT
  8
寸法線
  40
2.5
  5
3350
  62
0
  72
0
  71
0
 10
148.159
 20
173.973
 30
0.000000
  1
100
  0
POINT
  5
32B8
  8
DEFPOINTS
 62
     0
 10
203.15917565586059
 20
105.4541866338901
 30
0.0
  0
POINT
  5
32B9
  8
DEFPOINTS
 62
     0
 10
103.15917565586059
 20
161.95418663389009
 30
0.0
  0
POINT
  5
32BA
  8
DEFPOINTS
 62
     0
 10
103.15917565586059
 20
176.52318358035291
 30
0.0
  0
ENDBLK
  5
307C
  8
0
  0
BLOCK
  8
0
  2
*D45
 70
     1
 10
0.0
 20
0.0
 30
0.0
  3
*D45
  1

  0
LINE
  5
32BB
  8
寸法線
 62
     0
 10
162.03417565586059
 20
71.954186633890117
 30
0.0
 11
92.14204633822429
 21
71.954186633890146
 31
0.0
  0
LINE
  5
32BC
  8
寸法線
 62
     0
 10
106.90917565586059
 20
116.9541866338901
 30
0.0
 11
92.142046338224304
 21
116.9541866338901
 31
0.0
  0
LINE
  5
32BD
  8
寸法線
 62
     0
 10
93.39204633822429
 20
74.454186633890146
 30
0.0
 11
93.392046338224304
 21
114.4541866338901
 31
0.0
  0
SOLID
  5
32BE
  8
寸法線
 62
     0
 10
92.975379671557604
 20
74.454186633890146
 30
0.0
 11
93.808713004890947
 21
74.454186633890146
 31
0.0
 12
93.39204633822429
 22
71.954186633890146
 32
0.0
 13
93.39204633822429
 23
71.954186633890146
 33
0.0
  0
SOLID
  5
32BF
  8
寸法線
 62
     0
 10
92.975379671557633
 20
114.4541866338901
 30
0.0
 11
93.808713004890976
 21
114.4541866338901
 31
0.0
 12
93.392046338224304
 22
116.9541866338901
 32
0.0
 13
93.392046338224304
 23
116.9541866338901
 33
0.0
  0
TEXT
  8
寸法線
  40
2.5
  5
3351
  62
0
  72
0
  71
0
 10
86.5170
 20
90.0292
 30
0.000000
  1
45
  0
POINT
  5
32C1
  8
DEFPOINTS
 62
     0
 10
162.65917565586059
 20
71.954186633890117
 30
0.0
  0
POINT
  5
32C2
  8
DEFPOINTS
 62
     0
 10
107.53417565586059
 20
116.9541866338901
 30
0.0
  0
POINT
  5
32C3
  8
DEFPOINTS
 62
     0
 10
93.392046338224304
 20
116.9541866338901
 30
0.0
  0
ENDBLK
  5
3088
  8
0
  0
BLOCK
  8
0
  2
*D46
 70
     1
 10
0.0
 20
0.0
 30
0.0
  3
*D46
  1

  0
LINE
  5
32C4
  8
寸法線
 62
     0
 10
58.967098804998052
 20
71.954186633890231
 30
0.0
 11
42.548835338064777
 21
71.954186633890231
 31
0.0
  0
LINE
  5
32C5
  8
寸法線
 62
     0
 10
68.467098804998045
 20
161.95418663389009
 30
0.0
 11
42.548835338064798
 21
161.95418663389009
 31
0.0
  0
LINE
  5
32C6
  8
寸法線
 62
     0
 10
43.798835338064777
 20
74.454186633890231
 30
0.0
 11
43.798835338064798
 21
159.45418663389009
 31
0.0
  0
SOLID
  5
32C7
  8
寸法線
 62
     0
 10
43.382168671398119
 20
74.454186633890231
 30
0.0
 11
44.215502004731441
 21
74.454186633890231
 31
0.0
 12
43.798835338064777
 22
71.954186633890231
 32
0.0
 13
43.798835338064777
 23
71.954186633890231
 33
0.0
  0
SOLID
  5
32C8
  8
寸法線
 62
     0
 10
43.382168671398141
 20
159.45418663389009
 30
0.0
 11
44.215502004731469
 21
159.45418663389009
 31
0.0
 12
43.798835338064798
 22
161.95418663389009
 32
0.0
 13
43.798835338064798
 23
161.95418663389009
 33
0.0
  0
TEXT
  8
寸法線
  40
2.5
  5
3352
  62
0
  72
0
  71
0
 10
36.9238
 20
112.529
 30
0.000000
  1
90
  0
POINT
  5
32CA
  8
DEFPOINTS
 62
     0
 10
59.592098804998052
 20
71.954186633890231
 30
0.0
  0
POINT
  5
32CB
  8
DEFPOINTS
 62
     0
 10
69.092098804998045
 20
161.95418663389009
 30
0.0
  0
POINT
  5
32CC
  8
DEFPOINTS
 62
     0
 10
43.798835338064798
 20
161.95418663389009
 30
0.0
  0
ENDBLK
  5
3094
  8
0
  0
BLOCK
  8
0
  2
*D47
 70
     1
 10
0.0
 20
0.0
 30
0.0
  3
*D47
  1

  0
LINE
  5
32CD
  8
寸法線
 62
     0
 10
102.53417565586059
 20
161.95418663389009
 30
0.0
 11
91.933713004891288
 21
161.95418663389009
 31
0.0
  0
LINE
  5
32CE
  8
寸法線
 62
     0
 10
107.53417565586059
 20
116.9541866338901
 30
0.0
 11
91.933713004891274
 21
116.9541866338901
 31
0.0
  0
LINE
  5
32CF
  8
寸法線
 62
     0
 10
93.183713004891274
 20
159.45418663389009
 30
0.0
 11
93.183713004891274
 21
119.4541866338901
 31
0.0
  0
SOLID
  5
32D0
  8
寸法線
 62
     0
 10
92.767046338224588
 20
159.45418663389009
 30
0.0
 11
93.600379671557945
 21
159.45418663389009
 31
0.0
 12
93.183713004891288
 22
161.95418663389009
 32
0.0
 13
93.183713004891288
 23
161.95418663389009
 33
0.0
  0
SOLID
  5
32D1
  8
寸法線
 62
     0
 10
92.767046338224588
 20
119.4541866338901
 30
0.0
 11
93.600379671557945
 21
119.4541866338901
 31
0.0
 12
93.183713004891274
 22
116.9541866338901
 32
0.0
 13
93.183713004891274
 23
116.9541866338901
 33
0.0
  0
TEXT
  8
寸法線
  40
2.5
  5
3353
  62
0
  72
0
  71
0
 10
86.3087
 20
135.029
 30
0.000000
  1
45
  0
POINT
  5
32D3
  8
DEFPOINTS
 62
     0
 10
103.15917565586059
 20
161.95418663389009
 30
0.0
  0
POINT
  5
32D4
  8
DEFPOINTS
 62
     0
 10
108.15917565586059
 20
116.9541866338901
 30
0.0
  0
POINT
  5
32D5
  8
DEFPOINTS
 62
     0
 10
93.183713004891274
 20
116.9541866338901
 30
0.0
  0
ENDBLK
  5
30A0
  8
0
  0
BLOCK
  8
0
  2
*D48
 70
     1
 10
0.0
 20
0.0
 30
0.0
  3
*D48
  1

  0
LINE
  5
32D6
  8
寸法線
 62
     0
 10
62.217098804998052
 20
127.4541866338904
 30
0.0
 11
50.996094104360623
 21
127.4541866338904
 31
0.0
  0
LINE
  5
32D7
  8
寸法線
 62
     0
 10
62.217098804998052
 20
152.45418663389049
 30
0.0
 11
50.996094104360623
 21
152.45418663389049
 31
0.0
  0
LINE
  5
32D8
  8
寸法線
 62
     0
 10
52.246094104360623
 20
129.9541866338904
 30
0.0
 11
52.246094104360623
 21
149.9541866338906
 31
0.0
  0
SOLID
  5
32D9
  8
寸法線
 62
     0
 10
51.829427437693951
 20
129.9541866338904
 30
0.0
 11
52.66276077102728
 21
129.9541866338904
 31
0.0
 12
52.246094104360623
 22
127.4541866338904
 32
0.0
 13
52.246094104360623
 23
127.4541866338904
 33
0.0
  0
SOLID
  5
32DA
  8
寸法線
 62
     0
 10
51.829427437693958
 20
149.9541866338906
 30
0.0
 11
52.662760771027287
 21
149.9541866338906
 31
0.0
 12
52.246094104360623
 22
152.45418663389049
 32
0.0
 13
52.246094104360623
 23
152.45418663389049
 33
0.0
  0
TEXT
  8
寸法線
  40
2.5
  5
3354
  62
0
  72
0
  71
0
 10
45.3711
 20
135.529
 30
0.000000
  1
25
  0
POINT
  5
32DC
  8
DEFPOINTS
 62
     0
 10
62.842098804998052
 20
127.4541866338904
 30
0.0
  0
POINT
  5
32DD
  8
DEFPOINTS
 62
     0
 10
62.842098804998052
 20
152.45418663389049
 30
0.0
  0
POINT
  5
32DE
  8
DEFPOINTS
 62
     0
 10
52.246094104360623
 20
152.45418663389049
 30
0.0
  0
ENDBLK
  5
30AC
  8
0
  0
BLOCK
  8
0
  2
*D49
 70
     1
 10
0.0
 20
0.0
 30
0.0
  3
*D49
  1

  0
LINE
  5
32DF
  8
寸法線
 62
     0
 10
59.592098804998052
 20
153.0791866338906
 30
0.0
 11
59.592098804998052
 21
170.5185787680108
 31
0.0
  0
LINE
  5
32E0
  8
寸法線
 62
     0
 10
78.592098804998045
 20
153.0791866338904
 30
0.0
 11
78.592098804998045
 21
170.5185787680108
 31
0.0
  0
LINE
  5
32E1
  8
寸法線
 62
     0
 10
62.092098804998052
 20
169.2685787680108
 30
0.0
 11
76.092098804998045
 21
169.2685787680108
 31
0.0
  0
SOLID
  5
32E2
  8
寸法線
 62
     0
 10
62.092098804998052
 20
169.6852454346774
 30
0.0
 11
62.092098804998052
 21
168.85191210134411
 31
0.0
 12
59.592098804998052
 22
169.2685787680108
 32
0.0
 13
59.592098804998052
 23
169.2685787680108
 33
0.0
  0
SOLID
  5
32E3
  8
寸法線
 62
     0
 10
76.092098804998045
 20
169.6852454346774
 30
0.0
 11
76.092098804998045
 21
168.85191210134411
 31
0.0
 12
78.592098804998045
 22
169.2685787680108
 32
0.0
 13
78.592098804998045
 23
169.2685787680108
 33
0.0
  0
TEXT
  8
寸法線
  40
2.5
  5
3355
  62
0
  72
0
  71
0
 10
64.0921
 20
166.719
 30
0.000000
  1
19
  0
POINT
  5
32E5
  8
DEFPOINTS
 62
     0
 10
59.592098804998052
 20
152.45418663389049
 30
0.0
  0
POINT
  5
32E6
  8
DEFPOINTS
 62
     0
 10
78.592098804998045
 20
152.4541866338904
 30
0.0
  0
POINT
  5
32E7
  8
DEFPOINTS
 62
     0
 10
78.592098804998045
 20
169.2685787680108
 30
0.0
  0
ENDBLK
  5
30B8
  8
0
  0
BLOCK
  8
0
  2
*D50
 70
     1
 10
0.0
 20
0.0
 30
0.0
  3
*D50
  1

  0
LINE
  5
32E8
  8
寸法線
 62
     0
 10
62.217098804998052
 20
152.45418663389049
 30
0.0
 11
50.996094104360623
 21
152.45418663389049
 31
0.0
  0
LINE
  5
32E9
  8
寸法線
 62
     0
 10
68.467098804998045
 20
161.95418663389009
 30
0.0
 11
50.996094104360623
 21
161.95418663389009
 31
0.0
  0
LINE
  5
32EA
  8
寸法線
 62
     0
 10
52.246094104360623
 20
154.9541866338906
 30
0.0
 11
52.246094104360623
 21
159.45418663389009
 31
0.0
  0
SOLID
  5
32EB
  8
寸法線
 62
     0
 10
51.829427437693958
 20
154.9541866338906
 30
0.0
 11
52.662760771027287
 21
154.9541866338906
 31
0.0
 12
52.246094104360623
 22
152.45418663389049
 32
0.0
 13
52.246094104360623
 23
152.45418663389049
 33
0.0
  0
SOLID
  5
32EC
  8
寸法線
 62
     0
 10
51.829427437693958
 20
159.45418663389009
 30
0.0
 11
52.662760771027287
 21
159.45418663389009
 31
0.0
 12
52.246094104360623
 22
161.95418663389009
 32
0.0
 13
52.246094104360623
 23
161.95418663389009
 33
0.0
  0
TEXT
  8
寸法線
  40
2.5
  5
3356
  62
0
  72
0
  71
0
 10
45.3711
 20
152.779
 30
0.000000
  1
9.5
  0
POINT
  5
32EE
  8
DEFPOINTS
 62
     0
 10
62.842098804998052
 20
152.45418663389049
 30
0.0
  0
POINT
  5
32EF
  8
DEFPOINTS
 62
     0
 10
69.092098804998045
 20
161.95418663389009
 30
0.0
  0
POINT
  5
32F0
  8
DEFPOINTS
 62
     0
 10
52.246094104360623
 20
161.95418663389009
 30
0.0
  0
ENDBLK
  5
30C4
  8
0
  0
BLOCK
  8
0
  2
*D51
 70
     1
 10
0.0
 20
0.0
 30
0.0
  3
*D51
  1

  0
LINE
  5
32F1
  8
寸法線
 62
     0
 10
183.15917565586059
 20
115.5791866338901
 30
0.0
 11
183.15917565586059
 21
133.0730079981048
 31
0.0
  0
LINE
  5
32F2
  8
寸法線
 62
     0
 10
203.15917565586059
 20
115.5791866338901
 30
0.0
 11
203.15917565586059
 21
133.0730079981048
 31
0.0
  0
LINE
  5
32F3
  8
寸法線
 62
     0
 10
185.65917565586059
 20
131.8230079981048
 30
0.0
 11
200.65917565586059
 21
131.8230079981048
 31
0.0
  0
SOLID
  5
32F4
  8
寸法線
 62
     0
 10
185.65917565586059
 20
132.2396746647714
 30
0.0
 11
185.65917565586059
 21
131.40634133143811
 31
0.0
 12
183.15917565586059
 22
131.8230079981048
 32
0.0
 13
183.15917565586059
 23
131.8230079981048
 33
0.0
  0
SOLID
  5
32F5
  8
寸法線
 62
     0
 10
200.65917565586059
 20
132.2396746647714
 30
0.0
 11
200.65917565586059
 21
131.40634133143811
 31
0.0
 12
203.15917565586059
 22
131.8230079981048
 32
0.0
 13
203.15917565586059
 23
131.8230079981048
 33
0.0
  0
TEXT
  8
寸法線
  40
2.5
  5
3357
  62
0
  72
0
  71
0
 10
188.159
 20
129.273
 30
0.000000
  1
20
  0
POINT
  5
32F7
  8
DEFPOINTS
 62
     0
 10
183.15917565586059
 20
114.9541866338901
 30
0.0
  0
POINT
  5
32F8
  8
DEFPOINTS
 62
     0
 10
203.15917565586059
 20
114.9541866338901
 30
0.0
  0
POINT
  5
32F9
  8
DEFPOINTS
 62
     0
 10
203.15917565586059
 20
131.8230079981048
 30
0.0
  0
ENDBLK
  5
30D0
  8
0
  0
BLOCK
  8
0
  2
*D52
 70
     1
 10
0.0
 20
0.0
 30
0.0
  3
*D52
  1

  0
LINE
  5
32FA
  8
寸法線
 62
     0
 10
205.78417565586059
 20
103.9541866338901
 30
0.0
 11
214.4388744222812
 21
103.9541866338901
 31
0.0
  0
LINE
  5
32FB
  8
寸法線
 62
     0
 10
178.78417565586059
 20
119.9541866338901
 30
0.0
 11
214.4388744222812
 21
119.9541866338901
 31
0.0
  0
LINE
  5
32FC
  8
寸法線
 62
     0
 10
213.1888744222812
 20
106.4541866338901
 30
0.0
 11
213.1888744222812
 21
117.4541866338901
 31
0.0
  0
SOLID
  5
32FD
  8
寸法線
 62
     0
 10
212.77220775561449
 20
106.4541866338901
 30
0.0
 11
213.6055410889478
 21
106.4541866338901
 31
0.0
 12
213.1888744222812
 22
103.9541866338901
 32
0.0
 13
213.1888744222812
 23
103.9541866338901
 33
0.0
  0
SOLID
  5
32FE
  8
寸法線
 62
     0
 10
212.77220775561449
 20
117.4541866338901
 30
0.0
 11
213.6055410889478
 21
117.4541866338901
 31
0.0
 12
213.1888744222812
 22
119.9541866338901
 32
0.0
 13
213.1888744222812
 23
119.9541866338901
 33
0.0
  0
TEXT
  8
寸法線
  40
2.5
  5
3358
  62
0
  72
0
  71
0
 10
206.314
 20
107.529
 30
0.000000
  1
16
  0
POINT
  5
3300
  8
DEFPOINTS
 62
     0
 10
205.15917565586059
 20
103.9541866338901
 30
0.0
  0
POINT
  5
3301
  8
DEFPOINTS
 62
     0
 10
178.15917565586059
 20
119.9541866338901
 30
0.0
  0
POINT
  5
3302
  8
DEFPOINTS
 62
     0
 10
213.1888744222812
 20
119.9541866338901
 30
0.0
  0
ENDBLK
  5
30DC
  8
0
  0
BLOCK
  8
0
  2
*D53
 70
     1
 10
0.0
 20
0.0
 30
0.0
  3
*D53
  1

  0
LINE
  5
3303
  8
寸法線
 62
     0
 10
162.03417565586059
 20
71.954186633890117
 30
0.0
 11
125.83811099704199
 21
71.954186633890131
 31
0.0
  0
LINE
  5
3304
  8
寸法線
 62
     0
 10
142.15760198203549
 20
91.954186633890103
 30
0.0
 11
125.83811099704199
 21
91.954186633890103
 31
0.0
  0
LINE
  5
3305
  8
寸法線
 62
     0
 10
127.08811099704199
 20
74.454186633890131
 30
0.0
 11
127.08811099704199
 21
89.454186633890103
 31
0.0
  0
SOLID
  5
3306
  8
寸法線
 62
     0
 10
126.67144433037529
 20
74.454186633890131
 30
0.0
 11
127.50477766370869
 21
74.454186633890131
 31
0.0
 12
127.08811099704199
 22
71.954186633890131
 32
0.0
 13
127.08811099704199
 23
71.954186633890131
 33
0.0
  0
SOLID
  5
3307
  8
寸法線
 62
     0
 10
126.67144433037529
 20
89.454186633890103
 30
0.0
 11
127.50477766370869
 21
89.454186633890103
 31
0.0
 12
127.08811099704199
 22
91.954186633890103
 32
0.0
 13
127.08811099704199
 23
91.954186633890103
 33
0.0
  0
TEXT
  8
寸法線
  40
2.5
  5
3359
  62
0
  72
0
  71
0
 10
120.213
 20
77.5292
 30
0.000000
  1
20
  0
POINT
  5
3309
  8
DEFPOINTS
 62
     0
 10
162.65917565586059
 20
71.954186633890117
 30
0.0
  0
POINT
  5
330A
  8
DEFPOINTS
 62
     0
 10
142.78260198203549
 20
91.954186633890103
 30
0.0
  0
POINT
  5
330B
  8
DEFPOINTS
 62
     0
 10
127.08811099704199
 20
91.954186633890103
 30
0.0
  0
ENDBLK
  5
30E8
  8
0
  0
BLOCK
  8
0
  2
*D54
 70
     1
 10
0.0
 20
0.0
 30
0.0
  3
*D54
  1

  0
LINE
  5
330C
  8
寸法線
 62
     0
 10
176.99020091564179
 20
78.503497941085783
 30
0.0
 11
178.78157907311439
 21
76.759661854485287
 31
0.0
  0
TEXT
  8
寸法線
  40
2.5
  5
335A
  62
0
  72
0
  71
0
 10
162.884
 20
82.9430
 30
0.000000
  1
R17.5
  0
LINE
  5
330E
  8
寸法線
 62
     0
 10
162.65917565586099
 20
92.454186633890004
 30
0.0
 11
175.1988227581692
 21
80.247334027686307
 31
0.0
  0
SOLID
  5
330F
  8
寸法線
 62
     0
 10
177.28084026340861
 20
78.802060967331187
 30
0.0
 11
176.69956156787509
 21
78.204934914840351
 31
0.0
 12
175.1988227581692
 22
80.247334027686307
 32
0.0
 13
175.1988227581692
 23
80.247334027686307
 33
0.0
  0
POINT
  5
3310
  8
DEFPOINTS
 62
     0
 10
175.1988227581692
 20
80.247334027686307
 30
0.0
  0
POINT
  5
3311
  8
DEFPOINTS
 62
     0
 10
162.65917565586099
 20
92.454186633890004
 30
0.0
  0
ENDBLK
  5
30F4
  8
0
  0
BLOCK
  8
0
  2
*D55
 70
     1
 10
0.0
 20
0.0
 30
0.0
  3
*D55
  1

  0
LINE
  5
3312
  8
寸法線
 62
     0
 10
142.15760198203549
 20
91.954186633890103
 30
0.0
 11
125.83811099704199
 21
91.954186633890103
 31
0.0
  0
LINE
  5
3313
  8
寸法線
 62
     0
 10
140.90917565586059
 20
116.9541866338901
 30
0.0
 11
125.83811099704199
 21
116.9541866338901
 31
0.0
  0
LINE
  5
3314
  8
寸法線
 62
     0
 10
127.08811099704199
 20
94.454186633890103
 30
0.0
 11
127.08811099704199
 21
114.4541866338901
 31
0.0
  0
SOLID
  5
3315
  8
寸法線
 62
     0
 10
126.67144433037529
 20
94.454186633890103
 30
0.0
 11
127.50477766370859
 21
94.454186633890103
 31
0.0
 12
127.08811099704199
 22
91.954186633890103
 32
0.0
 13
127.08811099704199
 23
91.954186633890103
 33
0.0
  0
SOLID
  5
3316
  8
寸法線
 62
     0
 10
126.67144433037529
 20
114.4541866338901
 30
0.0
 11
127.50477766370869
 21
114.4541866338901
 31
0.0
 12
127.08811099704199
 22
116.9541866338901
 32
0.0
 13
127.08811099704199
 23
116.9541866338901
 33
0.0
  0
TEXT
  8
寸法線
  40
2.5
  5
335B
  62
0
  72
0
  71
0
 10
120.213
 20
100.029
 30
0.000000
  1
25
  0
POINT
  5
3318
  8
DEFPOINTS
 62
     0
 10
142.78260198203549
 20
91.954186633890103
 30
0.0
  0
POINT
  5
3319
  8
DEFPOINTS
 62
     0
 10
141.53417565586059
 20
116.9541866338901
 30
0.0
  0
POINT
  5
331A
  8
DEFPOINTS
 62
     0
 10
127.08811099704199
 20
116.9541866338901
 30
0.0
  0
ENDBLK
  5
30FD
  8
0
  0
BLOCK
  8
0
  2
*D56
 70
     1
 10
0.0
 20
0.0
 30
0.0
  3
*D56
  1

  0
LINE
  5
331B
  8
寸法線
 62
     0
 10
140.15917565586059
 20
89.873426500439791
 30
0.0
 11
140.15917565586059
 21
63.73450996755377
 31
0.0
  0
LINE
  5
331C
  8
寸法線
 62
     0
 10
183.15917565586059
 20
91.829186633890117
 30
0.0
 11
183.15917565586059
 21
63.73450996755377
 31
0.0
  0
LINE
  5
331D
  8
寸法線
 62
     0
 10
142.65917565586059
 20
64.984509967553777
 30
0.0
 11
180.65917565586059
 21
64.984509967553777
 31
0.0
  0
SOLID
  5
331E
  8
寸法線
 62
     0
 10
142.65917565586059
 20
65.401176634220434
 30
0.0
 11
142.65917565586059
 21
64.567843300887105
 31
0.0
 12
140.15917565586059
 22
64.984509967553777
 32
0.0
 13
140.15917565586059
 23
64.984509967553777
 33
0.0
  0
SOLID
  5
331F
  8
寸法線
 62
     0
 10
180.65917565586059
 20
65.401176634220434
 30
0.0
 11
180.65917565586059
 21
64.567843300887105
 31
0.0
 12
183.15917565586059
 22
64.984509967553777
 32
0.0
 13
183.15917565586059
 23
64.984509967553777
 33
0.0
  0
TEXT
  8
寸法線
  40
2.5
  5
335C
  62
0
  72
0
  71
0
 10
156.659
 20
62.4345
 30
0.000000
  1
43
  0
POINT
  5
3321
  8
DEFPOINTS
 62
     0
 10
140.15917565586059
 20
90.498426500439791
 30
0.0
  0
POINT
  5
3322
  8
DEFPOINTS
 62
     0
 10
183.15917565586059
 20
92.454186633890117
 30
0.0
  0
POINT
  5
3323
  8
DEFPOINTS
 62
     0
 10
183.15917565586059
 20
64.984509967553777
 30
0.0
  0
ENDBLK
  5
3109
  8
0
  0
BLOCK
  8
0
  2
*D57
 70
     1
 10
0.0
 20
0.0
 30
0.0
  3
*D57
  1

  0
LINE
  5
333C
  8
寸法線
 62
     0
 10
232.27253430360119
 20
101.0542983517996
 30
0.0
 11
243.89851751143459
 21
108.8540749159821
 31
0.0
  0
TEXT
  8
寸法線
  40
2.5
  5
335D
  62
0
  72
0
  71
0
 10
249.609
 20
111.615
 30
0.000000
  1
%%c19
  0
SOLID
  5
333E
  8
寸法線
 62
     0
 10
232.0403980963338
 20
101.4003097567946
 30
0.0
 11
232.50467051086849
 21
100.70828694680451
 31
0.0
 12
230.1964658736309
 22
99.661481108195531
 32
0.0
 13
230.1964658736309
 23
99.661481108195531
 33
0.0
  0
SOLID
  5
333F
  8
寸法線
 62
     0
 10
243.6663813041672
 20
109.20008632097721
 30
0.0
 11
244.13065371870189
 21
108.5080635109871
 31
0.0
 12
245.9745859414048
 22
110.2468921595862
 32
0.0
 13
245.9745859414048
 23
110.2468921595862
 33
0.0
  0
POINT
  5
3340
  8
DEFPOINTS
 62
     0
 10
245.9745859414048
 20
110.2468921595862
 30
0.0
  0
POINT
  5
3341
  8
DEFPOINTS
 62
     0
 10
230.1964658736309
 20
99.661481108195531
 30
0.0
  0
ENDBLK
  5
3115
  8
0
  0
BLOCK
  8
0
  2
*X61
 70
     1
 10
0.0
 20
0.0
 30
0.0
  3
*X61
  1

  0
LINE
  5
3283
  8
0
 62
     0
 10
200.7079973787304
 20
32.309886021679183
 30
0.0
 11
206.32148166930801
 21
37.9233703122568
 31
0.0
  0
LINE
  5
3284
  8
0
 62
     0
 10
197.41169122584441
 20
32.156669511167138
 30
0.0
 11
206.47469817982031
 21
41.219676465143039
 31
0.0
  0
LINE
  5
3285
  8
0
 62
     0
 10
206.47469817982031
 20
41.219676465143039
 30
0.0
 11
206.90207322907619
 21
41.647051514398981
 31
0.0
  0
LINE
  5
3286
  8
0
 62
     0
 10
196.98431617658821
 20
31.729294461910971
 30
0.0
 11
197.41169122584441
 21
32.156669511167138
 31
0.0
  0
LINE
  5
3287
  8
0
 62
     0
 10
197.41169122584461
 20
35.299759153541352
 30
0.0
 11
203.3316085374463
 21
41.219676465143273
 31
0.0
  0
LINE
  5
3288
  8
0
 62
     0
 10
203.3316085374463
 20
41.219676465143273
 30
0.0
 11
206.4018774690542
 21
44.289945396751129
 31
0.0
  0
LINE
  5
3289
  8
0
 62
     0
 10
194.341422294236
 20
32.22949022193302
 30
0.0
 11
197.41169122584461
 21
35.299759153541352
 31
0.0
  0
LINE
  5
328A
  8
0
 62
     0
 10
197.41169122584461
 20
38.442848795916007
 30
0.0
 11
200.18851889507209
 21
41.219676465143493
 31
0.0
  0
LINE
  5
328B
  8
0
 62
     0
 10
200.18851889507209
 20
41.219676465143493
 30
0.0
 11
205.37257088569069
 21
46.403728455762113
 31
0.0
  0
LINE
  5
328C
  8
0
 62
     0
 10
192.2276392352251
 20
33.25879680529647
 30
0.0
 11
197.41169122584461
 21
38.442848795916007
 31
0.0
  0
LINE
  5
328D
  8
0
 62
     0
 10
197.0454292526974
 20
41.219676465143039
 30
0.0
 11
197.41169122584409
 21
41.585938438289759
 31
0.0
  0
LINE
  5
328E
  8
0
 62
     0
 10
197.41169122584441
 20
41.585938438289979
 30
0.0
 11
203.94357796387541
 21
48.117825176321048
 31
0.0
  0
LINE
  5
328F
  8
0
 62
     0
 10
190.51354251466611
 20
34.687789727111522
 30
0.0
 11
197.0454292526974
 21
41.219676465143039
 31
0.0
  0
LINE
  5
3290
  8
0
 62
     0
 10
193.9023396103232
 20
41.219676465142797
 30
0.0
 11
197.41169122584441
 21
44.729028080663959
 31
0.0
  0
LINE
  5
3291
  8
0
 62
     0
 10
197.41169122584441
 20
44.729028080663959
 30
0.0
 11
202.14131282101491
 21
49.458649675834522
 31
0.0
  0
LINE
  5
3292
  8
0
 62
     0
 10
189.17271801515261
 20
36.490054869972248
 30
0.0
 11
193.9023396103232
 21
41.219676465142797
 31
0.0
  0
LINE
  5
3293
  8
0
 62
     0
 10
190.75924996794919
 20
41.219676465143039
 30
0.0
 11
197.41169122584441
 21
47.872117723038173
 31
0.0
  0
LINE
  5
3294
  8
0
 62
     0
 10
197.41169122584441
 20
47.872117723038173
 30
0.0
 11
199.9216728147405
 21
50.382099311934319
 31
0.0
  0
LINE
  5
3295
  8
0
 62
     0
 10
188.24926837905309
 20
38.709694876246893
 30
0.0
 11
190.75924996794919
 21
41.219676465143039
 31
0.0
  0
LINE
  5
3296
  8
0
 62
     0
 10
187.9164380274421
 20
41.519954167010383
 30
0.0
 11
197.11141352397701
 21
50.714929663545263
 31
0.0
  0
LINE
  5
3297
  8
0
 62
     0
 10
189.1332307083091
 20
45.879836490251591
 30
0.0
 11
192.7515312007356
 21
49.498136982678027
 31
0.0
  0
ENDBLK
  5
3299
  8
0
  0
BLOCK
  8
0
  2
*U62
 70
     1
 10
0.0
 20
0.0
 30
0.0
  3
*U62
  1

  0
TEXT
  5
329B
  8
寸法線
 10
214.29260994284849
 20
78.395817778872697
 30
0.0
 40
2.5
  1
2-\U+22054.5-\U+22058.5
  0
ENDBLK
  5
329D
  8
0
  0
BLOCK
  8
0
  2
*U63
 70
     1
 10
0.0
 20
0.0
 30
0.0
  3
*U63
  1

  0
SOLID
  5
329F
  8
寸法線
 10
200.14729563451681
 20
65.890038685716107
 30
0.0
 11
197.37548088566041
 21
63.703678699272821
 31
0.0
 12
199.28837808492131
 22
66.670824010402342
 32
0.0
 13
199.28837808492131
 23
66.670824010402342
 33
0.0
  0
POLYLINE
  5
32A0
  8
寸法線
 66
     1
 10
0.0
 20
0.0
 30
0.0
  0
VERTEX
  5
32A1
  8
寸法線
 10
199.71783685971911
 20
66.280431348059224
 30
0.0
  0
VERTEX
  5
32A2
  8
寸法線
 10
209.93975783865349
 20
77.52524735803371
 30
0.0
  0
VERTEX
  5
32A3
  8
寸法線
 10
214.29260994284849
 20
77.52524735803371
 30
0.0
  0
SEQEND
  5
32A4
  8
寸法線
  0
ENDBLK
  5
32A6
  8
0
  0
BLOCK
  8
0
  2
*X64
 70
     1
 10
0.0
 20
0.0
 30
0.0
  3
*X64
  1

  0
LINE
  5
3325
  8
0
 62
     0
 10
241.38183206040461
 20
96.044396190427733
 30
0.0
 11
246.9953163509804
 21
101.6578804810035
 31
0.0
  0
LINE
  5
3326
  8
0
 62
     0
 10
238.08552590751759
 20
95.891179679914785
 30
0.0
 11
247.14853286149361
 21
104.9541866338907
 31
0.0
  0
LINE
  5
3327
  8
0
 62
     0
 10
247.14853286149361
 20
104.9541866338907
 30
0.0
 11
247.57590791074901
 21
105.3815616831462
 31
0.0
  0
LINE
  5
3328
  8
0
 62
     0
 10
237.65815085826191
 20
95.463804630658856
 30
0.0
 11
238.08552590751759
 21
95.891179679914785
 31
0.0
  0
LINE
  5
3329
  8
0
 62
     0
 10
238.0855259075179
 20
99.034269322288765
 30
0.0
 11
244.0054432191196
 21
104.9541866338907
 31
0.0
  0
LINE
  5
332A
  8
0
 62
     0
 10
244.0054432191196
 20
104.9541866338907
 30
0.0
 11
247.07571215072721
 21
108.0244555654983
 31
0.0
  0
LINE
  5
332B
  8
0
 62
     0
 10
235.01525697590981
 20
95.964000390680894
 30
0.0
 11
238.0855259075179
 21
99.034269322288765
 31
0.0
  0
LINE
  5
332C
  8
0
 62
     0
 10
238.0855259075179
 20
102.1773589646634
 30
0.0
 11
240.86235357674531
 21
104.9541866338909
 31
0.0
  0
LINE
  5
332D
  8
0
 62
     0
 10
240.86235357674531
 20
104.9541866338909
 30
0.0
 11
246.04640556736399
 21
110.1382386245095
 31
0.0
  0
LINE
  5
332E
  8
0
 62
     0
 10
232.90147391689831
 20
96.993306974043904
 30
0.0
 11
238.0855259075179
 21
102.1773589646634
 31
0.0
  0
LINE
  5
332F
  8
0
 62
     0
 10
237.7192639343707
 20
104.9541866338907
 30
0.0
 11
238.085525907517
 21
105.32044860703689
 31
0.0
  0
LINE
  5
3330
  8
0
 62
     0
 10
238.08552590751759
 20
105.3204486070376
 30
0.0
 11
244.61741264554871
 21
111.8523353450687
 31
0.0
  0
LINE
  5
3331
  8
0
 62
     0
 10
231.18737719633941
 20
98.422299895859155
 30
0.0
 11
237.7192639343707
 21
104.9541866338907
 31
0.0
  0
LINE
  5
3332
  8
0
 62
     0
 10
234.57617429199669
 20
104.9541866338907
 30
0.0
 11
238.08552590751739
 21
108.4635382494114
 31
0.0
  0
LINE
  5
3333
  8
0
 62
     0
 10
238.08552590751759
 20
108.4635382494116
 30
0.0
 11
242.8151475026884
 21
113.1931598445824
 31
0.0
  0
LINE
  5
3334
  8
0
 62
     0
 10
229.84655269682551
 20
100.2245650387194
 30
0.0
 11
234.57617429199669
 21
104.9541866338907
 31
0.0
  0
LINE
  5
3335
  8
0
 62
     0
 10
231.43308464962249
 20
104.9541866338904
 30
0.0
 11
238.08552590751759
 21
111.60662789178561
 31
0.0
  0
LINE
  5
3336
  8
0
 62
     0
 10
238.08552590751759
 20
111.60662789178561
 30
0.0
 11
240.595507496414
 21
114.116609480682
 31
0.0
  0
LINE
  5
3337
  8
0
 62
     0
 10
228.92310306072591
 20
102.44420504499379
 30
0.0
 11
231.43308464962249
 21
104.9541866338904
 31
0.0
  0
LINE
  5
3338
  8
0
 62
     0
 10
228.590272709115
 20
105.25446433575731
 30
0.0
 11
237.7852482056505
 21
114.4494398322929
 31
0.0
  0
LINE
  5
3339
  8
0
 62
     0
 10
229.80706538998109
 20
109.6143466589978
 30
0.0
 11
233.42536588241001
 21
113.2326471514268
 31
0.0
  0
ENDBLK
  5
333B
  8
0
  0
BLOCK
  8
0
  2
*U65
 70
     1
 10
0.0
 20
0.0
 30
0.0
  3
*U65
  1

  0
TEXT
  5
3343
  8
寸法線
 10
254.96644462452161
 20
142.1303279476202
 30
0.0
 40
2.5
  1
2-\U+22054.5-\U+22058.5
  0
ENDBLK
  5
3345
  8
0
  0
BLOCK
  8
0
  2
*U66
 70
     1
 10
0.0
 20
0.0
 30
0.0
  3
*U66
  1

  0
SOLID
  5
3347
  8
寸法線
 10
240.82113031618999
 20
129.6245488544636
 30
0.0
 11
238.04931556733351
 21
127.4381888680203
 31
0.0
 12
239.96221276659449
 22
130.40533417914989
 32
0.0
 13
239.96221276659449
 23
130.40533417914989
 33
0.0
  0
POLYLINE
  5
3348
  8
寸法線
 66
     1
 10
0.0
 20
0.0
 30
0.0
  0
VERTEX
  5
3349
  8
寸法線
 10
240.3916715413923
 20
130.01494151680669
 30
0.0
  0
VERTEX
  5
334A
  8
寸法線
 10
250.6135925203267
 20
141.25975752678119
 30
0.0
  0
VERTEX
  5
334B
  8
寸法線
 10
254.96644462452161
 20
141.25975752678119
 30
0.0
  0
SEQEND
  5
334C
  8
寸法線
  0
ENDBLK
  5
334E
  8
0
  0
ENDSEC
  0
SECTION
  2
ENTITIES
  0
INSERT
  5
1BB5
  8
0
  2
ZUWAKU-A4H
 10
0.0
 20
0.0
 30
0.0
1001
GENIUS_GENOREF_13
1005
1C93
1001
GENIUS_GENOBJ-N-SDF_13
1002
{
1000
OWNER
1000
GEN
1002
}
1001
GENIUS_GENODEF_13
1002
{
1000
HIER
1070
     0
1002
}
1002
{
1000
MANEDIT
1070
     0
1002
}
1002
{
1000
NOSEL
1070
     0
1002
}
1002
{
1000
BEHIND
1070
     0
1002
}
1002
{
1000
OTHER
1070
     0
1002
}
1002
{
1000
REACTOR
1002
}
1001
GENIUS_GENSCREG_13
1040
1.0
1040
1.0
1011
12.95699999999508
1021
0.0
1031
0.0
1021
10.0
1031
0.0
1011
289.45700000038528
1021
0.0
1031
0.0
1021
201.1206999999936
1031
0.0
1070
     3
  0
POINT
  5
1C93
  8
0
 10
0.0
 20
0.0
 30
0.0
1001
GENIUS_GENOLIS_13
1002
{
1000
ENT
1005
1C84
1005
1BB5
1002
}
1001
GENIUS_GENOENT_13
1002
{
1000
MYREF
1005
1C93
1002
}
1002
{
1000
GRP
1005
0
1002
}
1001
GENIUS_GENOBJ-N-TIT_13
1002
{
1000
OWNER
1000
GEN
1002
}
1001
GENIUS_GENTITLE_13
1002
{
1000
BORDER
1000
C:\Program Files\Autodesk\ACADM 2008\Acadm\gen\Dwg\Format\ZUWAKU-A4H
1002
}
1002
{
1000
TITLE
1000
C:\Program Files\Autodesk\ACADM 2008\Acadm\gen\Dwg\Title\N_Title
1002
}
1002
{
1000
ADDITIONAL1
1000

1002
}
1002
{
1000
ADDITIONAL2
1000

1002
}
1002
{
1000
SCALE
1000
1:1
1002
}
1002
{
1000
TITLESTD
1000
JIS
1002
}
1002
{
1000
HRA
1005
1BB5
1002
}
1002
{
1000
HTIT
1005
1C84
1002
}
1002
{
1000
INVTXTID
1005
0
1002
}
1002
{
1000
UNCHG
1002
{
1000
GEN-TITLE-SIZ
1000
GEN-TITLE-SCA
1002
}
1002
}
1002
{
1000
GENIUSID
1005
1C93
1002
}
1001
GENIUS_GENODEF_13
1002
{
1000
HIER
1070
     1
1002
}
1002
{
1000
MANEDIT
1070
     1
1002
}
1002
{
1000
NOSEL
1070
     0
1002
}
1002
{
1000
BEHIND
1070
     0
1002
}
1002
{
1000
OTHER
1070
     0
1002
}
1002
{
1000
REACTOR
1002
}
  0
INSERT
  5
20F2
  8
0
 66
     1
  2
A$C1C06296A
 10
12.95700013162593
 20
9.9999998268887111
 30
0.0
  0
ATTRIB
  5
20F3
  8
AM_BOR
 62
     7
 10
127.267709707009
 20
10.5
 30
0.0
 40
3.0
  1

 11
127.267709707009
 21
12.0
 31
0.0
  2
SETS｛20｝
 70
     0
 74
     2
1001
ACDBATTR
1070
     0
1070
     1
  0
ATTRIB
  5
20F4
  8
AM_BOR
 62
     7
 10
32.017709707009089
 20
10.5
 30
0.0
 40
3.0
  1

 11
32.017709707009089
 21
12.0
 31
0.0
  2
REMARKS｛20｝
 70
     0
 74
     2
1001
ACDBATTR
1070
     0
1070
     1
  0
ATTRIB
  5
20F5
  8
AM_BOR
 62
     7
 10
127.267709707009
 20
15.5
 30
0.0
 40
3.0
  1

 11
127.267709707009
 21
17.0
 31
0.0
  2
SETS｛20｝
 70
     0
 74
     2
1001
ACDBATTR
1070
     0
1070
     1
  0
ATTRIB
  5
20F6
  8
AM_BOR
 62
     7
 10
32.017709707009089
 20
15.5
 30
0.0
 40
3.0
  1

 11
32.017709707009089
 21
17.0
 31
0.0
  2
REMARKS｛20｝
 70
     0
 74
     2
1001
ACDBATTR
1070
     0
1070
     1
  0
ATTRIB
  5
20F7
  8
AM_BOR
 62
     7
 10
127.267709707009
 20
20.5
 30
0.0
 40
3.0
  1
トラスAタッピング4\U+00D725(2本)
 11
127.267709707009
 21
22.0
 31
0.0
  2
SETS｛20｝
 70
     0
 74
     2
1001
ACDBATTR
1070
     0
1070
     1
  0
ATTRIB
  5
20F8
  8
AM_BOR
 62
     7
 10
32.017709707009089
 20
20.5
 30
0.0
 40
3.0
  1

 11
32.017709707009089
 21
22.0
 31
0.0
  2
REMARKS｛20｝
 70
     0
 74
     2
1001
ACDBATTR
1070
     0
1070
     1
  0
ATTRIB
  5
20F9
  8
AM_BOR
 62
     7
 10
127.20700000001921
 20
33.5
 30
0.0
 40
3.0
  1
S3184-100-HN
 11
127.20700000001921
 21
35.0
 31
0.0
  2
ART_NO｛20｝
 70
     0
 74
     2
1001
ACDBATTR
1070
     0
1070
     1
  0
ATTRIB
  5
20FA
  8
AM_BOR
 62
     7
 10
31.95700000001921
 20
33.5
 30
0.0
 40
3.0
  1
LUCKY戸当り
 11
31.95700000001921
 21
35.0
 31
0.0
  2
ARTICLE｛20｝
 70
     0
 74
     2
1001
ACDBATTR
1070
     0
1070
     1
  0
ATTRIB
  5
20FB
  8
AM_BOR
 62
     7
 10
127.20700000001921
 20
27.0
 30
0.0
 40
3.0
  1
ホーニング仕上げ
 11
127.20700000001921
 21
28.5
 31
0.0
  2
FINISH｛20｝
 70
     0
 74
     2
1001
ACDBATTR
1070
     0
1070
     1
  0
ATTRIB
  5
20FC
  8
AM_BOR
 62
     7
 10
31.95700000001921
 20
27.0
 30
0.0
 40
3.0
  1
ステンレス
 11
31.95700000001921
 21
28.5
 31
0.0
  2
MATERIAK｛20｝
 70
     0
 74
     2
1001
ACDBATTR
1070
     0
1070
     1
  0
SEQEND
  5
20FD
  8
0
  0
DIMENSION
  5
2FD8
  8
寸法線
  2
*D43
 10
103.15917565586059
 20
168.1391821203791
 30
0.0
 11
104.65917565586059
 21
170.0141821203791
 31
0.0
 70
     0
 13
106.15917565586059
 23
161.95418663389009
 33
0.0
 14
103.15917565586059
 24
161.95418663389009
 34
0.0
1001
ACAD
1000
DSTYLE
1002
{
1070
   270
1070
     8
1070
   144
1040
1.0
1070
    41
1040
2.5
1070
    42
1040
0.625
1070
    43
1040
3.75
1070
    44
1040
1.25
1070
    73
1070
     0
1070
    74
1070
     0
1070
    77
1070
     1
1070
    78
1070
     8
1070
   140
1040
2.5
1070
   141
1040
2.5
1070
   143
1040
0.0394
1070
   147
1040
0.625
1070
   171
1070
     4
1070
   172
1070
     1
1070
   273
1070
     8
1070
   274
1070
     4
1070
   277
1070
     6
1002
}
  0
LINE
  5
2FD9
  8
実線
 10
108.15917565586059
 20
116.9541866338901
 30
0.0
 11
178.15917565586059
 21
116.9541866338901
 31
0.0
  0
LINE
  5
2FDA
  8
実線
 10
108.15917565586059
 20
119.9541866338901
 30
0.0
 11
178.15917565586059
 21
119.9541866338901
 31
0.0
  0
DIMENSION
  5
2FDB
  8
寸法線
  2
*D44
 10
103.15917565586059
 20
176.52318358035291
 30
0.0
 11
153.15917565586059
 21
178.39818358035291
 31
0.0
 70
     0
 13
203.15917565586059
 23
105.4541866338901
 33
0.0
 14
103.15917565586059
 24
161.95418663389009
 34
0.0
1001
ACAD
1000
DSTYLE
1002
{
1070
   270
1070
     8
1070
   144
1040
1.0
1070
    41
1040
2.5
1070
    42
1040
0.625
1070
    43
1040
3.75
1070
    44
1040
1.25
1070
    73
1070
     0
1070
    74
1070
     0
1070
    77
1070
     1
1070
    78
1070
     8
1070
   140
1040
2.5
1070
   141
1040
2.5
1070
   143
1040
0.0394
1070
   147
1040
0.625
1070
   171
1070
     4
1070
   172
1070
     1
1070
   273
1070
     8
1070
   274
1070
     4
1070
   277
1070
     6
1002
}
  0
DIMENSION
  5
2FDC
  8
寸法線
  2
*D45
 10
93.392046338224304
 20
116.9541866338901
 30
0.0
 11
91.517046338224276
 21
94.454186633890146
 31
0.0
 70
     0
 13
162.65917565586059
 23
71.954186633890117
 33
0.0
 14
107.53417565586059
 24
116.9541866338901
 34
0.0
 50
90.0
1001
ACAD
1000
DSTYLE
1002
{
1070
   270
1070
     8
1070
   144
1040
1.0
1070
    41
1040
2.5
1070
    42
1040
0.625
1070
    43
1040
3.75
1070
    44
1040
1.25
1070
    73
1070
     0
1070
    74
1070
     0
1070
    77
1070
     1
1070
    78
1070
     8
1070
   140
1040
2.5
1070
   141
1040
2.5
1070
   143
1040
0.0394
1070
   147
1040
0.625
1070
   171
1070
     4
1070
   172
1070
     1
1070
   273
1070
     8
1070
   274
1070
     4
1070
   277
1070
     6
1002
}
  0
LINE
  5
2FDD
  8
実線
 10
103.15917565586059
 20
121.9541866338901
 30
0.0
 11
103.15917565586059
 21
161.95418663389009
 31
0.0
  0
LINE
  5
2FDE
  8
実線
 10
106.15917565586059
 20
121.9541866338901
 30
0.0
 11
106.15917565586059
 21
161.95418663389009
 31
0.0
  0
LINE
  5
2FDF
  8
実線
 10
103.15917565586059
 20
121.9541866338901
 30
0.0
 11
103.15917565586059
 21
161.95418663389009
 31
0.0
  0
LINE
  5
2FE0
  8
実線
 10
106.15917565586059
 20
121.9541866338901
 30
0.0
 11
106.15917565586059
 21
161.95418663389009
 31
0.0
  0
LINE
  5
2FE1
  8
実線
 10
103.15917565586059
 20
121.9541866338901
 30
0.0
 11
103.15917565586059
 21
161.95418663389009
 31
0.0
  0
LINE
  5
2FE2
  8
隠れ線
 10
104.15917565586059
 20
125.2041866338904
 30
0.0
 11
104.15917565586059
 21
129.7041866338904
 31
0.0
  0
LINE
  5
2FE3
  8
中心線
 10
69.092098804998045
 20
121.2041866338904
 30
0.0
 11
69.092098804998045
 21
133.7041866338904
 31
0.0
  0
CIRCLE
  5
2FE4
  8
実線
 10
69.092098804998045
 20
127.4541866338904
 30
0.0
 40
2.25
  0
LINE
  5
2FE5
  8
実線
 10
59.592098804998052
 20
152.45418663389049
 30
0.0
 11
59.592098804998052
 21
71.954186633890231
 31
0.0
  0
LINE
  5
2FE6
  8
実線
 10
78.592098804998045
 20
152.45418663389049
 30
0.0
 11
78.592098804997136
 21
71.954186633890117
 31
0.0
  0
DIMENSION
  5
2FE7
  8
寸法線
  2
*D46
 10
43.798835338064798
 20
161.95418663389009
 30
0.0
 11
41.923835338064769
 21
116.9541866338902
 31
0.0
 70
     0
 13
59.592098804998052
 23
71.954186633890231
 33
0.0
 14
69.092098804998045
 24
161.95418663389009
 34
0.0
 50
90.0
1001
ACAD
1000
DSTYLE
1002
{
1070
   270
1070
     8
1070
   144
1040
1.0
1070
    41
1040
2.5
1070
    42
1040
0.625
1070
    43
1040
3.75
1070
    44
1040
1.25
1070
    73
1070
     0
1070
    74
1070
     0
1070
    77
1070
     1
1070
    78
1070
     8
1070
   140
1040
2.5
1070
   141
1040
2.5
1070
   143
1040
0.0394
1070
   147
1040
0.625
1070
   171
1070
     4
1070
   172
1070
     1
1070
   273
1070
     8
1070
   274
1070
     4
1070
   277
1070
     6
1002
}
  0
DIMENSION
  5
2FE8
  8
寸法線
  2
*D47
 10
93.183713004891274
 20
116.9541866338901
 30
0.0
 11
91.308713004891246
 21
139.45418663389009
 31
0.0
 70
     0
 13
103.15917565586059
 23
161.95418663389009
 33
0.0
 14
108.15917565586059
 24
116.9541866338901
 34
0.0
 50
90.0
1001
ACAD
1000
DSTYLE
1002
{
1070
   270
1070
     8
1070
   144
1040
1.0
1070
    41
1040
2.5
1070
    42
1040
0.625
1070
    43
1040
3.75
1070
    44
1040
1.25
1070
    73
1070
     0
1070
    74
1070
     0
1070
    77
1070
     1
1070
    78
1070
     8
1070
   140
1040
2.5
1070
   141
1040
2.5
1070
   143
1040
0.0394
1070
   147
1040
0.625
1070
   171
1070
     4
1070
   172
1070
     1
1070
   273
1070
     8
1070
   274
1070
     4
1070
   277
1070
     6
1002
}
  0
LINE
  5
2FE9
  8
隠れ線
 10
106.15917565586059
 20
123.2041866338904
 30
0.0
 11
104.15917565586059
 21
125.2041866338904
 31
0.0
  0
LINE
  5
2FEA
  8
隠れ線
 10
104.15917565586059
 20
125.2041866338904
 30
0.0
 11
103.15917565586059
 21
125.2041866338904
 31
0.0
  0
ARC
  5
2FEB
  8
実線
 10
108.15917565586059
 20
121.9541866338901
 30
0.0
 40
2.0
 50
180.0
 51
270.0
  0
ARC
  5
2FEC
  8
実線
 10
108.15917565586059
 20
121.9541866338901
 30
0.0
 40
5.0
 50
180.0
 51
270.0
  0
ARC
  5
2FED
  8
実線
 10
69.09209880499759
 20
80.866702583618803
 30
0.0
 40
9.6317239168207855
 50
9.4866774318776592
 51
170.51332256812231
  0
ARC
  5
2FEE
  8
実線
 10
69.092098804997136
 20
82.454186633890217
 30
0.0
 40
9.4999999999995453
 50
0.0
 51
180.0
  0
LINE
  5
2FEF
  8
実線
 10
59.592098804998052
 20
71.954186633890231
 30
0.0
 11
78.592098804997136
 21
71.954186633890117
 31
0.0
  0
CIRCLE
  5
2FF0
  8
実線
 10
69.092098804998045
 20
105.4541866338909
 30
0.0
 40
3.5
  0
LINE
  5
2FF1
  8
中心線
 10
69.092098804998045
 20
99.954186633890913
 30
0.0
 11
69.092098804998045
 21
110.9541866338909
 31
0.0
  0
LINE
  5
2FF2
  8
実線
 10
59.592098804998052
 20
116.9541866338904
 30
0.0
 11
78.592098804997136
 21
116.9541866338903
 31
0.0
  0
LINE
  5
2FF3
  8
中心線
 10
63.592098804998038
 20
105.4541866338909
 30
0.0
 11
74.592098804998045
 21
105.4541866338909
 31
0.0
  0
ARC
  5
2FF4
  8
実線
 10
69.092098804998045
 20
105.4541866338909
 30
0.0
 40
2.0
 50
261.37307344132893
 51
278.62692655867107
  0
ARC
  5
2FF5
  8
実線
 10
69.092098804998045
 20
105.4541866338909
 30
0.0
 40
2.0
 50
171.37307344132219
 51
188.6269265586777
  0
ARC
  5
2FF6
  8
実線
 10
69.092098804998045
 20
105.4541866338909
 30
0.0
 40
2.0
 50
351.37307344132893
 51
8.6269265586777575
  0
ARC
  5
2FF7
  8
実線
 10
69.092098804998045
 20
105.4541866338909
 30
0.0
 40
2.0
 50
81.373073441302964
 51
98.626926558671215
  0
LINE
  5
2FF8
  8
実線
 10
68.792098804997863
 20
103.4768146405624
 30
0.0
 11
68.792098804997863
 21
104.1541866338907
 31
0.0
  0
LINE
  5
2FF9
  8
実線
 10
67.792098804997863
 20
105.1541866338907
 30
0.0
 11
67.114726811669357
 21
105.1541866338908
 31
0.0
  0
ARC
  5
2FFA
  8
実線
 10
67.792098804997863
 20
104.1541866338907
 30
0.0
 40
1.0
 50
0.0
 51
90.000000000006509
  0
LINE
  5
2FFB
  8
実線
 10
69.392098804997772
 20
103.4768146405623
 30
0.0
 11
69.392098804997772
 21
104.154186633891
 31
0.0
  0
LINE
  5
2FFC
  8
実線
 10
70.392098804997772
 20
105.154186633891
 30
0.0
 11
71.069470798326734
 21
105.154186633891
 31
0.0
  0
ARC
  5
2FFD
  8
実線
 10
70.392098804997772
 20
104.154186633891
 30
0.0
 40
1.0
 50
90.000000000006509
 51
180.0
  0
LINE
  5
2FFE
  8
実線
 10
67.114726811669357
 20
105.7541866338908
 30
0.0
 11
67.792098804997863
 21
105.7541866338908
 31
0.0
  0
LINE
  5
2FFF
  8
実線
 10
68.792098804997863
 20
106.7541866338908
 30
0.0
 11
68.792098804997863
 21
107.4315586272194
 31
0.0
  0
ARC
  5
3000
  8
実線
 10
67.792098804997863
 20
106.7541866338908
 30
0.0
 40
1.0
 50
270.0
 51
0.0
  0
LINE
  5
3001
  8
実線
 10
71.069470798326734
 20
105.7541866338908
 30
0.0
 11
70.392098804998227
 21
105.7541866338908
 31
0.0
  0
LINE
  5
3002
  8
実線
 10
69.392098804998227
 20
106.7541866338908
 30
0.0
 11
69.392098804998227
 21
107.4315586272194
 31
0.0
  0
ARC
  5
3003
  8
実線
 10
70.392098804998227
 20
106.7541866338908
 30
0.0
 40
1.0
 50
180.0
 51
270.0
  0
LINE
  5
3004
  8
隠れ線
 10
104.15917565586059
 20
150.20418663389049
 30
0.0
 11
104.15917565586059
 21
154.7041866338906
 31
0.0
  0
LINE
  5
3005
  8
隠れ線
 10
106.15917565586059
 20
148.20418663389049
 30
0.0
 11
104.15917565586059
 21
150.20418663389049
 31
0.0
  0
LINE
  5
3006
  8
隠れ線
 10
106.15917565586059
 20
131.7041866338904
 30
0.0
 11
104.15917565586059
 21
129.7041866338904
 31
0.0
  0
LINE
  5
3007
  8
隠れ線
 10
104.15917565586059
 20
129.7041866338904
 30
0.0
 11
103.15917565586059
 21
129.7041866338904
 31
0.0
  0
LINE
  5
3008
  8
隠れ線
 10
104.15917565586059
 20
150.20418663389049
 30
0.0
 11
103.15917565586059
 21
150.20418663389049
 31
0.0
  0
LINE
  5
3009
  8
中心線
 10
109.15917565586059
 20
127.4541866338904
 30
0.0
 11
100.15917565586059
 21
127.4541866338904
 31
0.0
  0
LINE
  5
300A
  8
実線
 10
103.15917565586059
 20
161.95418663389009
 30
0.0
 11
106.15917565586059
 21
161.95418663389009
 31
0.0
  0
LINE
  5
300B
  8
隠れ線
 10
104.15917565586059
 20
154.7041866338906
 30
0.0
 11
103.15917565586059
 21
154.7041866338906
 31
0.0
  0
LINE
  5
300C
  8
中心線
 10
109.15917565586059
 20
152.45418663389049
 30
0.0
 11
100.15917565586059
 21
152.45418663389049
 31
0.0
  0
LINE
  5
300D
  8
隠れ線
 10
106.15917565586059
 20
156.7041866338906
 30
0.0
 11
104.15917565586059
 21
154.7041866338906
 31
0.0
  0
DIMENSION
  5
300E
  8
寸法線
  2
*D48
 10
52.246094104360623
 20
152.45418663389049
 30
0.0
 11
50.371094104360587
 21
139.95418663389049
 31
0.0
 70
     0
 13
62.842098804998052
 23
127.4541866338904
 33
0.0
 14
62.842098804998052
 24
152.45418663389049
 34
0.0
 50
90.0
1001
ACAD
1000
DSTYLE
1002
{
1070
   270
1070
     8
1070
   144
1040
1.0
1070
    41
1040
2.5
1070
    42
1040
0.625
1070
    43
1040
3.75
1070
    44
1040
1.25
1070
    73
1070
     0
1070
    74
1070
     0
1070
    77
1070
     1
1070
    78
1070
     8
1070
   140
1040
2.5
1070
   141
1040
2.5
1070
   143
1040
0.0394
1070
   147
1040
0.625
1070
   171
1070
     4
1070
   172
1070
     1
1070
   273
1070
     8
1070
   274
1070
     4
1070
   277
1070
     6
1002
}
  0
CIRCLE
  5
300F
  8
実線
 10
69.092098804998045
 20
152.45418663389049
 30
0.0
 40
2.25
  0
LINE
  5
3010
  8
中心線
 10
69.092098804998045
 20
146.20418663389049
 30
0.0
 11
69.092098804998045
 21
158.70418663389049
 31
0.0
  0
LINE
  5
3011
  8
中心線
 10
62.842098804998052
 20
127.4541866338904
 30
0.0
 11
75.342098804998045
 21
127.4541866338904
 31
0.0
  0
LINE
  5
3012
  8
中心線
 10
62.842098804998052
 20
152.45418663389049
 30
0.0
 11
75.342098804998045
 21
152.45418663389049
 31
0.0
  0
ARC
  5
3013
  8
実線
 10
69.092098804998045
 20
152.45418663389049
 30
0.0
 40
9.4999999999995453
 50
0.0
 51
180.0
  0
DIMENSION
  5
3014
  8
寸法線
  2
*D49
 10
78.592098804998045
 20
169.2685787680108
 30
0.0
 11
69.092098804998045
 21
171.1435787680108
 31
0.0
 70
     0
 13
59.592098804998052
 23
152.45418663389049
 33
0.0
 14
78.592098804998045
 24
152.4541866338904
 34
0.0
1001
ACAD
1000
DSTYLE
1002
{
1070
   270
1070
     8
1070
   144
1040
1.0
1070
    41
1040
2.5
1070
    42
1040
0.625
1070
    43
1040
3.75
1070
    44
1040
1.25
1070
    73
1070
     0
1070
    74
1070
     0
1070
    77
1070
     1
1070
    78
1070
     8
1070
   140
1040
2.5
1070
   141
1040
2.5
1070
   143
1040
0.0394
1070
   147
1040
0.625
1070
   171
1070
     4
1070
   172
1070
     1
1070
   273
1070
     8
1070
   274
1070
     4
1070
   277
1070
     6
1002
}
  0
DIMENSION
  5
3015
  8
寸法線
  2
*D50
 10
52.246094104360623
 20
161.95418663389009
 30
0.0
 11
50.371094104360587
 21
157.20418663389029
 31
0.0
 70
     0
 13
62.842098804998052
 23
152.45418663389049
 33
0.0
 14
69.092098804998045
 24
161.95418663389009
 34
0.0
 50
90.0
1001
ACAD
1000
DSTYLE
1002
{
1070
   270
1070
     8
1070
   144
1040
1.0
1070
    41
1040
2.5
1070
    42
1040
0.625
1070
    43
1040
3.75
1070
    44
1040
1.25
1070
    73
1070
     0
1070
    74
1070
     0
1070
    77
1070
     1
1070
    78
1070
     8
1070
   140
1040
2.5
1070
   141
1040
2.5
1070
   143
1040
0.0394
1070
   147
1040
0.625
1070
   171
1070
     4
1070
   172
1070
     1
1070
   273
1070
     8
1070
   274
1070
     4
1070
   277
1070
     6
1002
}
  0
LINE
  5
3016
  8
中心線
 10
238.08552590751751
 20
121.2041866338904
 30
0.0
 11
238.08552590751751
 21
133.7041866338904
 31
0.0
  0
CIRCLE
  5
3017
  8
実線
 10
238.08552590751751
 20
127.4541866338904
 30
0.0
 40
4.25
  0
CIRCLE
  5
3018
  8
実線
 10
238.08552590751751
 20
127.4541866338904
 30
0.0
 40
2.25
  0
DIMENSION
  5
3019
  8
寸法線
  2
*D51
 10
203.15917565586059
 20
131.8230079981048
 30
0.0
 11
193.15917565586059
 21
133.6980079981048
 31
0.0
 70
     0
 13
183.15917565586059
 23
114.9541866338901
 33
0.0
 14
203.15917565586059
 24
114.9541866338901
 34
0.0
1001
ACAD
1000
DSTYLE
1002
{
1070
   270
1070
     8
1070
   144
1040
1.0
1070
    41
1040
2.5
1070
    42
1040
0.625
1070
    43
1040
3.75
1070
    44
1040
1.25
1070
    73
1070
     0
1070
    74
1070
     0
1070
    77
1070
     1
1070
    78
1070
     8
1070
   140
1040
2.5
1070
   141
1040
2.5
1070
   143
1040
0.0394
1070
   147
1040
0.625
1070
   171
1070
     4
1070
   172
1070
     1
1070
   273
1070
     8
1070
   274
1070
     4
1070
   277
1070
     6
1002
}
  0
LINE
  5
301A
  8
実線
 10
228.5855259075185
 20
152.45418663389049
 30
0.0
 11
228.58552590751751
 21
74.954186633890572
 31
0.0
  0
LINE
  5
301B
  8
実線
 10
247.58552590751751
 20
152.45418663389049
 30
0.0
 11
247.58552590751751
 21
74.954186633890572
 31
0.0
  0
ARC
  5
301C
  8
実線
 10
194.15917565586011
 20
103.7041866338899
 30
0.0
 40
5.5
 50
270.0
 51
0.0
  0
LINE
  5
301D
  8
実線
 10
195.68491756206791
 20
103.70418663389
 30
0.0
 11
201.24011814297739
 21
109.2593872147995
 31
0.0
  0
LINE
  5
301E
  8
実線
 10
193.8553104019262
 20
94.690374576892964
 30
0.0
 11
202.8691224589235
 21
103.70418663389
 31
0.0
  0
LINE
  5
301F
  8
実線
 10
198.67774934712779
 20
95.920711073667007
 30
0.0
 11
201.94265121608319
 21
99.185612942622583
 31
0.0
  0
LINE
  5
3020
  8
実線
 10
192.09281511364011
 20
103.70418663389
 30
0.0
 11
199.40552868965329
 21
111.0169002099032
 31
0.0
  0
ARC
  5
3021
  8
実線
 10
194.15917565586011
 20
103.7041866338899
 30
0.0
 40
9.0
 50
270.0
 51
90.0
  0
DIMENSION
  5
3022
  8
寸法線
  2
*D52
 10
213.1888744222812
 20
119.9541866338901
 30
0.0
 11
211.3138744222812
 21
111.9541866338901
 31
0.0
 70
     0
 13
205.15917565586059
 23
103.9541866338901
 33
0.0
 14
178.15917565586059
 24
119.9541866338901
 34
0.0
 50
90.0
1001
ACAD
1000
DSTYLE
1002
{
1070
   270
1070
     8
1070
   144
1040
1.0
1070
    41
1040
2.5
1070
    42
1040
0.625
1070
    43
1040
3.75
1070
    44
1040
1.25
1070
    73
1070
     0
1070
    74
1070
     0
1070
    77
1070
     1
1070
    78
1070
     8
1070
   140
1040
2.5
1070
   141
1040
2.5
1070
   143
1040
0.0394
1070
   147
1040
0.625
1070
   171
1070
     4
1070
   172
1070
     1
1070
   273
1070
     8
1070
   274
1070
     4
1070
   277
1070
     6
1002
}
  0
LINE
  5
3023
  8
中心線
 10
205.15917565586059
 20
103.9541866338901
 30
0.0
 11
178.15917565586059
 21
103.9541866338901
 31
0.0
  0
LINE
  5
3024
  8
実線
 10
180.15917565586059
 20
99.454186633890231
 30
0.0
 11
182.05917565586111
 21
101.35418663389009
 31
0.0
  0
LINE
  5
3025
  8
実線
 10
180.15917565586059
 20
108.4541866338902
 30
0.0
 11
182.05917565586111
 21
106.5541866338901
 31
0.0
  0
LINE
  5
3026
  8
実線
 10
182.05917565586111
 20
101.35418663389009
 30
0.0
 11
182.05917565586111
 21
106.5541866338901
 31
0.0
  0
LINE
  5
3027
  8
実線
 10
182.05917565586111
 20
106.5541866338901
 30
0.0
 11
183.15917565585971
 21
106.55418663389
 31
0.0
  0
LINE
  5
3028
  8
実線
 10
182.05917565586111
 20
101.35418663389009
 30
0.0
 11
183.15917565585971
 21
101.3541866338899
 31
0.0
  0
POINT
  5
3029
  8
寸法線
 10
183.15917565586011
 20
103.9541866338901
 30
0.0
  0
LINE
  5
302A
  8
実線
 10
183.15917565585971
 20
112.7310594182477
 30
0.0
 11
183.61173212299551
 21
113.1836158853837
 31
0.0
  0
LINE
  5
302B
  8
実線
 10
194.15917565586011
 20
112.7041866338899
 30
0.0
 11
183.15917565586011
 21
113.2041866338901
 31
0.0
  0
LINE
  5
302C
  8
実線
 10
195.15917565585971
 20
103.70418663389
 30
0.0
 11
195.15917565585971
 21
99.204186633890572
 31
0.0
  0
LINE
  5
302D
  8
実線
 10
194.15917565585971
 20
103.7041866338899
 30
0.0
 11
194.15917565585971
 21
98.204186633890799
 31
0.0
  0
LINE
  5
302E
  8
実線
 10
195.15917565586011
 20
99.204186633890799
 30
0.0
 11
194.15917565586011
 21
98.204186633890799
 31
0.0
  0
ARC
  5
302F
  8
実線
 10
187.65917565586059
 20
98.204186633890004
 30
0.0
 40
1.5
 50
180.0
 51
0.0
  0
LINE
  5
3030
  8
実線
 10
186.15917565586059
 20
98.204186633890004
 30
0.0
 11
183.15917565586011
 21
98.204186633890004
 31
0.0
  0
POINT
  5
3031
  8
実線
 10
187.90917565586059
 20
96.704186633890004
 30
0.0
  0
LINE
  5
3032
  8
実線
 10
183.15917565585971
 20
98.204186633890913
 30
0.0
 11
183.15917565585971
 21
103.70418663389
 31
0.0
  0
LINE
  5
3033
  8
実線
 10
190.15917565585971
 20
101.2041866338909
 30
0.0
 11
192.15917565585971
 21
103.70418663389
 31
0.0
  0
POINT
  5
3034
  8
実線
 10
187.90917565586011
 20
96.704186633890913
 30
0.0
  0
POINT
  5
3035
  8
実線
 10
186.1591756558602
 20
98.454186633890913
 30
0.0
  0
LINE
  5
3036
  8
中心線
 10
183.15917565585971
 20
101.7041866338909
 30
0.0
 11
190.5591756558598
 21
101.7041866338909
 31
0.0
  0
LINE
  5
3037
  8
実線
 10
183.15917565585971
 20
101.2041866338909
 30
0.0
 11
190.15917565585971
 21
101.2041866338909
 31
0.0
  0
LINE
  5
3038
  8
実線
 10
186.65917565586059
 20
101.2041866338909
 30
0.0
 11
186.65917565586059
 21
103.70418663389
 31
0.0
  0
LINE
  5
3039
  8
実線
 10
186.65917565585971
 20
101.2041866338909
 30
0.0
 11
187.15917565586059
 21
101.7041866338909
 31
0.0
  0
LINE
  5
303A
  8
実線
 10
187.15917565586059
 20
101.7041866338909
 30
0.0
 11
187.15917565586059
 21
103.70418663389
 31
0.0
  0
LINE
  5
303B
  8
実線
 10
186.1591756558602
 20
98.204186633890913
 30
0.0
 11
183.15917565585971
 21
98.204186633890913
 31
0.0
  0
ARC
  5
303C
  8
実線
 10
187.65917565586011
 20
98.204186633890913
 30
0.0
 40
1.5
 50
180.0
 51
0.0
  0
LINE
  5
303D
  8
実線
 10
183.15917565586059
 20
94.770547176110085
 30
0.0
 11
186.20908819288209
 21
97.820459713132095
 31
0.0
  0
LINE
  5
303E
  8
実線
 10
186.32900050998219
 20
94.348269581804274
 30
0.0
 11
190.18491756206879
 21
98.204186633890686
 31
0.0
  0
LINE
  5
303F
  8
実線
 10
189.15917565586059
 20
98.204186633890004
 30
0.0
 11
194.15917565585971
 21
98.204186633889904
 31
0.0
  0
LINE
  5
3040
  8
実線
 10
194.15917565586011
 20
94.704186633889876
 30
0.0
 11
183.15917565586011
 21
94.204186633890117
 31
0.0
  0
LINE
  5
3041
  8
実線
 10
189.1591756558602
 20
98.204186633890913
 30
0.0
 11
194.1591756558592
 21
98.204186633890799
 31
0.0
  0
LINE
  5
3042
  8
実線
 10
188.50071266521269
 20
103.70418663389
 30
0.0
 11
197.0304221357479
 21
112.2338961044249
 31
0.0
  0
LINE
  5
3043
  8
実線
 10
190.09215545595421
 20
94.519322079348726
 30
0.0
 11
193.7770200104961
 21
98.204186633890458
 31
0.0
  0
LINE
  5
3044
  8
実線
 10
183.15917565586059
 20
109.1389569698208
 30
0.0
 11
187.04765620410041
 21
113.02743751806091
 31
0.0
  0
LINE
  5
3045
  8
実線
 10
183.15917565586059
 20
105.5468545213932
 30
0.0
 11
190.48358028520451
 21
112.8712591507378
 31
0.0
  0
LINE
  5
3046
  8
実線
 10
184.90861021678489
 20
103.70418663389
 30
0.0
 11
193.9195043663095
 21
112.71508078341461
 31
0.0
  0
LINE
  5
3047
  8
実線
 10
183.15917565586011
 20
113.2041866338901
 30
0.0
 11
183.15917565586011
 21
94.204186633890117
 31
0.0
  0
LINE
  5
3048
  8
実線
 10
183.15917565585971
 20
106.20418663389
 30
0.0
 11
183.15917565585971
 21
113.2041866338902
 31
0.0
  0
LINE
  5
3049
  8
実線
 10
183.15917565586011
 20
92.454186633890117
 30
0.0
 11
183.15917565585971
 21
114.9541866338902
 31
0.0
  0
LINE
  5
304A
  8
実線
 10
180.15917565586059
 20
92.454186633890117
 30
0.0
 11
180.15917565586059
 21
114.9541866338901
 31
0.0
  0
LINE
  5
304B
  8
実線
 10
183.15917565585971
 20
114.9541866338902
 30
0.0
 11
183.15917565586059
 21
96.954186633890131
 31
0.0
  0
LINE
  5
304C
  8
実線
 10
183.15917565585971
 20
106.4541866338901
 30
0.0
 11
183.15917565585971
 21
114.9541866338901
 31
0.0
  0
POINT
  5
304D
  8
寸法線
 10
183.15917565586011
 20
103.7041866338901
 30
0.0
  0
POINT
  5
304E
  8
隠れ線
 10
180.15917565586059
 20
99.204186633890231
 30
0.0
  0
POINT
  5
304F
  8
隠れ線
 10
180.15917565586059
 20
108.2041866338902
 30
0.0
  0
DIMENSION
  5
3050
  8
寸法線
  2
*D53
 10
127.08811099704199
 20
91.954186633890103
 30
0.0
 11
125.21311099704199
 21
81.954186633890131
 31
0.0
 70
     0
 13
162.65917565586059
 23
71.954186633890117
 33
0.0
 14
142.78260198203549
 24
91.954186633890103
 34
0.0
 50
90.0
1001
ACAD
1000
DSTYLE
1002
{
1070
   270
1070
     8
1070
   144
1040
1.0
1070
    41
1040
2.5
1070
    42
1040
0.625
1070
    43
1040
3.75
1070
    44
1040
1.25
1070
    73
1070
     0
1070
    74
1070
     0
1070
    77
1070
     1
1070
    78
1070
     8
1070
   140
1040
2.5
1070
   141
1040
2.5
1070
   143
1040
0.0394
1070
   147
1040
0.625
1070
   171
1070
     4
1070
   172
1070
     1
1070
   273
1070
     8
1070
   274
1070
     4
1070
   277
1070
     6
1002
}
  0
DIMENSION
  5
3051
  8
寸法線
  2
*D54
 10
162.65917565586099
 20
92.454186633890004
 30
0.0
 11
167.8840286151559
 21
87.367998047971994
 31
0.0
 70
   132
 15
175.1988227581692
 25
80.247334027686307
 35
0.0
 40
0.0
1001
ACAD
1000
DSTYLE
1002
{
1070
   270
1070
     8
1070
   144
1040
1.0
1070
    41
1040
2.5
1070
    42
1040
0.625
1070
    43
1040
3.75
1070
    44
1040
1.25
1070
    73
1070
     0
1070
    74
1070
     0
1070
    77
1070
     1
1070
    78
1070
     8
1070
   140
1040
2.5
1070
   141
1040
2.5
1070
   143
1040
0.0394
1070
   147
1040
0.625
1070
   171
1070
     4
1070
   172
1070
     1
1070
   273
1070
     8
1070
   274
1070
     4
1070
   277
1070
     6
1070
   288
1070
     1
1002
}
  0
LINE
  5
3052
  8
実線
 10
142.78260198203549
 20
91.954186633890103
 30
0.0
 11
147.3380499088299
 21
83.997001583544147
 31
0.0
  0
LINE
  5
3053
  8
実線
 10
140.15917565586059
 20
90.498426500439791
 30
0.0
 11
144.73451724340671
 21
82.506492388646393
 31
0.0
  0
DIMENSION
  5
3054
  8
寸法線
  2
*D55
 10
127.08811099704199
 20
116.9541866338901
 30
0.0
 11
125.21311099704189
 21
104.4541866338901
 31
0.0
 70
     0
 13
142.78260198203549
 23
91.954186633890103
 33
0.0
 14
141.53417565586059
 24
116.9541866338901
 34
0.0
 50
90.0
1001
ACAD
1000
DSTYLE
1002
{
1070
   270
1070
     8
1070
   144
1040
1.0
1070
    41
1040
2.5
1070
    42
1040
0.625
1070
    43
1040
3.75
1070
    44
1040
1.25
1070
    73
1070
     0
1070
    74
1070
     0
1070
    77
1070
     1
1070
    78
1070
     8
1070
   140
1040
2.5
1070
   141
1040
2.5
1070
   143
1040
0.0394
1070
   147
1040
0.625
1070
   171
1070
     4
1070
   172
1070
     1
1070
   273
1070
     8
1070
   274
1070
     4
1070
   277
1070
     6
1002
}
  0
LINE
  5
3055
  8
実線
 10
142.78260198203549
 20
91.954186633890103
 30
0.0
 11
140.15917565586059
 21
90.498426500439791
 31
0.0
  0
ARC
  5
3056
  8
実線
 10
162.65917565586059
 20
92.454186633890117
 30
0.0
 40
17.5
 50
209.02907436585309
 51
0.0
  0
ARC
  5
3057
  8
実線
 10
162.65917565586059
 20
92.454186633890117
 30
0.0
 40
20.5
 50
209.0290743658822
 51
0.0
  0
DIMENSION
  5
3058
  8
寸法線
  2
*D56
 10
183.15917565586059
 20
64.984509967553777
 30
0.0
 11
161.65917565586059
 21
66.859509967553777
 31
0.0
 70
     0
 13
140.15917565586059
 23
90.498426500439791
 33
0.0
 14
183.15917565586059
 24
92.454186633890117
 34
0.0
1001
ACAD
1000
DSTYLE
1002
{
1070
   270
1070
     8
1070
   144
1040
1.0
1070
    41
1040
2.5
1070
    42
1040
0.625
1070
    43
1040
3.75
1070
    44
1040
1.25
1070
    73
1070
     0
1070
    74
1070
     0
1070
    77
1070
     1
1070
    78
1070
     8
1070
   140
1040
2.5
1070
   141
1040
2.5
1070
   143
1040
0.0394
1070
   147
1040
0.625
1070
   171
1070
     4
1070
   172
1070
     1
1070
   273
1070
     8
1070
   274
1070
     4
1070
   277
1070
     6
1002
}
  0
ARC
  5
3059
  8
実線
 10
178.15917565586059
 20
114.9541866338901
 30
0.0
 40
5.0
 50
0.0
 51
90.0
  0
ARC
  5
305A
  8
実線
 10
178.15917565586059
 20
114.9541866338901
 30
0.0
 40
2.0
 50
0.0
 51
90.0
  0
LINE
  5
305B
  8
実線
 10
199.27702001049559
 20
103.70418663389
 30
0.0
 11
202.54492521095671
 21
106.97209183435091
 31
0.0
  0
LINE
  5
305C
  8
実線
 10
202.8691224589235
 20
103.7041866338902
 30
0.0
 11
203.1546454394562
 21
103.98970961442291
 31
0.0
  0
INSERT
  5
305D
  8
実線
  6
CONTINUOUS
  2
*X64
 10
0.0
 20
0.0
 30
0.0
1001
ACAD
1000
HATCH
1002
{
1070
    19
1000
ANSI31
1040
0.5025440671167907
1040
0.0
1000
ASC_BOUNDS
1070
     4
1070
     1
1070
     3
1005
305F
1005
3062
1005
3060
1070
     1
1070
     3
1005
305F
1005
3060
1005
3062
1070
     1
1070
     3
1005
3060
1005
305F
1005
3062
1070
     1
1070
     3
1005
3060
1005
3062
1005
305F
1000
ASC_SEEDPOINT
1011
232.7814689581443
1021
0.0
1031
0.0
1021
107.3078925280828
1031
0.0
1000
R14_HATCH_DATA
1000
305D
1011
1.0
1021
0.0
1031
0.0
1021
0.0
1031
0.0
1011
0.0
1021
0.0
1031
0.0
1021
1.0
1031
0.0
1011
0.0
1021
0.0
1031
0.0
1021
0.0
1031
1.0
1040
0.0
1010
0.0
1020
0.0
1030
1.0
1000
ANSI31
1070
     0
1070
     1
1071
        4
1071
        7
1070
     1
1070
     1
1071
        3
1040
238.08552590751751
1040
104.9541866338909
1040
0.0
1040
238.08552590751751
1040
114.4541866338909
1040
0.4142135623731091
1040
228.58552590751711
1040
104.9541866338909
1040
0.0
1071
        3
1005
305F
1005
3062
1005
3060
1071
        7
1070
     1
1070
     1
1071
        3
1040
228.58552590751711
1040
104.9541866338909
1040
0.4142135623731091
1040
238.08552590751751
1040
95.454186633890899
1040
0.0
1040
238.08552590751751
1040
104.9541866338909
1040
0.0
1071
        3
1005
3062
1005
305F
1005
3060
1071
        7
1070
     1
1070
     1
1071
        3
1040
247.58552590751711
1040
104.9541866338909
1040
0.0
1040
238.08552590751751
1040
104.9541866338909
1040
0.0
1040
238.08552590751751
1040
95.454186633890899
1040
0.4142135623730811
1071
        3
1005
3062
1005
3060
1005
305F
1071
        7
1070
     1
1070
     1
1071
        3
1040
238.08552590751751
1040
114.4541866338909
1040
0.0
1040
238.08552590751711
1040
104.9541866338909
1040
0.0
1040
247.58552590751711
1040
104.9541866338909
1040
0.4142135623730811
1071
        3
1005
3060
1005
3062
1005
305F
1070
     0
1070
     1
1040
0.0
1040
0.5025440671167907
1070
     0
1070
     1
1040
0.7853981633974483
1040
-2064.7569330992428
1040
-622.83409957024776
1040
-1.571544821187101
1040
1.571544821187101
1070
     0
1040
0.2052767822981471
1071
        4
1040
232.7814689581443
1040
107.3078925280828
1040
0.0
1040
232.7814689581443
1040
102.997080226154
1040
0.0
1040
242.2278540414033
1040
100.73903647034911
1040
0.0
1040
241.20107439151491
1040
110.5923205569496
1040
0.0
1002
}
  0
LINE
  5
305E
  8
実線
 10
228.58552590751751
 20
74.954186633890572
 30
0.0
 11
247.58552590751751
 21
74.954186633890444
 31
0.0
  0
CIRCLE
  5
305F
  8
実線
 10
238.08552590751711
 20
104.9541866338909
 30
0.0
 40
9.5
1001
ACAD
1000
ASC_BOUNDS
1002
{
1070
    19
1005
305D
1005
305D
1005
305D
1005
305D
1002
}
  0
LINE
  5
3060
  8
中心線
 10
238.08552590751751
 20
93.954186633890913
 30
0.0
 11
238.08552590751751
 21
116.9541866338909
 31
0.0
1001
ACAD
1000
ASC_BOUNDS
1002
{
1070
    19
1005
305D
1005
305D
1005
305D
1005
305D
1002
}
  0
DIMENSION
  5
3061
  8
寸法線
  2
*D57
 10
230.1964658736309
 20
99.661481108195531
 30
0.0
 11
254.60893632403219
 21
116.0396068536846
 31
0.0
 70
   131
 15
245.9745859414048
 25
110.2468921595862
 35
0.0
 40
0.0
1001
ACAD
1000
DSTYLE
1002
{
1070
   270
1070
     8
1070
   144
1040
1.0
1070
    41
1040
2.5
1070
    42
1040
0.625
1070
    43
1040
3.75
1070
    44
1040
1.25
1070
    73
1070
     0
1070
    74
1070
     0
1070
    77
1070
     1
1070
    78
1070
     8
1070
   140
1040
2.5
1070
   141
1040
2.5
1070
   143
1040
0.0394
1070
   147
1040
0.625
1070
   171
1070
     4
1070
   172
1070
     1
1070
   273
1070
     8
1070
   274
1070
     4
1070
   277
1070
     6
1070
   288
1070
     1
1002
}
  0
LINE
  5
3062
  8
中心線
 10
226.58552590751751
 20
104.9541866338909
 30
0.0
 11
249.58552590751751
 21
104.9541866338909
 31
0.0
1001
ACAD
1000
ASC_BOUNDS
1002
{
1070
    19
1005
305D
1005
305D
1005
305D
1005
305D
1002
}
  0
LINE
  5
3063
  8
実線
 10
228.5855259075185
 20
119.9541866338904
 30
0.0
 11
247.58552590751751
 21
119.9541866338903
 31
0.0
  0
INSERT
  5
3064
  8
0
  2
*U65
 10
0.0
 20
0.0
 30
0.0
  0
INSERT
  5
3065
  8
0
  2
*U66
 10
0.0
 20
0.0
 30
0.0
1001
ACAD
1000
DSTYLE
1002
{
1070
    40
1040
1.3929126733423769
1070
    78
1070
     8
1070
   270
1070
     8
1070
   140
1040
2.5
1070
    74
1070
     0
1070
   172
1070
     1
1070
    73
1070
     0
1070
    77
1070
     1
1070
   147
1040
0.625
1070
    42
1040
0.625
1070
    44
1040
1.25
1070
    43
1040
3.75
1070
   141
1040
2.5
1070
    41
1040
2.5
1070
   273
1070
     8
1070
   274
1070
     4
1070
   143
1040
0.0394
1070
   171
1070
     4
1002
}
  0
CIRCLE
  5
3066
  8
実線
 10
238.08552590751751
 20
152.45418663389049
 30
0.0
 40
2.25
  0
LINE
  5
3067
  8
中心線
 10
238.08552590751751
 20
146.20418663389049
 30
0.0
 11
238.08552590751751
 21
158.70418663389049
 31
0.0
  0
CIRCLE
  5
3068
  8
実線
 10
238.08552590751751
 20
152.45418663389049
 30
0.0
 40
4.25
  0
LINE
  5
3069
  8
中心線
 10
231.83552590751751
 20
127.4541866338904
 30
0.0
 11
244.33552590751751
 21
127.4541866338904
 31
0.0
  0
LINE
  5
306A
  8
中心線
 10
231.83552590751751
 20
152.45418663389049
 30
0.0
 11
244.33552590751751
 21
152.45418663389049
 31
0.0
  0
ARC
  5
306B
  8
実線
 10
238.08552590751751
 20
152.45418663389049
 30
0.0
 40
9.4999999999995453
 50
0.0
 51
180.0
  0
VIEWPORT
  5
95A
 67
     1
  8
0
  6
CONTINUOUS
 10
128.5
 20
97.5
 30
0.0
 40
386.73855140186919
 41
222.18000000000001
 68
     1
 69
     1
1001
ACAD
1000
MVIEW
1002
{
1070
    16
1010
0.0
1020
0.0
1030
0.0
1010
0.0
1020
0.0
1030
1.0
1040
0.0
1040
222.18000000000001
1040
128.5
1040
97.5
1040
50.0
1040
0.0
1040
0.0
1070
     0
1070
   100
1070
     1
1070
     1
1070
     0
1070
     0
1070
     0
1070
     0
1040
0.0
1040
0.0
1040
0.0
1040
10.0
1040
10.0
1040
10.0
1040
10.0
1070
     0
1002
{
1002
}
1002
}
1001
GENIUS_GENOBJ-N-SDF_13
1002
{
1000
OWNER
1000
GEN
1002
}
1001
GENIUS_GENODEF_13
1002
{
1000
HIER
1070
     0
1002
}
1002
{
1000
MANEDIT
1070
     0
1002
}
1002
{
1000
NOSEL
1070
     0
1002
}
1002
{
1000
BEHIND
1070
     0
1002
}
1002
{
1000
OTHER
1070
     0
1002
}
1002
{
1000
REACTOR
1002
}
1001
GENIUS_GENSCREG_15
1000
PF
1040
1.0
1000
DF
1040
1.0
1000
MIN
1011
-64.869275700934566
1021
0.0
1031
0.0
1021
-13.59
1031
0.0
1000
MAX
1011
321.86927570093462
1021
0.0
1031
0.0
1021
208.59
1031
0.0
1000
FLAGS
1070
     4
  0
ENDSEC
  0
EOF
