  0
SECTION
  2
HEADER
  9
$ACADVER
  1
AC1009
  9
$INSBASE
 10
0.0
 20
0.0
 30
0.0
  9
$EXTMIN
 10
-160.01745472291691
 20
8.9753741933677702
 30
-0.0015258207003583
  9
$EXTMAX
 10
412.01745738649868
 20
816.02462956451893
 30
0.0000000349246037
  9
$LIMMIN
 10
24.999999999999979
 20
8.9999999999999964
  9
$LIMMAX
 10
411.99999999999989
 20
284.99999999999989
  9
$ORTHOMODE
 70
     1
  9
$REGENMODE
 70
     1
  9
$FILLMODE
 70
     1
  9
$QTEXTMODE
 70
     0
  9
$MIRRTEXT
 70
     1
  9
$DRAGMODE
 70
     2
  9
$LTSCALE
 40
10.0
  9
$OSMODE
 70
    39
  9
$ATTMODE
 70
     1
  9
$TEXTSIZE
 40
3.0
  9
$TRACEWID
 40
0.05
  9
$TEXTSTYLE
  7
STANDARD
  9
$CLAYER
  8
0
  9
$CELTYPE
  6
BYLAYER
  9
$CECOLOR
 62
   256
  9
$DIMSCALE
 40
1.0
  9
$DIMASZ
 40
2.5
  9
$DIMEXO
 40
1.0
  9
$DIMDLI
 40
7.0
  9
$DIMRND
 40
0.0
  9
$DIMDLE
 40
0.0
  9
$DIMEXE
 40
1.0
  9
$DIMTP
 40
0.1
  9
$DIMTM
 40
0.1
  9
$DIMTXT
 40
3.0
  9
$DIMCEN
 40
0.0
  9
$DIMTSZ
 40
0.0
  9
$DIMTOL
 70
     0
  9
$DIMLIM
 70
     0
  9
$DIMTIH
 70
     0
  9
$DIMTOH
 70
     0
  9
$DIMSE1
 70
     0
  9
$DIMSE2
 70
     0
  9
$DIMTAD
 70
     3
  9
$DIMZIN
 70
     8
  9
$DIMBLK
  1
OPEN30
  9
$DIMASO
 70
     1
  9
$DIMSHO
 70
     1
  9
$DIMPOST
  1

  9
$DIMAPOST
  1
"
  9
$DIMALT
 70
     0
  9
$DIMALTD
 70
     2
  9
$DIMALTF
 40
0.0393701
  9
$DIMLFAC
 40
1.0
  9
$DIMTOFL
 70
     1
  9
$DIMTVP
 40
0.0
  9
$DIMTIX
 70
     0
  9
$DIMSOXD
 70
     0
  9
$DIMSAH
 70
     0
  9
$DIMBLK1
  1

  9
$DIMBLK2
  1

  9
$DIMSTYLE
  2
AM_JIS
  9
$DIMCLRD
 70
     7
  9
$DIMCLRE
 70
     7
  9
$DIMCLRT
 70
     7
  9
$DIMTFAC
 40
0.71
  9
$DIMGAP
 40
1.0
  9
$LUNITS
 70
     2
  9
$LUPREC
 70
     4
  9
$SKETCHINC
 40
0.1
  9
$FILLETRAD
 40
15.0
  9
$AUNITS
 70
     0
  9
$AUPREC
 70
     0
  9
$MENU
  1
acad
  9
$ELEVATION
 40
0.0
  9
$PELEVATION
 40
0.0
  9
$THICKNESS
 40
0.0
  9
$LIMCHECK
 70
     0
  9
$BLIPMODE
 70
     0
  9
$CHAMFERA
 40
0.0
  9
$CHAMFERB
 40
0.0
  9
$SKPOLY
 70
     0
  9
$TDCREATE
 40
2455755.6568701151
  9
$TDUPDATE
 40
2457177.4556503468
  9
$TDINDWG
 40
0.2565012847
  9
$TDUSRTIMER
 40
0.2565010995
  9
$USRTIMER
 70
     1
  9
$ANGBASE
 50
0.0
  9
$ANGDIR
 70
     0
  9
$PDMODE
 70
     0
  9
$PDSIZE
 40
0.0
  9
$PLINEWID
 40
0.0
  9
$COORDS
 70
     1
  9
$SPLFRAME
 70
     0
  9
$SPLINETYPE
 70
     6
  9
$SPLINESEGS
 70
     8
  9
$ATTDIA
 70
     1
  9
$ATTREQ
 70
     1
  9
$HANDLING
 70
     1
  9
$HANDSEED
  5
655C
  9
$SURFTAB1
 70
     6
  9
$SURFTAB2
 70
     6
  9
$SURFTYPE
 70
     6
  9
$SURFU
 70
     6
  9
$SURFV
 70
     6
  9
$UCSNAME
  2

  9
$UCSORG
 10
0.0
 20
0.0
 30
0.0
  9
$UCSXDIR
 10
1.0
 20
0.0
 30
0.0
  9
$UCSYDIR
 10
0.0
 20
1.0
 30
0.0
  9
$PUCSNAME
  2

  9
$PUCSORG
 10
0.0
 20
0.0
 30
0.0
  9
$PUCSXDIR
 10
1.0
 20
0.0
 30
0.0
  9
$PUCSYDIR
 10
0.0
 20
1.0
 30
0.0
  9
$USERI1
 70
     0
  9
$USERI2
 70
     0
  9
$USERI3
 70
     0
  9
$USERI4
 70
     0
  9
$USERI5
 70
     0
  9
$USERR1
 40
0.0
  9
$USERR2
 40
0.0
  9
$USERR3
 40
0.0
  9
$USERR4
 40
0.0
  9
$USERR5
 40
0.0
  9
$WORLDVIEW
 70
     1
  9
$SHADEDGE
 70
     3
  9
$SHADEDIF
 70
    70
  9
$TILEMODE
 70
     1
  9
$MAXACTVP
 70
    16
  9
$PLIMCHECK
 70
     0
  9
$PEXTMIN
 10
1.0000000000000000E+020
 20
1.0000000000000000E+020
 30
1.0000000000000000E+020
  9
$PEXTMAX
 10
-1.0000000000000000E+020
 20
-1.0000000000000000E+020
 30
-1.0000000000000000E+020
  9
$PLIMMIN
 10
-20.0
 20
-7.5
  9
$PLIMMAX
 10
277.0
 20
202.5
  9
$UNITMODE
 70
     0
  9
$VISRETAIN
 70
     0
  9
$PLINEGEN
 70
     1
  9
$PSLTSCALE
 70
     0
  0
ENDSEC
  0
SECTION
  2
TABLES
  0
TABLE
  2
VPORT
 70
     1
  0
VPORT
  2
*ACTIVE
 70
     0
 10
0.0
 20
0.0
 11
1.0
 21
1.0
 12
126.0000013317909
 22
412.50000187894341
 13
0.0
 23
0.0
 14
2.5
 24
2.5
 15
10.0
 25
10.0
 16
0.0
 26
0.0
 36
1.0
 17
0.0
 27
0.0
 37
0.0
 40
814.09171620362144
 41
2.221739130434782
 42
50.0
 43
0.0
 44
0.0
 50
0.0
 51
0.0
 71
     0
 72
   100
 73
     1
 74
     3
 75
     0
 76
     0
 77
     0
 78
     1
  0
ENDTAB
  0
TABLE
  2
LTYPE
 70
    22
  0
LTYPE
  2
CONTINUOUS
 70
     0
  3
Solid line (NEC CAE2D for Win R7.2 : 2008.02.20
 72
    65
 73
     0
 40
0.0
  0
LTYPE
  2
HIDDEN
 70
     0
  3
Hidden __ __ __ __ __ __ __ __ __ __ __ __ __ _
 72
    65
 73
     2
 40
0.375
 49
0.25
 49
-0.125
  0
LTYPE
  2
PHANTOM2
 70
     0
  3
Phantom (.5x) ___ _ _ ___ _ _ ___ _ _ ___ _ _
 72
    65
 73
     6
 40
1.25
 49
0.625
 49
-0.125
 49
0.125
 49
-0.125
 49
0.125
 49
-0.125
  0
LTYPE
  2
CENTER
 70
     0
  3
Center ____ _ ____ _ ____ _ ____ _ ____ _ ____
 72
    65
 73
     4
 40
2.0
 49
1.25
 49
-0.25
 49
0.25
 49
-0.25
  0
LTYPE
  2
CENTER2
 70
     0
  3
Center (.5x) ___ _ ___ _ ___ _ ___ _ ___ _ ___
 72
    65
 73
     4
 40
1.125
 49
0.75
 49
-0.125
 49
0.125
 49
-0.125
  0
LTYPE
  2
HIDDEN2
 70
     0
  3
Hidden (.5x) _ _ _ _ _ _ _ _ _ _ _ _ _ _ _ _ _
 72
    65
 73
     2
 40
0.1875
 49
0.125
 49
-0.0625
  0
LTYPE
  2
ACANSTGB
 70
     0
  3
__ . . __ . .
 72
    65
 73
     6
 40
0.35433070866
 49
0.15748031496
 49
-0.03937007874
 49
0.03937007874
 49
-0.03937007874
 49
0.03937007874
 49
-0.03937007874
  0
LTYPE
  2
ACANSTGL
 70
     0
  3
_ _ _ _ _
 72
    65
 73
     2
 40
0.11811023622
 49
0.07874015748
 49
-0.03937007874
  0
LTYPE
  2
ACJISWELD
 70
     0
  3
_ _ _ _ _
 72
    65
 73
     2
 40
2.0
 49
2.0
 49
-1.0
  0
LTYPE
  2
ACJISTGB
 70
     0
  3
__ . . __ . .
 72
    65
 73
     6
 40
9.0
 49
4.0
 49
-1.0
 49
1.0
 49
-1.0
 49
1.0
 49
-1.0
  0
LTYPE
  2
ACJISTGL
 70
     0
  3
_ _ _ _ _
 72
    65
 73
     2
 40
3.0
 49
2.0
 49
-1.0
  0
LTYPE
  2
ACISOWELD
 70
     0
  3
_ _ _ _ _
 72
    65
 73
     2
 40
2.0
 49
2.0
 49
-1.0
  0
LTYPE
  2
ACISOTGB
 70
     0
  3
__ . . __ . .
 72
    65
 73
     6
 40
9.0
 49
4.0
 49
-1.0
 49
1.0
 49
-1.0
 49
1.0
 49
-1.0
  0
LTYPE
  2
ACISOTGL
 70
     0
  3
_ _ _ _ _
 72
    65
 73
     2
 40
3.0
 49
2.0
 49
-1.0
  0
LTYPE
  2
PHANTOM
 70
     0
  3
____ _ _ ____ _ _ ____ _ _ ____ _ _ ____
 72
    65
 73
     6
 40
2.5
 49
1.25
 49
-0.25
 49
0.25
 49
-0.25
 49
0.25
 49
-0.25
  0
LTYPE
  2
AM_ISO02W050
 70
     0
  3
__ __ __ __ __ __ __ __ __ __ __ __ __ __ __
 72
    65
 73
     2
 40
7.5
 49
6.0
 49
-1.5
  0
LTYPE
  2
AM_ISO08W050
 70
     0
  3
____ . ____ . ____ . ____ . ____ . ____ . ____
 72
    65
 73
     4
 40
18.0
 49
12.0
 49
-1.5
 49
3.0
 49
-1.5
  0
LTYPE
  2
AM_ISO09W050
 70
     0
  3
_____ . . _____ . . _____ . . ____ .. ____
 72
    65
 73
     6
 40
22.5
 49
12.0
 49
-1.5
 49
3.0
 49
-1.5
 49
3.0
 49
-1.5
  0
LTYPE
  2
AMCONSTR
 70
     0
  3
_______________________
 72
    65
 73
     2
 40
9999.0
 49
9999.0
 49
0.0
  0
LTYPE
  2
AM_ISO08W050X2
 70
     0
  3
__ . __ . __ . __ . __ . __
 72
    65
 73
     4
 40
9.0
 49
6.0
 49
-0.75
 49
1.5
 49
-0.75
  0
LTYPE
  2
AM_ISO02W050X2
 70
     0
  3
 _ _ _ _ _ _ _ _ _ _ _ _
 72
    65
 73
     2
 40
3.75
 49
3.0
 49
-0.75
  0
LTYPE
  2
AMZIGZAG
 70
     0
  3
/\/-/\/-/\/-/\/-/\/-/\/
 72
    65
 73
     2
 40
11.0001
 49
0.0001
 49
-11.0
  0
ENDTAB
  0
TABLE
  2
LAYER
 70
    20
  0
LAYER
  2
0
 70
     0
 62
     3
  6
CONTINUOUS
  0
LAYER
  2
SYS-BUHIN0
 70
     0
 62
     7
  6
CONTINUOUS
  0
LAYER
  2
AM_0
 70
     0
 62
     3
  6
CONTINUOUS
  0
LAYER
  2
DEFPOINTS
 70
     0
 62
     7
  6
CONTINUOUS
  0
LAYER
  2
AM_5
 70
     0
 62
     7
  6
CONTINUOUS
  0
LAYER
  2
AM_BOR
 70
     0
 62
     7
  6
CONTINUOUS
  0
LAYER
  2
SYS-BUHINCODE
 70
     0
 62
     7
  6
CONTINUOUS
  0
LAYER
  2
AM_7
 70
     0
 62
     4
  6
CENTER
  0
LAYER
  2
AM_3
 70
     0
 62
     7
  6
HIDDEN
  0
LAYER
  2
AM_12
 70
     0
 62
   253
  6
CONTINUOUS
  0
LAYER
  2
AM_PAREF
 70
     0
 62
     4
  6
CONTINUOUS
  0
LAYER
  2
AM_6
 70
     0
 62
     7
  6
CONTINUOUS
  0
LAYER
  2
AM_8
 70
     0
 62
   253
  6
CONTINUOUS
  0
LAYER
  2
AM_4
 70
     0
 62
     6
  6
CONTINUOUS
  0
LAYER
  2
AM_10
 70
     0
 62
     7
  6
CONTINUOUS
  0
LAYER
  2
AM_CL
 70
     0
 62
     1
  6
CONTINUOUS
  0
LAYER
  2
AM_2
 70
     0
 62
     5
  6
PHANTOM2
  0
LAYER
  2
AM_1N
 70
     0
 62
    14
  6
CONTINUOUS
  0
LAYER
  2
AM_1
 70
     0
 62
    14
  6
PHANTOM2
  0
LAYER
  2
AM_9
 70
     0
 62
    -7
  6
CONTINUOUS
  0
ENDTAB
  0
TABLE
  2
STYLE
 70
    14
  0
STYLE
  2
STANDARD
 70
     0
 40
0.0
 41
1.0
 50
0.0
 71
     0
 42
3.0
  3
dim.shx
  4
extfont.shx
  0
STYLE
  2
KNJYOKO
 70
     0
 40
0.0
 41
1.0
 50
0.0
 71
     0
 42
3.099999904632567
  3
TXT.shx
  4
extfont.shx
  0
STYLE
  2
ACANSTS
 70
     0
 40
1.0
 41
1.0
 50
0.0
 71
     0
 42
0.2
  3
romans.shx
  4
extfont.shx
  0
STYLE
  2
ACANSGDT
 70
     0
 40
0.0
 41
1.0
 50
0.0
 71
     0
 42
0.2
  3
amgdt.shx
  4

  0
STYLE
  2
ACJISTS
 70
     0
 40
1.0
 41
1.0
 50
0.0
 71
     0
 42
0.2
  3
isocp.shx
  4
extfont.shx
  0
STYLE
  2
ACJISGDT
 70
     0
 40
0.0
 41
1.0
 50
0.0
 71
     0
 42
0.2
  3
amgdt.shx
  4

  0
STYLE
  2
MINNTYOU
 70
     0
 40
0.0
 41
1.0
 50
0.0
 71
     0
 42
3.0
  3
txt
  4

  0
STYLE
  2
R寸法
 70
     0
 40
2.0
 41
1.0
 50
0.0
 71
     0
 42
3.0
  3
dim.shx
  4
extfont.shx
  0
STYLE
  2
ANKTATE
 70
     4
 40
0.0
 41
1.0
 50
0.0
 71
     0
 42
3.099999904632567
  3
TXT
  4

  0
STYLE
  2
KNJTATE
 70
     4
 40
0.0
 41
1.0
 50
0.0
 71
     0
 42
3.099999904632567
  3
TXT
  4
BIGFONT
  0
STYLE
  2
ACISOTS
 70
     0
 40
1.0
 41
1.0
 50
0.0
 71
     0
 42
2.5
  3
isocp.shx
  4
extfont.shx
  0
STYLE
  2
ACISOGDT
 70
     0
 40
0.0
 41
1.0
 50
0.0
 71
     0
 42
2.5
  3
amgdt.shx
  4

  0
STYLE
  2

 70
     1
 40
0.0
 41
1.0
 50
0.0
 71
     0
 42
3.0
  3
genltshp.shx
  4

  0
ENDTAB
  0
TABLE
  2
VIEW
 70
     7
  0
VIEW
  2
AM_VIEW1
 70
     0
 40
137.99999999999989
 10
151.8531375166888
 20
215.99999999999989
 41
253.70627503337769
 11
0.0
 21
0.0
 31
1.0
 12
0.0
 22
0.0
 32
0.0
 42
50.0
 43
0.0
 44
0.0
 50
0.0
 71
     0
  0
VIEW
  2
AM_VIEW2
 70
     0
 40
137.99999999999989
 10
285.146862483311
 20
215.99999999999989
 41
253.70627503337769
 11
0.0
 21
0.0
 31
1.0
 12
0.0
 22
0.0
 32
0.0
 42
50.0
 43
0.0
 44
0.0
 50
0.0
 71
     0
  0
VIEW
  2
AM_VIEW3
 70
     0
 40
137.99999999999989
 10
151.8531375166888
 20
77.999999999999972
 41
253.70627503337769
 11
0.0
 21
0.0
 31
1.0
 12
0.0
 22
0.0
 32
0.0
 42
50.0
 43
0.0
 44
0.0
 50
0.0
 71
     0
  0
VIEW
  2
AM_VIEW4
 70
     0
 40
137.99999999999989
 10
285.146862483311
 20
77.999999999999972
 41
253.70627503337769
 11
0.0
 21
0.0
 31
1.0
 12
0.0
 22
0.0
 32
0.0
 42
50.0
 43
0.0
 44
0.0
 50
0.0
 71
     0
  0
VIEW
  2
AM_VIEW5
 70
     0
 40
137.99999999999989
 10
218.49999999999989
 20
146.99999999999989
 41
253.70627503337769
 11
0.0
 21
0.0
 31
1.0
 12
0.0
 22
0.0
 32
0.0
 42
50.0
 43
0.0
 44
0.0
 50
0.0
 71
     0
  0
VIEW
  2
AM_VIEW6
 70
     0
 40
275.99723999999992
 10
218.49999999999989
 20
146.99999999999989
 41
507.4074759412548
 11
0.0
 21
0.0
 31
1.0
 12
0.0
 22
0.0
 32
0.0
 42
50.0
 43
0.0
 44
0.0
 50
0.0
 71
     0
  0
ENDTAB
  0
TABLE
  2
UCS
 70
     0
  0
ENDTAB
  0
TABLE
  2
APPID
 70
    59
  0
APPID
  2
ACAD
 70
     0
  0
APPID
  2
ACADANNOTATIVE
 70
     0
  0
APPID
  2
ACAD_MLEADERVER
 70
     0
  0
APPID
  2
MCAD_NO_VIS
 70
     0
  0
APPID
  2
ACAD_TEMP_GRAPHIC
 70
     0
  0
APPID
  2
AD_DRAW
 70
     0
  0
APPID
  2
ACATTRIBSERVICES
 70
     0
  0
APPID
  2
DESIGNERASSEMBLIES
 70
     0
  0
APPID
  2
ACADM_DIM_EDIT
 70
     0
  0
APPID
  2
AMDT_DM_ADJ
 70
     0
  0
APPID
  2
ACADANNOPO
 70
     0
  0
APPID
  2
ACAECLAYERSTANDARD
 70
     0
  0
APPID
  2
ACDBDYNAMICBLOCKGUID
 70
     0
  0
APPID
  2
ACDBBLOCKREPETAG
 70
     0
  0
APPID
  2
ACAUTHENVIRON
 70
     0
  0
APPID
  2
ACDBDYNAMICBLOCKTRUENAME
 70
     0
  0
APPID
  2
GENIUS_GENREC_14
 70
     0
  0
APPID
  2
GENIUS_GENOBJ-N-REC_13
 70
     0
  0
APPID
  2
GENIUS_GENODEF_13
 70
     0
  0
APPID
  2
ACAD_EXEMPT_FROM_CAD_STANDARDS
 70
     0
  0
APPID
  2
GENIUS_GENOBJ-N-CEN_13
 70
     0
  0
APPID
  2
GENIUS_GENCEN_19
 70
     0
  0
APPID
  2
ACAD_DSTYLE_DIMINSPECT
 70
     0
  0
APPID
  2
DCO15
 70
     0
  0
APPID
  2
ACAD_PSEXT
 70
     0
  0
APPID
  2
GENIUS_GENBH_13
 70
     0
  0
APPID
  2
GENIUS_GENOENT_13
 70
     0
  0
APPID
  2
GENIUS_GENOLIS_13
 70
     0
  0
APPID
  2
GENIUS_GENOBJ-NBEHI-BHF_13
 70
     0
  0
APPID
  2
GENIUS_GENOREF_13
 70
     0
  0
APPID
  2
GENIUS_GENOBJ-NBEHI-BHB_13
 70
     0
  0
APPID
  2
AMG_2DHIDE
 70
     0
  0
APPID
  2
AMG_2DSTRUCT_BTR
 70
     0
  0
APPID
  2
GENIUS_AMGTXT_16
 70
     0
  0
APPID
  2
GENIUS_GENOBJ-N-HTC_13
 70
     0
  0
APPID
  2
GENIUS_GENHATCH_13
 70
     0
  0
APPID
  2
GEVID1208849169
 70
     0
  0
APPID
  2
GEVDC
 70
     0
  0
APPID
  2
ACADM_2DVIEW_IGN_NOTIFY
 70
     0
  0
APPID
  2
GEVID1208849170
 70
     0
  0
APPID
  2
GEVID1208849171
 70
     0
  0
APPID
  2
GEVRADREF
 70
     0
  0
APPID
  2
ACAD_DSTYLE_DIMJAG
 70
     0
  0
APPID
  2
ACAD_DSTYLE_DIMTALN
 70
     0
  0
APPID
  2
GENIUS_GENDTOL_13
 70
     0
  0
APPID
  2
GENIUS_GENTRA_14
 70
     0
  0
APPID
  2
GENIUS_GENOBJ-N-TIT_13
 70
     0
  0
APPID
  2
GENIUS_GENTITLE_13
 70
     0
  0
APPID
  2
GENIUS_GENSCREG_15
 70
     0
  0
APPID
  2
GENIUS_GENOBJ-N-SDF_13
 70
     0
  0
APPID
  2
ACAD_DSTYLE_DIMRADIAL_EXTENSION
 70
     0
  0
APPID
  2
GENIUS_GENOBJ-N-FIL_13
 70
     0
  0
APPID
  2
GENIUS_GENOBJ-N-CRS_13
 70
     0
  0
APPID
  2
GENIUS_GENDIMSH_14
 70
     0
  0
APPID
  2
ACAD_DSTYLE_DIMANGULAR_EXT
 70
     0
  0
APPID
  2
ACAD_NAV_VCDISPLAY
 70
     0
  0
APPID
  2
ACAD_DSTYLE_DIMBREAK
 70
     0
  0
APPID
  2
CONTENTBLOCKICON
 70
     0
  0
APPID
  2
AcDbAttr
 70
     0
  0
ENDTAB
  0
TABLE
  2
DIMSTYLE
 70
    27
  0
DIMSTYLE
  2
STANDARD
 70
     0
  3

  4

  5

  6

  7

 40
1.0
 41
1.0
 42
0.8
 43
0.38
 44
1.0
 45
0.0
 46
0.0
 47
0.0
 48
0.0
140
3.1000000000000001
141
0.09
142
0.0
143
25.399999999999999
144
1.0
145
0.5
146
1.0
147
0.09
 71
     0
 72
     0
 73
     0
 74
     0
 75
     0
 76
     0
 77
     1
 78
     0
170
     0
171
     2
172
     0
173
     0
174
     0
175
     0
176
     0
177
     0
178
     0
  0
DIMSTYLE
  2
AM_ANSI
 70
     0
  3

  4
mm
  5

  6

  7

 40
1.0
 41
0.1
 42
0.05
 43
0.5
 44
0.1
 45
0.0
 46
0.0
 47
0.1
 48
0.1
140
0.12
141
0.0
142
0.0
143
25.399999999999999
144
1.0
145
0.0
146
0.71
147
0.06
 71
     0
 72
     0
 73
     1
 74
     1
 75
     0
 76
     0
 77
     0
 78
     7
170
     0
171
     2
172
     0
173
     0
174
     0
175
     0
176
   256
177
   256
178
     2
  0
DIMSTYLE
  2
AM_ANSI$3
 70
     0
  3

  4
mm
  5

  6

  7

 40
1.0
 41
0.1
 42
0.05
 43
0.5
 44
0.1
 45
0.0
 46
0.0
 47
0.1
 48
0.1
140
0.12
141
0.0
142
0.0
143
25.399999999999999
144
1.0
145
0.0
146
0.71
147
0.06
 71
     0
 72
     0
 73
     1
 74
     1
 75
     0
 76
     0
 77
     0
 78
     7
170
     0
171
     2
172
     0
173
     0
174
     0
175
     0
176
   256
177
   256
178
     2
  0
DIMSTYLE
  2
AM_ANSI$4
 70
     0
  3

  4
mm
  5

  6

  7

 40
1.0
 41
0.1
 42
0.05
 43
0.5
 44
0.1
 45
0.0
 46
0.0
 47
0.1
 48
0.1
140
0.12
141
0.0
142
0.0
143
25.399999999999999
144
1.0
145
0.0
146
0.71
147
0.06
 71
     0
 72
     0
 73
     1
 74
     1
 75
     0
 76
     0
 77
     0
 78
     7
170
     0
171
     2
172
     0
173
     0
174
     0
175
     0
176
   256
177
   256
178
     2
  0
DIMSTYLE
  2
AM_ANSI$7
 70
     0
  3

  4
mm
  5

  6

  7

 40
1.0
 41
0.1
 42
0.05
 43
0.5
 44
0.1
 45
0.0
 46
0.0
 47
0.1
 48
0.1
140
0.24
141
0.0
142
0.0
143
25.399999999999999
144
1.0
145
0.0
146
0.71
147
0.06
 71
     0
 72
     0
 73
     1
 74
     1
 75
     0
 76
     0
 77
     0
 78
     7
170
     0
171
     2
172
     0
173
     0
174
     0
175
     0
176
   256
177
   256
178
     2
  0
DIMSTYLE
  2
AM_ANSI$SF
 70
     0
  3

  4
mm
  5

  6

  7

 40
1.0
 41
0.1
 42
0.05
 43
0.5
 44
0.1
 45
0.0
 46
0.0
 47
0.1
 48
0.1
140
0.12
141
0.0
142
0.0
143
25.399999999999999
144
1.0
145
0.0
146
0.71
147
0.06
 71
     0
 72
     0
 73
     1
 74
     1
 75
     1
 76
     1
 77
     0
 78
     7
170
     0
171
     2
172
     0
173
     0
174
     0
175
     0
176
   256
177
   256
178
     2
  0
DIMSTYLE
  2
AM_ANSI$SH
 70
     0
  3

  4
mm
  5

  6
GENAXEH
  7

 40
1.0
 41
0.1
 42
0.05
 43
0.5
 44
0.1
 45
0.0
 46
0.0
 47
0.1
 48
0.1
140
0.12
141
0.0
142
0.0
143
25.399999999999999
144
1.0
145
0.0
146
0.71
147
0.06
 71
     0
 72
     0
 73
     1
 74
     1
 75
     1
 76
     1
 77
     0
 78
     7
170
     0
171
     2
172
     0
173
     1
174
     0
175
     0
176
   256
177
   256
178
     2
  0
DIMSTYLE
  2
AM_JIS
 70
     0
  3

  4
"
  5
OPEN30
  6

  7

 40
1.0
 41
2.5
 42
1.0
 43
7.0
 44
1.0
 45
0.0
 46
0.0
 47
0.1
 48
0.1
140
3.0
141
0.0
142
0.0
143
0.0393701
144
1.0
145
0.0
146
0.71
147
1.0
 71
     0
 72
     0
 73
     0
 74
     0
 75
     0
 76
     0
 77
     3
 78
     8
170
     0
171
     2
172
     1
173
     0
174
     0
175
     0
176
     7
177
     7
178
     7
  0
DIMSTYLE
  2
AM_JIS$3
 70
     0
  3

  4
"
  5
OPEN30
  6

  7

 40
1.0
 41
2.5
 42
1.0
 43
10.0
 44
1.0
 45
0.0
 46
0.0
 47
0.1
 48
0.1
140
3.0
141
0.0
142
0.0
143
0.0393701
144
1.0
145
0.0
146
0.71
147
1.0
 71
     0
 72
     0
 73
     0
 74
     1
 75
     0
 76
     0
 77
     3
 78
     8
170
     0
171
     2
172
     0
173
     0
174
     0
175
     0
176
     7
177
     7
178
     7
  0
DIMSTYLE
  2
AM_JIS$4
 70
     0
  3

  4
"
  5
OPEN30
  6

  7

 40
1.0
 41
2.5
 42
1.0
 43
10.0
 44
1.0
 45
0.0
 46
0.0
 47
0.1
 48
0.1
140
2.0
141
0.0
142
0.0
143
0.0393701
144
1.0
145
0.0
146
0.71
147
1.0
 71
     0
 72
     0
 73
     0
 74
     0
 75
     0
 76
     0
 77
     3
 78
     8
170
     0
171
     2
172
     0
173
     0
174
     0
175
     0
176
     7
177
     7
178
     7
  0
DIMSTYLE
  2
AM_JIS$6
 70
     0
  3

  4
"
  5
OPEN30
  6

  7

 40
1.0
 41
2.5
 42
1.0
 43
10.0
 44
1.0
 45
0.0
 46
0.0
 47
0.1
 48
0.1
140
3.0
141
0.0
142
0.0
143
0.0393701
144
1.0
145
0.0
146
0.71
147
1.0
 71
     0
 72
     0
 73
     0
 74
     0
 75
     0
 76
     0
 77
     0
 78
     8
170
     0
171
     2
172
     1
173
     0
174
     0
175
     0
176
   256
177
     7
178
     7
  0
DIMSTYLE
  2
AM_JIS$7
 70
     0
  3

  4
"
  5
OPEN30
  6

  7

 40
1.0
 41
2.5
 42
1.0
 43
10.0
 44
1.0
 45
0.0
 46
0.0
 47
0.1
 48
0.1
140
3.0
141
0.0
142
0.0
143
0.0393701
144
1.0
145
0.0
146
0.71
147
1.0
 71
     0
 72
     0
 73
     0
 74
     0
 75
     0
 76
     0
 77
     3
 78
     8
170
     0
171
     2
172
     1
173
     0
174
     0
175
     0
176
     7
177
   256
178
     7
  0
DIMSTYLE
  2
AM_JIS$SF
 70
     0
  3

  4
"
  5
OPEN30
  6

  7

 40
1.0
 41
2.5
 42
1.0
 43
7.0
 44
1.0
 45
0.0
 46
0.0
 47
0.1
 48
0.1
140
3.0
141
0.0
142
0.0
143
0.0393701
144
1.0
145
0.0
146
0.71
147
1.0
 71
     0
 72
     0
 73
     0
 74
     0
 75
     1
 76
     1
 77
     3
 78
     8
170
     0
171
     2
172
     1
173
     0
174
     0
175
     0
176
     7
177
   256
178
     7
  0
DIMSTYLE
  2
AM_JIS$SH
 70
     0
  3

  4
"
  5

  6
GENAXEH
  7
OPEN30
 40
1.0
 41
2.5
 42
1.0
 43
7.0
 44
1.0
 45
0.0
 46
0.0
 47
0.1
 48
0.1
140
3.0
141
0.0
142
0.0
143
0.0393701
144
2.0
145
0.0
146
0.71
147
1.0
 71
     0
 72
     0
 73
     0
 74
     0
 75
     1
 76
     1
 77
     3
 78
     8
170
     0
171
     2
172
     1
173
     1
174
     0
175
     0
176
     7
177
   256
178
     7
  0
DIMSTYLE
  2
AM_JIS$2
 70
     0
  3

  4
"
  5
OPEN30
  6

  7

 40
1.0
 41
2.5
 42
1.0
 43
7.0
 44
1.0
 45
0.0
 46
0.0
 47
0.1
 48
0.1
140
3.0
141
0.0
142
0.0
143
0.0393701
144
1.0
145
0.0
146
0.71
147
1.0
 71
     0
 72
     0
 73
     0
 74
     0
 75
     0
 76
     0
 77
     3
 78
     8
170
     0
171
     2
172
     1
173
     0
174
     0
175
     0
176
     7
177
     7
178
     7
  0
DIMSTYLE
  2
AM_JIS$0
 70
     0
  3

  4
"
  5
OPEN30
  6

  7

 40
1.0
 41
2.5
 42
1.0
 43
7.0
 44
1.0
 45
0.0
 46
0.0
 47
0.1
 48
0.1
140
3.0
141
0.0
142
0.0
143
0.0393701
144
1.0
145
0.0
146
0.71
147
1.0
 71
     0
 72
     0
 73
     0
 74
     0
 75
     0
 76
     0
 77
     3
 78
     8
170
     0
171
     2
172
     1
173
     0
174
     0
175
     0
176
     7
177
     7
178
     7
  0
DIMSTYLE
  2
STANDARD$0
 70
     0
  3

  4

  5

  6

  7

 40
1.0
 41
1.0
 42
0.8
 43
0.38
 44
1.0
 45
0.0
 46
0.0
 47
0.0
 48
0.0
140
3.1000000000000001
141
0.09
142
0.0
143
25.399999999999999
144
1.0
145
0.5
146
1.0
147
0.09
 71
     0
 72
     0
 73
     0
 74
     0
 75
     0
 76
     0
 77
     1
 78
     0
170
     0
171
     2
172
     0
173
     0
174
     0
175
     0
176
     0
177
     0
178
     0
  0
DIMSTYLE
  2
ANNOTATIVE
 70
     0
  3

  4

  5

  6

  7

 40
1.0
 41
0.18
 42
0.0625
 43
0.38
 44
0.18
 45
0.0
 46
0.0
 47
0.0
 48
0.0
140
0.18
141
0.09
142
0.0
143
25.399999999999999
144
1.0
145
0.0
146
1.0
147
0.09
 71
     0
 72
     0
 73
     1
 74
     1
 75
     0
 76
     0
 77
     0
 78
     0
170
     0
171
     2
172
     0
173
     0
174
     0
175
     0
176
     0
177
     0
178
     0
  0
DIMSTYLE
  2
AM_ISO
 70
     0
  3

  4
"
  5

  6

  7

 40
1.0
 41
2.5
 42
1.0
 43
10.0
 44
1.0
 45
0.0
 46
0.0
 47
0.1
 48
0.1
140
3.5
141
0.0
142
0.0
143
0.0393701
144
1.0
145
0.0
146
0.71
147
1.5
 71
     0
 72
     0
 73
     0
 74
     0
 75
     0
 76
     0
 77
     1
 78
     8
170
     0
171
     2
172
     1
173
     0
174
     0
175
     0
176
   256
177
   256
178
     2
  0
DIMSTYLE
  2
AM_ISO$3
 70
     0
  3

  4
"
  5

  6

  7

 40
1.0
 41
2.5
 42
1.0
 43
10.0
 44
1.0
 45
0.0
 46
0.0
 47
0.1
 48
0.1
140
3.5
141
0.0
142
0.0
143
0.0393701
144
1.0
145
0.0
146
0.71
147
1.5
 71
     0
 72
     0
 73
     0
 74
     1
 75
     0
 76
     0
 77
     1
 78
     8
170
     0
171
     2
172
     0
173
     0
174
     0
175
     0
176
   256
177
   256
178
     2
  0
DIMSTYLE
  2
AM_ISO$4
 70
     0
  3

  4
"
  5

  6

  7

 40
1.0
 41
2.5
 42
1.0
 43
10.0
 44
1.0
 45
0.0
 46
0.0
 47
0.1
 48
0.1
140
3.5
141
0.0
142
0.0
143
0.0393701
144
1.0
145
0.0
146
0.71
147
1.5
 71
     0
 72
     0
 73
     0
 74
     1
 75
     0
 76
     0
 77
     1
 78
     8
170
     0
171
     2
172
     0
173
     0
174
     0
175
     0
176
   256
177
   256
178
     2
  0
DIMSTYLE
  2
AM_ISO$6
 70
     0
  3

  4
"
  5

  6

  7

 40
1.0
 41
2.5
 42
1.0
 43
10.0
 44
1.0
 45
0.0
 46
0.0
 47
0.1
 48
0.1
140
3.5
141
0.0
142
0.0
143
0.0393701
144
1.0
145
0.0
146
0.71
147
1.5
 71
     0
 72
     0
 73
     0
 74
     0
 75
     0
 76
     0
 77
     0
 78
     8
170
     0
171
     2
172
     1
173
     0
174
     0
175
     0
176
   256
177
   256
178
     2
  0
DIMSTYLE
  2
AM_ISO$7
 70
     0
  3

  4
"
  5

  6

  7

 40
1.0
 41
2.5
 42
1.0
 43
10.0
 44
1.0
 45
0.0
 46
0.0
 47
0.1
 48
0.1
140
5.0
141
0.0
142
0.0
143
0.0393701
144
1.0
145
0.0
146
0.71
147
1.5
 71
     0
 72
     0
 73
     0
 74
     0
 75
     0
 76
     0
 77
     1
 78
     8
170
     0
171
     2
172
     1
173
     0
174
     0
175
     0
176
   256
177
   256
178
     2
  0
DIMSTYLE
  2
AM_ISO$SF
 70
     0
  3

  4
"
  5

  6

  7

 40
1.0
 41
2.5
 42
1.0
 43
10.0
 44
1.0
 45
0.0
 46
0.0
 47
0.1
 48
0.1
140
3.5
141
0.0
142
0.0
143
0.0393701
144
1.0
145
0.0
146
0.71
147
1.5
 71
     0
 72
     0
 73
     0
 74
     0
 75
     1
 76
     1
 77
     1
 78
     8
170
     0
171
     2
172
     1
173
     0
174
     0
175
     0
176
   256
177
   256
178
     2
  0
DIMSTYLE
  2
AM_ISO$SH
 70
     0
  3

  4
"
  5

  6
GENAXEH
  7

 40
1.0
 41
2.5
 42
1.0
 43
10.0
 44
1.0
 45
0.0
 46
0.0
 47
0.1
 48
0.1
140
3.5
141
0.0
142
0.0
143
0.0393701
144
2.0
145
0.0
146
0.71
147
1.5
 71
     0
 72
     0
 73
     0
 74
     0
 75
     1
 76
     1
 77
     1
 78
     8
170
     0
171
     2
172
     1
173
     1
174
     0
175
     0
176
   256
177
   256
178
     2
  0
DIMSTYLE
  2
E001
 70
     0
  3

  4

  5

  6

  7

 40
1.0
 41
1.0
 42
0.8
 43
0.38
 44
1.0
 45
0.0
 46
0.0
 47
0.0
 48
0.0
140
3.1000000000000001
141
0.09
142
0.0
143
25.399999999999999
144
1.0
145
0.66129
146
0.645161
147
0.09
 71
     0
 72
     0
 73
     0
 74
     0
 75
     0
 76
     0
 77
     1
 78
     8
170
     0
171
     2
172
     1
173
     0
174
     0
175
     0
176
     0
177
     0
178
     0
  0
ENDTAB
  0
ENDSEC
  0
SECTION
  2
BLOCKS
  0
BLOCK
  8
0
  2
$MODEL_SPACE
 70
     0
 10
0.0
 20
0.0
 30
0.0
  3
$MODEL_SPACE
  1

  0
ENDBLK
  5
1D3
  8
0
  0
BLOCK
 67
     1
  8
0
  2
$PAPER_SPACE
 70
     0
 10
0.0
 20
0.0
 30
0.0
  3
$PAPER_SPACE
  1

  0
ENDBLK
  5
1D1
 67
     1
  8
0
  0
BLOCK
  8
0
  2
GENAXEH
 70
     0
 10
0.0
 20
0.0
 30
0.0
  3
GENAXEH
  1

  0
LINE
  5
264
  8
0
 10
-1.0
 20
0.0
 30
0.0
 11
1.0
 21
0.0
 31
0.0
  0
ENDBLK
  5
266
  8
0
  0
BLOCK
  8
0
  2
_OPEN30
 70
     0
 10
0.0
 20
0.0
 30
0.0
  3
_OPEN30
  1

  0
LINE
  5
2FA
  8
0
  6
BYBLOCK
 62
     0
 10
-1.0
 20
0.26794919
 30
0.0
 11
0.0
 21
0.0
 31
0.0
  0
LINE
  5
2FB
  8
0
  6
BYBLOCK
 62
     0
 10
0.0
 20
0.0
 30
0.0
 11
-1.0
 21
-0.26794919
 31
0.0
  0
LINE
  5
2FC
  8
0
  6
BYBLOCK
 62
     0
 10
0.0
 20
0.0
 30
0.0
 11
-1.0
 21
0.0
 31
0.0
  0
ENDBLK
  5
2FE
  8
0
  0
BLOCK
  8
0
  2
MYPLIST0
 70
     2
 10
0.0
 20
0.0
 30
0.0
  3
MYPLIST0
  1

  0
LINE
  5
346
  8
SYS-BUHIN0
  6
CONTINUOUS
 62
     4
 10
-170.0
 20
7.0
 30
0.0
 11
0.0
 21
7.0
 31
0.0
  0
LINE
  5
347
  8
SYS-BUHIN0
  6
CONTINUOUS
 62
     4
 10
-170.0
 20
-0.0000000000030695
 30
0.0
 11
0.0
 21
-0.0000000000001137
 31
0.0
  0
LINE
  5
348
  8
SYS-BUHIN0
  6
CONTINUOUS
 62
     4
 10
-170.0
 20
7.0
 30
0.0
 11
-170.0
 21
0.0
 31
0.0
  0
LINE
  5
349
  8
SYS-BUHIN0
  6
CONTINUOUS
 62
     4
 10
0.0
 20
7.0
 30
0.0
 11
0.0
 21
0.0
 31
0.0
  0
LINE
  5
34A
  8
SYS-BUHIN0
  6
CONTINUOUS
 62
     4
 10
-161.0
 20
7.0
 30
0.0
 11
-161.0
 21
0.0
 31
0.0
  0
LINE
  5
34B
  8
SYS-BUHIN0
  6
CONTINUOUS
 62
     4
 10
-99.0
 20
7.0
 30
0.0
 11
-99.0
 21
0.0
 31
0.0
  0
LINE
  5
34C
  8
SYS-BUHIN0
  6
CONTINUOUS
 62
     4
 10
-72.0
 20
7.0
 30
0.0
 11
-72.0
 21
0.0
 31
0.0
  0
LINE
  5
34D
  8
SYS-BUHIN0
  6
CONTINUOUS
 62
     4
 10
-63.0
 20
7.0
 30
0.0
 11
-63.0
 21
0.0
 31
0.0
  0
LINE
  5
34E
  8
SYS-BUHIN0
  6
CONTINUOUS
 62
     4
 10
-16.0
 20
7.0
 30
0.0
 11
-16.0
 21
0.0
 31
0.0
  0
TEXT
  5
34F
  8
SYS-BUHIN0
  6
CONTINUOUS
 62
     7
 10
-13.61264708219346
 20
0.6000000119208835
 30
0.0
 40
1.1000000000000001
  1
PARTS NO.
 41
1.3
  0
TEXT
  5
350
  8
SYS-BUHIN0
  6
CONTINUOUS
 62
     7
 10
-14.36429419116018
 20
3.0691472933651762
 30
0.0
 40
2.2000000000000002
  1
部品コード
  0
TEXT
  5
351
  8
SYS-BUHIN0
  6
CONTINUOUS
 62
     7
 10
-43.852454807937526
 20
0.6000000119208835
 30
0.0
 40
1.1000000000000001
  1
REMARKS
 41
1.3
  0
TEXT
  5
352
  8
SYS-BUHIN0
  6
CONTINUOUS
 62
     7
 10
-47.370000243186951
 20
2.7500000476836699
 30
0.0
 40
2.7999999999999989
  1
備    考
  0
TEXT
  5
353
  8
SYS-BUHIN0
  6
CONTINUOUS
 62
     7
 10
-69.144963642251696
 20
0.6000000119208835
 30
0.0
 40
1.1000000000000001
  1
UNIT
  0
TEXT
  5
354
  8
SYS-BUHIN0
  6
CONTINUOUS
 62
     7
 10
-70.272262370934413
 20
2.6949072988287521
 30
0.0
 40
2.7999999999999989
  1
数量
  0
TEXT
  5
355
  8
SYS-BUHIN0
  6
CONTINUOUS
 62
     7
 10
-90.559234383463263
 20
0.6000000119208835
 30
0.0
 40
1.1000000000000001
  1
MATERIAL
 41
1.3
  0
TEXT
  5
357
  8
SYS-BUHIN0
  6
CONTINUOUS
 62
     7
 10
-138.9093619295486
 20
0.6000000119208835
 30
0.0
 40
1.1000000000000001
  1
  DESCRIPTION
 41
1.3
  0
TEXT
  5
358
  8
SYS-BUHIN0
  6
CONTINUOUS
 62
     7
 10
-142.0050003230572
 20
2.7500000476836699
 30
0.0
 40
2.7999999999999989
  1
 部  品  名
  0
TEXT
  5
359
  8
SYS-BUHIN0
  6
CONTINUOUS
 62
     7
 10
-166.63404873957319
 20
0.6000000119208835
 30
0.0
 40
1.1000000000000001
  1
NO.
  0
TEXT
  5
35A
  8
SYS-BUHIN0
  6
CONTINUOUS
 62
     7
 10
-168.29000008106229
 20
2.7500000476836699
 30
0.0
 40
2.7999999999999989
  1
項番
  0
ATTDEF
  5
35B
  8
AM_0
 62
     7
 10
-168.79000008106229
 20
3.5
 30
0.0
 40
3.1000000000000001
  1

  3

  2
ITEM
 70
     1
1001
AcDbAttr
1070
     0
1070
     1
  0
TEXT
  5
C0B
  8
AM_BOR
 62
     7
 10
-91.770000159740434
 20
2.7000000476837149
 30
0.0
 40
2.7999999999999989
  1
材　　質
  0
ENDBLK
  5
35C
  8
0
  0
BLOCK
  8
0
  2
MYPLIST1
 70
     2
 10
0.0
 20
0.0
 30
0.0
  3
MYPLIST1
  1

  0
LINE
  5
393
  8
SYS-BUHIN0
  6
CONTINUOUS
 62
     4
 10
-170.0
 20
6.0
 30
0.0
 11
0.0
 21
6.0
 31
0.0
  0
LINE
  5
394
  8
SYS-BUHIN0
  6
CONTINUOUS
 62
     4
 10
-170.0
 20
0.0
 30
0.0
 11
-170.0
 21
6.0
 31
0.0
  0
LINE
  5
395
  8
SYS-BUHIN0
  6
CONTINUOUS
 62
     4
 10
-161.0
 20
0.0
 30
0.0
 11
-161.0
 21
6.0
 31
0.0
  0
LINE
  5
396
  8
SYS-BUHIN0
  6
CONTINUOUS
 62
     4
 10
-99.0
 20
0.0
 30
0.0
 11
-99.0
 21
6.0
 31
0.0
  0
LINE
  5
397
  8
SYS-BUHIN0
  6
CONTINUOUS
 62
     4
 10
-72.0
 20
0.0
 30
0.0
 11
-72.0
 21
6.0
 31
0.0
  0
LINE
  5
398
  8
SYS-BUHIN0
  6
CONTINUOUS
 62
     4
 10
-63.0
 20
0.0
 30
0.0
 11
-63.0
 21
6.0
 31
0.0
  0
LINE
  5
399
  8
SYS-BUHIN0
  6
CONTINUOUS
 62
     4
 10
-16.0
 20
0.0
 30
0.0
 11
-16.0
 21
6.0
 31
0.0
  0
LINE
  5
39A
  8
SYS-BUHIN0
  6
CONTINUOUS
 62
     4
 10
0.0
 20
0.0
 30
0.0
 11
0.0
 21
6.0
 31
0.0
  0
LINE
  5
39B
  8
SYS-BUHIN0
  6
CONTINUOUS
 62
     4
 10
-170.0
 20
0.0
 30
0.0
 11
0.0
 21
0.0
 31
0.0
  0
ATTDEF
  5
39C
  8
SYS-BUHINCODE
 10
-14.0
 20
2.5
 30
0.0
 40
1.0
  1

 11
-14.0
 21
3.0
 31
0.0
  3
部品コード
  2
PCODE
 70
     0
 74
     2
1001
AcDbAttr
1070
     0
1070
     1
  0
ATTDEF
  5
39D
  8
SYS-BUHIN0
  6
CONTINUOUS
 62
     7
 10
-61.0
 20
2.0
 30
0.0
 40
2.0
  1

 11
-61.0
 21
3.0
 31
0.0
  3
備考
  2
NOTE
 70
     0
 74
     2
1001
AcDbAttr
1070
     0
1070
     1
  0
ATTDEF
  5
39E
  8
SYS-BUHIN0
  6
CONTINUOUS
 62
     7
 10
-67.5
 20
3.0
 30
0.0
 40
2.5
  1

 72
     4
 11
-67.5
 21
3.0
 31
0.0
  3
数量
  2
QTY
 70
     0
1001
AcDbAttr
1070
     0
1070
     1
  0
ATTDEF
  5
39F
  8
SYS-BUHIN0
  6
CONTINUOUS
 62
     7
 10
-97.595958160209875
 20
2.0
 30
0.0
 40
2.0
  1

 11
-97.595958160209875
 21
3.0
 31
0.0
  3
材質
  2
MATERIAL
 70
     0
 74
     2
1001
AcDbAttr
1070
     0
1070
     1
  0
ATTDEF
  5
3A0
  8
SYS-BUHIN0
  6
CONTINUOUS
 62
     7
 10
-159.0
 20
1.75
 30
0.0
 40
2.5
  1

 11
-159.0
 21
3.0
 31
0.0
  3
部品名
  2
DESCR
 70
     0
 74
     2
1001
AcDbAttr
1070
     0
1070
     1
  0
ATTDEF
  5
3A1
  8
SYS-BUHIN0
  6
CONTINUOUS
 62
     7
 10
-165.5
 20
3.0
 30
0.0
 40
2.5
  1

 72
     4
 11
-165.5
 21
3.0
 31
0.0
  3
項番
  2
ITEM
 70
     0
1001
AcDbAttr
1070
     0
1070
     1
  0
ENDBLK
  5
370
  8
0
  0
BLOCK
  8
0
  2
A$C1C06296A
 70
     2
 10
0.0
 20
0.0
 30
0.0
  3
A$C1C06296A
  1

  0
LINE
  5
204C
  8
AM_BOR
 10
198.86851880399371
 20
17.886744577931989
 30
0.0
 11
203.2337455721775
 21
13.521517809748619
 31
0.0
  0
LINE
  5
204D
  8
AM_BOR
 10
198.8685188039936
 20
17.866715351316039
 30
0.0
 11
198.86851880399399
 21
14.128964361178911
 31
0.0
  0
LINE
  5
204E
  8
AM_BOR
 10
204.7045172738834
 20
17.866715326469411
 30
0.0
 11
204.70451727388391
 21
14.181128845625549
 31
0.0
  0
LINE
  5
204F
  8
AM_BOR
 10
204.20428883360731
 20
17.793010290175861
 30
0.0
 11
204.204288833607
 21
14.69861035774108
 31
0.0
  0
LINE
  5
2050
  8
AM_BOR
 10
199.3687472442698
 20
17.176052465333349
 30
0.0
 11
199.36874724427059
 21
14.197800355103411
 31
0.0
  0
LINE
  5
2051
  8
AM_BOR
 10
200.43756462039269
 20
18.46533457095553
 30
0.0
 11
204.20428883360731
 21
14.69861035774052
 31
0.0
  0
LINE
  5
2052
  8
AM_BOR
 10
199.36874724426971
 20
17.17605246533255
 30
0.0
 11
203.02713287203409
 21
13.51766683756852
 31
0.0
  0
ARC
  5
2053
  8
AM_BOR
 10
198.36829036868701
 20
17.866715351316049
 30
0.0
 40
0.5002284402762121
 50
0.0
 51
50.265515568291427
  0
ARC
  5
2054
  8
AM_BOR
 10
198.36829034384081
 20
14.12896436117892
 30
0.0
 40
0.5002284402762121
 50
304.69759678405279
 51
0.0
  0
ARC
  5
2055
  8
AM_BOR
 10
205.20474573403669
 20
17.866715326469411
 30
0.0
 40
0.5002284402762121
 50
127.0284887689633
 51
180.00000500895629
  0
ARC
  5
2056
  8
AM_BOR
 10
203.53731756996689
 20
17.793010290175818
 30
0.0
 40
0.6669712537016159
 50
0.0
 51
74.714823568866152
  0
ARC
  5
2057
  8
AM_BOR
 10
200.03571849797169
 20
14.197800355103389
 30
0.0
 40
0.6669712537016159
 50
180.00000500895629
 51
256.4857883914604
  0
LINE
  5
2058
  8
AM_BOR
 10
210.95737277733619
 20
15.993445664994679
 30
0.0
 11
210.9224749062999
 21
16.211434571273589
 31
0.0
  0
LINE
  5
2059
  8
AM_BOR
 10
210.92247490629941
 20
16.211434571273411
 30
0.0
 11
210.8180468870608
 21
16.42776445035037
 31
0.0
  0
LINE
  5
205A
  8
AM_BOR
 10
210.8180468870604
 20
16.42776445035037
 30
0.0
 11
210.64488347990149
 21
16.640788901221669
 31
0.0
  0
LINE
  5
205B
  8
AM_BOR
 10
210.6448834799013
 20
16.640788901221619
 30
0.0
 11
210.40430256290981
 21
16.848886679188759
 31
0.0
  0
LINE
  5
205C
  8
AM_BOR
 10
210.40430256290949
 20
16.848886679189
 30
0.0
 11
210.0981351021297
 21
17.050474034508689
 31
0.0
  0
LINE
  5
205D
  8
AM_BOR
 10
210.09813510212999
 20
17.05047403450855
 30
0.0
 11
209.7287112168076
 21
17.244016765685139
 31
0.0
  0
LINE
  5
205E
  8
AM_BOR
 10
209.72871121680711
 20
17.24401676568521
 30
0.0
 11
209.29884244577369
 21
17.428041895669988
 31
0.0
  0
LINE
  5
205F
  8
AM_BOR
 10
209.29884244577369
 20
17.428041895670081
 30
0.0
 11
208.81180034993889
 21
17.601148882106369
 31
0.0
  0
LINE
  5
2060
  8
AM_BOR
 10
208.81180034993889
 20
17.60114888210644
 30
0.0
 11
208.27129161373591
 21
17.76202027630297
 31
0.0
  0
LINE
  5
2061
  8
AM_BOR
 10
208.27129161373611
 20
17.76202027630309
 30
0.0
 11
207.68142983501551
 21
17.909431749813081
 31
0.0
  0
LINE
  5
2062
  8
AM_BOR
 10
207.68142983501531
 20
17.90943174981297
 30
0.0
 11
207.04670421808169
 21
18.042261412313358
 31
0.0
  0
LINE
  5
2063
  8
AM_BOR
 10
207.04670421808169
 20
18.04226141231344
 30
0.0
 11
206.37194540813729
 21
18.15949834986797
 31
0.0
  0
LINE
  5
2064
  8
AM_BOR
 10
206.37194540813749
 20
18.159498349867881
 30
0.0
 11
205.66228872715681
 21
18.260250318592298
 31
0.0
  0
LINE
  5
2065
  8
AM_BOR
 10
205.66228872715661
 20
18.260250318592369
 30
0.0
 11
205.02242374599979
 21
18.33253416039674
 31
0.0
  0
LINE
  5
2066
  8
AM_BOR
 10
205.02242374599939
 20
18.332534160396779
 30
0.0
 11
204.92313509098369
 21
18.343750535168819
 31
0.0
  0
LINE
  5
2067
  8
AM_BOR
 10
204.92313509098369
 20
18.343750535168748
 30
0.0
 11
204.16010990510409
 21
18.409363512530259
 31
0.0
  0
LINE
  5
2068
  8
AM_BOR
 10
204.1601099051048
 20
18.409363512530259
 30
0.0
 11
203.71314686010501
 21
18.436387872932471
 31
0.0
  0
LINE
  5
2069
  8
AM_BOR
 10
200.43756462039249
 20
18.465334570955569
 30
0.0
 11
200.19401582596791
 21
18.45658989630088
 31
0.0
  0
LINE
  5
206A
  8
AM_BOR
 10
200.19401582596799
 20
18.456589896300901
 30
0.0
 11
199.41292617277259
 21
18.409363512530309
 31
0.0
  0
LINE
  5
206B
  8
AM_BOR
 10
199.41292617277259
 20
18.409363512530248
 30
0.0
 11
198.64990098689299
 21
18.343750535168759
 31
0.0
  0
LINE
  5
206C
  8
AM_BOR
 10
198.5506123731563
 20
18.332534165059979
 30
0.0
 11
197.9107473507209
 21
18.260250318592469
 31
0.0
  0
LINE
  5
206D
  8
AM_BOR
 10
198.64990098689299
 20
18.343750535168791
 30
0.0
 11
198.5506123731563
 21
18.332534165059919
 31
0.0
  0
LINE
  5
206E
  8
AM_BOR
 10
197.91074735072121
 20
18.26025031859243
 30
0.0
 11
197.20109066974049
 21
18.159498349868041
 31
0.0
  0
LINE
  5
206F
  8
AM_BOR
 10
197.20109066974041
 20
18.159498349868091
 30
0.0
 11
196.52633185979579
 21
18.042261412313529
 31
0.0
  0
LINE
  5
2070
  8
AM_BOR
 10
196.5263318597959
 20
18.042261412313589
 30
0.0
 11
195.89160624286239
 21
17.909431749813219
 31
0.0
  0
LINE
  5
2071
  8
AM_BOR
 10
195.89160624286171
 20
17.90943174981302
 30
0.0
 11
195.30174446414119
 21
17.762020276303058
 31
0.0
  0
LINE
  5
2072
  8
AM_BOR
 10
195.301744464141
 20
17.762020276303161
 30
0.0
 11
194.76123572793779
 21
17.60114888210661
 31
0.0
  0
LINE
  5
2073
  8
AM_BOR
 10
194.76123572793779
 20
17.60114888210656
 30
0.0
 11
194.27419363210299
 21
17.428041895670152
 31
0.0
  0
LINE
  5
2074
  8
AM_BOR
 10
194.27419363210339
 20
17.428041895670152
 30
0.0
 11
193.84432486106959
 21
17.244016765685259
 31
0.0
  0
LINE
  5
2075
  8
AM_BOR
 10
193.84432486106959
 20
17.24401676568521
 30
0.0
 11
193.4749009757472
 21
17.05047403450865
 31
0.0
  0
LINE
  5
2076
  8
AM_BOR
 10
193.4749009757472
 20
17.050474034508671
 30
0.0
 11
193.16873351496719
 21
16.848886679188929
 31
0.0
  0
LINE
  5
2077
  8
AM_BOR
 10
193.1687335149673
 20
16.848886679188951
 30
0.0
 11
192.92815259797499
 21
16.640788901221619
 31
0.0
  0
LINE
  5
2078
  8
AM_BOR
 10
192.9281525979753
 20
16.640788901221811
 30
0.0
 11
192.75498919081639
 21
16.42776445035042
 31
0.0
  0
LINE
  5
2079
  8
AM_BOR
 10
192.75498919081639
 20
16.427764450350349
 30
0.0
 11
192.65056117157769
 21
16.211434571273479
 31
0.0
  0
LINE
  5
207A
  8
AM_BOR
 10
192.65056117157789
 20
16.211434571273731
 30
0.0
 11
192.61566330054151
 21
15.993445664994679
 31
0.0
  0
LINE
  5
207B
  8
AM_BOR
 10
192.61566330054069
 20
15.99344566499464
 30
0.0
 11
192.65056117157721
 21
15.775456758715791
 31
0.0
  0
LINE
  5
207C
  8
AM_BOR
 10
192.65056117157769
 20
15.775456758715929
 30
0.0
 11
192.7549891908163
 21
15.55912687963913
 31
0.0
  0
LINE
  5
207D
  8
AM_BOR
 10
192.75498919081639
 20
15.559126879639029
 30
0.0
 11
192.9281525979753
 21
15.34610242876764
 31
0.0
  0
LINE
  5
207E
  8
AM_BOR
 10
192.9281525979751
 20
15.34610242876769
 30
0.0
 11
193.16873351496719
 21
15.1380046508005
 31
0.0
  0
LINE
  5
207F
  8
AM_BOR
 10
193.1687335149669
 20
15.1380046508005
 30
0.0
 11
193.47490097574689
 21
14.93641729548081
 31
0.0
  0
LINE
  5
2080
  8
AM_BOR
 10
193.47490097574729
 20
14.936417295480711
 30
0.0
 11
193.84432486106959
 21
14.742874564304079
 31
0.0
  0
LINE
  5
2081
  8
AM_BOR
 10
193.84432486106951
 20
14.74287456430417
 30
0.0
 11
194.27419363210271
 21
14.558849434319351
 31
0.0
  0
LINE
  5
2082
  8
AM_BOR
 10
194.27419363210319
 20
14.558849434319439
 30
0.0
 11
194.7612357279379
 21
14.38574244788296
 31
0.0
  0
LINE
  5
2083
  8
AM_BOR
 10
194.76123572793779
 20
14.38574244788277
 30
0.0
 11
195.301744464141
 21
14.22487105368617
 31
0.0
  0
LINE
  5
2084
  8
AM_BOR
 10
195.301744464141
 20
14.224871053686311
 30
0.0
 11
195.891606242862
 21
14.077459580176351
 31
0.0
  0
LINE
  5
2085
  8
AM_BOR
 10
195.89160624286191
 20
14.077459580176219
 30
0.0
 11
196.52633185979579
 21
13.94462991767579
 31
0.0
  0
LINE
  5
2086
  8
AM_BOR
 10
196.52633185979539
 20
13.944629917675821
 30
0.0
 11
197.2010906697397
 21
13.827392980121321
 31
0.0
  0
LINE
  5
2087
  8
AM_BOR
 10
197.20109066974049
 20
13.82739298012133
 30
0.0
 11
197.9107473507209
 21
13.726641011397049
 31
0.0
  0
LINE
  5
2088
  8
AM_BOR
 10
197.9107473507205
 20
13.72664101139711
 30
0.0
 11
198.5412166771807
 21
13.655418571666219
 31
0.0
  0
LINE
  5
2089
  8
AM_BOR
 10
198.54121667717999
 20
13.65541857166625
 30
0.0
 11
198.64990098689259
 21
13.643140794820731
 31
0.0
  0
LINE
  5
208A
  8
AM_BOR
 10
198.6499009868929
 20
13.643140794820679
 30
0.0
 11
199.41292617277259
 21
13.57752781745919
 31
0.0
  0
LINE
  5
208B
  8
AM_BOR
 10
199.41292617277259
 20
13.577527817459201
 30
0.0
 11
199.8798563250744
 21
13.54929620220682
 31
0.0
  0
LINE
  5
208C
  8
AM_BOR
 10
203.0271328720325
 20
13.51766683756999
 30
0.0
 11
203.37902025190911
 21
13.530301433688649
 31
0.0
  0
LINE
  5
208D
  8
AM_BOR
 10
203.3790202519092
 20
13.530301433688599
 30
0.0
 11
204.16010990510441
 21
13.57752781745919
 31
0.0
  0
LINE
  5
208E
  8
AM_BOR
 10
204.70451727388399
 20
13.624341722195579
 30
0.0
 11
204.9231350909844
 21
13.64314079482075
 31
0.0
  0
LINE
  5
208F
  8
AM_BOR
 10
204.16010990510441
 20
13.57752781745917
 30
0.0
 11
204.70451727388379
 21
13.62434172219551
 31
0.0
  0
LINE
  5
2090
  8
AM_BOR
 10
204.92313509098409
 20
13.643140794820759
 30
0.0
 11
205.66228872715669
 21
13.726641011397151
 31
0.0
  0
LINE
  5
2091
  8
AM_BOR
 10
205.66228872715661
 20
13.72664101139711
 30
0.0
 11
206.37194540813709
 21
13.827392980121401
 31
0.0
  0
LINE
  5
2092
  8
AM_BOR
 10
206.37194540813749
 20
13.82739298012145
 30
0.0
 11
207.04670421808191
 21
13.94462991767594
 31
0.0
  0
LINE
  5
2093
  8
AM_BOR
 10
207.04670421808169
 20
13.94462991767597
 30
0.0
 11
207.68142983501559
 21
14.07745958017637
 31
0.0
  0
LINE
  5
2094
  8
AM_BOR
 10
207.68142983501551
 20
14.07745958017629
 30
0.0
 11
208.27129161373611
 21
14.22487105368625
 31
0.0
  0
LINE
  5
2095
  8
AM_BOR
 10
208.2712916137362
 20
14.224871053686289
 30
0.0
 11
208.81180034993929
 21
14.38574244788289
 31
0.0
  0
LINE
  5
2096
  8
AM_BOR
 10
208.81180034993929
 20
14.385742447882921
 30
0.0
 11
209.29884244577411
 21
14.558849434319351
 31
0.0
  0
LINE
  5
2097
  8
AM_BOR
 10
209.298842445774
 20
14.55884943431932
 30
0.0
 11
209.72871121680751
 21
14.74287456430422
 31
0.0
  0
LINE
  5
2098
  8
AM_BOR
 10
209.72871121680711
 20
14.742874564304151
 30
0.0
 11
210.0981351021297
 21
14.93641729548083
 31
0.0
  0
LINE
  5
2099
  8
AM_BOR
 10
210.09813510212999
 20
14.93641729548081
 30
0.0
 11
210.40430256290989
 21
15.13800465080036
 31
0.0
  0
LINE
  5
209A
  8
AM_BOR
 10
210.40430256291
 20
15.13800465080055
 30
0.0
 11
210.64488347990201
 21
15.346102428767731
 31
0.0
  0
LINE
  5
209B
  8
AM_BOR
 10
210.64488347990169
 20
15.34610242876783
 30
0.0
 11
210.8180468870608
 21
15.559126879639029
 31
0.0
  0
LINE
  5
209C
  8
AM_BOR
 10
210.81804688706069
 20
15.559126879639059
 30
0.0
 11
210.92247490629899
 21
15.77545675871586
 31
0.0
  0
LINE
  5
209D
  8
AM_BOR
 10
210.92247490629981
 20
15.775456758715791
 30
0.0
 11
210.95737277733619
 21
15.993445664994621
 31
0.0
  0
LINE
  5
209E
  8
AM_BOR
 10
199.10514248704791
 20
18.382897015254191
 30
0.0
 11
203.92474251077411
 21
13.563296991527499
 31
0.0
  0
ARC
  5
209F
  8
AM_BOR
 10
205.2047457141602
 20
14.181128845625549
 30
0.0
 40
0.5002284402762121
 50
180.0
 51
244.5184856857075
  0
LINE
  5
20A0
  8
AM_BOR
 10
199.36521928176651
 20
18.405261169360589
 30
0.0
 11
204.19035209062989
 21
13.58012836049622
 31
0.0
  0
LINE
  5
20A1
  8
AM_BOR
 10
199.630408435547
 20
18.422512964405719
 30
0.0
 11
204.450428885349
 21
13.602492514602771
 31
0.0
  0
LINE
  5
20A2
  8
AM_BOR
 10
199.8967460324557
 20
18.438616316322719
 30
0.0
 11
204.70776895023289
 21
13.62759339854461
 31
0.0
  0
LINE
  5
20A3
  8
AM_BOR
 10
200.16308362936431
 20
18.454719668239761
 30
0.0
 11
204.9488987968831
 21
13.66890450072008
 31
0.0
  0
LINE
  5
20A4
  8
AM_BOR
 10
198.8450656923284
 20
18.36053286114759
 30
0.0
 11
203.6584049138651
 21
13.547193639610409
 31
0.0
  0
LINE
  5
20A5
  8
AM_BOR
 10
198.7943784573331
 20
18.12877914731807
 30
0.0
 11
203.39206731695711
 21
13.53109028769336
 31
0.0
  0
LINE
  5
20A6
  8
AM_BOR
 10
199.01830573664321
 20
18.375429872827009
 30
0.0
 11
199.01830573664321
 21
13.61146145716244
 31
0.0
  0
LINE
  5
20A7
  8
AM_BOR
 10
199.2180216468426
 20
18.39260355953768
 30
0.0
 11
199.2180216468426
 21
13.594287770451791
 31
0.0
  0
LINE
  5
20A8
  8
AM_BOR
 10
204.55473034123381
 20
18.375429872826999
 30
0.0
 11
204.55473034123381
 21
13.61146145716245
 31
0.0
  0
LINE
  5
20A9
  8
AM_BOR
 10
204.35501443103459
 20
18.39260355953764
 30
0.0
 11
204.35501443103459
 21
13.594287770451791
 31
0.0
  0
LINE
  5
20AA
  8
AM_BOR
 62
     4
 10
-0.0000001316067255
 20
15.000000173111291
 30
0.0
 11
190.49999986839319
 21
15.000000173111291
 31
0.0
  0
LINE
  5
20AB
  8
AM_BOR
 62
     4
 10
276.49999986839327
 20
28.000000173111289
 30
0.0
 11
276.49999986839327
 21
0.000000173111296
 31
0.0
  0
LINE
  5
20AC
  8
AM_BOR
 62
     4
 10
-0.0000001316067255
 20
15.000000173111291
 30
0.0
 11
-0.0000001316067255
 21
0.000000173111296
 31
0.0
  0
LINE
  5
20AD
  8
AM_BOR
 62
     4
 10
-0.0000001316067255
 20
28.000000173111289
 30
0.0
 11
276.49999986839327
 21
28.000000173111289
 31
0.0
  0
LINE
  5
20AE
  8
AM_BOR
 62
     4
 10
15.999999868393269
 20
15.000000173111291
 30
0.0
 11
15.999999868393269
 21
0.000000173111296
 31
0.0
  0
TEXT
  5
20AF
  8
AM_BOR
 62
     4
 10
215.17999986839331
 20
10.000000173111291
 30
0.0
 40
1.5
  1
NAKANISHI　INDUSTRIAL CO., LTD.
 41
1.5
  0
TEXT
  5
20B0
  8
AM_BOR
 62
     3
 10
213.19999986839329
 20
13.500000173111291
 30
0.0
 40
5.5
  1
中西産業株式会社
 41
1.1999999999999991
  0
TEXT
  5
20B1
  8
AM_BOR
 62
     4
 10
196.192787937406
 20
10.000000173111291
 30
0.0
 40
1.5
  1
Nakanishi
 41
1.1999999999999991
  0
TEXT
  5
20B2
  8
AM_BOR
 62
     7
 10
98.104999768257457
 20
15.650000185032219
 30
0.0
 40
1.0
  1
FINISH
 41
1.6000000000000001
  0
TEXT
  5
20B3
  8
AM_BOR
 62
     7
 10
96.979999708652798
 20
17.700000220795008
 30
0.0
 40
2.7999999999999989
  1
仕　　上
  0
TEXT
  5
20B4
  8
AM_BOR
 62
     7
 10
3.1549997801784002
 20
15.650000185032219
 30
0.0
 40
1.0
  1
MATERIAL
 41
1.6000000000000001
  0
TEXT
  5
20B5
  8
AM_BOR
 62
     7
 10
1.729999708652826
 20
17.700000220795008
 30
0.0
 40
2.7999999999999989
  1
材　　質
  0
LINE
  5
20B6
  8
AM_BOR
 62
     4
 10
190.49999986839319
 20
28.000000173111289
 30
0.0
 11
190.49999986839319
 21
0.000000173111296
 31
0.0
  0
LINE
  5
20B7
  8
AM_BOR
 62
     4
 10
-0.0000001316067255
 20
28.000000173111289
 30
0.0
 11
-0.0000001316067255
 21
15.000000173111291
 31
0.0
  0
LINE
  5
20B8
  8
AM_BOR
 62
     4
 10
-0.0000001316067255
 20
21.500000173111289
 30
0.0
 11
190.49999986839319
 21
21.500000173111289
 31
0.0
  0
LINE
  5
20B9
  8
AM_BOR
 62
     4
 10
15.999999868393269
 20
28.000000173111289
 30
0.0
 11
15.999999868393269
 21
15.000000173111291
 31
0.0
  0
TEXT
  5
20BA
  8
AM_BOR
 62
     7
 10
98.104999768257457
 20
22.150000185032219
 30
0.0
 40
1.0
  1
ART. NO.
 41
1.6000000000000001
  0
TEXT
  5
20BB
  8
AM_BOR
 62
     7
 10
96.979999708652684
 20
24.200000220795008
 30
0.0
 40
2.7999999999999989
  1
品　　番
  0
TEXT
  5
20BC
  8
AM_BOR
 62
     7
 10
3.1549997801784002
 20
22.150000185032219
 30
0.0
 40
1.0
  1
ARTICLE
 41
1.6000000000000001
  0
TEXT
  5
20BD
  8
AM_BOR
 62
     7
 10
1.7299997086527119
 20
24.200000220795008
 30
0.0
 40
2.7999999999999989
  1
品　　名
  0
LINE
  5
20BE
  8
AM_BOR
 62
     4
 10
-0.0000001316067255
 20
15.000000173111291
 30
0.0
 11
-0.0000001316067255
 21
0.0000001731112924
 31
0.0
  0
LINE
  5
20BF
  8
AM_BOR
 62
     4
 10
95.249999868393246
 20
28.000000173111289
 30
0.0
 11
95.249999868393246
 21
0.000000173111296
 31
0.0
  0
TEXT
  5
20C0
  8
AM_BOR
 62
     7
 10
3.1549997801784002
 20
9.1500001850322192
 30
0.0
 40
1.0
  1
REMARKS
 41
1.6000000000000001
  0
TEXT
  5
20C1
  8
AM_BOR
 62
     7
 10
1.7299997086527119
 20
11.20000022079501
 30
0.0
 40
2.7999999999999989
  1
備　　考
  0
LINE
  5
20C2
  8
AM_BOR
 62
     4
 10
111.2499998683932
 20
28.000000173111289
 30
0.0
 11
111.2499998683932
 21
0.000000173111296
 31
0.0
  0
LINE
  5
20C3
  8
AM_BOR
 62
     4
 10
-0.0000001316067255
 20
0.000000173111296
 30
0.0
 11
276.49999986839327
 21
0.000000173111296
 31
0.0
  0
TEXT
  5
20C4
  8
AM_BOR
 62
     7
 10
98.404999780178386
 20
9.1500001850322157
 30
0.0
 40
1.0
  1
SETS
 41
1.6000000000000001
  0
TEXT
  5
20C5
  8
AM_BOR
 62
     7
 10
96.979999708652684
 20
11.20000022079501
 30
0.0
 40
2.7999999999999989
  1
セット品
  0
ATTDEF
  5
20C6
  8
AM_BOR
 62
     7
 10
114.3107095753831
 20
0.5000001731112853
 30
0.0
 40
3.0
  1

 11
114.3107095753831
 21
2.0000001731112849
 31
0.0
  3
セット
  2
SETS｛20｝
 70
     0
 74
     2
1001
ACADANNOTATIVE
1000
AnnotativeData
1002
{
1070
     1
1070
     0
1002
}
1001
AcDbAttr
1070
     0
1070
     1
  0
ATTDEF
  5
20CA
  8
AM_BOR
 62
     7
 10
19.060709575383161
 20
0.5000001731112889
 30
0.0
 40
3.0
  1

 11
19.060709575383161
 21
2.000000173111288
 31
0.0
  3
備　　考
  2
REMARKS｛20｝
 70
     0
 74
     2
1001
ACADANNOTATIVE
1000
AnnotativeData
1002
{
1070
     1
1070
     0
1002
}
1001
AcDbAttr
1070
     0
1070
     1
  0
ATTDEF
  5
20CE
  8
AM_BOR
 62
     7
 10
114.3107095753831
 20
5.5000001731112853
 30
0.0
 40
3.0
  1

 11
114.3107095753831
 21
7.0000001731112853
 31
0.0
  3
セット
  2
SETS｛20｝
 70
     0
 74
     2
1001
ACADANNOTATIVE
1000
AnnotativeData
1002
{
1070
     1
1070
     0
1002
}
1001
AcDbAttr
1070
     0
1070
     1
  0
ATTDEF
  5
20D2
  8
AM_BOR
 62
     7
 10
19.060709575383161
 20
5.500000173111288
 30
0.0
 40
3.0
  1

 11
19.060709575383161
 21
7.000000173111288
 31
0.0
  3
備　　考
  2
REMARKS｛20｝
 70
     0
 74
     2
1001
ACADANNOTATIVE
1000
AnnotativeData
1002
{
1070
     1
1070
     0
1002
}
1001
AcDbAttr
1070
     0
1070
     1
  0
ATTDEF
  5
20D6
  8
AM_BOR
 62
     7
 10
114.3107095753831
 20
10.50000017311128
 30
0.0
 40
3.0
  1

 11
114.3107095753831
 21
12.00000017311128
 31
0.0
  3
セット
  2
SETS｛20｝
 70
     0
 74
     2
1001
ACADANNOTATIVE
1000
AnnotativeData
1002
{
1070
     1
1070
     0
1002
}
1001
AcDbAttr
1070
     0
1070
     1
  0
ATTDEF
  5
20DA
  8
AM_BOR
 62
     7
 10
19.060709575383161
 20
10.500000173111291
 30
0.0
 40
3.0
  1

 11
19.060709575383161
 21
12.000000173111291
 31
0.0
  3
備　　考
  2
REMARKS｛20｝
 70
     0
 74
     2
1001
ACADANNOTATIVE
1000
AnnotativeData
1002
{
1070
     1
1070
     0
1002
}
1001
AcDbAttr
1070
     0
1070
     1
  0
ATTDEF
  5
20DE
  8
AM_BOR
 62
     7
 10
114.2499998683932
 20
23.500000173111289
 30
0.0
 40
3.0
  1

 11
114.2499998683932
 21
25.000000173111289
 31
0.0
  3
品    番
  2
ART_NO｛20｝
 70
     0
 74
     2
1001
ACADANNOTATIVE
1000
AnnotativeData
1002
{
1070
     1
1070
     0
1002
}
1001
AcDbAttr
1070
     0
1070
     1
  0
ATTDEF
  5
20E2
  8
AM_BOR
 62
     7
 10
18.999999868393271
 20
23.500000173111289
 30
0.0
 40
3.0
  1

 11
18.999999868393271
 21
25.000000173111289
 31
0.0
  3
品    名
  2
ARTICLE｛20｝
 70
     0
 74
     2
1001
ACADANNOTATIVE
1000
AnnotativeData
1002
{
1070
     1
1070
     0
1002
}
1001
AcDbAttr
1070
     0
1070
     1
  0
ATTDEF
  5
20E6
  8
AM_BOR
 62
     7
 10
114.2499998683932
 20
17.000000173111289
 30
0.0
 40
3.0
  1

 11
114.2499998683932
 21
18.500000173111289
 31
0.0
  3
仕上
  2
FINISH｛20｝
 70
     0
 74
     2
1001
ACADANNOTATIVE
1000
AnnotativeData
1002
{
1070
     1
1070
     0
1002
}
1001
AcDbAttr
1070
     0
1070
     1
  0
ATTDEF
  5
20EA
  8
AM_BOR
 62
     7
 10
18.999999868393271
 20
17.000000173111289
 30
0.0
 40
3.0
  1

 11
18.999999868393271
 21
18.500000173111289
 31
0.0
  3
材　　質
  2
MATERIAK｛20｝
 70
     0
 74
     2
1001
ACADANNOTATIVE
1000
AnnotativeData
1002
{
1070
     1
1070
     0
1002
}
1001
AcDbAttr
1070
     0
1070
     1
  0
ENDBLK
  5
20F1
  8
0
  0
BLOCK
  8
0
  2
_ACMFILLEDHALF
 70
     0
 10
0.0
 20
0.0
 30
0.0
  3
_ACMFILLEDHALF
  1

  0
TRACE
  5
4F64
  8
0
 62
     0
 10
-0.8
 20
0.0
 30
0.0
 11
-1.0
 21
0.166666666
 31
0.0
 12
0.0
 22
0.0
 32
0.0
 13
0.0
 23
0.0
 33
0.0
  0
LINE
  5
4F65
  8
0
 62
     0
 10
-1.0
 20
0.0
 30
0.0
 11
-0.8
 21
0.0
 31
0.0
  0
ENDBLK
  5
4F63
  8
0
  0
BLOCK
  8
0
  2
_ACMFILLED
 70
     0
 10
0.0
 20
0.0
 30
0.0
  3
_ACMFILLED
  1

  0
TRACE
  5
4F70
  8
0
 62
     0
 10
-1.0
 20
-0.166666666
 30
0.0
 11
-1.0
 21
0.166666666
 31
0.0
 12
0.0
 22
0.0
 32
0.0
 13
0.0
 23
0.0
 33
0.0
  0
ENDBLK
  5
4F6F
  8
0
  0
BLOCK
  8
0
  2
_ACMOPEN15
 70
     0
 10
0.0
 20
0.0
 30
0.0
  3
_ACMOPEN15
  1

  0
LINE
  5
4F7C
  8
0
 62
     0
 10
-1.0
 20
0.0
 30
0.0
 11
0.0
 21
0.0
 31
0.0
  0
LINE
  5
4F7D
  8
0
 62
     0
 10
-1.0
 20
-0.131652497
 30
0.0
 11
0.0
 21
0.0
 31
0.0
  0
LINE
  5
4F7E
  8
0
 62
     0
 10
0.0
 20
0.0
 30
0.0
 11
-1.0
 21
0.131652497
 31
0.0
  0
ENDBLK
  5
4F7B
  8
0
  0
BLOCK
  8
0
  2
_ACMFILLED15
 70
     0
 10
0.0
 20
0.0
 30
0.0
  3
_ACMFILLED15
  1

  0
TRACE
  5
4F8C
  8
0
 62
     0
 10
-1.0
 20
-0.131652497
 30
0.0
 11
-1.0
 21
0.131652497
 31
0.0
 12
0.0
 22
0.0
 32
0.0
 13
0.0
 23
0.0
 33
0.0
  0
ENDBLK
  5
4F8B
  8
0
  0
BLOCK
  8
0
  2
*D13
 70
     1
 10
0.0
 20
0.0
 30
0.0
  3
*D13
  1

  0
LINE
  5
63AA
  8
AM_5
  6
CONTINUOUS
 62
     7
 10
339.04704789029353
 20
599.24730140129805
 30
0.0
 11
339.04704789029353
 21
644.4015675201556
 31
0.0
  0
LINE
  5
63AB
  8
AM_5
  6
CONTINUOUS
 62
     7
 10
119.0470478902931
 20
599.24730140129805
 30
0.0
 11
119.0470478902931
 21
644.4015675201556
 31
0.0
  0
LINE
  5
63AC
  8
AM_5
  6
CONTINUOUS
 62
     7
 10
336.54704789029353
 20
643.4015675201556
 30
0.0
 11
121.5470478902931
 21
643.4015675201556
 31
0.0
  0
INSERT
  5
63AD
  8
AM_5
 62
     7
  2
_OPEN30
 10
339.04704789029353
 20
643.4015675201556
 30
0.0
 41
2.5
 42
2.5
 43
2.5
  0
INSERT
  5
63AE
  8
AM_5
 62
     7
  2
_OPEN30
 10
119.0470478902931
 20
643.4015675201556
 30
0.0
 41
2.5
 42
2.5
 43
2.5
 50
180.0
  0
INSERT
  5
63AF
  8
0
  2
*U31
 10
0.0
 20
0.0
 30
0.0
  0
POINT
  5
63B0
  8
DEFPOINTS
 62
     0
 10
339.04704789029353
 20
598.24730140129805
 30
0.0
  0
POINT
  5
63B1
  8
DEFPOINTS
 62
     0
 10
119.0470478902931
 20
598.24730140129805
 30
0.0
  0
POINT
  5
63B2
  8
DEFPOINTS
 62
     0
 10
119.0470478902931
 20
643.4015675201556
 30
0.0
  0
ENDBLK
  5
5910
  8
0
  0
BLOCK
  8
0
  2
*D14
 70
     1
 10
0.0
 20
0.0
 30
0.0
  3
*D14
  1

  0
LINE
  5
63B3
  8
AM_5
  6
CONTINUOUS
 62
     7
 10
359.04704789029353
 20
601.40156752015548
 30
0.0
 11
359.04704789029353
 21
658.40156752015548
 31
0.0
  0
LINE
  5
63B4
  8
AM_5
  6
CONTINUOUS
 62
     7
 10
99.047047890293129
 20
601.40156752015548
 30
0.0
 11
99.047047890293129
 21
658.40156752015548
 31
0.0
  0
LINE
  5
63B5
  8
AM_5
  6
CONTINUOUS
 62
     7
 10
356.54704789029353
 20
657.4015675201556
 30
0.0
 11
101.5470478902931
 21
657.4015675201556
 31
0.0
  0
INSERT
  5
63B6
  8
AM_5
 62
     7
  2
_OPEN30
 10
359.04704789029353
 20
657.4015675201556
 30
0.0
 41
2.5
 42
2.5
 43
2.5
  0
INSERT
  5
63B7
  8
AM_5
 62
     7
  2
_OPEN30
 10
99.047047890293129
 20
657.4015675201556
 30
0.0
 41
2.5
 42
2.5
 43
2.5
 50
180.0
  0
INSERT
  5
63B8
  8
0
  2
*U32
 10
0.0
 20
0.0
 30
0.0
  0
POINT
  5
63B9
  8
DEFPOINTS
 62
     0
 10
359.04704789029353
 20
600.40156752015548
 30
0.0
  0
POINT
  5
63BA
  8
DEFPOINTS
 62
     0
 10
99.047047890293129
 20
600.40156752015548
 30
0.0
  0
POINT
  5
63BB
  8
DEFPOINTS
 62
     0
 10
99.047047890293129
 20
657.4015675201556
 30
0.0
  0
ENDBLK
  5
591C
  8
0
  0
BLOCK
  8
0
  2
*D15
 70
     1
 10
0.0
 20
0.0
 30
0.0
  3
*D15
  1

  0
LINE
  5
63BC
  8
AM_5
  6
CONTINUOUS
 62
     7
 10
358.4964894448226
 20
570.4015675201556
 30
0.0
 11
387.22264918767911
 21
570.4015675201556
 31
0.0
  0
LINE
  5
63BD
  8
AM_5
  6
CONTINUOUS
 62
     7
 10
352.04704789029353
 20
608.40156752015548
 30
0.0
 11
387.22264918767911
 21
608.40156752015548
 31
0.0
  0
LINE
  5
63BE
  8
AM_5
  6
CONTINUOUS
 62
     7
 10
386.22264918767911
 20
572.9015675201556
 30
0.0
 11
386.22264918767911
 21
605.9015675201556
 31
0.0
  0
INSERT
  5
63BF
  8
AM_5
 62
     7
  2
_OPEN30
 10
386.22264918767911
 20
570.4015675201556
 30
0.0
 41
2.5
 42
2.5
 43
2.5
 50
270.0
  0
INSERT
  5
63C0
  8
AM_5
 62
     7
  2
_OPEN30
 10
386.22264918767911
 20
608.40156752015548
 30
0.0
 41
2.5
 42
2.5
 43
2.5
 50
90.0
  0
INSERT
  5
63C1
  8
0
  2
*U33
 10
0.0
 20
0.0
 30
0.0
  0
POINT
  5
63C2
  8
DEFPOINTS
 62
     0
 10
357.4964894448226
 20
570.4015675201556
 30
0.0
  0
POINT
  5
63C3
  8
DEFPOINTS
 62
     0
 10
351.04704789029353
 20
608.40156752015548
 30
0.0
  0
POINT
  5
63C4
  8
DEFPOINTS
 62
     0
 10
386.22264918767911
 20
608.40156752015548
 30
0.0
  0
ENDBLK
  5
5928
  8
0
  0
BLOCK
  8
0
  2
*D16
 70
     1
 10
0.0
 20
0.0
 30
0.0
  3
*D16
  1

  0
LINE
  5
63C5
  8
AM_5
  6
CONTINUOUS
 62
     7
 10
352.04704789029353
 20
523.4015675201556
 30
0.0
 11
394.22264918767911
 21
523.4015675201556
 31
0.0
  0
LINE
  5
63C6
  8
AM_5
  6
CONTINUOUS
 62
     7
 10
352.04704789029353
 20
608.40156752015548
 30
0.0
 11
394.22264918767911
 21
608.40156752015548
 31
0.0
  0
LINE
  5
63C7
  8
AM_5
  6
CONTINUOUS
 62
     7
 10
393.222649187679
 20
525.90156752015548
 30
0.0
 11
393.222649187679
 21
605.9015675201556
 31
0.0
  0
INSERT
  5
63C8
  8
AM_5
 62
     7
  2
_OPEN30
 10
393.222649187679
 20
523.4015675201556
 30
0.0
 41
2.5
 42
2.5
 43
2.5
 50
270.0
  0
INSERT
  5
63C9
  8
AM_5
 62
     7
  2
_OPEN30
 10
393.222649187679
 20
608.40156752015548
 30
0.0
 41
2.5
 42
2.5
 43
2.5
 50
90.0
  0
INSERT
  5
63CA
  8
0
  2
*U34
 10
0.0
 20
0.0
 30
0.0
  0
POINT
  5
63CB
  8
DEFPOINTS
 62
     0
 10
351.04704789029353
 20
523.4015675201556
 30
0.0
  0
POINT
  5
63CC
  8
DEFPOINTS
 62
     0
 10
351.04704789029353
 20
608.40156752015548
 30
0.0
  0
POINT
  5
63CD
  8
DEFPOINTS
 62
     0
 10
393.222649187679
 20
608.40156752015548
 30
0.0
  0
ENDBLK
  5
5934
  8
0
  0
BLOCK
  8
0
  2
*D17
 70
     1
 10
0.0
 20
0.0
 30
0.0
  3
*D17
  1

  0
LINE
  5
63CE
  8
AM_5
  6
CONTINUOUS
 62
     7
 10
294.84073124686188
 20
239.40156752015551
 30
0.0
 11
387.222649187679
 21
239.40156752015551
 31
0.0
  0
LINE
  5
63CF
  8
AM_5
  6
CONTINUOUS
 62
     7
 10
358.4964894448226
 20
570.4015675201556
 30
0.0
 11
387.22264918767911
 21
570.4015675201556
 31
0.0
  0
LINE
  5
63D0
  8
AM_5
  6
CONTINUOUS
 62
     7
 10
386.222649187679
 20
241.90156752015551
 30
0.0
 11
386.22264918767911
 21
567.90156752015548
 31
0.0
  0
INSERT
  5
63D1
  8
AM_5
 62
     7
  2
_OPEN30
 10
386.222649187679
 20
239.40156752015551
 30
0.0
 41
2.5
 42
2.5
 43
2.5
 50
270.0
  0
INSERT
  5
63D2
  8
AM_5
 62
     7
  2
_OPEN30
 10
386.22264918767911
 20
570.4015675201556
 30
0.0
 41
2.5
 42
2.5
 43
2.5
 50
90.0
  0
INSERT
  5
63D3
  8
0
  2
*U35
 10
0.0
 20
0.0
 30
0.0
  0
POINT
  5
63D4
  8
DEFPOINTS
 62
     0
 10
293.84073124686188
 20
239.40156752015551
 30
0.0
  0
POINT
  5
63D5
  8
DEFPOINTS
 62
     0
 10
357.4964894448226
 20
570.4015675201556
 30
0.0
  0
POINT
  5
63D6
  8
DEFPOINTS
 62
     0
 10
386.22264918767911
 20
570.4015675201556
 30
0.0
  0
ENDBLK
  5
5940
  8
0
  0
BLOCK
  8
0
  2
*D18
 70
     1
 10
0.0
 20
0.0
 30
0.0
  3
*D18
  1

  0
LINE
  5
63D7
  8
AM_5
  6
CONTINUOUS
 62
     7
 10
349.04704789028477
 20
228.40156752015551
 30
0.0
 11
401.222649187679
 21
228.40156752015551
 31
0.0
  0
LINE
  5
63D8
  8
AM_5
  6
CONTINUOUS
 62
     7
 10
352.04704789029353
 20
608.40156752015548
 30
0.0
 11
401.222649187679
 21
608.40156752015548
 31
0.0
  0
LINE
  5
63D9
  8
AM_5
  6
CONTINUOUS
 62
     7
 10
400.222649187679
 20
230.90156752015551
 30
0.0
 11
400.222649187679
 21
605.9015675201556
 31
0.0
  0
INSERT
  5
63DA
  8
AM_5
 62
     7
  2
_OPEN30
 10
400.222649187679
 20
228.40156752015551
 30
0.0
 41
2.5
 42
2.5
 43
2.5
 50
270.0
  0
INSERT
  5
63DB
  8
AM_5
 62
     7
  2
_OPEN30
 10
400.222649187679
 20
608.40156752015548
 30
0.0
 41
2.5
 42
2.5
 43
2.5
 50
90.0
  0
INSERT
  5
63DC
  8
0
  2
*U36
 10
0.0
 20
0.0
 30
0.0
  0
POINT
  5
63DD
  8
DEFPOINTS
 62
     0
 10
348.04704789028477
 20
228.40156752015551
 30
0.0
  0
POINT
  5
63DE
  8
DEFPOINTS
 62
     0
 10
351.04704789029353
 20
608.40156752015548
 30
0.0
  0
POINT
  5
63DF
  8
DEFPOINTS
 62
     0
 10
400.222649187679
 20
608.40156752015548
 30
0.0
  0
ENDBLK
  5
594C
  8
0
  0
BLOCK
  8
0
  2
*D19
 70
     1
 10
0.0
 20
0.0
 30
0.0
  3
*D19
  1

  0
LINE
  5
63E0
  8
AM_5
  6
CONTINUOUS
 62
     7
 10
279.04704789029353
 20
220.69284087902381
 30
0.0
 11
279.04704789029353
 21
194.40156752015551
 31
0.0
  0
LINE
  5
63E1
  8
AM_5
  6
CONTINUOUS
 62
     7
 10
179.0470478902931
 20
220.69284087902381
 30
0.0
 11
179.0470478902931
 21
194.40156752015551
 31
0.0
  0
LINE
  5
63E2
  8
AM_5
  6
CONTINUOUS
 62
     7
 10
276.54704789029353
 20
195.40156752015551
 30
0.0
 11
181.5470478902931
 21
195.40156752015551
 31
0.0
  0
INSERT
  5
63E3
  8
AM_5
 62
     7
  2
_OPEN30
 10
279.04704789029353
 20
195.40156752015551
 30
0.0
 41
2.5
 42
2.5
 43
2.5
  0
INSERT
  5
63E4
  8
AM_5
 62
     7
  2
_OPEN30
 10
179.0470478902931
 20
195.40156752015551
 30
0.0
 41
2.5
 42
2.5
 43
2.5
 50
180.0
  0
INSERT
  5
63E5
  8
0
  2
*U37
 10
0.0
 20
0.0
 30
0.0
  0
POINT
  5
63E6
  8
DEFPOINTS
 62
     0
 10
279.04704789029353
 20
221.69284087902381
 30
0.0
  0
POINT
  5
63E7
  8
DEFPOINTS
 62
     0
 10
179.0470478902931
 20
221.69284087902381
 30
0.0
  0
POINT
  5
63E8
  8
DEFPOINTS
 62
     0
 10
179.0470478902931
 20
195.40156752015551
 30
0.0
  0
ENDBLK
  5
5958
  8
0
  0
BLOCK
  8
0
  2
*D20
 70
     1
 10
0.0
 20
0.0
 30
0.0
  3
*D20
  1

  0
LINE
  5
63E9
  8
AM_5
  6
CONTINUOUS
 62
     7
 10
41.714815888060677
 20
537.54369800308586
 30
0.0
 11
41.714815888060691
 21
644.4015675201556
 31
0.0
  0
LINE
  5
63EA
  8
AM_5
  6
CONTINUOUS
 62
     7
 10
-88.285184111939316
 20
609.40156752015548
 30
0.0
 11
-88.285184111939316
 21
644.4015675201556
 31
0.0
  0
LINE
  5
63EB
  8
AM_5
  6
CONTINUOUS
 62
     7
 10
39.214815888060691
 20
643.4015675201556
 30
0.0
 11
-85.785184111939316
 21
643.4015675201556
 31
0.0
  0
INSERT
  5
63EC
  8
AM_5
 62
     7
  2
_OPEN30
 10
41.714815888060691
 20
643.4015675201556
 30
0.0
 41
2.5
 42
2.5
 43
2.5
  0
INSERT
  5
63ED
  8
AM_5
 62
     7
  2
_OPEN30
 10
-88.285184111939316
 20
643.4015675201556
 30
0.0
 41
2.5
 42
2.5
 43
2.5
 50
180.0
  0
INSERT
  5
63EE
  8
0
  2
*U38
 10
0.0
 20
0.0
 30
0.0
  0
POINT
  5
63EF
  8
DEFPOINTS
 62
     0
 10
41.714815888060677
 20
536.54369800308586
 30
0.0
  0
POINT
  5
63F0
  8
DEFPOINTS
 62
     0
 10
-88.285184111939316
 20
608.40156752015548
 30
0.0
  0
POINT
  5
63F1
  8
DEFPOINTS
 62
     0
 10
-88.285184111939316
 20
643.4015675201556
 30
0.0
  0
ENDBLK
  5
596D
  8
0
  0
BLOCK
  8
0
  2
*D21
 70
     1
 10
0.0
 20
0.0
 30
0.0
  3
*D21
  1

  0
LINE
  5
63F2
  8
AM_5
  6
CONTINUOUS
 62
     7
 10
27.714815888060681
 20
431.40156752015542
 30
0.0
 11
27.714815888060681
 21
453.24655257280341
 31
0.0
  0
LINE
  5
63F3
  8
AM_5
  6
CONTINUOUS
 62
     7
 10
41.714815888060677
 20
535.54369800308598
 30
0.0
 11
41.71481588806067
 21
451.24655257280341
 31
0.0
  0
LINE
  5
63F4
  8
AM_5
  6
CONTINUOUS
 62
     7
 10
30.214815888060681
 20
452.2465525728033
 30
0.0
 11
39.214815888060677
 21
452.2465525728033
 31
0.0
  0
LINE
  5
63F5
  8
AM_5
  6
CONTINUOUS
 62
     7
 10
41.71481588806067
 20
452.2465525728033
 30
0.0
 11
52.155979615500698
 21
452.2465525728033
 31
0.0
  0
INSERT
  5
63F6
  8
AM_5
 62
     7
  2
_OPEN30
 10
27.714815888060681
 20
452.2465525728033
 30
0.0
 41
2.5
 42
2.5
 43
2.5
 50
180.0
  0
INSERT
  5
63F7
  8
AM_5
 62
     7
  2
_OPEN30
 10
41.71481588806067
 20
452.2465525728033
 30
0.0
 41
2.5
 42
2.5
 43
2.5
  0
INSERT
  5
63F8
  8
0
  2
*U39
 10
0.0
 20
0.0
 30
0.0
  0
POINT
  5
63F9
  8
DEFPOINTS
 62
     0
 10
27.714815888060681
 20
430.40156752015542
 30
0.0
  0
POINT
  5
63FA
  8
DEFPOINTS
 62
     0
 10
41.714815888060677
 20
536.54369800308586
 30
0.0
  0
POINT
  5
63FB
  8
DEFPOINTS
 62
     0
 10
41.71481588806067
 20
452.2465525728033
 30
0.0
  0
ENDBLK
  5
5979
  8
0
  0
BLOCK
  8
0
  2
*D22
 70
     1
 10
0.0
 20
0.0
 30
0.0
  3
*D22
  1

  0
LINE
  5
63FC
  8
AM_5
  6
CONTINUOUS
 62
     7
 10
-88.285184111939316
 20
609.40156752015548
 30
0.0
 11
-88.285184111939316
 21
633.96365001523895
 31
0.0
  0
LINE
  5
63FD
  8
AM_5
  6
CONTINUOUS
 62
     7
 10
-80.285184111939316
 20
606.4015675201556
 30
0.0
 11
-80.285184111939316
 21
633.96365001523895
 31
0.0
  0
LINE
  5
63FE
  8
AM_5
  6
CONTINUOUS
 62
     7
 10
-85.785184111939316
 20
632.96365001523895
 30
0.0
 11
-82.785184111939316
 21
632.96365001523895
 31
0.0
  0
INSERT
  5
63FF
  8
AM_5
 62
     7
  2
_OPEN30
 10
-88.285184111939316
 20
632.96365001523895
 30
0.0
 41
2.5
 42
2.5
 43
2.5
 50
180.0
  0
INSERT
  5
6400
  8
AM_5
 62
     7
  2
_OPEN30
 10
-80.285184111939316
 20
632.96365001523895
 30
0.0
 41
2.5
 42
2.5
 43
2.5
  0
INSERT
  5
6401
  8
0
  2
*U40
 10
0.0
 20
0.0
 30
0.0
  0
POINT
  5
6402
  8
DEFPOINTS
 62
     0
 10
-88.285184111939316
 20
608.40156752015548
 30
0.0
  0
POINT
  5
6403
  8
DEFPOINTS
 62
     0
 10
-80.285184111939316
 20
605.40156752015548
 30
0.0
  0
POINT
  5
6404
  8
DEFPOINTS
 62
     0
 10
-80.285184111939316
 20
632.96365001523895
 30
0.0
  0
ENDBLK
  5
5986
  8
0
  0
BLOCK
  8
0
  2
*D23
 70
     1
 10
0.0
 20
0.0
 30
0.0
  3
*D23
  1

  0
LINE
  5
6405
  8
AM_5
  6
CONTINUOUS
 62
     7
 10
346.54704789029353
 20
583.95735698514545
 30
0.0
 11
346.54704789029353
 21
651.40156752015548
 31
0.0
  0
LINE
  5
6406
  8
AM_5
  6
CONTINUOUS
 62
     7
 10
111.5470478902931
 20
583.95735698514545
 30
0.0
 11
111.5470478902931
 21
651.40156752015548
 31
0.0
  0
LINE
  5
6407
  8
AM_5
  6
CONTINUOUS
 62
     7
 10
344.04704789029353
 20
650.40156752015548
 30
0.0
 11
114.0470478902931
 21
650.40156752015548
 31
0.0
  0
INSERT
  5
6408
  8
AM_5
 62
     7
  2
_OPEN30
 10
346.54704789029353
 20
650.40156752015548
 30
0.0
 41
2.5
 42
2.5
 43
2.5
  0
INSERT
  5
6409
  8
AM_5
 62
     7
  2
_OPEN30
 10
111.5470478902931
 20
650.40156752015548
 30
0.0
 41
2.5
 42
2.5
 43
2.5
 50
180.0
  0
INSERT
  5
640A
  8
0
  2
*U41
 10
0.0
 20
0.0
 30
0.0
  0
POINT
  5
640B
  8
DEFPOINTS
 62
     0
 10
346.54704789029353
 20
582.95735698514545
 30
0.0
  0
POINT
  5
640C
  8
DEFPOINTS
 62
     0
 10
111.5470478902931
 20
582.95735698514545
 30
0.0
  0
POINT
  5
640D
  8
DEFPOINTS
 62
     0
 10
111.5470478902931
 20
650.40156752015548
 30
0.0
  0
ENDBLK
  5
5992
  8
0
  0
BLOCK
  8
0
  2
*D24
 70
     1
 10
0.0
 20
0.0
 30
0.0
  3
*D24
  1

  0
LINE
  5
6111
  8
AM_5
  6
CONTINUOUS
 62
     7
 10
348.59676960329699
 20
575.23490393501845
 30
0.0
 11
367.36237792732641
 21
619.48505627724603
 31
0.0
  0
LINE
  5
6112
  8
AM_5
  6
CONTINUOUS
 62
     7
 10
367.36237792732641
 20
619.48505627724603
 30
0.0
 11
386.4480922130407
 21
619.48505627724603
 31
0.0
  0
INSERT
  5
6113
  8
AM_5
 62
     7
  2
_OPEN30
 10
347.62071164472383
 20
572.93331516603621
 30
0.0
 41
2.5
 42
2.5
 43
2.5
 50
247.01916633024601
  0
INSERT
  5
6114
  8
0
  2
*U28
 10
0.0
 20
0.0
 30
0.0
  0
POINT
  5
6115
  8
DEFPOINTS
 62
     0
 10
347.62071164472383
 20
572.93331516603621
 30
0.0
  0
POINT
  5
6116
  8
DEFPOINTS
 62
     0
 10
345.4733841358626
 20
567.86981987427475
 30
0.0
  0
ENDBLK
  5
60EB
  8
0
  0
BLOCK
  8
0
  2
*D25
 70
     1
 10
0.0
 20
0.0
 30
0.0
  3
*D25
  1

  0
LINE
  5
614B
  8
AM_5
  6
CONTINUOUS
 62
     7
 10
282.66876868964391
 20
234.30788138420721
 30
0.0
 11
298.24727367678372
 21
212.39785041604731
 31
0.0
  0
LINE
  5
614C
  8
AM_5
  6
CONTINUOUS
 62
     7
 10
298.24727367678372
 20
212.39785041604731
 30
0.0
 11
317.33298796249801
 21
212.39785041604731
 31
0.0
  0
INSERT
  5
614D
  8
AM_5
 62
     7
  2
_OPEN30
 10
281.2200803699036
 20
236.3453558385865
 30
0.0
 41
2.5
 42
2.5
 43
2.5
 50
125.41364845564409
  0
INSERT
  5
614E
  8
0
  2
*U29
 10
0.0
 20
0.0
 30
0.0
  0
POINT
  5
614F
  8
DEFPOINTS
 62
     0
 10
281.2200803699036
 20
236.3453558385865
 30
0.0
  0
POINT
  5
6150
  8
DEFPOINTS
 62
     0
 10
276.87401541068323
 20
242.45777920172449
 30
0.0
  0
ENDBLK
  5
6122
  8
0
  0
BLOCK
  8
0
  2
*D26
 70
     1
 10
0.0
 20
0.0
 30
0.0
  3
*D26
  1

  0
LINE
  5
6171
  8
AM_5
  6
CONTINUOUS
 62
     7
 10
287.39885629533342
 20
247.30709067586761
 30
0.0
 11
293.01860315172678
 21
252.62654207463871
 31
0.0
  0
LINE
  5
6172
  8
AM_5
  6
CONTINUOUS
 62
     7
 10
279.04704789029353
 20
239.40156752015551
 30
0.0
 11
285.58324577249863
 21
245.5884986854953
 31
0.0
  0
INSERT
  5
6173
  8
AM_5
 62
     7
  2
_OPEN30
 10
285.58324577249863
 20
245.5884986854953
 30
0.0
 41
2.5
 42
2.5
 43
2.5
 50
223.4275499939767
  0
INSERT
  5
6174
  8
0
  2
*U30
 10
0.0
 20
0.0
 30
0.0
  0
POINT
  5
6175
  8
DEFPOINTS
 62
     0
 10
285.58324577249863
 20
245.5884986854953
 30
0.0
  0
POINT
  5
6176
  8
DEFPOINTS
 62
     0
 10
279.04704789029353
 20
239.40156752015551
 30
0.0
  0
ENDBLK
  5
6154
  8
0
  0
BLOCK
  8
0
  2
*U28
 70
     1
 10
0.0
 20
0.0
 30
0.0
  3
*U28
  1

  0
TEXT
  5
6525
  8
AM_5
 62
     7
 10
368.36237792732692
 20
620.4850562772458
 30
0.0
 40
3.0
  1
2-\U+22055.5孔
  0
ENDBLK
  5
6527
  8
0
  0
BLOCK
  8
0
  2
*U29
 70
     1
 10
0.0
 20
0.0
 30
0.0
  3
*U29
  1

  0
TEXT
  5
6529
  8
AM_5
 62
     7
 10
299.24727367678349
 20
213.39785041604711
 30
0.0
 40
3.0
  1
2-\U+22057.5孔
  0
ENDBLK
  5
652B
  8
0
  0
BLOCK
  8
0
  2
*U30
 70
     1
 10
0.0
 20
0.0
 30
0.0
  3
*U30
  1

  0
TEXT
  5
652D
  8
AM_5
 62
     7
 10
289.25327423115323
 20
250.43936367152261
 30
0.0
 40
2.0
  1
R9
 50
43.427549993976719
  7
R寸法
  0
ENDBLK
  5
652F
  8
0
  0
BLOCK
  8
0
  2
*U31
 70
     1
 10
0.0
 20
0.0
 30
0.0
  3
*U31
  1

  0
TEXT
  5
6531
  8
AM_5
 62
     7
 10
225.1899050331505
 20
644.4015675201556
 30
0.0
 40
3.0
  1
220
  0
ENDBLK
  5
6533
  8
0
  0
BLOCK
  8
0
  2
*U32
 70
     1
 10
0.0
 20
0.0
 30
0.0
  3
*U32
  1

  0
TEXT
  5
6535
  8
AM_5
 62
     7
 10
225.1899050331505
 20
658.40156752015548
 30
0.0
 40
3.0
  1
260
  0
ENDBLK
  5
6537
  8
0
  0
BLOCK
  8
0
  2
*U33
 70
     1
 10
0.0
 20
0.0
 30
0.0
  3
*U33
  1

  0
TEXT
  5
6539
  8
AM_5
 62
     7
 10
385.222649187679
 20
586.97299609158415
 30
0.0
 40
3.0
  1
38
 50
90.0
  0
ENDBLK
  5
653B
  8
0
  0
BLOCK
  8
0
  2
*U34
 70
     1
 10
0.0
 20
0.0
 30
0.0
  3
*U34
  1

  0
TEXT
  5
653D
  8
AM_5
 62
     7
 10
392.222649187679
 20
563.47299609158415
 30
0.0
 40
3.0
  1
85
 50
90.0
  0
ENDBLK
  5
653F
  8
0
  0
BLOCK
  8
0
  2
*U35
 70
     1
 10
0.0
 20
0.0
 30
0.0
  3
*U35
  1

  0
TEXT
  5
6541
  8
AM_5
 62
     7
 10
385.22264918767888
 20
401.68728180586987
 30
0.0
 40
3.0
  1
331
 50
90.0
  0
ENDBLK
  5
6543
  8
0
  0
BLOCK
  8
0
  2
*U36
 70
     1
 10
0.0
 20
0.0
 30
0.0
  3
*U36
  1

  0
TEXT
  5
6545
  8
AM_5
 62
     7
 10
399.222649187679
 20
414.54442466301282
 30
0.0
 40
3.0
  1
380
 50
90.0
  0
ENDBLK
  5
6547
  8
0
  0
BLOCK
  8
0
  2
*U37
 70
     1
 10
0.0
 20
0.0
 30
0.0
  3
*U37
  1

  0
TEXT
  5
6549
  8
AM_5
 62
     7
 10
225.47561931886469
 20
196.40156752015551
 30
0.0
 40
3.0
  1
100
  0
ENDBLK
  5
654B
  8
0
  0
BLOCK
  8
0
  2
*U38
 70
     1
 10
0.0
 20
0.0
 30
0.0
  3
*U38
  1

  0
TEXT
  5
654D
  8
AM_5
 62
     7
 10
-26.856612683367889
 20
644.4015675201556
 30
0.0
 40
3.0
  1
130
  0
ENDBLK
  5
654F
  8
0
  0
BLOCK
  8
0
  2
*U39
 70
     1
 10
0.0
 20
0.0
 30
0.0
  3
*U39
  1

  0
TEXT
  5
6551
  8
AM_5
 62
     7
 10
46.727408186929267
 20
453.24655257280341
 30
0.0
 40
3.0
  1
14
  0
ENDBLK
  5
6553
  8
0
  0
BLOCK
  8
0
  2
*U40
 70
     1
 10
0.0
 20
0.0
 30
0.0
  3
*U40
  1

  0
TEXT
  5
6555
  8
AM_5
 62
     7
 10
-85.285184111939316
 20
633.96365001523895
 30
0.0
 40
3.0
  1
8
  0
ENDBLK
  5
6557
  8
0
  0
BLOCK
  8
0
  2
*U41
 70
     1
 10
0.0
 20
0.0
 30
0.0
  3
*U41
  1

  0
TEXT
  5
6559
  8
AM_5
 62
     7
 10
225.1899050331505
 20
651.40156752015548
 30
0.0
 40
3.0
  1
235
  0
ENDBLK
  5
655B
  8
0
  0
ENDSEC
  0
SECTION
  2
ENTITIES
  0
INSERT
  5
20F2
  8
0
 66
     1
  2
A$C1C06296A
 10
135.5000001316065
 20
8.9999998268887005
 30
0.0
  0
ATTRIB
  5
20F3
  8
AM_BOR
 62
     7
 10
249.8107097069896
 20
9.4999999999999893
 30
0.0
 40
3.0
  1

 11
249.8107097069896
 21
10.999999999999989
 31
0.0
  2
SETS｛20｝
 70
     0
 74
     2
1001
AcDbAttr
1070
     0
1070
     1
  0
ATTRIB
  5
20F4
  8
AM_BOR
 62
     7
 10
154.5607097069896
 20
9.4999999999999893
 30
0.0
 40
3.0
  1

 11
154.5607097069896
 21
10.999999999999989
 31
0.0
  2
REMARKS｛20｝
 70
     0
 74
     2
1001
AcDbAttr
1070
     0
1070
     1
  0
ATTRIB
  5
20F5
  8
AM_BOR
 62
     7
 10
249.8107097069896
 20
14.499999999999989
 30
0.0
 40
3.0
  1

 11
249.8107097069896
 21
15.999999999999989
 31
0.0
  2
SETS｛20｝
 70
     0
 74
     2
1001
AcDbAttr
1070
     0
1070
     1
  0
ATTRIB
  5
20F6
  8
AM_BOR
 62
     7
 10
154.5607097069896
 20
14.499999999999989
 30
0.0
 40
3.0
  1

 11
154.5607097069896
 21
15.999999999999989
 31
0.0
  2
REMARKS｛20｝
 70
     0
 74
     2
1001
AcDbAttr
1070
     0
1070
     1
  0
ATTRIB
  5
20F7
  8
AM_BOR
 62
     7
 10
249.8107097069896
 20
19.499999999999989
 30
0.0
 40
3.0
  1

 11
249.8107097069896
 21
20.999999999999989
 31
0.0
  2
SETS｛20｝
 70
     0
 74
     2
1001
AcDbAttr
1070
     0
1070
     1
  0
ATTRIB
  5
20F8
  8
AM_BOR
 62
     7
 10
154.5607097069896
 20
19.499999999999989
 30
0.0
 40
3.0
  1

 11
154.5607097069896
 21
20.999999999999989
 31
0.0
  2
REMARKS｛20｝
 70
     0
 74
     2
1001
AcDbAttr
1070
     0
1070
     1
  0
ATTRIB
  5
20F9
  8
AM_BOR
 62
     7
 10
249.74999999999969
 20
32.499999999999993
 30
0.0
 40
3.0
  1
PO-BX-ND
 11
249.74999999999969
 21
33.999999999999993
 31
0.0
  2
ART_NO｛20｝
 70
     0
 74
     2
1001
AcDbAttr
1070
     0
1070
     1
  0
ATTRIB
  5
20FA
  8
AM_BOR
 62
     7
 10
154.49999999999969
 20
32.499999999999993
 30
0.0
 40
3.0
  1
メールボックス
 11
154.49999999999969
 21
33.999999999999993
 31
0.0
  2
ARTICLE｛20｝
 70
     0
 74
     2
1001
AcDbAttr
1070
     0
1070
     1
  0
ATTRIB
  5
20FB
  8
AM_BOR
 62
     7
 10
249.74999999999969
 20
25.999999999999989
 30
0.0
 40
3.0
  1
アイボリー・ベージュ
 11
249.74999999999969
 21
27.499999999999989
 31
0.0
  2
FINISH｛20｝
 70
     0
 74
     2
1001
AcDbAttr
1070
     0
1070
     1
  0
ATTRIB
  5
20FC
  8
AM_BOR
 62
     7
 10
154.49999999999969
 20
25.999999999999989
 30
0.0
 40
3.0
  1
樹脂
 11
154.49999999999969
 21
27.499999999999989
 31
0.0
  2
MATERIAK｛20｝
 70
     0
 74
     2
1001
AcDbAttr
1070
     0
1070
     1
  0
SEQEND
  5
20FD
  8
0
  0
LINE
  5
3277
  8
0
 10
411.99999999999972
 20
8.9999999999999964
 30
0.0
 11
411.99999999999972
 21
816.0
 31
0.0
  0
LINE
  5
327A
  8
0
 10
-160.0000000000002
 20
8.9999999999999964
 30
0.0
 11
411.99999999999972
 21
8.9999999999999964
 31
0.0
  0
LINE
  5
4283
  8
0
 10
-160.0000000000002
 20
8.9999999999999964
 30
0.0
 11
-160.0000000000002
 21
816.0
 31
0.0
  0
LINE
  5
4284
  8
0
 10
-160.0000000000002
 20
816.0
 30
0.0
 11
411.99999999999972
 21
816.0
 31
0.0
  0
LINE
  5
587E
  8
AM_7
 10
335.0154819082851
 20
570.4015675201556
 30
0.0
 11
358.0786138723019
 21
570.4015675201556
 31
0.0
  0
LINE
  5
587F
  8
AM_7
 10
346.54704789029353
 20
583.32620490180398
 30
0.0
 11
346.54704789029353
 21
557.47693013850721
 31
0.0
  0
LINE
  5
5880
  8
0
 10
99.04704789029347
 20
600.40156752015548
 30
0.0
 11
99.04704789029347
 21
531.4015675201556
 31
0.0
  0
LINE
  5
5881
  8
0
 10
359.04704789029353
 20
600.40156752015548
 30
0.0
 11
359.04704789029353
 21
531.4015675201556
 31
0.0
  0
LINE
  5
5882
  8
0
 10
229.0470478902935
 20
228.40156752015551
 30
0.0
 11
348.04704789028477
 21
228.40156752015551
 31
0.0
  0
LINE
  5
5883
  8
AM_7
 10
263.9110932589129
 20
239.40156752015551
 30
0.0
 11
293.84073124686188
 21
239.40156752015551
 31
0.0
  0
LINE
  5
5884
  8
AM_7
 10
279.04704789029353
 20
254.15021008108801
 30
0.0
 11
279.04704789029353
 21
221.69284087902381
 31
0.0
  0
LINE
  5
5885
  8
0
 10
339.04704789029353
 20
523.4015675201556
 30
0.0
 11
351.04704789029353
 21
523.4015675201556
 31
0.0
  0
ARC
  5
5886
  8
0
 10
351.04704789029353
 20
600.40156752015548
 30
0.0
 40
8.0
 50
0.0
 51
90.0
  0
ARC
  5
5887
  8
0
 10
351.04704789029353
 20
531.4015675201556
 30
0.0
 40
8.0
 50
270.0
 51
0.0
  0
LINE
  5
5888
  8
0
 10
-88.285184111939316
 20
608.40156752015548
 30
0.0
 11
-88.285184111939316
 21
516.36694752575545
 31
0.0
  0
LINE
  5
5889
  8
0
 10
-7.8662934519234113
 20
595.63216318381865
 30
0.0
 11
-80.285184111939756
 21
608.40156752015582
 31
0.0
  0
LINE
  5
588A
  8
0
 10
-73.167682389357537
 20
228.40156752015551
 30
0.0
 11
-88.285184111939316
 21
228.40156752015551
 31
0.0
  0
LINE
  5
588B
  8
0
 10
41.714815888060677
 20
536.54369800308586
 30
0.0
 11
41.714815888060677
 21
375.40156752015548
 31
0.0
  0
LINE
  5
588C
  8
0
 10
-80.285184111939316
 20
605.40156752015548
 30
0.0
 11
-80.285184112799016
 21
526.40156751941731
 31
0.0
  0
LINE
  5
588D
  8
0
 10
-88.285184111939316
 20
608.40156752015548
 30
0.0
 11
-80.285184111939756
 21
608.40156752015548
 31
0.0
  0
ARC
  5
588E
  8
0
 10
-18.285184111939309
 20
536.54369800308586
 30
0.0
 40
60.0
 50
0.0
 51
80.000000000001407
  0
LINE
  5
588F
  8
0
 10
-83.285184112795264
 20
523.40156751941743
 30
0.0
 11
-88.285184111939316
 21
523.40156751941151
 31
0.0
  0
LINE
  5
5890
  8
0
 10
-88.285184111373951
 20
320.5653257781567
 30
0.0
 11
-88.285184111079616
 21
228.40156751976949
 31
0.0
  0
ARC
  5
5891
  8
0
 10
-85.285184111939316
 20
386.40156752015548
 30
0.0
 40
130.0
 50
40.97790840212285
 51
91.322327680532212
  0
ARC
  5
5892
  8
0
 10
-82.285184111939316
 20
430.40156752015542
 30
0.0
 40
110.0
 50
266.87322388671657
 51
2.0212237723017719
  0
ARC
  5
5893
  8
0
 10
-32.316292571032477
 20
432.16505218782089
 30
0.0
 40
60.0
 50
2.0212237723017719
 51
40.826001250828668
  0
ARC
  5
5894
  8
0
 10
-98.285184111939316
 20
375.40156752015548
 30
0.0
 40
140.0
 50
290.67534159762022
 51
0.0
  0
ARC
  5
5895
  8
0
 10
-27.670739368085378
 20
188.28235366567941
 30
0.0
 40
60.0
 50
110.6753415976202
 51
137.2077416134172
  0
ARC
  5
5896
  8
0
 10
-73.167682389357537
 20
230.40156752015551
 30
0.0
 40
2.0
 50
270.0
 51
317.20774161341723
  0
ARC
  5
5897
  8
0
 10
-83.285184111939316
 20
605.40156752015548
 30
0.0
 40
3.0
 50
0.0
 51
90.0
  0
ARC
  5
5898
  8
0
 10
-83.285184112799016
 20
526.40156751941743
 30
0.0
 40
3.0
 50
270.0
 51
0.0
  0
LINE
  5
5899
  8
0
 10
-9.6027752285926908
 20
585.78408565369591
 30
0.0
 11
-80.285184111939316
 21
598.24730140129759
 31
0.0
  0
LINE
  5
589A
  8
0
 10
31.714815888060691
 20
536.54369800308586
 30
0.0
 11
31.714815888060691
 21
375.40156752015548
 31
0.0
  0
ARC
  5
589B
  8
0
 10
-18.285184111939309
 20
536.54369800308586
 30
0.0
 40
50.0
 50
0.0
 51
80.000000000001407
  0
ARC
  5
589C
  8
0
 10
-98.285184111939316
 20
375.40156752015548
 30
0.0
 40
130.0
 50
290.67534159762369
 51
0.0
  0
ARC
  5
589D
  8
0
 10
-27.670739368085378
 20
188.28235366567941
 30
0.0
 40
70.0
 50
110.6753415976237
 51
145.03110641759511
  0
LINE
  5
589E
  8
0
 10
339.04704789029353
 20
598.24730140129805
 30
0.0
 11
339.04704789029353
 21
520.15156752015548
 31
0.0
  0
LINE
  5
589F
  8
0
 10
319.0470478902937
 20
564.81257808474879
 30
0.0
 11
319.0470478902937
 21
326.37605399493759
 31
0.0
  0
LINE
  5
58A0
  8
0
 10
329.04704789029353
 20
554.65831196589124
 30
0.0
 11
329.04704789029353
 21
338.90031123081729
 31
0.0
  0
LINE
  5
58A1
  8
0
 10
329.04704789029353
 20
608.40156752015548
 30
0.0
 11
339.04704789029353
 21
598.24730140129793
 31
0.0
  0
LINE
  5
58A2
  8
0
 10
359.04704789029353
 20
239.40156752015551
 30
0.0
 11
348.04704789028688
 21
228.40156752015781
 31
0.0
  0
ARC
  5
58A3
  8
0
 10
279.04704789029353
 20
239.40156752015551
 30
0.0
 40
9.0
 50
0.0
 51
180.0
  0
LINE
  5
58A4
  8
0
 10
288.04704789029353
 20
239.40156752015551
 30
0.0
 11
288.0470478902871
 21
228.40156752015781
 31
0.0
  0
LINE
  5
58A5
  8
0
 10
270.04704789029353
 20
239.40156752015551
 30
0.0
 11
270.04704789028722
 21
228.4015675201579
 31
0.0
  0
LINE
  5
58A6
  8
0
 10
359.04704789029353
 20
320.5653257781567
 30
0.0
 11
359.04704789029353
 21
239.40156752015551
 31
0.0
  0
LINE
  5
58A7
  8
0
 10
359.04704789029353
 20
600.40156752015548
 30
0.0
 11
359.04704789029353
 21
531.4015675201556
 31
0.0
  0
LINE
  5
58A8
  8
0
 10
330.11847646172242
 20
447.50569035298389
 30
0.0
 11
330.11847646172242
 21
390.91340351178297
 31
0.0
  0
ARC
  5
58A9
  8
0
 10
430.11847646172208
 20
390.91340351178297
 30
0.0
 40
100.0
 50
180.0
 51
224.7069386694435
  0
ARC
  5
58AA
  8
0
 10
630.11847646172214
 20
447.50569035298389
 30
0.0
 40
300.0
 50
165.9863574179364
 51
180.0
  0
ARC
  5
58AB
  8
0
 10
509.04704789029341
 20
338.90031123081741
 30
0.0
 40
180.0
 50
180.0
 51
213.5573097619193
  0
ARC
  5
58AC
  8
0
 10
499.04704789029392
 20
326.37605399493759
 30
0.0
 40
180.0
 50
180.0
 51
212.97702564233941
  0
ARC
  5
58AD
  8
0
 10
429.04704789029353
 20
554.65831196589124
 30
0.0
 40
100.0
 50
154.15806723683181
 51
180.0
  0
ARC
  5
58AE
  8
0
 10
419.04704789029381
 20
564.81257808474879
 30
0.0
 40
100.0
 50
154.15806723683181
 51
180.0
  0
LINE
  5
58AF
  8
0
 10
303.72807098476642
 20
586.88967587372269
 30
0.0
 11
144.4593034416873
 21
586.88967587372269
 31
0.0
  0
LINE
  5
58B0
  8
AM_7
 10
123.0786138723015
 20
570.4015675201556
 30
0.0
 11
100.0154819082847
 21
570.4015675201556
 31
0.0
  0
LINE
  5
58B1
  8
AM_7
 10
111.5470478902931
 20
583.32620490180398
 30
0.0
 11
111.5470478902931
 21
557.47693013850721
 31
0.0
  0
LINE
  5
58B2
  8
0
 10
99.047047890293129
 20
600.40156752015548
 30
0.0
 11
99.047047890293129
 21
531.4015675201556
 31
0.0
  0
LINE
  5
58B3
  8
0
 10
119.0470478902931
 20
523.4015675201556
 30
0.0
 11
107.0470478902931
 21
523.4015675201556
 31
0.0
  0
ARC
  5
58B4
  8
0
 10
107.0470478902931
 20
600.40156752015548
 30
0.0
 40
8.0
 50
90.0
 51
180.0
  0
ARC
  5
58B5
  8
0
 10
107.0470478902931
 20
531.4015675201556
 30
0.0
 40
8.0
 50
180.0
 51
270.0
  0
LINE
  5
58B6
  8
0
 10
119.0470478902931
 20
598.24730140129805
 30
0.0
 11
119.0470478902931
 21
520.15156752015548
 31
0.0
  0
LINE
  5
58B7
  8
0
 10
129.04704789029319
 20
608.40156752015582
 30
0.0
 11
119.0470478902932
 21
598.24730140129805
 31
0.0
  0
LINE
  5
58B8
  8
0
 10
99.047047890293129
 20
600.40156752015548
 30
0.0
 11
99.047047890293129
 21
531.4015675201556
 31
0.0
  0
ARC
  5
58B9
  8
0
 10
29.047047890293019
 20
554.65831196589124
 30
0.0
 40
100.0
 50
0.0
 51
25.841932763168199
  0
ARC
  5
58BA
  8
0
 10
39.047047890292902
 20
564.81257808474879
 30
0.0
 40
100.0
 50
0.0
 51
25.841932763168199
  0
LINE
  5
58BB
  8
0
 10
229.0470478902931
 20
228.40156752015551
 30
0.0
 11
110.0470478903021
 21
228.40156752015551
 31
0.0
  0
LINE
  5
58BC
  8
AM_7
 10
194.18300252167381
 20
239.40156752015551
 30
0.0
 11
164.25336453372481
 21
239.40156752015551
 31
0.0
  0
LINE
  5
58BD
  8
AM_7
 10
179.0470478902931
 20
254.15021008108801
 30
0.0
 11
179.0470478902931
 21
221.69284087902381
 31
0.0
  0
LINE
  5
58BE
  8
0
 10
99.047047890293015
 20
239.4015675201556
 30
0.0
 11
110.04704789029959
 21
228.4015675201579
 31
0.0
  0
ARC
  5
58BF
  8
0
 10
179.0470478902931
 20
239.40156752015551
 30
0.0
 40
9.0
 50
0.0
 51
180.0
  0
LINE
  5
58C0
  8
0
 10
170.04704789029299
 20
239.40156752015551
 30
0.0
 11
170.04704789029961
 21
228.4015675201579
 31
0.0
  0
LINE
  5
58C1
  8
0
 10
188.0470478902931
 20
239.40156752015551
 30
0.0
 11
188.04704789029961
 21
228.4015675201579
 31
0.0
  0
LINE
  5
58C2
  8
0
 10
139.0470478902929
 20
564.81257808474879
 30
0.0
 11
139.0470478902929
 21
326.37605399493759
 31
0.0
  0
LINE
  5
58C3
  8
0
 10
129.04704789029299
 20
554.65831196589124
 30
0.0
 11
129.0470478902929
 21
338.90031123081729
 31
0.0
  0
LINE
  5
58C4
  8
0
 10
99.047047890293129
 20
320.5653257781567
 30
0.0
 11
99.047047890293129
 21
239.40156752015551
 31
0.0
  0
LINE
  5
58C5
  8
0
 10
127.9756193188646
 20
447.50569035298389
 30
0.0
 11
127.9756193188646
 21
390.91340351178297
 31
0.0
  0
ARC
  5
58C6
  8
0
 10
27.975619318864581
 20
390.91340351178297
 30
0.0
 40
100.0
 50
315.2930613305565
 51
0.0
  0
ARC
  5
58C7
  8
0
 10
-172.0243806811354
 20
447.50569035298389
 30
0.0
 40
300.0
 50
0.0
 51
14.013642582063531
  0
ARC
  5
58C8
  8
0
 10
-50.952952109706978
 20
338.90031123081741
 30
0.0
 40
180.0
 50
326.44269023808067
 51
0.0
  0
ARC
  5
58C9
  8
0
 10
-40.952952109707098
 20
326.37605399493759
 30
0.0
 40
180.0
 50
327.02297435766059
 51
0.0
  0
LINE
  5
58CA
  8
AM_3
 10
-88.285184111939316
 20
605.9015675201556
 30
0.0
 11
-86.285184111939316
 21
605.9015675201556
 31
0.0
  0
DIMENSION
  5
58CC
  8
AM_5
  2
*D13
 10
119.0470478902931
 20
643.4015675201556
 30
0.0
 11
229.0470478902933
 21
645.90156752015548
 31
0.0
 70
     0
  1
\A1;220
 13
339.04704789029353
 23
598.24730140129805
 33
0.0
 14
119.0470478902931
 24
598.24730140129805
 34
0.0
1001
ACAD
1000
DSTYLE
1002
{
1070
   286
1070
     0
1070
   274
1070
     2
1070
   284
1070
     0
1070
   283
1070
     1
1070
   146
1040
0.645161
1070
   272
1070
     4
1070
    47
1040
0.0
1070
    48
1040
0.0
1070
    72
1070
     0
1070
    71
1070
     0
1002
}
  0
DIMENSION
  5
58CD
  8
AM_5
  2
*D14
 10
99.047047890293129
 20
657.4015675201556
 30
0.0
 11
229.0470478902933
 21
659.9015675201556
 31
0.0
 70
     0
  1
\A1;260
 13
359.04704789029353
 23
600.40156752015548
 33
0.0
 14
99.047047890293129
 24
600.40156752015548
 34
0.0
1001
ACAD
1000
DSTYLE
1002
{
1070
   286
1070
     0
1070
   274
1070
     2
1070
   284
1070
     0
1070
   283
1070
     1
1070
   146
1040
0.645161
1070
   272
1070
     4
1070
    47
1040
0.0
1070
    48
1040
0.0
1070
    72
1070
     0
1070
    71
1070
     0
1002
}
  0
DIMENSION
  5
58CE
  8
AM_5
  2
*D15
 10
386.22264918767911
 20
608.40156752015548
 30
0.0
 11
383.722649187679
 21
589.40156752015571
 31
0.0
 70
     0
  1
\A1;38
 13
357.4964894448226
 23
570.4015675201556
 33
0.0
 14
351.04704789029353
 24
608.40156752015548
 34
0.0
 50
90.0
1001
ACAD
1000
DSTYLE
1002
{
1070
   286
1070
     0
1070
   274
1070
     2
1070
   284
1070
     0
1070
   283
1070
     1
1070
   146
1040
0.645161
1070
   272
1070
     4
1070
    47
1040
0.0
1070
    48
1040
0.0
1070
    72
1070
     0
1070
    71
1070
     0
1002
}
  0
DIMENSION
  5
58CF
  8
AM_5
  2
*D16
 10
393.222649187679
 20
608.40156752015548
 30
0.0
 11
390.722649187679
 21
565.90156752015571
 31
0.0
 70
     0
  1
\A1;85
 13
351.04704789029353
 23
523.4015675201556
 33
0.0
 14
351.04704789029353
 24
608.40156752015548
 34
0.0
 50
90.0
1001
ACAD
1000
DSTYLE
1002
{
1070
   286
1070
     0
1070
   274
1070
     2
1070
   284
1070
     0
1070
   283
1070
     1
1070
   146
1040
0.645161
1070
   272
1070
     4
1070
    47
1040
0.0
1070
    48
1040
0.0
1070
    72
1070
     0
1070
    71
1070
     0
1002
}
  0
DIMENSION
  5
58D0
  8
AM_5
  2
*D17
 10
386.22264918767911
 20
570.4015675201556
 30
0.0
 11
383.72264918767888
 21
404.90156752015548
 31
0.0
 70
     0
  1
\A1;331
 13
293.84073124686188
 23
239.40156752015551
 33
0.0
 14
357.4964894448226
 24
570.4015675201556
 34
0.0
 50
90.0
1001
ACAD
1000
DSTYLE
1002
{
1070
   286
1070
     0
1070
   274
1070
     2
1070
   284
1070
     0
1070
   283
1070
     1
1070
   146
1040
0.645161
1070
   272
1070
     4
1070
    47
1040
0.0
1070
    48
1040
0.0
1070
    72
1070
     0
1070
    71
1070
     0
1002
}
  0
DIMENSION
  5
58D1
  8
AM_5
  2
*D18
 10
400.222649187679
 20
608.40156752015548
 30
0.0
 11
397.72264918767888
 21
418.4015675201556
 31
0.0
 70
     0
  1
\A1;380
 13
348.04704789028477
 23
228.40156752015551
 33
0.0
 14
351.04704789029353
 24
608.40156752015548
 34
0.0
 50
90.0
1001
ACAD
1000
DSTYLE
1002
{
1070
   286
1070
     0
1070
   274
1070
     2
1070
   284
1070
     0
1070
   283
1070
     1
1070
   146
1040
0.645161
1070
   272
1070
     4
1070
    47
1040
0.0
1070
    48
1040
0.0
1070
    72
1070
     0
1070
    71
1070
     0
1002
}
  0
DIMENSION
  5
58D2
  8
AM_5
  2
*D19
 10
179.0470478902931
 20
195.40156752015551
 30
0.0
 11
229.0470478902933
 21
197.90156752015551
 31
0.0
 70
     0
  1
\A1;100
 13
279.04704789029353
 23
221.69284087902381
 33
0.0
 14
179.0470478902931
 24
221.69284087902381
 34
0.0
1001
ACAD
1000
DSTYLE
1002
{
1070
   286
1070
     0
1070
   274
1070
     2
1070
   284
1070
     0
1070
   283
1070
     1
1070
   146
1040
0.645161
1070
   272
1070
     4
1070
    47
1040
0.0
1070
    48
1040
0.0
1070
    72
1070
     0
1070
    71
1070
     0
1002
}
  0
LINE
  5
58D4
  8
AM_7
 10
-45.737681210432129
 20
239.40156752015551
 30
0.0
 11
-101.81918875123
 21
239.40156752015551
 31
0.0
  0
DIMENSION
  5
58D5
  8
AM_5
  2
*D20
 10
-88.285184111939316
 20
643.4015675201556
 30
0.0
 11
-23.285184111939309
 21
645.90156752015548
 31
0.0
 70
     0
  1
\A1;130
 13
41.714815888060677
 23
536.54369800308586
 33
0.0
 14
-88.285184111939316
 24
608.40156752015548
 34
0.0
1001
ACAD
1000
DSTYLE
1002
{
1070
   286
1070
     0
1070
   274
1070
     2
1070
   284
1070
     0
1070
   283
1070
     1
1070
   146
1040
0.645161
1070
   272
1070
     4
1070
    47
1040
0.0
1070
    48
1040
0.0
1070
    72
1070
     0
1070
    71
1070
     0
1002
}
  0
DIMENSION
  5
58D6
  8
AM_5
  2
*D21
 10
41.71481588806067
 20
452.2465525728033
 30
0.0
 11
48.94169390121499
 21
452.2465525728033
 31
0.0
 70
   128
  1
\A1;14
 13
27.714815888060681
 23
430.40156752015542
 33
0.0
 14
41.714815888060677
 24
536.54369800308586
 34
0.0
1001
ACAD
1000
DSTYLE
1002
{
1070
   286
1070
     0
1070
   274
1070
     2
1070
   284
1070
     0
1070
   283
1070
     1
1070
   146
1040
0.645161
1070
   272
1070
     4
1070
    47
1040
0.0
1070
    48
1040
0.0
1070
    72
1070
     0
1070
    71
1070
     0
1002
}
  0
DIMENSION
  5
58D7
  8
AM_5
  2
*D22
 10
-80.285184111939316
 20
632.96365001523895
 30
0.0
 11
-84.285184111939316
 21
635.46365001523895
 31
0.0
 70
     0
  1
\A1;8
 13
-88.285184111939316
 23
608.40156752015548
 33
0.0
 14
-80.285184111939316
 24
605.40156752015548
 34
0.0
1001
ACAD
1000
DSTYLE
1002
{
1070
   286
1070
     0
1070
   274
1070
     2
1070
   284
1070
     0
1070
   283
1070
     1
1070
   146
1040
0.645161
1070
   272
1070
     4
1070
    47
1040
0.0
1070
    48
1040
0.0
1070
    72
1070
     0
1070
    71
1070
     0
1002
}
  0
DIMENSION
  5
58D8
  8
AM_5
  2
*D23
 10
111.5470478902931
 20
650.40156752015548
 30
0.0
 11
229.0470478902933
 21
652.9015675201556
 31
0.0
 70
     0
  1
\A1;235
 13
346.54704789029353
 23
582.95735698514545
 33
0.0
 14
111.5470478902931
 24
582.95735698514545
 34
0.0
1001
ACAD
1000
DSTYLE
1002
{
1070
   286
1070
     0
1070
   274
1070
     2
1070
   284
1070
     0
1070
   283
1070
     1
1070
   146
1040
0.645161
1070
   272
1070
     4
1070
    47
1040
0.0
1070
    48
1040
0.0
1070
    72
1070
     0
1070
    71
1070
     0
1002
}
  0
LINE
  5
58DA
  8
0
 10
221.2970478902935
 20
328.3153257783427
 30
0.0
 11
221.2970478902935
 21
392.81532577867779
 31
0.0
  0
LINE
  5
58DB
  8
0
 10
236.7970478902935
 20
328.3153257783427
 30
0.0
 11
236.7970478902935
 21
392.81532577867779
 31
0.0
  0
ARC
  5
58DC
  8
0
 10
229.0470478902935
 20
392.81532577867779
 30
0.0
 40
7.75
 50
0.0
 51
180.0
  0
ARC
  5
58DD
  8
0
 10
229.04704789029961
 20
328.3153257783427
 30
0.0
 40
7.7500000000060529
 50
180.0
 51
0.0
  0
LINE
  5
58DE
  8
0
 10
253.2970478902827
 20
348.31532577803227
 30
0.0
 11
253.2970478902827
 21
412.81532577836759
 31
0.0
  0
LINE
  5
58DF
  8
0
 10
268.79704789028273
 20
348.31532577803227
 30
0.0
 11
268.79704789028273
 21
412.81532577836759
 31
0.0
  0
ARC
  5
58E0
  8
0
 10
261.04704789028261
 20
412.81532577836759
 30
0.0
 40
7.75
 50
0.0
 51
180.0
  0
ARC
  5
58E1
  8
0
 10
261.0470478902887
 20
348.31532577803227
 30
0.0
 40
7.7500000000060529
 50
180.0
 51
0.0
  0
LINE
  5
58E2
  8
0
 10
189.29704789029171
 20
348.3153257779822
 30
0.0
 11
189.29704789029171
 21
412.8153257783174
 31
0.0
  0
LINE
  5
58E3
  8
0
 10
204.79704789029179
 20
348.3153257779822
 30
0.0
 11
204.79704789029179
 21
412.8153257783174
 31
0.0
  0
ARC
  5
58E4
  8
0
 10
197.04704789029171
 20
412.8153257783174
 30
0.0
 40
7.75
 50
0.0
 51
180.0
  0
ARC
  5
58E5
  8
0
 10
197.04704789029779
 20
348.3153257779822
 30
0.0
 40
7.7500000000060529
 50
180.0
 51
0.0
  0
LINE
  5
58E6
  8
0
 10
285.29704789028722
 20
368.31532577839261
 30
0.0
 11
285.29704789028722
 21
412.81532577839261
 31
0.0
  0
LINE
  5
58E7
  8
0
 10
300.7970478902871
 20
368.31532577839261
 30
0.0
 11
300.7970478902871
 21
412.81532577839261
 31
0.0
  0
ARC
  5
58E8
  8
0
 10
293.04704789028722
 20
412.81532577839261
 30
0.0
 40
7.75
 50
0.0
 51
180.0
  0
ARC
  5
58E9
  8
0
 10
293.04704789029307
 20
368.31532577839261
 30
0.0
 40
7.7500000000060529
 50
180.0
 51
0.0
  0
LINE
  5
58EA
  8
0
 10
157.2970478902873
 20
368.31532577829228
 30
0.0
 11
157.2970478902873
 21
412.81532577829228
 31
0.0
  0
LINE
  5
58EB
  8
0
 10
172.7970478902873
 20
368.31532577829228
 30
0.0
 11
172.7970478902873
 21
412.81532577829228
 31
0.0
  0
ARC
  5
58EC
  8
0
 10
165.0470478902873
 20
412.81532577829228
 30
0.0
 40
7.75
 50
0.0
 51
180.0
  0
ARC
  5
58ED
  8
0
 10
165.04704789029319
 20
368.31532577829228
 30
0.0
 40
7.7500000000060529
 50
180.0
 51
0.0
  0
CIRCLE
  5
58EE
  8
0
 10
279.04704789029353
 20
239.40156752015551
 30
0.0
 40
3.75
  0
CIRCLE
  5
58F0
  8
0
 10
179.0470478902931
 20
239.40156752015551
 30
0.0
 40
3.75
  0
CIRCLE
  5
58F1
  8
0
 10
346.54704789029353
 20
570.4015675201556
 30
0.0
 40
2.75
  0
CIRCLE
  5
58F2
  8
0
 10
111.5470478902931
 20
570.4015675201556
 30
0.0
 40
2.75
  0
LINE
  5
58F3
  8
AM_7
 10
229.0470478902935
 20
223.40156752015551
 30
0.0
 11
229.0470478902935
 21
613.40156752015548
 31
0.0
  0
LINE
  5
58F4
  8
AM_1
 10
-123.2851841119324
 20
594.40156752014775
 30
0.0
 11
-88.285184111932381
 21
594.40156752015105
 31
0.0
  0
LINE
  5
58F5
  8
AM_1
 10
-123.28518411193249
 20
592.40156752014775
 30
0.0
 11
-86.285184111932494
 21
592.40156752015105
 31
0.0
  0
LINE
  5
58F6
  8
AM_1
 10
-123.28518411193259
 20
548.40156752014786
 30
0.0
 11
-86.285184111932494
 21
548.40156752015105
 31
0.0
  0
LINE
  5
58F7
  8
AM_1
 10
-123.2851841119324
 20
546.40156752014775
 30
0.0
 11
-88.285184111932381
 21
546.40156752015105
 31
0.0
  0
LINE
  5
58F8
  8
AM_1
 10
-88.285184111932494
 20
605.90156752015116
 30
0.0
 11
-88.285184111932494
 21
534.90156752015116
 31
0.0
  0
LINE
  5
58F9
  8
AM_1
 10
-86.285184111932494
 20
605.90156752015116
 30
0.0
 11
-86.285184111932494
 21
534.90156752015116
 31
0.0
  0
LINE
  5
58FA
  8
AM_1
 10
-123.28518411193249
 20
594.40156752014775
 30
0.0
 11
-123.28518411193249
 21
546.40156752014775
 31
0.0
  0
LINE
  5
58FB
  8
AM_1
 10
-88.285184111932494
 20
605.90156752015116
 30
0.0
 11
-86.285184111932494
 21
605.90156752015116
 31
0.0
  0
LINE
  5
58FC
  8
AM_1
 10
-88.285184111932494
 20
534.90156752015116
 30
0.0
 11
-86.285184111932494
 21
534.90156752015116
 31
0.0
  0
LINE
  5
58FD
  8
AM_7
 10
-140.9619037055042
 20
570.40156752012263
 30
0.0
 11
-78.390252186062526
 21
570.40156752019209
 31
0.0
  0
LINE
  5
58FE
  8
AM_1
 10
-123.28518411193249
 20
601.40156752013991
 30
0.0
 11
-123.28518411193249
 21
539.40156752014025
 31
0.0
  0
LINE
  5
58FF
  8
AM_1
 10
-133.2851841119323
 20
598.58176361742187
 30
0.0
 11
-133.2851841119323
 21
542.22137142285874
 31
0.0
  0
LINE
  5
5900
  8
AM_1
 10
-132.48130024707049
 20
599.56234429311314
 30
0.0
 11
-123.2851841119324
 21
601.40156752014059
 31
0.0
  0
ARC
  5
5901
  8
AM_1
 10
-132.28518411193249
 20
598.58176361742187
 30
0.0
 40
1.0
 50
101.3099324740176
 51
180.0
  0
LINE
  5
5902
  8
AM_1
 10
-132.48130024707049
 20
541.24079074716769
 30
0.0
 11
-123.28518411193259
 21
539.40156752014025
 31
0.0
  0
ARC
  5
5903
  8
AM_1
 10
-132.28518411193249
 20
542.22137142285874
 30
0.0
 40
1.0
 50
180.0
 51
258.69006752598227
  0
LINE
  5
5904
  8
AM_1
 10
-135.58518411193251
 20
571.40156752014025
 30
0.0
 11
-135.58518411193251
 21
569.40156752014025
 31
0.0
  0
LINE
  5
5905
  8
AM_1
 10
-135.58518411193279
 20
571.40156752014025
 30
0.0
 11
-135.16808809319721
 21
571.40156752014025
 31
0.0
  0
LINE
  5
5906
  8
AM_1
 10
-135.58518411193251
 20
569.40156752014025
 30
0.0
 11
-135.16808809319701
 21
569.40156752014025
 31
0.0
  0
LINE
  5
5907
  8
AM_1
 10
-133.33008893861501
 20
587.09808030027239
 30
0.0
 11
-135.16808809319701
 21
571.40156752014025
 31
0.0
  0
LINE
  5
5908
  8
AM_1
 10
-135.16808809319701
 20
569.40156752014013
 30
0.0
 11
-133.33008893861501
 21
553.70505474000834
 31
0.0
  0
ARC
  5
5909
  8
AM_1
 10
-132.83348195516089
 20
553.76320544064686
 30
0.0
 40
0.5
 50
186.67869356880001
 51
205.39077887618319
  0
ARC
  5
590A
  8
AM_1
 10
-132.83348195516109
 20
587.03992959963375
 30
0.0
 40
0.5
 50
154.60922112374979
 51
173.3213064311999
  0
LINE
  5
590B
  8
AM_1
 10
-88.285184110201726
 20
189.5516817050688
 30
0.0
 11
-88.285184110201726
 21
680.09998803211874
 31
0.0
  0
LINE
  5
590C
  8
AM_1
 10
-123.285184113927
 20
189.5516817050688
 30
0.0
 11
-123.285184113927
 21
680.09998803211874
 31
0.0
  0
LINE
  5
590D
  8
0
 10
107.0470478902931
 20
608.40156752015548
 30
0.0
 11
351.04704789029353
 21
608.40156752015548
 31
0.0
  0
DIMENSION
  5
60E8
  8
AM_5
  2
*D24
 10
345.4733841358626
 20
567.86981987427475
 30
0.0
 11
377.40523507018401
 21
619.4850562772458
 31
0.0
 70
   131
  1
2-<>孔
 15
347.62071164472383
 25
572.93331516603621
 35
0.0
 40
0.0
1001
ACAD_DSTYLE_DIMRADIAL_EXTENSION
1070
   387
1070
     1
1070
   388
1040
0.0
1070
   390
1040
0.0
1001
ACAD_DSTYLE_DIMINSPECT
1070
   396
1000
100%
1070
   395
1000

1070
   394
1070
    33
1070
   393
1070
     0
  0
DIMENSION
  5
611F
  8
AM_5
  2
*D25
 10
276.87401541068323
 20
242.45777920172449
 30
0.0
 11
308.29013081964069
 21
212.39785041604719
 31
0.0
 70
   131
  1
2-<>孔
 15
281.2200803699036
 25
236.3453558385865
 35
0.0
 40
0.0
1001
ACAD_DSTYLE_DIMRADIAL_EXTENSION
1070
   387
1070
     1
1070
   388
1040
0.0
1070
   390
1040
0.0
1001
ACAD_DSTYLE_DIMINSPECT
1070
   396
1000
100%
1070
   395
1000

1070
   394
1070
    33
1070
   393
1070
     0
  0
DIMENSION
  5
6151
  8
AM_5
  2
*D26
 10
279.04704789029353
 20
239.40156752015551
 30
0.0
 11
291.11653498494752
 21
250.82611237043929
 31
0.0
 70
   132
 15
285.58324577249863
 25
245.5884986854953
 35
0.0
 40
0.0
1001
ACAD_DSTYLE_DIMRADIAL_EXTENSION
1070
   387
1070
     1
1070
   388
1040
0.0
1070
   390
1040
3.1415926535897931
1001
ACAD_DSTYLE_DIMINSPECT
1070
   396
1000
100%
1070
   395
1000

1070
   394
1070
    33
1070
   393
1070
     0
1001
ACAD
1000
DSTYLE
1002
{
1070
   172
1070
     1
1002
}
  0
VIEWPORT
  5
95A
 67
     1
  8
0
  6
CONTINUOUS
 10
128.5
 20
97.5
 30
0.0
 40
386.73855140186919
 41
222.18000000000001
 68
     1
 69
     1
1001
ACAD
1000
MVIEW
1002
{
1070
    16
1010
0.0
1020
0.0
1030
0.0
1010
0.0
1020
0.0
1030
1.0
1040
0.0
1040
222.18000000000001
1040
128.5
1040
97.5
1040
50.0
1040
0.0
1040
0.0
1070
     0
1070
   100
1070
     1
1070
     1
1070
     0
1070
     0
1070
     0
1070
     0
1040
0.0
1040
0.0
1040
0.0
1040
10.0
1040
10.0
1040
10.0
1040
10.0
1070
     0
1002
{
1002
}
1002
}
1001
GENIUS_GENOBJ-N-SDF_13
1002
{
1000
OWNER
1000
GEN
1002
}
1001
GENIUS_GENODEF_13
1002
{
1000
HIER
1070
     0
1002
}
1002
{
1000
MANEDIT
1070
     0
1002
}
1002
{
1000
NOSEL
1070
     0
1002
}
1002
{
1000
BEHIND
1070
     0
1002
}
1002
{
1000
OTHER
1070
     0
1002
}
1002
{
1000
REACTOR
1002
}
1001
GENIUS_GENSCREG_15
1000
PF
1040
1.0
1000
DF
1040
1.0
1000
MIN
1011
-64.869275700934566
1021
0.0
1031
0.0
1021
-13.59
1031
0.0
1000
MAX
1011
321.86927570093462
1021
0.0
1031
0.0
1021
208.59
1031
0.0
1000
FLAGS
1070
     4
  0
ENDSEC
  0
EOF
