  0
SECTION
  2
HEADER
  9
$ACADVER
  1
AC1009
  9
$INSBASE
 10
0.0
 20
0.0
 30
0.0
  9
$EXTMIN
 10
24.99411070820134
 20
8.995799884918938
 30
-0.0000000000000129
  9
$EXTMAX
 10
412.00591181978558
 20
285.00421618155281
 30
0.0000000000000023
  9
$LIMMIN
 10
24.999999999999979
 20
8.9999999999999964
  9
$LIMMAX
 10
411.99999999999989
 20
284.99999999999989
  9
$ORTHOMODE
 70
     1
  9
$REGENMODE
 70
     1
  9
$FILLMODE
 70
     1
  9
$QTEXTMODE
 70
     0
  9
$MIRRTEXT
 70
     1
  9
$DRAGMODE
 70
     2
  9
$LTSCALE
 40
5.0
  9
$OSMODE
 70
    55
  9
$ATTMODE
 70
     1
  9
$TEXTSIZE
 40
3.0
  9
$TRACEWID
 40
0.05
  9
$TEXTSTYLE
  7
STANDARD
  9
$CLAYER
  8
0
  9
$CELTYPE
  6
BYLAYER
  9
$CECOLOR
 62
   256
  9
$DIMSCALE
 40
1.0
  9
$DIMASZ
 40
2.5
  9
$DIMEXO
 40
1.0
  9
$DIMDLI
 40
7.0
  9
$DIMRND
 40
0.0
  9
$DIMDLE
 40
0.0
  9
$DIMEXE
 40
1.0
  9
$DIMTP
 40
0.1
  9
$DIMTM
 40
0.1
  9
$DIMTXT
 40
3.0
  9
$DIMCEN
 40
0.0
  9
$DIMTSZ
 40
0.0
  9
$DIMTOL
 70
     0
  9
$DIMLIM
 70
     0
  9
$DIMTIH
 70
     0
  9
$DIMTOH
 70
     0
  9
$DIMSE1
 70
     0
  9
$DIMSE2
 70
     0
  9
$DIMTAD
 70
     3
  9
$DIMZIN
 70
     8
  9
$DIMBLK
  1
OPEN30
  9
$DIMASO
 70
     1
  9
$DIMSHO
 70
     1
  9
$DIMPOST
  1

  9
$DIMAPOST
  1
"
  9
$DIMALT
 70
     0
  9
$DIMALTD
 70
     2
  9
$DIMALTF
 40
0.0393701
  9
$DIMLFAC
 40
1.0
  9
$DIMTOFL
 70
     1
  9
$DIMTVP
 40
0.0
  9
$DIMTIX
 70
     0
  9
$DIMSOXD
 70
     0
  9
$DIMSAH
 70
     0
  9
$DIMBLK1
  1

  9
$DIMBLK2
  1

  9
$DIMSTYLE
  2
AM_JIS
  9
$DIMCLRD
 70
     7
  9
$DIMCLRE
 70
     7
  9
$DIMCLRT
 70
     7
  9
$DIMTFAC
 40
0.71
  9
$DIMGAP
 40
1.0
  9
$LUNITS
 70
     2
  9
$LUPREC
 70
     4
  9
$SKETCHINC
 40
0.1
  9
$FILLETRAD
 40
0.0
  9
$AUNITS
 70
     0
  9
$AUPREC
 70
     0
  9
$MENU
  1
acad
  9
$ELEVATION
 40
0.0
  9
$PELEVATION
 40
0.0
  9
$THICKNESS
 40
0.0
  9
$LIMCHECK
 70
     0
  9
$BLIPMODE
 70
     0
  9
$CHAMFERA
 40
0.0
  9
$CHAMFERB
 40
0.0
  9
$SKPOLY
 70
     0
  9
$TDCREATE
 40
2455755.6568701151
  9
$TDUPDATE
 40
2458527.4344735881
  9
$TDINDWG
 40
0.2932907292
  9
$TDUSRTIMER
 40
0.293290544
  9
$USRTIMER
 70
     1
  9
$ANGBASE
 50
0.0
  9
$ANGDIR
 70
     0
  9
$PDMODE
 70
     0
  9
$PDSIZE
 40
0.0
  9
$PLINEWID
 40
0.0
  9
$COORDS
 70
     1
  9
$SPLFRAME
 70
     0
  9
$SPLINETYPE
 70
     6
  9
$SPLINESEGS
 70
     8
  9
$ATTDIA
 70
     1
  9
$ATTREQ
 70
     1
  9
$HANDLING
 70
     1
  9
$HANDSEED
  5
5CCC
  9
$SURFTAB1
 70
     6
  9
$SURFTAB2
 70
     6
  9
$SURFTYPE
 70
     6
  9
$SURFU
 70
     6
  9
$SURFV
 70
     6
  9
$UCSNAME
  2

  9
$UCSORG
 10
0.0
 20
0.0
 30
0.0
  9
$UCSXDIR
 10
1.0
 20
0.0
 30
0.0
  9
$UCSYDIR
 10
0.0
 20
1.0
 30
0.0
  9
$PUCSNAME
  2

  9
$PUCSORG
 10
0.0
 20
0.0
 30
0.0
  9
$PUCSXDIR
 10
1.0
 20
0.0
 30
0.0
  9
$PUCSYDIR
 10
0.0
 20
1.0
 30
0.0
  9
$USERI1
 70
     0
  9
$USERI2
 70
     0
  9
$USERI3
 70
     0
  9
$USERI4
 70
     0
  9
$USERI5
 70
     0
  9
$USERR1
 40
0.0
  9
$USERR2
 40
0.0
  9
$USERR3
 40
0.0
  9
$USERR4
 40
0.0
  9
$USERR5
 40
0.0
  9
$WORLDVIEW
 70
     1
  9
$SHADEDGE
 70
     3
  9
$SHADEDIF
 70
    70
  9
$TILEMODE
 70
     1
  9
$MAXACTVP
 70
    16
  9
$PLIMCHECK
 70
     0
  9
$PEXTMIN
 10
1.0000000000000000E+020
 20
1.0000000000000000E+020
 30
1.0000000000000000E+020
  9
$PEXTMAX
 10
-1.0000000000000000E+020
 20
-1.0000000000000000E+020
 30
-1.0000000000000000E+020
  9
$PLIMMIN
 10
-20.0
 20
-7.5
  9
$PLIMMAX
 10
277.0
 20
202.5
  9
$UNITMODE
 70
     0
  9
$VISRETAIN
 70
     0
  9
$PLINEGEN
 70
     1
  9
$PSLTSCALE
 70
     0
  0
ENDSEC
  0
SECTION
  2
TABLES
  0
TABLE
  2
VPORT
 70
     1
  0
VPORT
  2
*ACTIVE
 70
     0
 10
0.0
 20
0.0
 11
1.0
 21
1.0
 12
218.50001126399351
 22
147.00000803323579
 13
0.0
 23
0.0
 14
2.5
 24
2.5
 15
10.0
 25
10.0
 16
0.0
 26
0.0
 36
1.0
 17
0.0
 27
0.0
 37
0.0
 40
278.255190153537
 41
1.8424479166666661
 42
50.0
 43
0.0
 44
0.0
 50
0.0
 51
0.0
 71
     0
 72
   100
 73
     1
 74
     3
 75
     0
 76
     0
 77
     0
 78
     1
  0
ENDTAB
  0
TABLE
  2
LTYPE
 70
    22
  0
LTYPE
  2
CONTINUOUS
 70
     0
  3
Solid line (NEC CAE2D for Win R7.2 : 2008.02.20
 72
    65
 73
     0
 40
0.0
  0
LTYPE
  2
HIDDEN
 70
     0
  3
Hidden __ __ __ __ __ __ __ __ __ __ __ __ __ _
 72
    65
 73
     2
 40
0.375
 49
0.25
 49
-0.125
  0
LTYPE
  2
PHANTOM2
 70
     0
  3
Phantom (.5x) ___ _ _ ___ _ _ ___ _ _ ___ _ _
 72
    65
 73
     6
 40
1.25
 49
0.625
 49
-0.125
 49
0.125
 49
-0.125
 49
0.125
 49
-0.125
  0
LTYPE
  2
CENTER
 70
     0
  3
Center ____ _ ____ _ ____ _ ____ _ ____ _ ____
 72
    65
 73
     4
 40
2.0
 49
1.25
 49
-0.25
 49
0.25
 49
-0.25
  0
LTYPE
  2
CENTER2
 70
     0
  3
Center (.5x) ___ _ ___ _ ___ _ ___ _ ___ _ ___
 72
    65
 73
     4
 40
1.125
 49
0.75
 49
-0.125
 49
0.125
 49
-0.125
  0
LTYPE
  2
HIDDEN2
 70
     0
  3
Hidden (.5x) _ _ _ _ _ _ _ _ _ _ _ _ _ _ _ _ _
 72
    65
 73
     2
 40
0.1875
 49
0.125
 49
-0.0625
  0
LTYPE
  2
ACANSTGB
 70
     0
  3
__ . . __ . .
 72
    65
 73
     6
 40
0.35433070866
 49
0.15748031496
 49
-0.03937007874
 49
0.03937007874
 49
-0.03937007874
 49
0.03937007874
 49
-0.03937007874
  0
LTYPE
  2
ACANSTGL
 70
     0
  3
_ _ _ _ _
 72
    65
 73
     2
 40
0.11811023622
 49
0.07874015748
 49
-0.03937007874
  0
LTYPE
  2
ACJISWELD
 70
     0
  3
_ _ _ _ _
 72
    65
 73
     2
 40
2.0
 49
2.0
 49
-1.0
  0
LTYPE
  2
ACJISTGB
 70
     0
  3
__ . . __ . .
 72
    65
 73
     6
 40
9.0
 49
4.0
 49
-1.0
 49
1.0
 49
-1.0
 49
1.0
 49
-1.0
  0
LTYPE
  2
ACJISTGL
 70
     0
  3
_ _ _ _ _
 72
    65
 73
     2
 40
3.0
 49
2.0
 49
-1.0
  0
LTYPE
  2
ACISOWELD
 70
     0
  3
_ _ _ _ _
 72
    65
 73
     2
 40
2.0
 49
2.0
 49
-1.0
  0
LTYPE
  2
ACISOTGB
 70
     0
  3
__ . . __ . .
 72
    65
 73
     6
 40
9.0
 49
4.0
 49
-1.0
 49
1.0
 49
-1.0
 49
1.0
 49
-1.0
  0
LTYPE
  2
ACISOTGL
 70
     0
  3
_ _ _ _ _
 72
    65
 73
     2
 40
3.0
 49
2.0
 49
-1.0
  0
LTYPE
  2
PHANTOM
 70
     0
  3
____ _ _ ____ _ _ ____ _ _ ____ _ _ ____
 72
    65
 73
     6
 40
2.5
 49
1.25
 49
-0.25
 49
0.25
 49
-0.25
 49
0.25
 49
-0.25
  0
LTYPE
  2
AM_ISO02W050
 70
     0
  3
__ __ __ __ __ __ __ __ __ __ __ __ __ __ __
 72
    65
 73
     2
 40
7.5
 49
6.0
 49
-1.5
  0
LTYPE
  2
AM_ISO08W050
 70
     0
  3
____ . ____ . ____ . ____ . ____ . ____ . ____
 72
    65
 73
     4
 40
18.0
 49
12.0
 49
-1.5
 49
3.0
 49
-1.5
  0
LTYPE
  2
AM_ISO09W050
 70
     0
  3
_____ . . _____ . . _____ . . ____ .. ____
 72
    65
 73
     6
 40
22.5
 49
12.0
 49
-1.5
 49
3.0
 49
-1.5
 49
3.0
 49
-1.5
  0
LTYPE
  2
AMCONSTR
 70
     0
  3
_______________________
 72
    65
 73
     2
 40
9999.0
 49
9999.0
 49
0.0
  0
LTYPE
  2
AM_ISO08W050X2
 70
     0
  3
__ . __ . __ . __ . __ . __
 72
    65
 73
     4
 40
9.0
 49
6.0
 49
-0.75
 49
1.5
 49
-0.75
  0
LTYPE
  2
AM_ISO02W050X2
 70
     0
  3
 _ _ _ _ _ _ _ _ _ _ _ _
 72
    65
 73
     2
 40
3.75
 49
3.0
 49
-0.75
  0
LTYPE
  2
AMZIGZAG
 70
     0
  3
/\/-/\/-/\/-/\/-/\/-/\/
 72
    65
 73
     2
 40
11.0001
 49
0.0001
 49
-11.0
  0
ENDTAB
  0
TABLE
  2
LAYER
 70
    23
  0
LAYER
  2
0
 70
     0
 62
     3
  6
CONTINUOUS
  0
LAYER
  2
AM_0
 70
     0
 62
     3
  6
CONTINUOUS
  0
LAYER
  2
DEFPOINTS
 70
     0
 62
     7
  6
CONTINUOUS
  0
LAYER
  2
AM_5
 70
     0
 62
     7
  6
CONTINUOUS
  0
LAYER
  2
AM_BOR
 70
     0
 62
     7
  6
CONTINUOUS
  0
LAYER
  2
AM_7
 70
     0
 62
     4
  6
CENTER
  0
LAYER
  2
AM_3
 70
     0
 62
     7
  6
HIDDEN
  0
LAYER
  2
AM_12
 70
     0
 62
   253
  6
CONTINUOUS
  0
LAYER
  2
AM_PAREF
 70
     0
 62
     4
  6
CONTINUOUS
  0
LAYER
  2
AM_6
 70
     0
 62
     7
  6
CONTINUOUS
  0
LAYER
  2
AM_8
 70
     0
 62
   253
  6
CONTINUOUS
  0
LAYER
  2
AM_4
 70
     0
 62
     6
  6
CONTINUOUS
  0
LAYER
  2
AM_10
 70
     0
 62
     7
  6
CONTINUOUS
  0
LAYER
  2
AM_CL
 70
     0
 62
     1
  6
CONTINUOUS
  0
LAYER
  2
AM_2
 70
     0
 62
     5
  6
PHANTOM2
  0
LAYER
  2
AM_1N
 70
     0
 62
    14
  6
CONTINUOUS
  0
LAYER
  2
AM_1
 70
     0
 62
    14
  6
PHANTOM2
  0
LAYER
  2
AM_9
 70
     0
 62
    -7
  6
CONTINUOUS
  0
LAYER
  2
SYS-TEISEI0
 70
     0
 62
     7
  6
CONTINUOUS
  0
ENDTAB
  0
TABLE
  2
STYLE
 70
    14
  0
STYLE
  2
STANDARD
 70
     0
 40
0.0
 41
1.0
 50
0.0
 71
     0
 42
3.0
  3
dim.shx
  4
extfont.shx
  0
STYLE
  2
KNJYOKO
 70
     0
 40
0.0
 41
1.0
 50
0.0
 71
     0
 42
3.099999904632567
  3
TXT.shx
  4
extfont.shx
  0
STYLE
  2
ACANSTS
 70
     0
 40
1.0
 41
1.0
 50
0.0
 71
     0
 42
0.2
  3
romans.shx
  4
extfont.shx
  0
STYLE
  2
ACANSGDT
 70
     0
 40
0.0
 41
1.0
 50
0.0
 71
     0
 42
0.2
  3
amgdt.shx
  4

  0
STYLE
  2
ACJISTS
 70
     0
 40
1.0
 41
1.0
 50
0.0
 71
     0
 42
0.2
  3
isocp.shx
  4
extfont.shx
  0
STYLE
  2
ACJISGDT
 70
     0
 40
0.0
 41
1.0
 50
0.0
 71
     0
 42
0.2
  3
amgdt.shx
  4

  0
STYLE
  2
MINNTYOU
 70
     0
 40
0.0
 41
1.0
 50
0.0
 71
     0
 42
3.0
  3
txt
  4

  0
STYLE
  2
R寸法
 70
     0
 40
2.0
 41
1.0
 50
0.0
 71
     0
 42
3.0
  3
dim.shx
  4
extfont.shx
  0
STYLE
  2
ANKTATE
 70
     4
 40
0.0
 41
1.0
 50
0.0
 71
     0
 42
3.099999904632567
  3
TXT
  4

  0
STYLE
  2
KNJTATE
 70
     4
 40
0.0
 41
1.0
 50
0.0
 71
     0
 42
3.099999904632567
  3
TXT
  4
BIGFONT
  0
STYLE
  2
ACISOTS
 70
     0
 40
1.0
 41
1.0
 50
0.0
 71
     0
 42
2.5
  3
isocp.shx
  4
extfont.shx
  0
STYLE
  2
ACISOGDT
 70
     0
 40
0.0
 41
1.0
 50
0.0
 71
     0
 42
2.5
  3
amgdt.shx
  4

  0
STYLE
  2

 70
     1
 40
0.0
 41
1.0
 50
0.0
 71
     0
 42
3.0
  3
genltshp.shx
  4

  0
ENDTAB
  0
TABLE
  2
VIEW
 70
     6
  0
VIEW
  2
AM_VIEW1
 70
     0
 40
137.99999999999989
 10
151.8531375166888
 20
215.99999999999989
 41
253.70627503337769
 11
0.0
 21
0.0
 31
1.0
 12
0.0
 22
0.0
 32
0.0
 42
50.0
 43
0.0
 44
0.0
 50
0.0
 71
     0
  0
VIEW
  2
AM_VIEW2
 70
     0
 40
137.99999999999989
 10
285.146862483311
 20
215.99999999999989
 41
253.70627503337769
 11
0.0
 21
0.0
 31
1.0
 12
0.0
 22
0.0
 32
0.0
 42
50.0
 43
0.0
 44
0.0
 50
0.0
 71
     0
  0
VIEW
  2
AM_VIEW3
 70
     0
 40
137.99999999999989
 10
151.8531375166888
 20
77.999999999999972
 41
253.70627503337769
 11
0.0
 21
0.0
 31
1.0
 12
0.0
 22
0.0
 32
0.0
 42
50.0
 43
0.0
 44
0.0
 50
0.0
 71
     0
  0
VIEW
  2
AM_VIEW4
 70
     0
 40
137.99999999999989
 10
285.146862483311
 20
77.999999999999972
 41
253.70627503337769
 11
0.0
 21
0.0
 31
1.0
 12
0.0
 22
0.0
 32
0.0
 42
50.0
 43
0.0
 44
0.0
 50
0.0
 71
     0
  0
VIEW
  2
AM_VIEW5
 70
     0
 40
137.99999999999989
 10
218.49999999999989
 20
146.99999999999989
 41
253.70627503337769
 11
0.0
 21
0.0
 31
1.0
 12
0.0
 22
0.0
 32
0.0
 42
50.0
 43
0.0
 44
0.0
 50
0.0
 71
     0
  0
VIEW
  2
AM_VIEW6
 70
     0
 40
275.99723999999992
 10
218.49999999999989
 20
146.99999999999989
 41
507.4074759412548
 11
0.0
 21
0.0
 31
1.0
 12
0.0
 22
0.0
 32
0.0
 42
50.0
 43
0.0
 44
0.0
 50
0.0
 71
     0
  0
ENDTAB
  0
TABLE
  2
UCS
 70
     0
  0
ENDTAB
  0
TABLE
  2
APPID
 70
    63
  0
APPID
  2
ACAD
 70
     0
  0
APPID
  2
ACADANNOTATIVE
 70
     0
  0
APPID
  2
ACAD_MLEADERVER
 70
     0
  0
APPID
  2
MCAD_NO_VIS
 70
     0
  0
APPID
  2
ACAD_TEMP_GRAPHIC
 70
     0
  0
APPID
  2
AD_DRAW
 70
     0
  0
APPID
  2
ACATTRIBSERVICES
 70
     0
  0
APPID
  2
DESIGNERASSEMBLIES
 70
     0
  0
APPID
  2
ACADM_DIM_EDIT
 70
     0
  0
APPID
  2
AMDT_DM_ADJ
 70
     0
  0
APPID
  2
ACADANNOPO
 70
     0
  0
APPID
  2
ACAECLAYERSTANDARD
 70
     0
  0
APPID
  2
ACDBDYNAMICBLOCKGUID
 70
     0
  0
APPID
  2
ACDBBLOCKREPETAG
 70
     0
  0
APPID
  2
ACAUTHENVIRON
 70
     0
  0
APPID
  2
ACDBDYNAMICBLOCKTRUENAME
 70
     0
  0
APPID
  2
GENIUS_GENREC_14
 70
     0
  0
APPID
  2
GENIUS_GENOBJ-N-REC_13
 70
     0
  0
APPID
  2
GENIUS_GENODEF_13
 70
     0
  0
APPID
  2
ACAD_EXEMPT_FROM_CAD_STANDARDS
 70
     0
  0
APPID
  2
GENIUS_GENOBJ-N-CEN_13
 70
     0
  0
APPID
  2
GENIUS_GENCEN_19
 70
     0
  0
APPID
  2
ACAD_DSTYLE_DIMINSPECT
 70
     0
  0
APPID
  2
DCO15
 70
     0
  0
APPID
  2
ACAD_PSEXT
 70
     0
  0
APPID
  2
GENIUS_GENBH_13
 70
     0
  0
APPID
  2
GENIUS_GENOENT_13
 70
     0
  0
APPID
  2
GENIUS_GENOLIS_13
 70
     0
  0
APPID
  2
GENIUS_GENOBJ-NBEHI-BHF_13
 70
     0
  0
APPID
  2
GENIUS_GENOREF_13
 70
     0
  0
APPID
  2
GENIUS_GENOBJ-NBEHI-BHB_13
 70
     0
  0
APPID
  2
AMG_2DHIDE
 70
     0
  0
APPID
  2
AMG_2DSTRUCT_BTR
 70
     0
  0
APPID
  2
GENIUS_AMGTXT_16
 70
     0
  0
APPID
  2
GENIUS_GENOBJ-N-HTC_13
 70
     0
  0
APPID
  2
GENIUS_GENHATCH_13
 70
     0
  0
APPID
  2
GEVID1208849169
 70
     0
  0
APPID
  2
GEVDC
 70
     0
  0
APPID
  2
ACADM_2DVIEW_IGN_NOTIFY
 70
     0
  0
APPID
  2
GEVID1208849170
 70
     0
  0
APPID
  2
GEVID1208849171
 70
     0
  0
APPID
  2
GEVRADREF
 70
     0
  0
APPID
  2
ACAD_DSTYLE_DIMJAG
 70
     0
  0
APPID
  2
ACAD_DSTYLE_DIMTALN
 70
     0
  0
APPID
  2
GENIUS_GENDTOL_13
 70
     0
  0
APPID
  2
GENIUS_GENTRA_14
 70
     0
  0
APPID
  2
GENIUS_GENOBJ-N-TIT_13
 70
     0
  0
APPID
  2
GENIUS_GENTITLE_13
 70
     0
  0
APPID
  2
GENIUS_GENSCREG_15
 70
     0
  0
APPID
  2
GENIUS_GENOBJ-N-SDF_13
 70
     0
  0
APPID
  2
ACAD_DSTYLE_DIMRADIAL_EXTENSION
 70
     0
  0
APPID
  2
GENIUS_GENOBJ-N-FIL_13
 70
     0
  0
APPID
  2
GENIUS_GENOBJ-N-CRS_13
 70
     0
  0
APPID
  2
GENIUS_GENDIMSH_14
 70
     0
  0
APPID
  2
ACAD_DSTYLE_DIMANGULAR_EXT
 70
     0
  0
APPID
  2
ACAD_NAV_VCDISPLAY
 70
     0
  0
APPID
  2
ACAD_DSTYLE_DIMBREAK
 70
     0
  0
APPID
  2
ACAD_DSTYLE_DIMARC_LENGTH_
 70
     0
  0
APPID
  2
ACAD_DSTYLE_DIM_LINETYPE
 70
     0
  0
APPID
  2
ACAD_DSTYLE_DIM_EXT1_LINETYPE
 70
     0
  0
APPID
  2
ACAD_DSTYLE_DIM_EXT2_LINETYPE
 70
     0
  0
APPID
  2
ACDBATTR
 70
     0
  0
APPID
  2
GENIUS_GENSCREG_13
 70
     0
  0
ENDTAB
  0
TABLE
  2
DIMSTYLE
 70
    28
  0
DIMSTYLE
  2
STANDARD
 70
     0
  3

  4

  5

  6

  7

 40
1.0
 41
1.0
 42
0.8
 43
0.38
 44
1.0
 45
0.0
 46
0.0
 47
0.0
 48
0.0
140
3.1000000000000001
141
0.09
142
0.0
143
25.399999999999999
144
1.0
145
0.5
146
1.0
147
0.09
 71
     0
 72
     0
 73
     0
 74
     0
 75
     0
 76
     0
 77
     1
 78
     0
170
     0
171
     2
172
     0
173
     0
174
     0
175
     0
176
     0
177
     0
178
     0
  0
DIMSTYLE
  2
AM_ANSI
 70
     0
  3

  4
mm
  5

  6

  7

 40
1.0
 41
0.1
 42
0.05
 43
0.5
 44
0.1
 45
0.0
 46
0.0
 47
0.1
 48
0.1
140
0.12
141
0.0
142
0.0
143
25.399999999999999
144
1.0
145
0.0
146
0.71
147
0.06
 71
     0
 72
     0
 73
     1
 74
     1
 75
     0
 76
     0
 77
     0
 78
     7
170
     0
171
     2
172
     0
173
     0
174
     0
175
     0
176
   256
177
   256
178
     2
  0
DIMSTYLE
  2
AM_ANSI$3
 70
     0
  3

  4
mm
  5

  6

  7

 40
1.0
 41
0.1
 42
0.05
 43
0.5
 44
0.1
 45
0.0
 46
0.0
 47
0.1
 48
0.1
140
0.12
141
0.0
142
0.0
143
25.399999999999999
144
1.0
145
0.0
146
0.71
147
0.06
 71
     0
 72
     0
 73
     1
 74
     1
 75
     0
 76
     0
 77
     0
 78
     7
170
     0
171
     2
172
     0
173
     0
174
     0
175
     0
176
   256
177
   256
178
     2
  0
DIMSTYLE
  2
AM_ANSI$4
 70
     0
  3

  4
mm
  5

  6

  7

 40
1.0
 41
0.1
 42
0.05
 43
0.5
 44
0.1
 45
0.0
 46
0.0
 47
0.1
 48
0.1
140
0.12
141
0.0
142
0.0
143
25.399999999999999
144
1.0
145
0.0
146
0.71
147
0.06
 71
     0
 72
     0
 73
     1
 74
     1
 75
     0
 76
     0
 77
     0
 78
     7
170
     0
171
     2
172
     0
173
     0
174
     0
175
     0
176
   256
177
   256
178
     2
  0
DIMSTYLE
  2
AM_ANSI$7
 70
     0
  3

  4
mm
  5

  6

  7

 40
1.0
 41
0.1
 42
0.05
 43
0.5
 44
0.1
 45
0.0
 46
0.0
 47
0.1
 48
0.1
140
0.24
141
0.0
142
0.0
143
25.399999999999999
144
1.0
145
0.0
146
0.71
147
0.06
 71
     0
 72
     0
 73
     1
 74
     1
 75
     0
 76
     0
 77
     0
 78
     7
170
     0
171
     2
172
     0
173
     0
174
     0
175
     0
176
   256
177
   256
178
     2
  0
DIMSTYLE
  2
AM_ANSI$SF
 70
     0
  3

  4
mm
  5

  6

  7

 40
1.0
 41
0.1
 42
0.05
 43
0.5
 44
0.1
 45
0.0
 46
0.0
 47
0.1
 48
0.1
140
0.12
141
0.0
142
0.0
143
25.399999999999999
144
1.0
145
0.0
146
0.71
147
0.06
 71
     0
 72
     0
 73
     1
 74
     1
 75
     1
 76
     1
 77
     0
 78
     7
170
     0
171
     2
172
     0
173
     0
174
     0
175
     0
176
   256
177
   256
178
     2
  0
DIMSTYLE
  2
AM_ANSI$SH
 70
     0
  3

  4
mm
  5

  6
GENAXEH
  7

 40
1.0
 41
0.1
 42
0.05
 43
0.5
 44
0.1
 45
0.0
 46
0.0
 47
0.1
 48
0.1
140
0.12
141
0.0
142
0.0
143
25.399999999999999
144
1.0
145
0.0
146
0.71
147
0.06
 71
     0
 72
     0
 73
     1
 74
     1
 75
     1
 76
     1
 77
     0
 78
     7
170
     0
171
     2
172
     0
173
     1
174
     0
175
     0
176
   256
177
   256
178
     2
  0
DIMSTYLE
  2
AM_JIS
 70
     0
  3

  4
"
  5
OPEN30
  6

  7

 40
1.0
 41
2.5
 42
1.0
 43
7.0
 44
1.0
 45
0.0
 46
0.0
 47
0.1
 48
0.1
140
3.0
141
0.0
142
0.0
143
0.0393701
144
1.0
145
0.0
146
0.71
147
1.0
 71
     0
 72
     0
 73
     0
 74
     0
 75
     0
 76
     0
 77
     3
 78
     8
170
     0
171
     2
172
     1
173
     0
174
     0
175
     0
176
     7
177
     7
178
     7
  0
DIMSTYLE
  2
AM_JIS$3
 70
     0
  3

  4
"
  5
OPEN30
  6

  7

 40
1.0
 41
2.5
 42
1.0
 43
10.0
 44
1.0
 45
0.0
 46
0.0
 47
0.1
 48
0.1
140
3.0
141
0.0
142
0.0
143
0.0393701
144
1.0
145
0.0
146
0.71
147
1.0
 71
     0
 72
     0
 73
     0
 74
     1
 75
     0
 76
     0
 77
     3
 78
     8
170
     0
171
     2
172
     0
173
     0
174
     0
175
     0
176
     7
177
     7
178
     7
  0
DIMSTYLE
  2
AM_JIS$4
 70
     0
  3

  4
"
  5
OPEN30
  6

  7

 40
1.0
 41
2.5
 42
1.0
 43
10.0
 44
1.0
 45
0.0
 46
0.0
 47
0.1
 48
0.1
140
2.0
141
0.0
142
0.0
143
0.0393701
144
1.0
145
0.0
146
0.71
147
1.0
 71
     0
 72
     0
 73
     0
 74
     0
 75
     0
 76
     0
 77
     3
 78
     8
170
     0
171
     2
172
     0
173
     0
174
     0
175
     0
176
     7
177
     7
178
     7
  0
DIMSTYLE
  2
AM_JIS$6
 70
     0
  3

  4
"
  5
OPEN30
  6

  7

 40
1.0
 41
2.5
 42
1.0
 43
10.0
 44
1.0
 45
0.0
 46
0.0
 47
0.1
 48
0.1
140
3.0
141
0.0
142
0.0
143
0.0393701
144
1.0
145
0.0
146
0.71
147
1.0
 71
     0
 72
     0
 73
     0
 74
     0
 75
     0
 76
     0
 77
     0
 78
     8
170
     0
171
     2
172
     1
173
     0
174
     0
175
     0
176
   256
177
     7
178
     7
  0
DIMSTYLE
  2
AM_JIS$7
 70
     0
  3

  4
"
  5
OPEN30
  6

  7

 40
1.0
 41
2.5
 42
1.0
 43
10.0
 44
1.0
 45
0.0
 46
0.0
 47
0.1
 48
0.1
140
3.0
141
0.0
142
0.0
143
0.0393701
144
1.0
145
0.0
146
0.71
147
1.0
 71
     0
 72
     0
 73
     0
 74
     0
 75
     0
 76
     0
 77
     3
 78
     8
170
     0
171
     2
172
     1
173
     0
174
     0
175
     0
176
     7
177
   256
178
     7
  0
DIMSTYLE
  2
AM_JIS$SF
 70
     0
  3

  4
"
  5
OPEN30
  6

  7

 40
1.0
 41
2.5
 42
1.0
 43
7.0
 44
1.0
 45
0.0
 46
0.0
 47
0.1
 48
0.1
140
3.0
141
0.0
142
0.0
143
0.0393701
144
1.0
145
0.0
146
0.71
147
1.0
 71
     0
 72
     0
 73
     0
 74
     0
 75
     1
 76
     1
 77
     3
 78
     8
170
     0
171
     2
172
     1
173
     0
174
     0
175
     0
176
     7
177
   256
178
     7
  0
DIMSTYLE
  2
AM_JIS$SH
 70
     0
  3

  4
"
  5

  6
GENAXEH
  7
OPEN30
 40
1.0
 41
2.5
 42
1.0
 43
7.0
 44
1.0
 45
0.0
 46
0.0
 47
0.1
 48
0.1
140
3.0
141
0.0
142
0.0
143
0.0393701
144
2.0
145
0.0
146
0.71
147
1.0
 71
     0
 72
     0
 73
     0
 74
     0
 75
     1
 76
     1
 77
     3
 78
     8
170
     0
171
     2
172
     1
173
     1
174
     0
175
     0
176
     7
177
   256
178
     7
  0
DIMSTYLE
  2
AM_JIS$2
 70
     0
  3

  4
"
  5
OPEN30
  6

  7

 40
1.0
 41
2.5
 42
1.0
 43
7.0
 44
1.0
 45
0.0
 46
0.0
 47
0.1
 48
0.1
140
3.0
141
0.0
142
0.0
143
0.0393701
144
1.0
145
0.0
146
0.71
147
1.0
 71
     0
 72
     0
 73
     0
 74
     0
 75
     0
 76
     0
 77
     3
 78
     8
170
     0
171
     2
172
     1
173
     0
174
     0
175
     0
176
     7
177
     7
178
     7
  0
DIMSTYLE
  2
AM_JIS$0
 70
     0
  3

  4
"
  5
OPEN30
  6

  7

 40
1.0
 41
2.5
 42
1.0
 43
7.0
 44
1.0
 45
0.0
 46
0.0
 47
0.1
 48
0.1
140
3.0
141
0.0
142
0.0
143
0.0393701
144
1.0
145
0.0
146
0.71
147
1.0
 71
     0
 72
     0
 73
     0
 74
     0
 75
     0
 76
     0
 77
     3
 78
     8
170
     0
171
     2
172
     1
173
     0
174
     0
175
     0
176
     7
177
     7
178
     7
  0
DIMSTYLE
  2
STANDARD$0
 70
     0
  3

  4

  5

  6

  7

 40
1.0
 41
1.0
 42
0.8
 43
0.38
 44
1.0
 45
0.0
 46
0.0
 47
0.0
 48
0.0
140
3.1000000000000001
141
0.09
142
0.0
143
25.399999999999999
144
1.0
145
0.5
146
1.0
147
0.09
 71
     0
 72
     0
 73
     0
 74
     0
 75
     0
 76
     0
 77
     1
 78
     0
170
     0
171
     2
172
     0
173
     0
174
     0
175
     0
176
     0
177
     0
178
     0
  0
DIMSTYLE
  2
ANNOTATIVE
 70
     0
  3

  4

  5

  6

  7

 40
1.0
 41
0.18
 42
0.0625
 43
0.38
 44
0.18
 45
0.0
 46
0.0
 47
0.0
 48
0.0
140
0.18
141
0.09
142
0.0
143
25.399999999999999
144
1.0
145
0.0
146
1.0
147
0.09
 71
     0
 72
     0
 73
     1
 74
     1
 75
     0
 76
     0
 77
     0
 78
     0
170
     0
171
     2
172
     0
173
     0
174
     0
175
     0
176
     0
177
     0
178
     0
  0
DIMSTYLE
  2
AM_ISO
 70
     0
  3

  4
"
  5

  6

  7

 40
1.0
 41
2.5
 42
1.0
 43
10.0
 44
1.0
 45
0.0
 46
0.0
 47
0.1
 48
0.1
140
3.5
141
0.0
142
0.0
143
0.0393701
144
1.0
145
0.0
146
0.71
147
1.5
 71
     0
 72
     0
 73
     0
 74
     0
 75
     0
 76
     0
 77
     1
 78
     8
170
     0
171
     2
172
     1
173
     0
174
     0
175
     0
176
   256
177
   256
178
     2
  0
DIMSTYLE
  2
AM_ISO$3
 70
     0
  3

  4
"
  5

  6

  7

 40
1.0
 41
2.5
 42
1.0
 43
10.0
 44
1.0
 45
0.0
 46
0.0
 47
0.1
 48
0.1
140
3.5
141
0.0
142
0.0
143
0.0393701
144
1.0
145
0.0
146
0.71
147
1.5
 71
     0
 72
     0
 73
     0
 74
     1
 75
     0
 76
     0
 77
     1
 78
     8
170
     0
171
     2
172
     0
173
     0
174
     0
175
     0
176
   256
177
   256
178
     2
  0
DIMSTYLE
  2
AM_ISO$4
 70
     0
  3

  4
"
  5

  6

  7

 40
1.0
 41
2.5
 42
1.0
 43
10.0
 44
1.0
 45
0.0
 46
0.0
 47
0.1
 48
0.1
140
3.5
141
0.0
142
0.0
143
0.0393701
144
1.0
145
0.0
146
0.71
147
1.5
 71
     0
 72
     0
 73
     0
 74
     1
 75
     0
 76
     0
 77
     1
 78
     8
170
     0
171
     2
172
     0
173
     0
174
     0
175
     0
176
   256
177
   256
178
     2
  0
DIMSTYLE
  2
AM_ISO$6
 70
     0
  3

  4
"
  5

  6

  7

 40
1.0
 41
2.5
 42
1.0
 43
10.0
 44
1.0
 45
0.0
 46
0.0
 47
0.1
 48
0.1
140
3.5
141
0.0
142
0.0
143
0.0393701
144
1.0
145
0.0
146
0.71
147
1.5
 71
     0
 72
     0
 73
     0
 74
     0
 75
     0
 76
     0
 77
     0
 78
     8
170
     0
171
     2
172
     1
173
     0
174
     0
175
     0
176
   256
177
   256
178
     2
  0
DIMSTYLE
  2
AM_ISO$7
 70
     0
  3

  4
"
  5

  6

  7

 40
1.0
 41
2.5
 42
1.0
 43
10.0
 44
1.0
 45
0.0
 46
0.0
 47
0.1
 48
0.1
140
5.0
141
0.0
142
0.0
143
0.0393701
144
1.0
145
0.0
146
0.71
147
1.5
 71
     0
 72
     0
 73
     0
 74
     0
 75
     0
 76
     0
 77
     1
 78
     8
170
     0
171
     2
172
     1
173
     0
174
     0
175
     0
176
   256
177
   256
178
     2
  0
DIMSTYLE
  2
AM_ISO$SF
 70
     0
  3

  4
"
  5

  6

  7

 40
1.0
 41
2.5
 42
1.0
 43
10.0
 44
1.0
 45
0.0
 46
0.0
 47
0.1
 48
0.1
140
3.5
141
0.0
142
0.0
143
0.0393701
144
1.0
145
0.0
146
0.71
147
1.5
 71
     0
 72
     0
 73
     0
 74
     0
 75
     1
 76
     1
 77
     1
 78
     8
170
     0
171
     2
172
     1
173
     0
174
     0
175
     0
176
   256
177
   256
178
     2
  0
DIMSTYLE
  2
AM_ISO$SH
 70
     0
  3

  4
"
  5

  6
GENAXEH
  7

 40
1.0
 41
2.5
 42
1.0
 43
10.0
 44
1.0
 45
0.0
 46
0.0
 47
0.1
 48
0.1
140
3.5
141
0.0
142
0.0
143
0.0393701
144
2.0
145
0.0
146
0.71
147
1.5
 71
     0
 72
     0
 73
     0
 74
     0
 75
     1
 76
     1
 77
     1
 78
     8
170
     0
171
     2
172
     1
173
     1
174
     0
175
     0
176
   256
177
   256
178
     2
  0
ENDTAB
  0
ENDSEC
  0
SECTION
  2
BLOCKS
  0
BLOCK
  8
0
  2
$MODEL_SPACE
 70
     0
 10
0.0
 20
0.0
 30
0.0
  3
$MODEL_SPACE
  1

  0
ENDBLK
  5
1D3
  8
0
  0
BLOCK
 67
     1
  8
0
  2
$PAPER_SPACE
 70
     0
 10
0.0
 20
0.0
 30
0.0
  3
$PAPER_SPACE
  1

  0
ENDBLK
  5
1D1
 67
     1
  8
0
  0
BLOCK
  8
0
  2
GENAXEH
 70
     0
 10
0.0
 20
0.0
 30
0.0
  3
GENAXEH
  1

  0
LINE
  5
264
  8
0
 10
-1.0
 20
0.0
 30
0.0
 11
1.0
 21
0.0
 31
0.0
  0
ENDBLK
  5
266
  8
0
  0
BLOCK
  8
0
  2
_OPEN30
 70
     0
 10
0.0
 20
0.0
 30
0.0
  3
_OPEN30
  1

  0
LINE
  5
2FA
  8
0
  6
BYBLOCK
 62
     0
 10
-1.0
 20
0.26794919
 30
0.0
 11
0.0
 21
0.0
 31
0.0
  0
LINE
  5
2FB
  8
0
  6
BYBLOCK
 62
     0
 10
0.0
 20
0.0
 30
0.0
 11
-1.0
 21
-0.26794919
 31
0.0
  0
LINE
  5
2FC
  8
0
  6
BYBLOCK
 62
     0
 10
0.0
 20
0.0
 30
0.0
 11
-1.0
 21
0.0
 31
0.0
  0
ENDBLK
  5
2FE
  8
0
  0
BLOCK
  8
0
  2
A$C1C06296A
 70
     2
 10
0.0
 20
0.0
 30
0.0
  3
A$C1C06296A
  1

  0
LINE
  5
204C
  8
AM_BOR
 10
198.86851880399371
 20
17.886744577931989
 30
0.0
 11
203.2337455721775
 21
13.521517809748619
 31
0.0
  0
LINE
  5
204D
  8
AM_BOR
 10
198.8685188039936
 20
17.866715351316039
 30
0.0
 11
198.86851880399399
 21
14.128964361178911
 31
0.0
  0
LINE
  5
204E
  8
AM_BOR
 10
204.7045172738834
 20
17.866715326469411
 30
0.0
 11
204.70451727388391
 21
14.181128845625549
 31
0.0
  0
LINE
  5
204F
  8
AM_BOR
 10
204.20428883360731
 20
17.793010290175861
 30
0.0
 11
204.204288833607
 21
14.69861035774108
 31
0.0
  0
LINE
  5
2050
  8
AM_BOR
 10
199.3687472442698
 20
17.176052465333349
 30
0.0
 11
199.36874724427059
 21
14.197800355103411
 31
0.0
  0
LINE
  5
2051
  8
AM_BOR
 10
200.43756462039269
 20
18.46533457095553
 30
0.0
 11
204.20428883360731
 21
14.69861035774052
 31
0.0
  0
LINE
  5
2052
  8
AM_BOR
 10
199.36874724426971
 20
17.17605246533255
 30
0.0
 11
203.02713287203409
 21
13.51766683756852
 31
0.0
  0
ARC
  5
2053
  8
AM_BOR
 10
198.36829036868701
 20
17.866715351316049
 30
0.0
 40
0.5002284402762121
 50
0.0
 51
50.265515568291427
  0
ARC
  5
2054
  8
AM_BOR
 10
198.36829034384081
 20
14.12896436117892
 30
0.0
 40
0.5002284402762121
 50
304.69759678405279
 51
0.0
  0
ARC
  5
2055
  8
AM_BOR
 10
205.20474573403669
 20
17.866715326469411
 30
0.0
 40
0.5002284402762121
 50
127.0284887689633
 51
180.00000500895629
  0
ARC
  5
2056
  8
AM_BOR
 10
203.53731756996689
 20
17.793010290175818
 30
0.0
 40
0.6669712537016159
 50
0.0
 51
74.714823568866152
  0
ARC
  5
2057
  8
AM_BOR
 10
200.03571849797169
 20
14.197800355103389
 30
0.0
 40
0.6669712537016159
 50
180.00000500895629
 51
256.4857883914604
  0
LINE
  5
2058
  8
AM_BOR
 10
210.95737277733619
 20
15.993445664994679
 30
0.0
 11
210.9224749062999
 21
16.211434571273589
 31
0.0
  0
LINE
  5
2059
  8
AM_BOR
 10
210.92247490629941
 20
16.211434571273411
 30
0.0
 11
210.8180468870608
 21
16.42776445035037
 31
0.0
  0
LINE
  5
205A
  8
AM_BOR
 10
210.8180468870604
 20
16.42776445035037
 30
0.0
 11
210.64488347990149
 21
16.640788901221669
 31
0.0
  0
LINE
  5
205B
  8
AM_BOR
 10
210.6448834799013
 20
16.640788901221619
 30
0.0
 11
210.40430256290981
 21
16.848886679188759
 31
0.0
  0
LINE
  5
205C
  8
AM_BOR
 10
210.40430256290949
 20
16.848886679189
 30
0.0
 11
210.0981351021297
 21
17.050474034508689
 31
0.0
  0
LINE
  5
205D
  8
AM_BOR
 10
210.09813510212999
 20
17.05047403450855
 30
0.0
 11
209.7287112168076
 21
17.244016765685139
 31
0.0
  0
LINE
  5
205E
  8
AM_BOR
 10
209.72871121680711
 20
17.24401676568521
 30
0.0
 11
209.29884244577369
 21
17.428041895669988
 31
0.0
  0
LINE
  5
205F
  8
AM_BOR
 10
209.29884244577369
 20
17.428041895670081
 30
0.0
 11
208.81180034993889
 21
17.601148882106369
 31
0.0
  0
LINE
  5
2060
  8
AM_BOR
 10
208.81180034993889
 20
17.60114888210644
 30
0.0
 11
208.27129161373591
 21
17.76202027630297
 31
0.0
  0
LINE
  5
2061
  8
AM_BOR
 10
208.27129161373611
 20
17.76202027630309
 30
0.0
 11
207.68142983501551
 21
17.909431749813081
 31
0.0
  0
LINE
  5
2062
  8
AM_BOR
 10
207.68142983501531
 20
17.90943174981297
 30
0.0
 11
207.04670421808169
 21
18.042261412313358
 31
0.0
  0
LINE
  5
2063
  8
AM_BOR
 10
207.04670421808169
 20
18.04226141231344
 30
0.0
 11
206.37194540813729
 21
18.15949834986797
 31
0.0
  0
LINE
  5
2064
  8
AM_BOR
 10
206.37194540813749
 20
18.159498349867881
 30
0.0
 11
205.66228872715681
 21
18.260250318592298
 31
0.0
  0
LINE
  5
2065
  8
AM_BOR
 10
205.66228872715661
 20
18.260250318592369
 30
0.0
 11
205.02242374599979
 21
18.33253416039674
 31
0.0
  0
LINE
  5
2066
  8
AM_BOR
 10
205.02242374599939
 20
18.332534160396779
 30
0.0
 11
204.92313509098369
 21
18.343750535168819
 31
0.0
  0
LINE
  5
2067
  8
AM_BOR
 10
204.92313509098369
 20
18.343750535168748
 30
0.0
 11
204.16010990510409
 21
18.409363512530259
 31
0.0
  0
LINE
  5
2068
  8
AM_BOR
 10
204.1601099051048
 20
18.409363512530259
 30
0.0
 11
203.71314686010501
 21
18.436387872932471
 31
0.0
  0
LINE
  5
2069
  8
AM_BOR
 10
200.43756462039249
 20
18.465334570955569
 30
0.0
 11
200.19401582596791
 21
18.45658989630088
 31
0.0
  0
LINE
  5
206A
  8
AM_BOR
 10
200.19401582596799
 20
18.456589896300901
 30
0.0
 11
199.41292617277259
 21
18.409363512530309
 31
0.0
  0
LINE
  5
206B
  8
AM_BOR
 10
199.41292617277259
 20
18.409363512530248
 30
0.0
 11
198.64990098689299
 21
18.343750535168759
 31
0.0
  0
LINE
  5
206C
  8
AM_BOR
 10
198.5506123731563
 20
18.332534165059979
 30
0.0
 11
197.9107473507209
 21
18.260250318592469
 31
0.0
  0
LINE
  5
206D
  8
AM_BOR
 10
198.64990098689299
 20
18.343750535168791
 30
0.0
 11
198.5506123731563
 21
18.332534165059919
 31
0.0
  0
LINE
  5
206E
  8
AM_BOR
 10
197.91074735072121
 20
18.26025031859243
 30
0.0
 11
197.20109066974049
 21
18.159498349868041
 31
0.0
  0
LINE
  5
206F
  8
AM_BOR
 10
197.20109066974041
 20
18.159498349868091
 30
0.0
 11
196.52633185979579
 21
18.042261412313529
 31
0.0
  0
LINE
  5
2070
  8
AM_BOR
 10
196.5263318597959
 20
18.042261412313589
 30
0.0
 11
195.89160624286239
 21
17.909431749813219
 31
0.0
  0
LINE
  5
2071
  8
AM_BOR
 10
195.89160624286171
 20
17.90943174981302
 30
0.0
 11
195.30174446414119
 21
17.762020276303058
 31
0.0
  0
LINE
  5
2072
  8
AM_BOR
 10
195.301744464141
 20
17.762020276303161
 30
0.0
 11
194.76123572793779
 21
17.60114888210661
 31
0.0
  0
LINE
  5
2073
  8
AM_BOR
 10
194.76123572793779
 20
17.60114888210656
 30
0.0
 11
194.27419363210299
 21
17.428041895670152
 31
0.0
  0
LINE
  5
2074
  8
AM_BOR
 10
194.27419363210339
 20
17.428041895670152
 30
0.0
 11
193.84432486106959
 21
17.244016765685259
 31
0.0
  0
LINE
  5
2075
  8
AM_BOR
 10
193.84432486106959
 20
17.24401676568521
 30
0.0
 11
193.4749009757472
 21
17.05047403450865
 31
0.0
  0
LINE
  5
2076
  8
AM_BOR
 10
193.4749009757472
 20
17.050474034508671
 30
0.0
 11
193.16873351496719
 21
16.848886679188929
 31
0.0
  0
LINE
  5
2077
  8
AM_BOR
 10
193.1687335149673
 20
16.848886679188951
 30
0.0
 11
192.92815259797499
 21
16.640788901221619
 31
0.0
  0
LINE
  5
2078
  8
AM_BOR
 10
192.9281525979753
 20
16.640788901221811
 30
0.0
 11
192.75498919081639
 21
16.42776445035042
 31
0.0
  0
LINE
  5
2079
  8
AM_BOR
 10
192.75498919081639
 20
16.427764450350349
 30
0.0
 11
192.65056117157769
 21
16.211434571273479
 31
0.0
  0
LINE
  5
207A
  8
AM_BOR
 10
192.65056117157789
 20
16.211434571273731
 30
0.0
 11
192.61566330054151
 21
15.993445664994679
 31
0.0
  0
LINE
  5
207B
  8
AM_BOR
 10
192.61566330054069
 20
15.99344566499464
 30
0.0
 11
192.65056117157721
 21
15.775456758715791
 31
0.0
  0
LINE
  5
207C
  8
AM_BOR
 10
192.65056117157769
 20
15.775456758715929
 30
0.0
 11
192.7549891908163
 21
15.55912687963913
 31
0.0
  0
LINE
  5
207D
  8
AM_BOR
 10
192.75498919081639
 20
15.559126879639029
 30
0.0
 11
192.9281525979753
 21
15.34610242876764
 31
0.0
  0
LINE
  5
207E
  8
AM_BOR
 10
192.9281525979751
 20
15.34610242876769
 30
0.0
 11
193.16873351496719
 21
15.1380046508005
 31
0.0
  0
LINE
  5
207F
  8
AM_BOR
 10
193.1687335149669
 20
15.1380046508005
 30
0.0
 11
193.47490097574689
 21
14.93641729548081
 31
0.0
  0
LINE
  5
2080
  8
AM_BOR
 10
193.47490097574729
 20
14.936417295480711
 30
0.0
 11
193.84432486106959
 21
14.742874564304079
 31
0.0
  0
LINE
  5
2081
  8
AM_BOR
 10
193.84432486106951
 20
14.74287456430417
 30
0.0
 11
194.27419363210271
 21
14.558849434319351
 31
0.0
  0
LINE
  5
2082
  8
AM_BOR
 10
194.27419363210319
 20
14.558849434319439
 30
0.0
 11
194.7612357279379
 21
14.38574244788296
 31
0.0
  0
LINE
  5
2083
  8
AM_BOR
 10
194.76123572793779
 20
14.38574244788277
 30
0.0
 11
195.301744464141
 21
14.22487105368617
 31
0.0
  0
LINE
  5
2084
  8
AM_BOR
 10
195.301744464141
 20
14.224871053686311
 30
0.0
 11
195.891606242862
 21
14.077459580176351
 31
0.0
  0
LINE
  5
2085
  8
AM_BOR
 10
195.89160624286191
 20
14.077459580176219
 30
0.0
 11
196.52633185979579
 21
13.94462991767579
 31
0.0
  0
LINE
  5
2086
  8
AM_BOR
 10
196.52633185979539
 20
13.944629917675821
 30
0.0
 11
197.2010906697397
 21
13.827392980121321
 31
0.0
  0
LINE
  5
2087
  8
AM_BOR
 10
197.20109066974049
 20
13.82739298012133
 30
0.0
 11
197.9107473507209
 21
13.726641011397049
 31
0.0
  0
LINE
  5
2088
  8
AM_BOR
 10
197.9107473507205
 20
13.72664101139711
 30
0.0
 11
198.5412166771807
 21
13.655418571666219
 31
0.0
  0
LINE
  5
2089
  8
AM_BOR
 10
198.54121667717999
 20
13.65541857166625
 30
0.0
 11
198.64990098689259
 21
13.643140794820731
 31
0.0
  0
LINE
  5
208A
  8
AM_BOR
 10
198.6499009868929
 20
13.643140794820679
 30
0.0
 11
199.41292617277259
 21
13.57752781745919
 31
0.0
  0
LINE
  5
208B
  8
AM_BOR
 10
199.41292617277259
 20
13.577527817459201
 30
0.0
 11
199.8798563250744
 21
13.54929620220682
 31
0.0
  0
LINE
  5
208C
  8
AM_BOR
 10
203.0271328720325
 20
13.51766683756999
 30
0.0
 11
203.37902025190911
 21
13.530301433688649
 31
0.0
  0
LINE
  5
208D
  8
AM_BOR
 10
203.3790202519092
 20
13.530301433688599
 30
0.0
 11
204.16010990510441
 21
13.57752781745919
 31
0.0
  0
LINE
  5
208E
  8
AM_BOR
 10
204.70451727388399
 20
13.624341722195579
 30
0.0
 11
204.9231350909844
 21
13.64314079482075
 31
0.0
  0
LINE
  5
208F
  8
AM_BOR
 10
204.16010990510441
 20
13.57752781745917
 30
0.0
 11
204.70451727388379
 21
13.62434172219551
 31
0.0
  0
LINE
  5
2090
  8
AM_BOR
 10
204.92313509098409
 20
13.643140794820759
 30
0.0
 11
205.66228872715669
 21
13.726641011397151
 31
0.0
  0
LINE
  5
2091
  8
AM_BOR
 10
205.66228872715661
 20
13.72664101139711
 30
0.0
 11
206.37194540813709
 21
13.827392980121401
 31
0.0
  0
LINE
  5
2092
  8
AM_BOR
 10
206.37194540813749
 20
13.82739298012145
 30
0.0
 11
207.04670421808191
 21
13.94462991767594
 31
0.0
  0
LINE
  5
2093
  8
AM_BOR
 10
207.04670421808169
 20
13.94462991767597
 30
0.0
 11
207.68142983501559
 21
14.07745958017637
 31
0.0
  0
LINE
  5
2094
  8
AM_BOR
 10
207.68142983501551
 20
14.07745958017629
 30
0.0
 11
208.27129161373611
 21
14.22487105368625
 31
0.0
  0
LINE
  5
2095
  8
AM_BOR
 10
208.2712916137362
 20
14.224871053686289
 30
0.0
 11
208.81180034993929
 21
14.38574244788289
 31
0.0
  0
LINE
  5
2096
  8
AM_BOR
 10
208.81180034993929
 20
14.385742447882921
 30
0.0
 11
209.29884244577411
 21
14.558849434319351
 31
0.0
  0
LINE
  5
2097
  8
AM_BOR
 10
209.298842445774
 20
14.55884943431932
 30
0.0
 11
209.72871121680751
 21
14.74287456430422
 31
0.0
  0
LINE
  5
2098
  8
AM_BOR
 10
209.72871121680711
 20
14.742874564304151
 30
0.0
 11
210.0981351021297
 21
14.93641729548083
 31
0.0
  0
LINE
  5
2099
  8
AM_BOR
 10
210.09813510212999
 20
14.93641729548081
 30
0.0
 11
210.40430256290989
 21
15.13800465080036
 31
0.0
  0
LINE
  5
209A
  8
AM_BOR
 10
210.40430256291
 20
15.13800465080055
 30
0.0
 11
210.64488347990201
 21
15.346102428767731
 31
0.0
  0
LINE
  5
209B
  8
AM_BOR
 10
210.64488347990169
 20
15.34610242876783
 30
0.0
 11
210.8180468870608
 21
15.559126879639029
 31
0.0
  0
LINE
  5
209C
  8
AM_BOR
 10
210.81804688706069
 20
15.559126879639059
 30
0.0
 11
210.92247490629899
 21
15.77545675871586
 31
0.0
  0
LINE
  5
209D
  8
AM_BOR
 10
210.92247490629981
 20
15.775456758715791
 30
0.0
 11
210.95737277733619
 21
15.993445664994621
 31
0.0
  0
LINE
  5
209E
  8
AM_BOR
 10
199.10514248704791
 20
18.382897015254191
 30
0.0
 11
203.92474251077411
 21
13.563296991527499
 31
0.0
  0
ARC
  5
209F
  8
AM_BOR
 10
205.2047457141602
 20
14.181128845625549
 30
0.0
 40
0.5002284402762121
 50
180.0
 51
244.5184856857075
  0
LINE
  5
20A0
  8
AM_BOR
 10
199.36521928176651
 20
18.405261169360589
 30
0.0
 11
204.19035209062989
 21
13.58012836049622
 31
0.0
  0
LINE
  5
20A1
  8
AM_BOR
 10
199.630408435547
 20
18.422512964405719
 30
0.0
 11
204.450428885349
 21
13.602492514602771
 31
0.0
  0
LINE
  5
20A2
  8
AM_BOR
 10
199.8967460324557
 20
18.438616316322719
 30
0.0
 11
204.70776895023289
 21
13.62759339854461
 31
0.0
  0
LINE
  5
20A3
  8
AM_BOR
 10
200.16308362936431
 20
18.454719668239761
 30
0.0
 11
204.9488987968831
 21
13.66890450072008
 31
0.0
  0
LINE
  5
20A4
  8
AM_BOR
 10
198.8450656923284
 20
18.36053286114759
 30
0.0
 11
203.6584049138651
 21
13.547193639610409
 31
0.0
  0
LINE
  5
20A5
  8
AM_BOR
 10
198.7943784573331
 20
18.12877914731807
 30
0.0
 11
203.39206731695711
 21
13.53109028769336
 31
0.0
  0
LINE
  5
20A6
  8
AM_BOR
 10
199.01830573664321
 20
18.375429872827009
 30
0.0
 11
199.01830573664321
 21
13.61146145716244
 31
0.0
  0
LINE
  5
20A7
  8
AM_BOR
 10
199.2180216468426
 20
18.39260355953768
 30
0.0
 11
199.2180216468426
 21
13.594287770451791
 31
0.0
  0
LINE
  5
20A8
  8
AM_BOR
 10
204.55473034123381
 20
18.375429872826999
 30
0.0
 11
204.55473034123381
 21
13.61146145716245
 31
0.0
  0
LINE
  5
20A9
  8
AM_BOR
 10
204.35501443103459
 20
18.39260355953764
 30
0.0
 11
204.35501443103459
 21
13.594287770451791
 31
0.0
  0
LINE
  5
20AA
  8
AM_BOR
 62
     4
 10
-0.0000001316067255
 20
15.000000173111291
 30
0.0
 11
190.49999986839319
 21
15.000000173111291
 31
0.0
  0
LINE
  5
20AB
  8
AM_BOR
 62
     4
 10
276.49999986839327
 20
28.000000173111289
 30
0.0
 11
276.49999986839327
 21
0.000000173111296
 31
0.0
  0
LINE
  5
20AC
  8
AM_BOR
 62
     4
 10
-0.0000001316067255
 20
15.000000173111291
 30
0.0
 11
-0.0000001316067255
 21
0.000000173111296
 31
0.0
  0
LINE
  5
20AD
  8
AM_BOR
 62
     4
 10
-0.0000001316067255
 20
28.000000173111289
 30
0.0
 11
276.49999986839327
 21
28.000000173111289
 31
0.0
  0
LINE
  5
20AE
  8
AM_BOR
 62
     4
 10
15.999999868393269
 20
15.000000173111291
 30
0.0
 11
15.999999868393269
 21
0.000000173111296
 31
0.0
  0
TEXT
  5
20AF
  8
AM_BOR
 62
     4
 10
215.17999986839331
 20
10.000000173111291
 30
0.0
 40
1.5
  1
NAKANISHI　INDUSTRIAL CO., LTD.
 41
1.5
  0
TEXT
  5
20B0
  8
AM_BOR
 62
     3
 10
213.19999986839329
 20
13.500000173111291
 30
0.0
 40
5.5
  1
中西産業株式会社
 41
1.1999999999999991
  0
TEXT
  5
20B1
  8
AM_BOR
 62
     4
 10
196.192787937406
 20
10.000000173111291
 30
0.0
 40
1.5
  1
Nakanishi
 41
1.1999999999999991
  0
TEXT
  5
20B2
  8
AM_BOR
 62
     7
 10
98.104999768257457
 20
15.650000185032219
 30
0.0
 40
1.0
  1
FINISH
 41
1.6000000000000001
  0
TEXT
  5
20B3
  8
AM_BOR
 62
     7
 10
96.979999708652798
 20
17.700000220795008
 30
0.0
 40
2.7999999999999989
  1
仕　　上
  0
TEXT
  5
20B4
  8
AM_BOR
 62
     7
 10
3.1549997801784002
 20
15.650000185032219
 30
0.0
 40
1.0
  1
MATERIAL
 41
1.6000000000000001
  0
TEXT
  5
20B5
  8
AM_BOR
 62
     7
 10
1.729999708652826
 20
17.700000220795008
 30
0.0
 40
2.7999999999999989
  1
材　　質
  0
LINE
  5
20B6
  8
AM_BOR
 62
     4
 10
190.49999986839319
 20
28.000000173111289
 30
0.0
 11
190.49999986839319
 21
0.000000173111296
 31
0.0
  0
LINE
  5
20B7
  8
AM_BOR
 62
     4
 10
-0.0000001316067255
 20
28.000000173111289
 30
0.0
 11
-0.0000001316067255
 21
15.000000173111291
 31
0.0
  0
LINE
  5
20B8
  8
AM_BOR
 62
     4
 10
-0.0000001316067255
 20
21.500000173111289
 30
0.0
 11
190.49999986839319
 21
21.500000173111289
 31
0.0
  0
LINE
  5
20B9
  8
AM_BOR
 62
     4
 10
15.999999868393269
 20
28.000000173111289
 30
0.0
 11
15.999999868393269
 21
15.000000173111291
 31
0.0
  0
TEXT
  5
20BA
  8
AM_BOR
 62
     7
 10
98.104999768257457
 20
22.150000185032219
 30
0.0
 40
1.0
  1
ART. NO.
 41
1.6000000000000001
  0
TEXT
  5
20BB
  8
AM_BOR
 62
     7
 10
96.979999708652684
 20
24.200000220795008
 30
0.0
 40
2.7999999999999989
  1
品　　番
  0
TEXT
  5
20BC
  8
AM_BOR
 62
     7
 10
3.1549997801784002
 20
22.150000185032219
 30
0.0
 40
1.0
  1
ARTICLE
 41
1.6000000000000001
  0
TEXT
  5
20BD
  8
AM_BOR
 62
     7
 10
1.7299997086527119
 20
24.200000220795008
 30
0.0
 40
2.7999999999999989
  1
品　　名
  0
LINE
  5
20BE
  8
AM_BOR
 62
     4
 10
-0.0000001316067255
 20
15.000000173111291
 30
0.0
 11
-0.0000001316067255
 21
0.0000001731112924
 31
0.0
  0
LINE
  5
20BF
  8
AM_BOR
 62
     4
 10
95.249999868393246
 20
28.000000173111289
 30
0.0
 11
95.249999868393246
 21
0.000000173111296
 31
0.0
  0
TEXT
  5
20C0
  8
AM_BOR
 62
     7
 10
3.1549997801784002
 20
9.1500001850322192
 30
0.0
 40
1.0
  1
REMARKS
 41
1.6000000000000001
  0
TEXT
  5
20C1
  8
AM_BOR
 62
     7
 10
1.7299997086527119
 20
11.20000022079501
 30
0.0
 40
2.7999999999999989
  1
備　　考
  0
LINE
  5
20C2
  8
AM_BOR
 62
     4
 10
111.2499998683932
 20
28.000000173111289
 30
0.0
 11
111.2499998683932
 21
0.000000173111296
 31
0.0
  0
LINE
  5
20C3
  8
AM_BOR
 62
     4
 10
-0.0000001316067255
 20
0.000000173111296
 30
0.0
 11
276.49999986839327
 21
0.000000173111296
 31
0.0
  0
TEXT
  5
20C4
  8
AM_BOR
 62
     7
 10
98.404999780178386
 20
9.1500001850322157
 30
0.0
 40
1.0
  1
SETS
 41
1.6000000000000001
  0
TEXT
  5
20C5
  8
AM_BOR
 62
     7
 10
96.979999708652684
 20
11.20000022079501
 30
0.0
 40
2.7999999999999989
  1
セット品
  0
ATTDEF
  5
20C6
  8
AM_BOR
 62
     7
 10
114.3107095753831
 20
0.5000001731112853
 30
0.0
 40
3.0
  1

 11
114.3107095753831
 21
2.0000001731112849
 31
0.0
  3
セット
  2
SETS｛20｝
 70
     0
 74
     2
1001
ACADANNOTATIVE
1000
AnnotativeData
1002
{
1070
     1
1070
     0
1002
}
1001
ACDBATTR
1070
     0
1070
     1
  0
ATTDEF
  5
20CA
  8
AM_BOR
 62
     7
 10
19.060709575383161
 20
0.5000001731112889
 30
0.0
 40
3.0
  1

 11
19.060709575383161
 21
2.000000173111288
 31
0.0
  3
備　　考
  2
REMARKS｛20｝
 70
     0
 74
     2
1001
ACADANNOTATIVE
1000
AnnotativeData
1002
{
1070
     1
1070
     0
1002
}
1001
ACDBATTR
1070
     0
1070
     1
  0
ATTDEF
  5
20CE
  8
AM_BOR
 62
     7
 10
114.3107095753831
 20
5.5000001731112853
 30
0.0
 40
3.0
  1

 11
114.3107095753831
 21
7.0000001731112853
 31
0.0
  3
セット
  2
SETS｛20｝
 70
     0
 74
     2
1001
ACADANNOTATIVE
1000
AnnotativeData
1002
{
1070
     1
1070
     0
1002
}
1001
ACDBATTR
1070
     0
1070
     1
  0
ATTDEF
  5
20D2
  8
AM_BOR
 62
     7
 10
19.060709575383161
 20
5.500000173111288
 30
0.0
 40
3.0
  1

 11
19.060709575383161
 21
7.000000173111288
 31
0.0
  3
備　　考
  2
REMARKS｛20｝
 70
     0
 74
     2
1001
ACADANNOTATIVE
1000
AnnotativeData
1002
{
1070
     1
1070
     0
1002
}
1001
ACDBATTR
1070
     0
1070
     1
  0
ATTDEF
  5
20D6
  8
AM_BOR
 62
     7
 10
114.3107095753831
 20
10.50000017311128
 30
0.0
 40
3.0
  1

 11
114.3107095753831
 21
12.00000017311128
 31
0.0
  3
セット
  2
SETS｛20｝
 70
     0
 74
     2
1001
ACADANNOTATIVE
1000
AnnotativeData
1002
{
1070
     1
1070
     0
1002
}
1001
ACDBATTR
1070
     0
1070
     1
  0
ATTDEF
  5
20DA
  8
AM_BOR
 62
     7
 10
19.060709575383161
 20
10.500000173111291
 30
0.0
 40
3.0
  1

 11
19.060709575383161
 21
12.000000173111291
 31
0.0
  3
備　　考
  2
REMARKS｛20｝
 70
     0
 74
     2
1001
ACADANNOTATIVE
1000
AnnotativeData
1002
{
1070
     1
1070
     0
1002
}
1001
ACDBATTR
1070
     0
1070
     1
  0
ATTDEF
  5
20DE
  8
AM_BOR
 62
     7
 10
114.2499998683932
 20
23.500000173111289
 30
0.0
 40
3.0
  1

 11
114.2499998683932
 21
25.000000173111289
 31
0.0
  3
品    番
  2
ART_NO｛20｝
 70
     0
 74
     2
1001
ACADANNOTATIVE
1000
AnnotativeData
1002
{
1070
     1
1070
     0
1002
}
1001
ACDBATTR
1070
     0
1070
     1
  0
ATTDEF
  5
20E2
  8
AM_BOR
 62
     7
 10
18.999999868393271
 20
23.500000173111289
 30
0.0
 40
3.0
  1

 11
18.999999868393271
 21
25.000000173111289
 31
0.0
  3
品    名
  2
ARTICLE｛20｝
 70
     0
 74
     2
1001
ACADANNOTATIVE
1000
AnnotativeData
1002
{
1070
     1
1070
     0
1002
}
1001
ACDBATTR
1070
     0
1070
     1
  0
ATTDEF
  5
20E6
  8
AM_BOR
 62
     7
 10
114.2499998683932
 20
17.000000173111289
 30
0.0
 40
3.0
  1

 11
114.2499998683932
 21
18.500000173111289
 31
0.0
  3
仕上
  2
FINISH｛20｝
 70
     0
 74
     2
1001
ACADANNOTATIVE
1000
AnnotativeData
1002
{
1070
     1
1070
     0
1002
}
1001
ACDBATTR
1070
     0
1070
     1
  0
ATTDEF
  5
20EA
  8
AM_BOR
 62
     7
 10
18.999999868393271
 20
17.000000173111289
 30
0.0
 40
3.0
  1

 11
18.999999868393271
 21
18.500000173111289
 31
0.0
  3
材　　質
  2
MATERIAK｛20｝
 70
     0
 74
     2
1001
ACADANNOTATIVE
1000
AnnotativeData
1002
{
1070
     1
1070
     0
1002
}
1001
ACDBATTR
1070
     0
1070
     1
  0
ENDBLK
  5
20F1
  8
0
  0
BLOCK
  8
0
  2
ZUWAKU-A3H
 70
     0
 10
0.0
 20
0.0
 30
0.0
  3
ZUWAKU-A3H
  1

  0
LINE
  5
29DD
  8
AM_BOR
 62
     3
 10
24.999999999999989
 20
284.99999999999977
 30
0.0
 11
24.999999999999979
 21
9.0
 31
0.0
  0
LINE
  5
29DE
  8
AM_BOR
 62
     3
 10
411.99999999999989
 20
284.99999999999989
 30
0.0
 11
25.0
 21
284.99999999999989
 31
0.0
  0
LINE
  5
29DF
  8
AM_BOR
 62
     3
 10
411.99999999999989
 20
284.99999999999989
 30
0.0
 11
411.99999999999989
 21
9.0
 31
0.0
  0
LINE
  5
29E0
  8
AM_BOR
 62
     3
 10
24.999999999999989
 20
8.9999999999999964
 30
0.0
 11
411.99999999999972
 21
8.9999999999999964
 31
0.0
  0
TEXT
  5
29E1
  8
SYS-TEISEI0
  6
CONTINUOUS
 62
     3
 10
144.38500001765789
 20
14.950000047683719
 30
0.0
 40
3.099999904632567
  1
 
  0
TEXT
  5
29E2
  8
SYS-TEISEI0
  6
CONTINUOUS
 62
     3
 10
169.88500004447991
 20
14.950000047683719
 30
0.0
 40
3.099999904632567
  1
 
  0
TEXT
  5
29E3
  8
SYS-TEISEI0
  6
CONTINUOUS
 62
     3
 10
229.24499995708459
 20
14.950000047683719
 30
0.0
 40
3.099999904632567
  1
 
  0
TEXT
  5
29E4
  8
SYS-TEISEI0
  6
CONTINUOUS
 62
     3
 10
236.9449999570846
 20
14.950000047683719
 30
0.0
 40
3.099999904632567
  1
 
  0
TEXT
  5
29E5
  8
SYS-TEISEI0
  6
CONTINUOUS
 62
     3
 10
144.38500001765789
 20
19.950000047683719
 30
0.0
 40
3.099999904632567
  1
 
  0
TEXT
  5
29E6
  8
SYS-TEISEI0
  6
CONTINUOUS
 62
     3
 10
169.88500004447991
 20
19.950000047683719
 30
0.0
 40
3.099999904632567
  1
 
  0
TEXT
  5
29E7
  8
SYS-TEISEI0
  6
CONTINUOUS
 62
     3
 10
229.24499995708459
 20
19.950000047683719
 30
0.0
 40
3.099999904632567
  1
 
  0
TEXT
  5
29E8
  8
SYS-TEISEI0
  6
CONTINUOUS
 62
     3
 10
236.9449999570846
 20
19.950000047683719
 30
0.0
 40
3.099999904632567
  1
 
  0
TEXT
  5
29E9
  8
SYS-TEISEI0
  6
CONTINUOUS
 62
     3
 10
144.38500001765789
 20
24.950000047683719
 30
0.0
 40
3.099999904632567
  1
 
  0
TEXT
  5
29EA
  8
SYS-TEISEI0
  6
CONTINUOUS
 62
     3
 10
169.88500004447991
 20
24.950000047683719
 30
0.0
 40
3.099999904632567
  1
 
  0
TEXT
  5
29EB
  8
SYS-TEISEI0
  6
CONTINUOUS
 62
     3
 10
229.24499995708459
 20
24.950000047683719
 30
0.0
 40
3.099999904632567
  1
 
  0
TEXT
  5
29EC
  8
SYS-TEISEI0
  6
CONTINUOUS
 62
     3
 10
236.9449999570846
 20
24.950000047683719
 30
0.0
 40
3.099999904632567
  1
 
  0
TEXT
  5
29ED
  8
AM_BOR
 10
24.999999999999989
 20
9.0
 30
0.0
 40
5.0
  1
!GENTITLE-LL
  0
TEXT
  5
29EE
  8
AM_BOR
 10
411.99999999999989
 20
9.0
 30
0.0
 40
5.0
  1
!GENTITLE-INSERT
  0
TEXT
  5
29EF
  8
AM_BOR
 10
411.99999999999989
 20
284.99999999999989
 30
0.0
 40
5.0
  1
!GENTITLE-RU
  0
TEXT
  5
29F0
  8
AM_BOR
 10
420.0
 20
297.0
 30
0.0
 40
5.0
  1
!GENTITLE-MAX
  0
ENDBLK
  5
29F2
  8
0
  0
BLOCK
  8
0
  2
*D6
 70
     1
 10
0.0
 20
0.0
 30
0.0
  3
*D6
  1

  0
LINE
  5
5B35
  8
AM_5
  6
CONTINUOUS
 62
     7
 10
241.68599939723441
 20
217.2055718662574
 30
0.0
 11
241.68599939723441
 21
244.27497547915979
 31
0.0
  0
LINE
  5
5B36
  8
AM_5
  6
CONTINUOUS
 62
     7
 10
181.6859993972293
 20
217.20557186625729
 30
0.0
 11
181.6859993972293
 21
244.27497547915979
 31
0.0
  0
LINE
  5
5B37
  8
AM_5
  6
CONTINUOUS
 62
     7
 10
239.18599939723441
 20
243.27497547915979
 30
0.0
 11
184.1859993972293
 21
243.27497547915979
 31
0.0
  0
INSERT
  5
5B38
  8
AM_5
 62
     7
  2
_OPEN30
 10
241.68599939723441
 20
243.27497547915979
 30
0.0
 41
2.5
 42
2.5
 43
2.5
  0
INSERT
  5
5B39
  8
AM_5
 62
     7
  2
_OPEN30
 10
181.6859993972293
 20
243.27497547915979
 30
0.0
 41
2.5
 42
2.5
 43
2.5
 50
180.0
  0
INSERT
  5
5B3A
  8
0
  2
*U56
 10
0.0
 20
0.0
 30
0.0
  0
POINT
  5
5B3B
  8
DEFPOINTS
 62
     0
 10
241.68599939723441
 20
216.2055718662574
 30
0.0
  0
POINT
  5
5B3C
  8
DEFPOINTS
 62
     0
 10
181.6859993972293
 20
216.20557186625729
 30
0.0
  0
POINT
  5
5B3D
  8
DEFPOINTS
 62
     0
 10
181.6859993972293
 20
243.27497547915979
 30
0.0
  0
ENDBLK
  5
49A7
  8
0
  0
BLOCK
  8
0
  2
*D7
 70
     1
 10
0.0
 20
0.0
 30
0.0
  3
*D7
  1

  0
LINE
  5
5BB1
  8
AM_5
  6
CONTINUOUS
 62
     7
 10
231.68599939727849
 20
215.7055718662574
 30
0.0
 11
231.68599939727849
 21
237.27497547915979
 31
0.0
  0
LINE
  5
5BB2
  8
AM_5
  6
CONTINUOUS
 62
     7
 10
191.68599939727849
 20
209.81884162038159
 30
0.0
 11
191.68599939727849
 21
237.27497547915979
 31
0.0
  0
LINE
  5
5BB3
  8
AM_5
  6
CONTINUOUS
 62
     7
 10
229.18599939727849
 20
236.27497547915979
 30
0.0
 11
194.18599939727849
 21
236.27497547915979
 31
0.0
  0
INSERT
  5
5BB4
  8
AM_5
 62
     7
  2
_OPEN30
 10
231.68599939727849
 20
236.27497547915979
 30
0.0
 41
2.5
 42
2.5
 43
2.5
  0
INSERT
  5
5BB5
  8
AM_5
 62
     7
  2
_OPEN30
 10
191.68599939727849
 20
236.27497547915979
 30
0.0
 41
2.5
 42
2.5
 43
2.5
 50
180.0
  0
INSERT
  5
5BB6
  8
0
  2
*U68
 10
0.0
 20
0.0
 30
0.0
  0
POINT
  5
5BB7
  8
DEFPOINTS
 62
     0
 10
231.68599939727849
 20
214.7055718662574
 30
0.0
  0
POINT
  5
5BB8
  8
DEFPOINTS
 62
     0
 10
191.68599939727849
 20
208.81884162038159
 30
0.0
  0
POINT
  5
5BB9
  8
DEFPOINTS
 62
     0
 10
191.68599939727849
 20
236.27497547915979
 30
0.0
  0
ENDBLK
  5
49B3
  8
0
  0
BLOCK
  8
0
  2
*D8
 70
     1
 10
0.0
 20
0.0
 30
0.0
  3
*D8
  1

  0
LINE
  5
5B47
  8
AM_5
  6
CONTINUOUS
 62
     7
 10
242.68599939725931
 20
191.20557186625729
 30
0.0
 11
263.45452330893102
 21
191.20557186625729
 31
0.0
  0
LINE
  5
5B48
  8
AM_5
  6
CONTINUOUS
 62
     7
 10
242.68599939723711
 20
216.2055718662574
 30
0.0
 11
263.45452330893102
 21
216.2055718662574
 31
0.0
  0
LINE
  5
5B49
  8
AM_5
  6
CONTINUOUS
 62
     7
 10
262.45452330893102
 20
193.7055718662574
 30
0.0
 11
262.45452330893102
 21
213.7055718662574
 31
0.0
  0
INSERT
  5
5B4A
  8
AM_5
 62
     7
  2
_OPEN30
 10
262.45452330893102
 20
191.20557186625729
 30
0.0
 41
2.5
 42
2.5
 43
2.5
 50
270.0
  0
INSERT
  5
5B4B
  8
AM_5
 62
     7
  2
_OPEN30
 10
262.45452330893102
 20
216.2055718662574
 30
0.0
 41
2.5
 42
2.5
 43
2.5
 50
90.0
  0
INSERT
  5
5B4C
  8
0
  2
*U57
 10
0.0
 20
0.0
 30
0.0
  0
POINT
  5
5B4D
  8
DEFPOINTS
 62
     0
 10
241.68599939725931
 20
191.20557186625729
 30
0.0
  0
POINT
  5
5B4E
  8
DEFPOINTS
 62
     0
 10
241.6859993972372
 20
216.2055718662574
 30
0.0
  0
POINT
  5
5B4F
  8
DEFPOINTS
 62
     0
 10
262.45452330893102
 20
216.2055718662574
 30
0.0
  0
ENDBLK
  5
49BF
  8
0
  0
BLOCK
  8
0
  2
*D9
 70
     1
 10
0.0
 20
0.0
 30
0.0
  3
*D9
  1

  0
LINE
  5
5B50
  8
AM_5
  6
CONTINUOUS
 62
     7
 10
242.68599939737521
 20
120.7457324963521
 30
0.0
 11
256.1859993973751
 21
120.7457324963521
 31
0.0
  0
LINE
  5
5B51
  8
AM_5
  6
CONTINUOUS
 62
     7
 10
242.68599939737521
 20
123.7457324963522
 30
0.0
 11
256.1859993973751
 21
123.7457324963522
 31
0.0
  0
LINE
  5
5B52
  8
AM_5
  6
CONTINUOUS
 62
     7
 10
255.18599939737521
 20
126.2457324963522
 30
0.0
 11
255.18599939737521
 21
128.74573249635219
 31
0.0
  0
LINE
  5
5B53
  8
AM_5
  6
CONTINUOUS
 62
     7
 10
255.18599939737521
 20
118.2457324963521
 30
0.0
 11
255.18599939737521
 21
111.7457324963521
 31
0.0
  0
LINE
  5
5B54
  8
AM_5
  6
CONTINUOUS
 62
     7
 10
255.18599939737521
 20
123.7457324963522
 30
0.0
 11
255.18599939737521
 21
120.7457324963521
 31
0.0
  0
INSERT
  5
5B55
  8
AM_5
 62
     7
  2
_OPEN30
 10
255.18599939737521
 20
123.7457324963522
 30
0.0
 41
2.5
 42
2.5
 43
2.5
 50
270.0
  0
INSERT
  5
5B56
  8
AM_5
 62
     7
  2
_OPEN30
 10
255.18599939737521
 20
120.7457324963521
 30
0.0
 41
2.5
 42
2.5
 43
2.5
 50
90.0
  0
INSERT
  5
5B57
  8
0
  2
*U58
 10
0.0
 20
0.0
 30
0.0
  0
POINT
  5
5B58
  8
DEFPOINTS
 62
     0
 10
241.6859993973751
 20
120.7457324963521
 30
0.0
  0
POINT
  5
5B59
  8
DEFPOINTS
 62
     0
 10
241.6859993973751
 20
123.7457324963522
 30
0.0
  0
POINT
  5
5B5A
  8
DEFPOINTS
 62
     0
 10
255.18599939737521
 20
123.7457324963522
 30
0.0
  0
ENDBLK
  5
49CB
  8
0
  0
BLOCK
  8
0
  2
*D10
 70
     1
 10
0.0
 20
0.0
 30
0.0
  3
*D10
  1

  0
LINE
  5
5B5B
  8
AM_5
  6
CONTINUOUS
 62
     7
 10
216.6859993973716
 20
148.7457324963157
 30
0.0
 11
270.68599939737521
 21
148.7457324963157
 31
0.0
  0
LINE
  5
5B5C
  8
AM_5
  6
CONTINUOUS
 62
     7
 10
242.68599939737521
 20
120.7457324963521
 30
0.0
 11
270.6859993973751
 21
120.7457324963521
 31
0.0
  0
LINE
  5
5B5D
  8
AM_5
  6
CONTINUOUS
 62
     7
 10
269.68599939737521
 20
146.2457324963157
 30
0.0
 11
269.68599939737521
 21
123.2457324963521
 31
0.0
  0
INSERT
  5
5B5E
  8
AM_5
 62
     7
  2
_OPEN30
 10
269.68599939737521
 20
148.7457324963157
 30
0.0
 41
2.5
 42
2.5
 43
2.5
 50
90.0
  0
INSERT
  5
5B5F
  8
AM_5
 62
     7
  2
_OPEN30
 10
269.68599939737521
 20
120.7457324963521
 30
0.0
 41
2.5
 42
2.5
 43
2.5
 50
270.0
  0
INSERT
  5
5B60
  8
0
  2
*U59
 10
0.0
 20
0.0
 30
0.0
  0
POINT
  5
5B61
  8
DEFPOINTS
 62
     0
 10
215.6859993973716
 20
148.7457324963157
 30
0.0
  0
POINT
  5
5B62
  8
DEFPOINTS
 62
     0
 10
241.6859993973751
 20
120.7457324963521
 30
0.0
  0
POINT
  5
5B63
  8
DEFPOINTS
 62
     0
 10
269.68599939737521
 20
120.7457324963521
 30
0.0
  0
ENDBLK
  5
49D8
  8
0
  0
BLOCK
  8
0
  2
*D11
 70
     1
 10
0.0
 20
0.0
 30
0.0
  3
*D11
  1

  0
LINE
  5
5B64
  8
AM_5
  6
CONTINUOUS
 62
     7
 10
217.6859993973751
 20
122.7457324963255
 30
0.0
 11
217.6859993973751
 21
105.7457324963521
 31
0.0
  0
LINE
  5
5B65
  8
AM_5
  6
CONTINUOUS
 62
     7
 10
205.6859993973751
 20
122.7457324963121
 30
0.0
 11
205.6859993973751
 21
105.7457324963521
 31
0.0
  0
LINE
  5
5B66
  8
AM_5
  6
CONTINUOUS
 62
     7
 10
215.1859993973751
 20
106.7457324963521
 30
0.0
 11
208.1859993973751
 21
106.7457324963521
 31
0.0
  0
INSERT
  5
5B67
  8
AM_5
 62
     7
  2
_OPEN30
 10
217.6859993973751
 20
106.7457324963521
 30
0.0
 41
2.5
 42
2.5
 43
2.5
  0
INSERT
  5
5B68
  8
AM_5
 62
     7
  2
_OPEN30
 10
205.6859993973751
 20
106.7457324963521
 30
0.0
 41
2.5
 42
2.5
 43
2.5
 50
180.0
  0
INSERT
  5
5B69
  8
0
  2
*U60
 10
0.0
 20
0.0
 30
0.0
  0
POINT
  5
5B6A
  8
DEFPOINTS
 62
     0
 10
217.6859993973751
 20
123.7457324963255
 30
0.0
  0
POINT
  5
5B6B
  8
DEFPOINTS
 62
     0
 10
205.6859993973751
 20
123.7457324963121
 30
0.0
  0
POINT
  5
5B6C
  8
DEFPOINTS
 62
     0
 10
205.6859993973751
 20
106.7457324963521
 30
0.0
  0
ENDBLK
  5
49E4
  8
0
  0
BLOCK
  8
0
  2
*D12
 70
     1
 10
0.0
 20
0.0
 30
0.0
  3
*D12
  1

  0
LINE
  5
5B6D
  8
AM_5
  6
CONTINUOUS
 62
     7
 10
232.6859993972225
 20
194.70557186625729
 30
0.0
 11
256.68599939737521
 21
194.70557186625729
 31
0.0
  0
LINE
  5
5B6E
  8
AM_5
  6
CONTINUOUS
 62
     7
 10
232.6859993972225
 20
212.7055718662572
 30
0.0
 11
256.68599939737521
 21
212.7055718662572
 31
0.0
  0
LINE
  5
5B6F
  8
AM_5
  6
CONTINUOUS
 62
     7
 10
255.6859993973751
 20
197.20557186625729
 30
0.0
 11
255.6859993973751
 21
210.20557186625729
 31
0.0
  0
INSERT
  5
5B70
  8
AM_5
 62
     7
  2
_OPEN30
 10
255.6859993973751
 20
194.70557186625729
 30
0.0
 41
2.5
 42
2.5
 43
2.5
 50
270.0
  0
INSERT
  5
5B71
  8
AM_5
 62
     7
  2
_OPEN30
 10
255.6859993973751
 20
212.7055718662572
 30
0.0
 41
2.5
 42
2.5
 43
2.5
 50
90.0
  0
INSERT
  5
5B72
  8
0
  2
*U61
 10
0.0
 20
0.0
 30
0.0
  0
POINT
  5
5B73
  8
DEFPOINTS
 62
     0
 10
231.6859993972225
 20
194.70557186625729
 30
0.0
  0
POINT
  5
5B74
  8
DEFPOINTS
 62
     0
 10
231.6859993972225
 20
212.7055718662572
 30
0.0
  0
POINT
  5
5B75
  8
DEFPOINTS
 62
     0
 10
255.6859993973751
 20
212.7055718662572
 30
0.0
  0
ENDBLK
  5
49F0
  8
0
  0
BLOCK
  8
0
  2
*D13
 70
     1
 10
0.0
 20
0.0
 30
0.0
  3
*D13
  1

  0
LINE
  5
5B76
  8
AM_5
  6
CONTINUOUS
 62
     7
 10
234.6859993972225
 20
210.7055718662572
 30
0.0
 11
234.6859993972225
 21
229.89437051281811
 31
0.0
  0
LINE
  5
5B77
  8
AM_5
  6
CONTINUOUS
 62
     7
 10
228.6859993972225
 20
210.7055718662572
 30
0.0
 11
228.6859993972225
 21
229.89437051281811
 31
0.0
  0
LINE
  5
5B78
  8
AM_5
  6
CONTINUOUS
 62
     7
 10
237.1859993972225
 20
228.89437051281811
 30
0.0
 11
239.6859993972225
 21
228.89437051281811
 31
0.0
  0
LINE
  5
5B79
  8
AM_5
  6
CONTINUOUS
 62
     7
 10
226.1859993972225
 20
228.89437051281811
 30
0.0
 11
219.8288565400797
 21
228.89437051281811
 31
0.0
  0
LINE
  5
5B7A
  8
AM_5
  6
CONTINUOUS
 62
     7
 10
234.6859993972225
 20
228.89437051281811
 30
0.0
 11
228.6859993972225
 21
228.89437051281811
 31
0.0
  0
INSERT
  5
5B7B
  8
AM_5
 62
     7
  2
_OPEN30
 10
234.6859993972225
 20
228.89437051281811
 30
0.0
 41
2.5
 42
2.5
 43
2.5
 50
180.0
  0
INSERT
  5
5B7C
  8
AM_5
 62
     7
  2
_OPEN30
 10
228.6859993972225
 20
228.89437051281811
 30
0.0
 41
2.5
 42
2.5
 43
2.5
  0
INSERT
  5
5B7D
  8
0
  2
*U62
 10
0.0
 20
0.0
 30
0.0
  0
POINT
  5
5B7E
  8
DEFPOINTS
 62
     0
 10
234.6859993972225
 20
209.70557186625729
 30
0.0
  0
POINT
  5
5B7F
  8
DEFPOINTS
 62
     0
 10
228.6859993972225
 20
209.70557186625729
 30
0.0
  0
POINT
  5
5B80
  8
DEFPOINTS
 62
     0
 10
228.6859993972225
 20
228.89437051281811
 30
0.0
  0
ENDBLK
  5
49FC
  8
0
  0
BLOCK
  8
0
  2
*D14
 70
     1
 10
0.0
 20
0.0
 30
0.0
  3
*D14
  1

  0
LINE
  5
5B81
  8
AM_5
  6
CONTINUOUS
 62
     7
 10
219.1859993973757
 20
134.74573249632601
 30
0.0
 11
263.45452330893107
 21
134.74573249632601
 31
0.0
  0
LINE
  5
5B82
  8
AM_5
  6
CONTINUOUS
 62
     7
 10
242.68599939737521
 20
120.7457324963521
 30
0.0
 11
263.45452330893102
 21
120.7457324963521
 31
0.0
  0
LINE
  5
5B83
  8
AM_5
  6
CONTINUOUS
 62
     7
 10
262.45452330893107
 20
132.24573249632601
 30
0.0
 11
262.45452330893102
 21
123.2457324963521
 31
0.0
  0
INSERT
  5
5B84
  8
AM_5
 62
     7
  2
_OPEN30
 10
262.45452330893107
 20
134.74573249632601
 30
0.0
 41
2.5
 42
2.5
 43
2.5
 50
90.0
  0
INSERT
  5
5B85
  8
AM_5
 62
     7
  2
_OPEN30
 10
262.45452330893102
 20
120.7457324963521
 30
0.0
 41
2.5
 42
2.5
 43
2.5
 50
270.0
  0
INSERT
  5
5B86
  8
0
  2
*U63
 10
0.0
 20
0.0
 30
0.0
  0
POINT
  5
5B87
  8
DEFPOINTS
 62
     0
 10
218.18599939737561
 20
134.74573249632601
 30
0.0
  0
POINT
  5
5B88
  8
DEFPOINTS
 62
     0
 10
241.6859993973751
 20
120.7457324963521
 30
0.0
  0
POINT
  5
5B89
  8
DEFPOINTS
 62
     0
 10
262.45452330893102
 20
120.7457324963521
 30
0.0
  0
ENDBLK
  5
4A08
  8
0
  0
BLOCK
  8
0
  2
*D15
 70
     1
 10
0.0
 20
0.0
 30
0.0
  3
*D15
  1

  0
LINE
  5
5B8A
  8
AM_5
  6
CONTINUOUS
 62
     7
 10
219.1859993973745
 20
144.74573249632601
 30
0.0
 11
263.45452330893102
 21
144.74573249632601
 31
0.0
  0
LINE
  5
5B8B
  8
AM_5
  6
CONTINUOUS
 62
     7
 10
219.1859993973757
 20
134.74573249632601
 30
0.0
 11
263.45452330893102
 21
134.74573249632601
 31
0.0
  0
LINE
  5
5B8C
  8
AM_5
  6
CONTINUOUS
 62
     7
 10
262.45452330893102
 20
142.24573249632601
 30
0.0
 11
262.45452330893102
 21
137.24573249632601
 31
0.0
  0
INSERT
  5
5B8D
  8
AM_5
 62
     7
  2
_OPEN30
 10
262.45452330893102
 20
144.74573249632601
 30
0.0
 41
2.5
 42
2.5
 43
2.5
 50
90.0
  0
INSERT
  5
5B8E
  8
AM_5
 62
     7
  2
_OPEN30
 10
262.45452330893102
 20
134.74573249632601
 30
0.0
 41
2.5
 42
2.5
 43
2.5
 50
270.0
  0
INSERT
  5
5B8F
  8
0
  2
*U64
 10
0.0
 20
0.0
 30
0.0
  0
POINT
  5
5B90
  8
DEFPOINTS
 62
     0
 10
218.1859993973745
 20
144.74573249632601
 30
0.0
  0
POINT
  5
5B91
  8
DEFPOINTS
 62
     0
 10
218.18599939737561
 20
134.74573249632601
 30
0.0
  0
POINT
  5
5B92
  8
DEFPOINTS
 62
     0
 10
262.45452330893102
 20
134.74573249632601
 30
0.0
  0
ENDBLK
  5
4A14
  8
0
  0
BLOCK
  8
0
  2
*D16
 70
     1
 10
0.0
 20
0.0
 30
0.0
  3
*D16
  1

  0
LINE
  5
5B93
  8
AM_5
  6
CONTINUOUS
 62
     7
 10
196.6859993972225
 20
204.7055718662574
 30
0.0
 11
196.6859993972225
 21
230.0058001455422
 31
0.0
  0
LINE
  5
5B94
  8
AM_5
  6
CONTINUOUS
 62
     7
 10
186.6859993972225
 20
204.7055718662574
 30
0.0
 11
186.6859993972225
 21
230.0058001455422
 31
0.0
  0
LINE
  5
5B95
  8
AM_5
  6
CONTINUOUS
 62
     7
 10
189.1859993972225
 20
229.00580014554231
 30
0.0
 11
194.1859993972225
 21
229.00580014554231
 31
0.0
  0
LINE
  5
5B96
  8
AM_5
  6
CONTINUOUS
 62
     7
 10
196.6859993972225
 20
229.00580014554231
 30
0.0
 11
205.47171368293681
 21
229.00580014554231
 31
0.0
  0
INSERT
  5
5B97
  8
AM_5
 62
     7
  2
_OPEN30
 10
186.6859993972225
 20
229.00580014554231
 30
0.0
 41
2.5
 42
2.5
 43
2.5
 50
180.0
  0
INSERT
  5
5B98
  8
AM_5
 62
     7
  2
_OPEN30
 10
196.6859993972225
 20
229.00580014554231
 30
0.0
 41
2.5
 42
2.5
 43
2.5
  0
INSERT
  5
5B99
  8
0
  2
*U65
 10
0.0
 20
0.0
 30
0.0
  0
POINT
  5
5B9A
  8
DEFPOINTS
 62
     0
 10
196.6859993972225
 20
203.7055718662574
 30
0.0
  0
POINT
  5
5B9B
  8
DEFPOINTS
 62
     0
 10
186.6859993972225
 20
203.7055718662574
 30
0.0
  0
POINT
  5
5B9C
  8
DEFPOINTS
 62
     0
 10
186.6859993972225
 20
229.00580014554231
 30
0.0
  0
ENDBLK
  5
4A20
  8
0
  0
BLOCK
  8
0
  2
*D17
 70
     1
 10
0.0
 20
0.0
 30
0.0
  3
*D17
  1

  0
LINE
  5
5B9D
  8
AM_5
  6
CONTINUOUS
 62
     7
 10
188.2859993972225
 20
201.10557186625741
 30
0.0
 11
172.70152906039451
 21
201.10557186625741
 31
0.0
  0
LINE
  5
5B9E
  8
AM_5
  6
CONTINUOUS
 62
     7
 10
188.2859993972225
 20
206.3055718662574
 30
0.0
 11
172.70152906039451
 21
206.3055718662574
 31
0.0
  0
LINE
  5
5B9F
  8
AM_5
  6
CONTINUOUS
 62
     7
 10
173.70152906039451
 20
198.60557186625741
 30
0.0
 11
173.70152906039451
 21
196.10557186625741
 31
0.0
  0
LINE
  5
5BA0
  8
AM_5
  6
CONTINUOUS
 62
     7
 10
173.70152906039451
 20
208.8055718662574
 30
0.0
 11
173.70152906039451
 21
219.5912861519717
 31
0.0
  0
LINE
  5
5BA1
  8
AM_5
  6
CONTINUOUS
 62
     7
 10
173.70152906039451
 20
201.10557186625741
 30
0.0
 11
173.70152906039451
 21
206.3055718662574
 31
0.0
  0
INSERT
  5
5BA2
  8
AM_5
 62
     7
  2
_OPEN30
 10
173.70152906039451
 20
201.10557186625741
 30
0.0
 41
2.5
 42
2.5
 43
2.5
 50
90.0
  0
INSERT
  5
5BA3
  8
AM_5
 62
     7
  2
_OPEN30
 10
173.70152906039451
 20
206.3055718662574
 30
0.0
 41
2.5
 42
2.5
 43
2.5
 50
270.0
  0
INSERT
  5
5BA4
  8
0
  2
*U66
 10
0.0
 20
0.0
 30
0.0
  0
POINT
  5
5BA5
  8
DEFPOINTS
 62
     0
 10
189.2859993972225
 20
201.10557186625741
 30
0.0
  0
POINT
  5
5BA6
  8
DEFPOINTS
 62
     0
 10
189.2859993972225
 20
206.3055718662574
 30
0.0
  0
POINT
  5
5BA7
  8
DEFPOINTS
 62
     0
 10
173.70152906039451
 20
206.3055718662574
 30
0.0
  0
ENDBLK
  5
4A2C
  8
0
  0
BLOCK
  8
0
  2
*D22
 70
     1
 10
0.0
 20
0.0
 30
0.0
  3
*D22
  1

  0
LINE
  5
5BA8
  8
AM_5
  6
CONTINUOUS
 62
     7
 10
204.68599939737501
 20
145.2457324963116
 30
0.0
 11
204.68599939737501
 21
154.74573249632601
 31
0.0
  0
LINE
  5
5BA9
  8
AM_5
  6
CONTINUOUS
 62
     7
 10
218.68599939737501
 20
145.24573249632601
 30
0.0
 11
218.68599939737501
 21
154.74573249632601
 31
0.0
  0
LINE
  5
5BAA
  8
AM_5
  6
CONTINUOUS
 62
     7
 10
207.18599939737501
 20
153.74573249632601
 30
0.0
 11
216.18599939737501
 21
153.74573249632601
 31
0.0
  0
INSERT
  5
5BAB
  8
AM_5
 62
     7
  2
_OPEN30
 10
204.68599939737501
 20
153.74573249632601
 30
0.0
 41
2.5
 42
2.5
 43
2.5
 50
180.0
  0
INSERT
  5
5BAC
  8
AM_5
 62
     7
  2
_OPEN30
 10
218.68599939737501
 20
153.74573249632601
 30
0.0
 41
2.5
 42
2.5
 43
2.5
  0
INSERT
  5
5BAD
  8
0
  2
*U67
 10
0.0
 20
0.0
 30
0.0
  0
POINT
  5
5BAE
  8
DEFPOINTS
 62
     0
 10
204.68599939737501
 20
144.2457324963116
 30
0.0
  0
POINT
  5
5BAF
  8
DEFPOINTS
 62
     0
 10
218.68599939737501
 20
144.24573249632601
 30
0.0
  0
POINT
  5
5BB0
  8
DEFPOINTS
 62
     0
 10
218.68599939737501
 20
153.74573249632601
 30
0.0
  0
ENDBLK
  5
5255
  8
0
  0
BLOCK
  8
0
  2
*U56
 70
     1
 10
0.0
 20
0.0
 30
0.0
  3
*U56
  1

  0
TEXT
  5
5C99
  8
AM_5
 62
     7
 10
209.25742796866041
 20
244.27497547915979
 30
0.0
 40
3.0
  1
60
  0
ENDBLK
  5
5C9B
  8
0
  0
BLOCK
  8
0
  2
*U57
 70
     1
 10
0.0
 20
0.0
 30
0.0
  3
*U57
  1

  0
TEXT
  5
5C9D
  8
AM_5
 62
     7
 10
261.45452330893102
 20
201.27700043768601
 30
0.0
 40
3.0
  1
25
 50
90.0
  0
ENDBLK
  5
5C9F
  8
0
  0
BLOCK
  8
0
  2
*U58
 70
     1
 10
0.0
 20
0.0
 30
0.0
  3
*U58
  1

  0
TEXT
  5
5CA1
  8
AM_5
 62
     7
 10
254.1859993973751
 20
112.7457324963522
 30
0.0
 40
3.0
  1
3
 50
90.0
  0
ENDBLK
  5
5CA3
  8
0
  0
BLOCK
  8
0
  2
*U59
 70
     1
 10
0.0
 20
0.0
 30
0.0
  3
*U59
  1

  0
TEXT
  5
5CA5
  8
AM_5
 62
     7
 10
268.6859993973751
 20
132.3171610677625
 30
0.0
 40
3.0
  1
28
 50
90.0
  0
ENDBLK
  5
5CA7
  8
0
  0
BLOCK
  8
0
  2
*U60
 70
     1
 10
0.0
 20
0.0
 30
0.0
  3
*U60
  1

  0
TEXT
  5
5CA9
  8
AM_5
 62
     7
 10
208.1859993973751
 20
107.7457324963521
 30
0.0
 40
3.0
  1
\U+220512
  0
ENDBLK
  5
5CAB
  8
0
  0
BLOCK
  8
0
  2
*U61
 70
     1
 10
0.0
 20
0.0
 30
0.0
  3
*U61
  1

  0
TEXT
  5
5CAD
  8
AM_5
 62
     7
 10
254.6859993973751
 20
201.56271472340021
 30
0.0
 40
3.0
  1
18
 50
90.0
  0
ENDBLK
  5
5CAF
  8
0
  0
BLOCK
  8
0
  2
*U62
 70
     1
 10
0.0
 20
0.0
 30
0.0
  3
*U62
  1

  0
TEXT
  5
5CB1
  8
AM_5
 62
     7
 10
220.8288565400797
 20
229.89437051281811
 30
0.0
 40
3.0
  1
6
  0
ENDBLK
  5
5CB3
  8
0
  0
BLOCK
  8
0
  2
*U63
 70
     1
 10
0.0
 20
0.0
 30
0.0
  3
*U63
  1

  0
TEXT
  5
5CB5
  8
AM_5
 62
     7
 10
261.45452330893102
 20
125.53144678205339
 30
0.0
 40
3.0
  1
14
 50
90.0
  0
ENDBLK
  5
5CB7
  8
0
  0
BLOCK
  8
0
  2
*U64
 70
     1
 10
0.0
 20
0.0
 30
0.0
  3
*U64
  1

  0
TEXT
  5
5CB9
  8
AM_5
 62
     7
 10
261.45452330893102
 20
137.6028753534689
 30
0.0
 40
3.0
  1
10
 50
90.0
  0
ENDBLK
  5
5CBB
  8
0
  0
BLOCK
  8
0
  2
*U65
 70
     1
 10
0.0
 20
0.0
 30
0.0
  3
*U65
  1

  0
TEXT
  5
5CBD
  8
AM_5
 62
     7
 10
200.1859993972225
 20
230.0058001455422
 30
0.0
 40
3.0
  1
10
  0
ENDBLK
  5
5CBF
  8
0
  0
BLOCK
  8
0
  2
*U66
 70
     1
 10
0.0
 20
0.0
 30
0.0
  3
*U66
  1

  0
TEXT
  5
5CC1
  8
AM_5
 62
     7
 10
172.70152906039439
 20
212.3055718662574
 30
0.0
 40
3.0
  1
5.2
 50
90.0
  0
ENDBLK
  5
5CC3
  8
0
  0
BLOCK
  8
0
  2
*U67
 70
     1
 10
0.0
 20
0.0
 30
0.0
  3
*U67
  1

  0
TEXT
  5
5CC5
  8
AM_5
 62
     7
 10
208.1145708259464
 20
154.74573249632601
 30
0.0
 40
3.0
  1
\U+220514
  0
ENDBLK
  5
5CC7
  8
0
  0
BLOCK
  8
0
  2
*U68
 70
     1
 10
0.0
 20
0.0
 30
0.0
  3
*U68
  1

  0
TEXT
  5
5CC9
  8
AM_5
 62
     7
 10
209.25742796870711
 20
237.27497547915979
 30
0.0
 40
3.0
  1
40
  0
ENDBLK
  5
5CCB
  8
0
  0
ENDSEC
  0
SECTION
  2
ENTITIES
  0
INSERT
  5
1BB5
  8
0
  2
ZUWAKU-A3H
 10
0.0
 20
0.0
 30
0.0
1001
GENIUS_GENOREF_13
1005
1C93
1001
GENIUS_GENOBJ-N-SDF_13
1002
{
1000
OWNER
1000
GEN
1002
}
1001
GENIUS_GENODEF_13
1002
{
1000
HIER
1070
     0
1002
}
1002
{
1000
MANEDIT
1070
     0
1002
}
1002
{
1000
NOSEL
1070
     0
1002
}
1002
{
1000
BEHIND
1070
     0
1002
}
1002
{
1000
OTHER
1070
     0
1002
}
1002
{
1000
REACTOR
1002
}
1001
GENIUS_GENSCREG_13
1040
1.0
1040
1.0
1011
24.999999999999979
1021
0.0
1031
0.0
1021
8.9999999999999964
1031
0.0
1011
411.99999999999989
1021
0.0
1031
0.0
1021
284.99999999999989
1031
0.0
1070
     3
  0
POINT
  5
1C93
  8
0
 10
0.0
 20
0.0
 30
0.0
1001
GENIUS_GENOENT_13
1002
{
1000
MYREF
1005
1C93
1002
}
1002
{
1000
GRP
1005
0
1002
}
1001
GENIUS_GENOBJ-N-TIT_13
1002
{
1000
OWNER
1000
GEN
1002
}
1001
GENIUS_GENODEF_13
1002
{
1000
HIER
1070
     1
1002
}
1002
{
1000
MANEDIT
1070
     1
1002
}
1002
{
1000
NOSEL
1070
     0
1002
}
1002
{
1000
BEHIND
1070
     0
1002
}
1002
{
1000
OTHER
1070
     0
1002
}
1002
{
1000
REACTOR
1002
}
1001
GENIUS_GENOLIS_13
1002
{
1000
ENT
1005
1BB5
1005
2A9C
1002
}
1001
GENIUS_GENTITLE_13
1002
{
1000
BORDER
1000
C:\Program Files\Autodesk\ACADM 2008\Acadm\gen\Dwg\Format\ZUWAKU-A3H
1002
}
1002
{
1000
TITLE
1000
C:\Program Files\Autodesk\ACADM 2008\Acadm\gen\Dwg\Title\N_Title
1002
}
1002
{
1000
ADDITIONAL1
1000

1002
}
1002
{
1000
ADDITIONAL2
1000

1002
}
1002
{
1000
SCALE
1000
1:1
1002
}
1002
{
1000
TITLESTD
1000
JIS
1002
}
1002
{
1000
HRA
1005
1BB5
1002
}
1002
{
1000
HTIT
1005
2A9C
1002
}
1002
{
1000
GENIUSID
1005
1C93
1002
}
1002
{
1000
INVTXTID
1005
0
1002
}
1002
{
1000
UNCHG
1002
{
1000
GEN-TITLE-SIZ
1000
GEN-TITLE-SCA
1002
}
1002
}
  0
INSERT
  5
20F2
  8
0
 66
     1
  2
A$C1C06296A
 10
135.5000001316065
 20
8.9999998268887005
 30
0.0
  0
ATTRIB
  5
20F3
  8
AM_BOR
 62
     7
 10
249.8107097069896
 20
9.4999999999999893
 30
0.0
 40
3.0
  1

 11
249.8107097069896
 21
10.999999999999989
 31
0.0
  2
SETS｛20｝
 70
     0
 74
     2
1001
ACDBATTR
1070
     0
1070
     1
  0
ATTRIB
  5
20F4
  8
AM_BOR
 62
     7
 10
154.5607097069896
 20
9.4999999999999893
 30
0.0
 40
3.0
  1

 11
154.5607097069896
 21
10.999999999999989
 31
0.0
  2
REMARKS｛20｝
 70
     0
 74
     2
1001
ACDBATTR
1070
     0
1070
     1
  0
ATTRIB
  5
20F5
  8
AM_BOR
 62
     7
 10
249.8107097069896
 20
14.499999999999989
 30
0.0
 40
3.0
  1

 11
249.8107097069896
 21
15.999999999999989
 31
0.0
  2
SETS｛20｝
 70
     0
 74
     2
1001
ACDBATTR
1070
     0
1070
     1
  0
ATTRIB
  5
20F6
  8
AM_BOR
 62
     7
 10
154.5607097069896
 20
14.499999999999989
 30
0.0
 40
3.0
  1

 11
154.5607097069896
 21
15.999999999999989
 31
0.0
  2
REMARKS｛20｝
 70
     0
 74
     2
1001
ACDBATTR
1070
     0
1070
     1
  0
ATTRIB
  5
20F7
  8
AM_BOR
 62
     7
 10
249.8107097069896
 20
19.499999999999989
 30
0.0
 40
3.0
  1
M5\U+00D712　六角セムス（2本）
 11
249.8107097069896
 21
20.999999999999989
 31
0.0
  2
SETS｛20｝
 70
     0
 74
     2
1001
ACDBATTR
1070
     0
1070
     1
  0
ATTRIB
  5
20F8
  8
AM_BOR
 62
     7
 10
154.5607097069896
 20
19.499999999999989
 30
0.0
 40
3.0
  1

 11
154.5607097069896
 21
20.999999999999989
 31
0.0
  2
REMARKS｛20｝
 70
     0
 74
     2
1001
ACDBATTR
1070
     0
1070
     1
  0
ATTRIB
  5
20F9
  8
AM_BOR
 62
     7
 10
249.74999999999969
 20
32.499999999999993
 30
0.0
 40
3.0
  1
HDG-200-14
 11
249.74999999999969
 21
33.999999999999993
 31
0.0
  2
ART_NO｛20｝
 70
     0
 74
     2
1001
ACDBATTR
1070
     0
1070
     1
  0
ATTRIB
  5
20FA
  8
AM_BOR
 62
     7
 10
154.49999999999969
 20
32.499999999999993
 30
0.0
 40
3.0
  1
ガイドローラー
 11
154.49999999999969
 21
33.999999999999993
 31
0.0
  2
ARTICLE｛20｝
 70
     0
 74
     2
1001
ACDBATTR
1070
     0
1070
     1
  0
ATTRIB
  5
20FB
  8
AM_BOR
 62
     7
 10
249.74999999999969
 20
25.999999999999989
 30
0.0
 40
3.0
  1
バレル
 11
249.74999999999969
 21
27.499999999999989
 31
0.0
  2
FINISH｛20｝
 70
     0
 74
     2
1001
ACDBATTR
1070
     0
1070
     1
  0
ATTRIB
  5
20FC
  8
AM_BOR
 62
     7
 10
154.49999999999969
 20
25.999999999999989
 30
0.0
 40
3.0
  1
樹脂・ステンレス
 11
154.49999999999969
 21
27.499999999999989
 31
0.0
  2
MATERIAK｛20｝
 70
     0
 74
     2
1001
ACDBATTR
1070
     0
1070
     1
  0
SEQEND
  5
20FD
  8
0
  0
LINE
  5
494E
  8
AM_7
 10
178.71889193185029
 20
203.7055718662574
 30
0.0
 11
244.65310686259471
 21
203.7055718662574
 31
0.0
  0
LINE
  5
494F
  8
0
 10
241.68599939726209
 20
191.20557186625729
 30
0.0
 11
241.68599939723441
 21
216.20557186625729
 31
0.0
  0
LINE
  5
4950
  8
0
 10
181.6859993972293
 20
191.20557186625729
 30
0.0
 11
181.6859993972293
 21
216.2055718662574
 31
0.0
  0
LINE
  5
4951
  8
AM_7
 10
211.6859993972225
 20
221.60200573960751
 30
0.0
 11
211.6859993972225
 21
185.8091379929073
 31
0.0
  0
LINE
  5
4965
  8
AM_7
 10
231.68599939727849
 20
192.7055718662574
 30
0.0
 11
231.68599939727849
 21
214.7055718662574
 31
0.0
  0
LINE
  5
4966
  8
AM_7
 10
191.68599939727849
 20
198.59230211213321
 30
0.0
 11
191.68599939727849
 21
208.81884162038159
 31
0.0
  0
DIMENSION
  5
4967
  8
AM_5
  2
*D6
 10
181.6859993972293
 20
243.27497547915979
 30
0.0
 11
211.6859993972318
 21
245.77497547915979
 31
0.0
 70
     0
  1
\A1;60
 13
241.68599939723441
 23
216.2055718662574
 33
0.0
 14
181.6859993972293
 24
216.20557186625729
 34
0.0
1001
ACAD
1000
DSTYLE
1002
{
1070
   286
1070
     0
1070
   274
1070
     2
1070
   284
1070
     0
1070
   283
1070
     1
1070
   146
1040
0.645161
1070
   272
1070
     4
1070
    47
1040
0.0
1070
    48
1040
0.0
1070
    72
1070
     0
1070
    71
1070
     0
1002
}
  0
DIMENSION
  5
4968
  8
AM_5
  2
*D7
 10
191.68599939727849
 20
236.27497547915979
 30
0.0
 11
211.68599939727849
 21
238.77497547915979
 31
0.0
 70
     0
  1
\A1;40
 13
231.68599939727849
 23
214.7055718662574
 33
0.0
 14
191.68599939727849
 24
208.81884162038159
 34
0.0
1001
ACAD
1000
DSTYLE
1002
{
1070
   286
1070
     0
1070
   274
1070
     2
1070
   284
1070
     0
1070
   283
1070
     1
1070
   146
1040
0.645161
1070
   272
1070
     4
1070
    47
1040
0.0
1070
    48
1040
0.0
1070
    72
1070
     0
1070
    71
1070
     0
1002
}
  0
DIMENSION
  5
4969
  8
AM_5
  2
*D8
 10
262.45452330893102
 20
216.2055718662574
 30
0.0
 11
259.95452330893102
 21
203.7055718662574
 31
0.0
 70
     0
  1
\A1;25
 13
241.68599939725931
 23
191.20557186625729
 33
0.0
 14
241.6859993972372
 24
216.2055718662574
 34
0.0
 50
90.0
1001
ACAD
1000
DSTYLE
1002
{
1070
   286
1070
     0
1070
   274
1070
     2
1070
   284
1070
     0
1070
   283
1070
     1
1070
   146
1040
0.645161
1070
   272
1070
     4
1070
    47
1040
0.0
1070
    48
1040
0.0
1070
    72
1070
     0
1070
    71
1070
     0
1002
}
  0
LINE
  5
496A
  8
AM_7
 10
211.68599939737501
 20
150.74573249631871
 30
0.0
 11
211.6859993973751
 21
118.74573249631879
 31
0.0
  0
LINE
  5
496B
  8
0
 10
205.18599939737439
 20
144.74573249631149
 30
0.0
 11
218.1859993973745
 21
144.74573249632601
 31
0.0
  0
LINE
  5
496C
  8
0
 10
205.18599939737561
 20
134.7457324963116
 30
0.0
 11
218.18599939737561
 21
134.74573249632601
 31
0.0
  0
LINE
  5
497F
  8
0
 10
181.6859993973751
 20
120.7457324962855
 30
0.0
 11
241.6859993973751
 21
120.7457324963521
 31
0.0
  0
LINE
  5
4980
  8
0
 10
181.6859993973751
 20
123.7457324962855
 30
0.0
 11
241.6859993973751
 21
123.7457324963522
 31
0.0
  0
LINE
  5
4981
  8
0
 10
205.68599939737501
 20
134.74573249631209
 30
0.0
 11
205.6859993973751
 21
123.7457324963121
 31
0.0
  0
LINE
  5
4982
  8
0
 10
217.6859993973751
 20
134.7457324963255
 30
0.0
 11
217.6859993973751
 21
123.7457324963255
 31
0.0
  0
LINE
  5
4983
  8
0
 10
181.6859993973751
 20
123.7457324962855
 30
0.0
 11
181.6859993973751
 21
120.7457324962855
 31
0.0
  0
LINE
  5
4984
  8
0
 10
241.6859993973751
 20
123.7457324963522
 30
0.0
 11
241.6859993973751
 21
120.7457324963521
 31
0.0
  0
LINE
  5
4985
  8
AM_7
 10
191.6859993973751
 20
125.7457324962966
 30
0.0
 11
191.6859993973751
 21
118.7457324962965
 31
0.0
  0
LINE
  5
4986
  8
AM_7
 10
231.6859993973751
 20
125.74573249634111
 30
0.0
 11
231.6859993973751
 21
118.74573249634101
 31
0.0
  0
DIMENSION
  5
4987
  8
AM_5
  2
*D9
 10
255.18599939737521
 20
123.7457324963522
 30
0.0
 11
255.18599939737521
 21
113.7457324963522
 31
0.0
 70
   128
  1
\A1;3
 13
241.6859993973751
 23
120.7457324963521
 33
0.0
 14
241.6859993973751
 24
123.7457324963522
 34
0.0
 50
90.0
1001
ACAD
1000
DSTYLE
1002
{
1070
   286
1070
     0
1070
   274
1070
     2
1070
   284
1070
     0
1070
   283
1070
     1
1070
   146
1040
0.645161
1070
   272
1070
     4
1070
    47
1040
0.0
1070
    48
1040
0.0
1070
    72
1070
     0
1070
    71
1070
     0
1002
}
  0
DIMENSION
  5
4988
  8
AM_5
  2
*D10
 10
269.68599939737521
 20
120.7457324963521
 30
0.0
 11
267.18599939737521
 21
134.74573249633389
 31
0.0
 70
     0
  1
\A1;28
 13
215.6859993973716
 23
148.7457324963157
 33
0.0
 14
241.6859993973751
 24
120.7457324963521
 34
0.0
 50
90.0
1001
ACAD
1000
DSTYLE
1002
{
1070
   286
1070
     0
1070
   274
1070
     2
1070
   284
1070
     0
1070
   283
1070
     1
1070
   146
1040
0.645161
1070
   272
1070
     4
1070
    47
1040
0.0
1070
    48
1040
0.0
1070
    72
1070
     0
1070
    71
1070
     0
1002
}
  0
DIMENSION
  5
4989
  8
AM_5
  2
*D11
 10
205.6859993973751
 20
106.7457324963521
 30
0.0
 11
211.6859993973751
 21
109.2457324963521
 31
0.0
 70
     0
  1
\A1;\U+220512
 13
217.6859993973751
 23
123.7457324963255
 33
0.0
 14
205.6859993973751
 24
123.7457324963121
 34
0.0
1001
ACAD
1000
DSTYLE
1002
{
1070
   286
1070
     0
1070
   274
1070
     2
1070
   284
1070
     0
1070
   283
1070
     1
1070
   146
1040
0.645161
1070
   272
1070
     4
1070
    47
1040
0.0
1070
    48
1040
0.0
1070
    72
1070
     0
1070
    71
1070
     0
1002
}
  0
LINE
  5
498A
  8
0
 10
234.6859993972225
 20
197.70557186625729
 30
0.0
 11
234.6859993972225
 21
209.70557186625729
 31
0.0
  0
ARC
  5
498B
  8
0
 10
231.6859993972225
 20
197.70557186625729
 30
0.0
 40
3.0000000000000129
 50
180.0
 51
0.0
  0
LINE
  5
498C
  8
0
 10
228.6859993972225
 20
197.70557186625729
 30
0.0
 11
228.6859993972225
 21
209.70557186625729
 31
0.0
  0
ARC
  5
498D
  8
0
 10
231.6859993972225
 20
209.70557186625729
 30
0.0
 40
2.9999999999999858
 50
0.0
 51
180.0
  0
DIMENSION
  5
498E
  8
AM_5
  2
*D12
 10
255.6859993973751
 20
212.7055718662572
 30
0.0
 11
253.1859993973751
 21
203.70557186625729
 31
0.0
 70
     0
  1
\A1;18
 13
231.6859993972225
 23
194.70557186625729
 33
0.0
 14
231.6859993972225
 24
212.7055718662572
 34
0.0
 50
90.0
1001
ACAD
1000
DSTYLE
1002
{
1070
   286
1070
     0
1070
   274
1070
     2
1070
   284
1070
     0
1070
   283
1070
     1
1070
   146
1040
0.645161
1070
   272
1070
     4
1070
    47
1040
0.0
1070
    48
1040
0.0
1070
    72
1070
     0
1070
    71
1070
     0
1002
}
  0
DIMENSION
  5
498F
  8
AM_5
  2
*D13
 10
228.6859993972225
 20
228.89437051281811
 30
0.0
 11
221.75742796865109
 21
228.89437051281811
 31
0.0
 70
   128
  1
\A1;6
 13
234.6859993972225
 23
209.70557186625729
 33
0.0
 14
228.6859993972225
 24
209.70557186625729
 34
0.0
1001
ACAD
1000
DSTYLE
1002
{
1070
   286
1070
     0
1070
   274
1070
     2
1070
   284
1070
     0
1070
   283
1070
     1
1070
   146
1040
0.645161
1070
   272
1070
     4
1070
    47
1040
0.0
1070
    48
1040
0.0
1070
    72
1070
     0
1070
    71
1070
     0
1002
}
  0
DIMENSION
  5
4991
  8
AM_5
  2
*D14
 10
262.45452330893102
 20
120.7457324963521
 30
0.0
 11
259.95452330893102
 21
127.7457324963391
 31
0.0
 70
     0
 13
218.18599939737561
 23
134.74573249632601
 33
0.0
 14
241.6859993973751
 24
120.7457324963521
 34
0.0
 50
90.0
1001
ACAD
1000
DSTYLE
1002
{
1070
   286
1070
     0
1070
   274
1070
     2
1070
   284
1070
     0
1070
   283
1070
     1
1070
   146
1040
0.645161
1070
   272
1070
     4
1070
    47
1040
0.0
1070
    48
1040
0.0
1070
    72
1070
     0
1070
    71
1070
     0
1002
}
  0
DIMENSION
  5
4992
  8
AM_5
  2
*D15
 10
262.45452330893102
 20
134.74573249632601
 30
0.0
 11
259.95452330893102
 21
139.74573249632601
 31
0.0
 70
     0
 13
218.1859993973745
 23
144.74573249632601
 33
0.0
 14
218.18599939737561
 24
134.74573249632601
 34
0.0
 50
90.0
1001
ACAD
1000
DSTYLE
1002
{
1070
   286
1070
     0
1070
   274
1070
     2
1070
   284
1070
     0
1070
   283
1070
     1
1070
   146
1040
0.645161
1070
   272
1070
     4
1070
    47
1040
0.0
1070
    48
1040
0.0
1070
    72
1070
     0
1070
    71
1070
     0
1002
}
  0
LINE
  5
4993
  8
0
 10
189.2859993972225
 20
201.10557186625741
 30
0.0
 11
194.08599939722251
 21
201.10557186625741
 31
0.0
  0
ARC
  5
4994
  8
0
 10
194.08599939722251
 20
203.7055718662574
 30
0.0
 40
2.599999999999993
 50
270.0
 51
90.0
  0
LINE
  5
4995
  8
0
 10
189.2859993972225
 20
206.3055718662574
 30
0.0
 11
194.08599939722251
 21
206.3055718662574
 31
0.0
  0
ARC
  5
4996
  8
0
 10
189.2859993972225
 20
203.7055718662574
 30
0.0
 40
2.599999999999993
 50
90.0
 51
270.0
  0
DIMENSION
  5
4997
  8
AM_5
  2
*D16
 10
186.6859993972225
 20
229.00580014554231
 30
0.0
 11
202.3288565400797
 21
229.00580014554231
 31
0.0
 70
   128
  1
\A1;10
 13
196.6859993972225
 23
203.7055718662574
 33
0.0
 14
186.6859993972225
 24
203.7055718662574
 34
0.0
1001
ACAD
1000
DSTYLE
1002
{
1070
   286
1070
     0
1070
   274
1070
     2
1070
   284
1070
     0
1070
   283
1070
     1
1070
   146
1040
0.645161
1070
   272
1070
     4
1070
    47
1040
0.0
1070
    48
1040
0.0
1070
    72
1070
     0
1070
    71
1070
     0
1002
}
  0
DIMENSION
  5
4998
  8
AM_5
  2
*D17
 10
173.70152906039451
 20
206.3055718662574
 30
0.0
 11
173.70152906039439
 21
215.44842900911459
 31
0.0
 70
   128
  1
\A1;5.2
 13
189.2859993972225
 23
201.10557186625741
 33
0.0
 14
189.2859993972225
 24
206.3055718662574
 34
0.0
 50
90.0
1001
ACAD
1000
DSTYLE
1002
{
1070
   286
1070
     0
1070
   274
1070
     2
1070
   284
1070
     0
1070
   283
1070
     1
1070
   146
1040
0.645161
1070
   272
1070
     4
1070
    47
1040
0.0
1070
    48
1040
0.0
1070
    72
1070
     0
1070
    71
1070
     0
1002
}
  0
LINE
  5
4999
  8
0
 10
181.6859993972293
 20
191.20557186625729
 30
0.0
 11
241.68599939725931
 21
191.20557186625729
 31
0.0
  0
LINE
  5
499A
  8
0
 10
181.6859993972293
 20
216.2055718662574
 30
0.0
 11
241.6859993972372
 21
216.2055718662574
 31
0.0
  0
LINE
  5
499B
  8
0
 10
204.68599939737501
 20
144.2457324963116
 30
0.0
 11
204.6859993973751
 21
135.2457324963116
 31
0.0
  0
LINE
  5
499C
  8
0
 10
218.68599939737501
 20
144.24573249632601
 30
0.0
 11
218.6859993973751
 21
135.24573249632601
 31
0.0
  0
ARC
  5
499D
  8
0
 10
218.18599939737501
 20
144.24573249632601
 30
0.0
 40
0.5
 50
0.0
 51
90.0
  0
ARC
  5
499E
  8
0
 10
218.18599939737501
 20
135.24573249632601
 30
0.0
 40
0.5
 50
270.0
 51
0.0
  0
ARC
  5
499F
  8
0
 10
205.1859993973751
 20
135.2457324963116
 30
0.0
 40
0.5
 50
180.0
 51
270.0
  0
ARC
  5
49A0
  8
0
 10
205.18599939737501
 20
144.2457324963116
 30
0.0
 40
0.5
 50
90.0
 51
180.0
  0
DIMENSION
  5
5252
  8
AM_5
  2
*D22
 10
218.68599939737501
 20
153.74573249632601
 30
0.0
 11
211.68599939737501
 21
156.24573249632601
 31
0.0
 70
     0
  1
%%c<>
 13
204.68599939737501
 23
144.2457324963116
 33
0.0
 14
218.68599939737501
 24
144.24573249632601
 34
0.0
1001
ACAD_DSTYLE_DIMINSPECT
1070
   396
1000
100%
1070
   395
1000

1070
   394
1070
    33
1070
   393
1070
     0
1001
ACAD
1000
DSTYLE
1002
{
1070
   286
1070
     0
1070
   274
1070
     2
1070
   284
1070
     8
1070
   283
1070
     0
1070
   146
1040
0.71
1070
   272
1070
     2
1070
    47
1040
0.1
1070
    48
1040
0.1
1070
    72
1070
     0
1070
    71
1070
     0
1002
}
  0
LINE
  5
5AF7
  8
0
 10
205.6859993973716
 20
145.24573249632351
 30
0.0
 11
217.6859993973716
 21
145.2457324963141
 31
0.0
  0
LINE
  5
5AF8
  8
0
 10
207.6859993973716
 20
148.74573249632189
 30
0.0
 11
215.6859993973716
 21
148.7457324963157
 31
0.0
  0
POINT
  5
5AF9
  8
0
 10
215.6859993973716
 20
144.7457324963157
 30
0.0
  0
POINT
  5
5AFA
  8
0
 10
215.6859993973716
 20
145.2457324963157
 30
0.0
  0
LINE
  5
5AFB
  8
0
 10
215.6859993973716
 20
144.7457324963157
 30
0.0
 11
215.6859993973716
 21
145.2457324963157
 31
0.0
  0
LINE
  5
5AFC
  8
0
 10
215.6859993973716
 20
146.1457324963157
 30
0.0
 11
215.6859993973716
 21
148.7457324963157
 31
0.0
  0
POINT
  5
5AFD
  8
0
 10
207.6859993973716
 20
144.74573249632189
 30
0.0
  0
POINT
  5
5AFE
  8
0
 10
207.6859993973716
 20
145.24573249632189
 30
0.0
  0
LINE
  5
5AFF
  8
0
 10
207.6859993973716
 20
144.74573249632189
 30
0.0
 11
207.6859993973716
 21
145.24573249632189
 31
0.0
  0
LINE
  5
5B00
  8
0
 10
207.6859993973716
 20
146.1457324963219
 30
0.0
 11
207.6859993973716
 21
148.74573249632201
 31
0.0
  0
LINE
  5
5B01
  8
0
 10
205.6859993973716
 20
146.0457324963235
 30
0.0
 11
217.6859993973716
 21
146.04573249631409
 31
0.0
  0
LINE
  5
5B02
  8
0
 10
207.6859993973716
 20
146.1457324963219
 30
0.0
 11
215.6859993973716
 21
146.1457324963157
 31
0.0
  0
LINE
  5
5B03
  8
0
 10
208.6859993973716
 20
146.1457324963211
 30
0.0
 11
208.6859993973716
 21
145.24573249632121
 31
0.0
  0
LINE
  5
5B04
  8
0
 10
214.6859993973716
 20
146.1457324963165
 30
0.0
 11
214.6859993973716
 21
145.24573249631649
 31
0.0
  0
LINE
  5
5B05
  8
0
 10
205.6859993973716
 20
146.0457324963235
 30
0.0
 11
205.6859993973716
 21
145.24573249632351
 31
0.0
  0
LINE
  5
5B06
  8
0
 10
217.6859993973716
 20
146.04573249631409
 30
0.0
 11
217.6859993973716
 21
145.2457324963141
 31
0.0
  0
CIRCLE
  5
5B07
  8
0
 10
211.6859993972225
 20
203.7055718662574
 30
0.0
 40
7.0
  0
CIRCLE
  5
5B08
  8
0
 10
211.6859993972225
 20
203.7055718662574
 30
0.0
 40
4.0
  0
ARC
  5
5B09
  8
0
 10
211.6859993972225
 20
203.7055718662574
 30
0.0
 40
6.0
 50
316.23518148780238
 51
223.76481851211281
  0
POINT
  5
5B0B
  8
0
 10
215.68503143821101
 20
203.79356467930069
 30
0.0
  0
LINE
  5
5B0D
  8
0
 10
215.68503143821101
 20
203.79356467930069
 30
0.0
 11
215.8278540240286
 21
203.81874815463451
 31
0.0
  0
POINT
  5
5B0E
  8
0
 10
214.4763335895729
 20
200.839558067442
 30
0.0
  0
LINE
  5
5B10
  8
0
 10
214.69888794519071
 20
201.07450694924719
 30
0.0
 11
215.1881710852193
 21
199.73021257029109
 31
0.0
  0
POINT
  5
5B11
  8
0
 10
208.89566520473329
 20
200.83955806757709
 30
0.0
  0
LINE
  5
5B12
  8
0
 10
208.18382770921971
 20
199.73021257029549
 30
0.0
 11
208.6731108492518
 21
201.07450694925001
 31
0.0
  0
POINT
  5
5B14
  8
0
 10
207.68696735623499
 20
203.79356467934369
 30
0.0
  0
LINE
  5
5B15
  8
0
 10
207.54414477042141
 20
203.81874815467731
 30
0.0
 11
207.68696735623499
 21
203.79356467934369
 31
0.0
  0
POINT
  5
5B17
  8
0
 10
210.31791882397789
 20
207.4643423494222
 30
0.0
  0
LINE
  5
5B18
  8
0
 10
210.2941833135317
 20
207.52955512841251
 30
0.0
 11
210.317918823978
 21
207.4643423494222
 31
0.0
  0
POINT
  5
5B1A
  8
0
 10
213.054079970526
 20
207.46434234940079
 30
0.0
  0
LINE
  5
5B1C
  8
0
 10
213.054079970526
 20
207.46434234940079
 30
0.0
 11
213.07781548096921
 21
207.52955512838309
 31
0.0
  0
ARC
  5
5B21
  8
0
 10
215.7410299351962
 20
204.31115203114081
 30
0.0
 40
0.5
 50
279.9999999998663
 51
8.4938052596339375
  0
ARC
  5
5B22
  8
0
 10
211.6859993972225
 20
203.7055718662574
 30
0.0
 40
4.5999999999999988
 50
8.4938052596347582
 51
62.995273590913627
  0
ARC
  5
5B23
  8
0
 10
211.6859993972225
 20
203.7055718662574
 30
0.0
 40
4.5999999999999988
 50
117.00472640820639
 51
171.5061947397659
  0
ARC
  5
5B24
  8
0
 10
213.5476617913624
 20
207.35854505672091
 30
0.0
 40
0.5
 50
62.995273590914593
 51
160.0000000000868
  0
ARC
  5
5B25
  8
0
 10
209.82433700313871
 20
207.35854505674951
 30
0.0
 40
0.5
 50
20.000000000010431
 51
117.00472640820639
  0
ARC
  5
5B26
  8
0
 10
207.63096885925509
 20
204.3111520311833
 30
0.0
 40
0.5
 50
171.5061947397667
 51
259.99999999996999
  0
ARC
  5
5B27
  8
0
 10
215.6580173956126
 20
199.90122264195301
 30
0.0
 40
0.5
 50
199.99999999989259
 51
316.23518148780119
  0
ARC
  5
5B28
  8
0
 10
207.71398139882689
 20
199.90122264195881
 30
0.0
 40
0.5
 50
223.76481851211281
 51
339.99999999994782
  0
VIEWPORT
  5
95A
 67
     1
  8
0
  6
CONTINUOUS
 10
128.5
 20
97.5
 30
0.0
 40
386.73855140186919
 41
222.18000000000001
 68
     1
 69
     1
1001
ACAD
1000
MVIEW
1002
{
1070
    16
1010
0.0
1020
0.0
1030
0.0
1010
0.0
1020
0.0
1030
1.0
1040
0.0
1040
222.18000000000001
1040
128.5
1040
97.5
1040
50.0
1040
0.0
1040
0.0
1070
     0
1070
   100
1070
     1
1070
     1
1070
     0
1070
     0
1070
     0
1070
     0
1040
0.0
1040
0.0
1040
0.0
1040
10.0
1040
10.0
1040
10.0
1040
10.0
1070
     0
1002
{
1002
}
1002
}
1001
GENIUS_GENOBJ-N-SDF_13
1002
{
1000
OWNER
1000
GEN
1002
}
1001
GENIUS_GENODEF_13
1002
{
1000
HIER
1070
     0
1002
}
1002
{
1000
MANEDIT
1070
     0
1002
}
1002
{
1000
NOSEL
1070
     0
1002
}
1002
{
1000
BEHIND
1070
     0
1002
}
1002
{
1000
OTHER
1070
     0
1002
}
1002
{
1000
REACTOR
1002
}
1001
GENIUS_GENSCREG_15
1000
PF
1040
1.0
1000
DF
1040
1.0
1000
MIN
1011
-64.869275700934566
1021
0.0
1031
0.0
1021
-13.59
1031
0.0
1000
MAX
1011
321.86927570093462
1021
0.0
1031
0.0
1021
208.59
1031
0.0
1000
FLAGS
1070
     4
  0
ENDSEC
  0
EOF
