  0
SECTION
  2
HEADER
  9
$ACADVER
  1
AC1009
  9
$INSBASE
 10
0.0
 20
0.0
 30
0.0
  9
$EXTMIN
 10
24.988196455601379
 20
8.9915819683359341
 30
-0.0000000000000053
  9
$EXTMAX
 10
412.01181390717272
 20
285.00842542216981
 30
0.0000000000000099
  9
$LIMMIN
 10
24.999999999999979
 20
8.9999999999999964
  9
$LIMMAX
 10
411.99999999999989
 20
284.99999999999989
  9
$ORTHOMODE
 70
     1
  9
$REGENMODE
 70
     1
  9
$FILLMODE
 70
     1
  9
$QTEXTMODE
 70
     0
  9
$MIRRTEXT
 70
     1
  9
$DRAGMODE
 70
     2
  9
$LTSCALE
 40
5.0
  9
$OSMODE
 70
    39
  9
$ATTMODE
 70
     1
  9
$TEXTSIZE
 40
3.0
  9
$TRACEWID
 40
0.05
  9
$TEXTSTYLE
  7
STANDARD
  9
$CLAYER
  8
0
  9
$CELTYPE
  6
BYLAYER
  9
$CECOLOR
 62
   256
  9
$DIMSCALE
 40
1.0
  9
$DIMASZ
 40
2.5
  9
$DIMEXO
 40
1.0
  9
$DIMDLI
 40
7.0
  9
$DIMRND
 40
0.0
  9
$DIMDLE
 40
0.0
  9
$DIMEXE
 40
1.0
  9
$DIMTP
 40
0.1
  9
$DIMTM
 40
0.1
  9
$DIMTXT
 40
3.0
  9
$DIMCEN
 40
0.0
  9
$DIMTSZ
 40
0.0
  9
$DIMTOL
 70
     0
  9
$DIMLIM
 70
     0
  9
$DIMTIH
 70
     0
  9
$DIMTOH
 70
     0
  9
$DIMSE1
 70
     0
  9
$DIMSE2
 70
     0
  9
$DIMTAD
 70
     3
  9
$DIMZIN
 70
     8
  9
$DIMBLK
  1
OPEN30
  9
$DIMASO
 70
     1
  9
$DIMSHO
 70
     1
  9
$DIMPOST
  1

  9
$DIMAPOST
  1
"
  9
$DIMALT
 70
     0
  9
$DIMALTD
 70
     2
  9
$DIMALTF
 40
0.0393701
  9
$DIMLFAC
 40
1.0
  9
$DIMTOFL
 70
     1
  9
$DIMTVP
 40
0.0
  9
$DIMTIX
 70
     0
  9
$DIMSOXD
 70
     0
  9
$DIMSAH
 70
     0
  9
$DIMBLK1
  1

  9
$DIMBLK2
  1

  9
$DIMSTYLE
  2
AM_JIS
  9
$DIMCLRD
 70
     7
  9
$DIMCLRE
 70
     7
  9
$DIMCLRT
 70
     7
  9
$DIMTFAC
 40
0.71
  9
$DIMGAP
 40
1.0
  9
$LUNITS
 70
     2
  9
$LUPREC
 70
     4
  9
$SKETCHINC
 40
0.1
  9
$FILLETRAD
 40
5.0
  9
$AUNITS
 70
     0
  9
$AUPREC
 70
     0
  9
$MENU
  1
acad
  9
$ELEVATION
 40
0.0
  9
$PELEVATION
 40
0.0
  9
$THICKNESS
 40
0.0
  9
$LIMCHECK
 70
     0
  9
$BLIPMODE
 70
     0
  9
$CHAMFERA
 40
0.0
  9
$CHAMFERB
 40
0.0
  9
$SKPOLY
 70
     0
  9
$TDCREATE
 40
2455755.6568701151
  9
$TDUPDATE
 40
2457185.5821078708
  9
$TDINDWG
 40
0.4512141782
  9
$TDUSRTIMER
 40
0.4512139931
  9
$USRTIMER
 70
     1
  9
$ANGBASE
 50
0.0
  9
$ANGDIR
 70
     0
  9
$PDMODE
 70
     0
  9
$PDSIZE
 40
0.0
  9
$PLINEWID
 40
0.0
  9
$COORDS
 70
     1
  9
$SPLFRAME
 70
     0
  9
$SPLINETYPE
 70
     6
  9
$SPLINESEGS
 70
     8
  9
$ATTDIA
 70
     1
  9
$ATTREQ
 70
     1
  9
$HANDLING
 70
     1
  9
$HANDSEED
  5
5224
  9
$SURFTAB1
 70
     6
  9
$SURFTAB2
 70
     6
  9
$SURFTYPE
 70
     6
  9
$SURFU
 70
     6
  9
$SURFV
 70
     6
  9
$UCSNAME
  2

  9
$UCSORG
 10
0.0
 20
0.0
 30
0.0
  9
$UCSXDIR
 10
1.0
 20
0.0
 30
0.0
  9
$UCSYDIR
 10
0.0
 20
1.0
 30
0.0
  9
$PUCSNAME
  2

  9
$PUCSORG
 10
0.0
 20
0.0
 30
0.0
  9
$PUCSXDIR
 10
1.0
 20
0.0
 30
0.0
  9
$PUCSYDIR
 10
0.0
 20
1.0
 30
0.0
  9
$USERI1
 70
     0
  9
$USERI2
 70
     0
  9
$USERI3
 70
     0
  9
$USERI4
 70
     0
  9
$USERI5
 70
     0
  9
$USERR1
 40
0.0
  9
$USERR2
 40
0.0
  9
$USERR3
 40
0.0
  9
$USERR4
 40
0.0
  9
$USERR5
 40
0.0
  9
$WORLDVIEW
 70
     1
  9
$SHADEDGE
 70
     3
  9
$SHADEDIF
 70
    70
  9
$TILEMODE
 70
     1
  9
$MAXACTVP
 70
    16
  9
$PLIMCHECK
 70
     0
  9
$PEXTMIN
 10
1.0000000000000000E+020
 20
1.0000000000000000E+020
 30
1.0000000000000000E+020
  9
$PEXTMAX
 10
-1.0000000000000000E+020
 20
-1.0000000000000000E+020
 30
-1.0000000000000000E+020
  9
$PLIMMIN
 10
-20.0
 20
-7.5
  9
$PLIMMAX
 10
277.0
 20
202.5
  9
$UNITMODE
 70
     0
  9
$VISRETAIN
 70
     0
  9
$PLINEGEN
 70
     1
  9
$PSLTSCALE
 70
     0
  0
ENDSEC
  0
SECTION
  2
TABLES
  0
TABLE
  2
VPORT
 70
     1
  0
VPORT
  2
*ACTIVE
 70
     0
 10
0.0
 20
0.0
 11
1.0
 21
1.0
 12
218.50000518138711
 22
147.00000369525279
 13
0.0
 23
0.0
 14
2.5
 24
2.5
 15
10.0
 25
10.0
 16
0.0
 26
0.0
 36
1.0
 17
0.0
 27
0.0
 37
0.0
 40
278.36065851877061
 41
2.172073342736248
 42
50.0
 43
0.0
 44
0.0
 50
0.0
 51
0.0
 71
     0
 72
   100
 73
     1
 74
     3
 75
     0
 76
     0
 77
     0
 78
     1
  0
ENDTAB
  0
TABLE
  2
LTYPE
 70
    22
  0
LTYPE
  2
CONTINUOUS
 70
     0
  3
Solid line (NEC CAE2D for Win R7.2 : 2008.02.20
 72
    65
 73
     0
 40
0.0
  0
LTYPE
  2
HIDDEN
 70
     0
  3
Hidden __ __ __ __ __ __ __ __ __ __ __ __ __ _
 72
    65
 73
     2
 40
0.375
 49
0.25
 49
-0.125
  0
LTYPE
  2
PHANTOM2
 70
     0
  3
Phantom (.5x) ___ _ _ ___ _ _ ___ _ _ ___ _ _
 72
    65
 73
     6
 40
1.25
 49
0.625
 49
-0.125
 49
0.125
 49
-0.125
 49
0.125
 49
-0.125
  0
LTYPE
  2
CENTER
 70
     0
  3
Center ____ _ ____ _ ____ _ ____ _ ____ _ ____
 72
    65
 73
     4
 40
2.0
 49
1.25
 49
-0.25
 49
0.25
 49
-0.25
  0
LTYPE
  2
CENTER2
 70
     0
  3
Center (.5x) ___ _ ___ _ ___ _ ___ _ ___ _ ___
 72
    65
 73
     4
 40
1.125
 49
0.75
 49
-0.125
 49
0.125
 49
-0.125
  0
LTYPE
  2
HIDDEN2
 70
     0
  3
Hidden (.5x) _ _ _ _ _ _ _ _ _ _ _ _ _ _ _ _ _
 72
    65
 73
     2
 40
0.1875
 49
0.125
 49
-0.0625
  0
LTYPE
  2
ACANSTGB
 70
     0
  3
__ . . __ . .
 72
    65
 73
     6
 40
0.35433070866
 49
0.15748031496
 49
-0.03937007874
 49
0.03937007874
 49
-0.03937007874
 49
0.03937007874
 49
-0.03937007874
  0
LTYPE
  2
ACANSTGL
 70
     0
  3
_ _ _ _ _
 72
    65
 73
     2
 40
0.11811023622
 49
0.07874015748
 49
-0.03937007874
  0
LTYPE
  2
ACJISWELD
 70
     0
  3
_ _ _ _ _
 72
    65
 73
     2
 40
2.0
 49
2.0
 49
-1.0
  0
LTYPE
  2
ACJISTGB
 70
     0
  3
__ . . __ . .
 72
    65
 73
     6
 40
9.0
 49
4.0
 49
-1.0
 49
1.0
 49
-1.0
 49
1.0
 49
-1.0
  0
LTYPE
  2
ACJISTGL
 70
     0
  3
_ _ _ _ _
 72
    65
 73
     2
 40
3.0
 49
2.0
 49
-1.0
  0
LTYPE
  2
ACISOWELD
 70
     0
  3
_ _ _ _ _
 72
    65
 73
     2
 40
2.0
 49
2.0
 49
-1.0
  0
LTYPE
  2
ACISOTGB
 70
     0
  3
__ . . __ . .
 72
    65
 73
     6
 40
9.0
 49
4.0
 49
-1.0
 49
1.0
 49
-1.0
 49
1.0
 49
-1.0
  0
LTYPE
  2
ACISOTGL
 70
     0
  3
_ _ _ _ _
 72
    65
 73
     2
 40
3.0
 49
2.0
 49
-1.0
  0
LTYPE
  2
PHANTOM
 70
     0
  3
____ _ _ ____ _ _ ____ _ _ ____ _ _ ____
 72
    65
 73
     6
 40
2.5
 49
1.25
 49
-0.25
 49
0.25
 49
-0.25
 49
0.25
 49
-0.25
  0
LTYPE
  2
AM_ISO02W050
 70
     0
  3
__ __ __ __ __ __ __ __ __ __ __ __ __ __ __
 72
    65
 73
     2
 40
7.5
 49
6.0
 49
-1.5
  0
LTYPE
  2
AM_ISO08W050
 70
     0
  3
____ . ____ . ____ . ____ . ____ . ____ . ____
 72
    65
 73
     4
 40
18.0
 49
12.0
 49
-1.5
 49
3.0
 49
-1.5
  0
LTYPE
  2
AM_ISO09W050
 70
     0
  3
_____ . . _____ . . _____ . . ____ .. ____
 72
    65
 73
     6
 40
22.5
 49
12.0
 49
-1.5
 49
3.0
 49
-1.5
 49
3.0
 49
-1.5
  0
LTYPE
  2
AMCONSTR
 70
     0
  3
_______________________
 72
    65
 73
     2
 40
9999.0
 49
9999.0
 49
0.0
  0
LTYPE
  2
AM_ISO08W050X2
 70
     0
  3
__ . __ . __ . __ . __ . __
 72
    65
 73
     4
 40
9.0
 49
6.0
 49
-0.75
 49
1.5
 49
-0.75
  0
LTYPE
  2
AM_ISO02W050X2
 70
     0
  3
 _ _ _ _ _ _ _ _ _ _ _ _
 72
    65
 73
     2
 40
3.75
 49
3.0
 49
-0.75
  0
LTYPE
  2
AMZIGZAG
 70
     0
  3
/\/-/\/-/\/-/\/-/\/-/\/
 72
    65
 73
     2
 40
11.0001
 49
0.0001
 49
-11.0
  0
ENDTAB
  0
TABLE
  2
LAYER
 70
    21
  0
LAYER
  2
0
 70
     0
 62
     3
  6
CONTINUOUS
  0
LAYER
  2
SYS-BUHIN0
 70
     0
 62
     7
  6
CONTINUOUS
  0
LAYER
  2
AM_0
 70
     0
 62
     3
  6
CONTINUOUS
  0
LAYER
  2
DEFPOINTS
 70
     0
 62
     7
  6
CONTINUOUS
  0
LAYER
  2
AM_5
 70
     0
 62
     7
  6
CONTINUOUS
  0
LAYER
  2
AM_BOR
 70
     0
 62
     7
  6
CONTINUOUS
  0
LAYER
  2
SYS-BUHINCODE
 70
     0
 62
     7
  6
CONTINUOUS
  0
LAYER
  2
AM_7
 70
     0
 62
     4
  6
CENTER
  0
LAYER
  2
AM_3
 70
     0
 62
     7
  6
HIDDEN
  0
LAYER
  2
AM_12
 70
     0
 62
   253
  6
CONTINUOUS
  0
LAYER
  2
AM_PAREF
 70
     0
 62
     4
  6
CONTINUOUS
  0
LAYER
  2
AM_6
 70
     0
 62
     7
  6
CONTINUOUS
  0
LAYER
  2
AM_8
 70
     0
 62
   253
  6
CONTINUOUS
  0
LAYER
  2
AM_4
 70
     0
 62
     6
  6
CONTINUOUS
  0
LAYER
  2
AM_10
 70
     0
 62
     7
  6
CONTINUOUS
  0
LAYER
  2
AM_CL
 70
     0
 62
     1
  6
CONTINUOUS
  0
LAYER
  2
AM_2
 70
     0
 62
     5
  6
PHANTOM2
  0
LAYER
  2
AM_1N
 70
     0
 62
    14
  6
CONTINUOUS
  0
LAYER
  2
AM_1
 70
     0
 62
    14
  6
PHANTOM2
  0
LAYER
  2
AM_9
 70
     0
 62
    -7
  6
CONTINUOUS
  0
LAYER
  2
SYS-TEISEI0
 70
     0
 62
     7
  6
CONTINUOUS
  0
ENDTAB
  0
TABLE
  2
STYLE
 70
    14
  0
STYLE
  2
STANDARD
 70
     0
 40
0.0
 41
1.0
 50
0.0
 71
     0
 42
3.0
  3
dim.shx
  4
extfont.shx
  0
STYLE
  2
KNJYOKO
 70
     0
 40
0.0
 41
1.0
 50
0.0
 71
     0
 42
3.099999904632567
  3
TXT.shx
  4
extfont.shx
  0
STYLE
  2
ACANSTS
 70
     0
 40
1.0
 41
1.0
 50
0.0
 71
     0
 42
0.2
  3
romans.shx
  4
extfont.shx
  0
STYLE
  2
ACANSGDT
 70
     0
 40
0.0
 41
1.0
 50
0.0
 71
     0
 42
0.2
  3
amgdt.shx
  4

  0
STYLE
  2
ACJISTS
 70
     0
 40
1.0
 41
1.0
 50
0.0
 71
     0
 42
0.2
  3
isocp.shx
  4
extfont.shx
  0
STYLE
  2
ACJISGDT
 70
     0
 40
0.0
 41
1.0
 50
0.0
 71
     0
 42
0.2
  3
amgdt.shx
  4

  0
STYLE
  2
MINNTYOU
 70
     0
 40
0.0
 41
1.0
 50
0.0
 71
     0
 42
3.0
  3
txt
  4

  0
STYLE
  2
R寸法
 70
     0
 40
2.0
 41
1.0
 50
0.0
 71
     0
 42
3.0
  3
dim.shx
  4
extfont.shx
  0
STYLE
  2
ANKTATE
 70
     4
 40
0.0
 41
1.0
 50
0.0
 71
     0
 42
3.099999904632567
  3
TXT
  4

  0
STYLE
  2
KNJTATE
 70
     4
 40
0.0
 41
1.0
 50
0.0
 71
     0
 42
3.099999904632567
  3
TXT
  4
BIGFONT
  0
STYLE
  2
ACISOTS
 70
     0
 40
1.0
 41
1.0
 50
0.0
 71
     0
 42
2.5
  3
isocp.shx
  4
extfont.shx
  0
STYLE
  2
ACISOGDT
 70
     0
 40
0.0
 41
1.0
 50
0.0
 71
     0
 42
2.5
  3
amgdt.shx
  4

  0
STYLE
  2

 70
     1
 40
0.0
 41
1.0
 50
0.0
 71
     0
 42
3.0
  3
genltshp.shx
  4

  0
ENDTAB
  0
TABLE
  2
VIEW
 70
     7
  0
VIEW
  2
AM_VIEW1
 70
     0
 40
137.99999999999989
 10
151.8531375166888
 20
215.99999999999989
 41
253.70627503337769
 11
0.0
 21
0.0
 31
1.0
 12
0.0
 22
0.0
 32
0.0
 42
50.0
 43
0.0
 44
0.0
 50
0.0
 71
     0
  0
VIEW
  2
AM_VIEW2
 70
     0
 40
137.99999999999989
 10
285.146862483311
 20
215.99999999999989
 41
253.70627503337769
 11
0.0
 21
0.0
 31
1.0
 12
0.0
 22
0.0
 32
0.0
 42
50.0
 43
0.0
 44
0.0
 50
0.0
 71
     0
  0
VIEW
  2
AM_VIEW3
 70
     0
 40
137.99999999999989
 10
151.8531375166888
 20
77.999999999999972
 41
253.70627503337769
 11
0.0
 21
0.0
 31
1.0
 12
0.0
 22
0.0
 32
0.0
 42
50.0
 43
0.0
 44
0.0
 50
0.0
 71
     0
  0
VIEW
  2
AM_VIEW4
 70
     0
 40
137.99999999999989
 10
285.146862483311
 20
77.999999999999972
 41
253.70627503337769
 11
0.0
 21
0.0
 31
1.0
 12
0.0
 22
0.0
 32
0.0
 42
50.0
 43
0.0
 44
0.0
 50
0.0
 71
     0
  0
VIEW
  2
AM_VIEW5
 70
     0
 40
137.99999999999989
 10
218.49999999999989
 20
146.99999999999989
 41
253.70627503337769
 11
0.0
 21
0.0
 31
1.0
 12
0.0
 22
0.0
 32
0.0
 42
50.0
 43
0.0
 44
0.0
 50
0.0
 71
     0
  0
VIEW
  2
AM_VIEW6
 70
     0
 40
275.99723999999992
 10
218.49999999999989
 20
146.99999999999989
 41
507.4074759412548
 11
0.0
 21
0.0
 31
1.0
 12
0.0
 22
0.0
 32
0.0
 42
50.0
 43
0.0
 44
0.0
 50
0.0
 71
     0
  0
ENDTAB
  0
TABLE
  2
UCS
 70
     0
  0
ENDTAB
  0
TABLE
  2
APPID
 70
    60
  0
APPID
  2
ACAD
 70
     0
  0
APPID
  2
ACADANNOTATIVE
 70
     0
  0
APPID
  2
ACAD_MLEADERVER
 70
     0
  0
APPID
  2
MCAD_NO_VIS
 70
     0
  0
APPID
  2
ACAD_TEMP_GRAPHIC
 70
     0
  0
APPID
  2
AD_DRAW
 70
     0
  0
APPID
  2
ACATTRIBSERVICES
 70
     0
  0
APPID
  2
DESIGNERASSEMBLIES
 70
     0
  0
APPID
  2
ACADM_DIM_EDIT
 70
     0
  0
APPID
  2
AMDT_DM_ADJ
 70
     0
  0
APPID
  2
ACADANNOPO
 70
     0
  0
APPID
  2
ACAECLAYERSTANDARD
 70
     0
  0
APPID
  2
ACDBDYNAMICBLOCKGUID
 70
     0
  0
APPID
  2
ACDBBLOCKREPETAG
 70
     0
  0
APPID
  2
ACAUTHENVIRON
 70
     0
  0
APPID
  2
ACDBDYNAMICBLOCKTRUENAME
 70
     0
  0
APPID
  2
GENIUS_GENREC_14
 70
     0
  0
APPID
  2
GENIUS_GENOBJ-N-REC_13
 70
     0
  0
APPID
  2
GENIUS_GENODEF_13
 70
     0
  0
APPID
  2
ACAD_EXEMPT_FROM_CAD_STANDARDS
 70
     0
  0
APPID
  2
GENIUS_GENOBJ-N-CEN_13
 70
     0
  0
APPID
  2
GENIUS_GENCEN_19
 70
     0
  0
APPID
  2
ACAD_DSTYLE_DIMINSPECT
 70
     0
  0
APPID
  2
DCO15
 70
     0
  0
APPID
  2
ACAD_PSEXT
 70
     0
  0
APPID
  2
GENIUS_GENBH_13
 70
     0
  0
APPID
  2
GENIUS_GENOENT_13
 70
     0
  0
APPID
  2
GENIUS_GENOLIS_13
 70
     0
  0
APPID
  2
GENIUS_GENOBJ-NBEHI-BHF_13
 70
     0
  0
APPID
  2
GENIUS_GENOREF_13
 70
     0
  0
APPID
  2
GENIUS_GENOBJ-NBEHI-BHB_13
 70
     0
  0
APPID
  2
AMG_2DHIDE
 70
     0
  0
APPID
  2
AMG_2DSTRUCT_BTR
 70
     0
  0
APPID
  2
GENIUS_AMGTXT_16
 70
     0
  0
APPID
  2
GENIUS_GENOBJ-N-HTC_13
 70
     0
  0
APPID
  2
GENIUS_GENHATCH_13
 70
     0
  0
APPID
  2
GEVID1208849169
 70
     0
  0
APPID
  2
GEVDC
 70
     0
  0
APPID
  2
ACADM_2DVIEW_IGN_NOTIFY
 70
     0
  0
APPID
  2
GEVID1208849170
 70
     0
  0
APPID
  2
GEVID1208849171
 70
     0
  0
APPID
  2
GEVRADREF
 70
     0
  0
APPID
  2
ACAD_DSTYLE_DIMJAG
 70
     0
  0
APPID
  2
ACAD_DSTYLE_DIMTALN
 70
     0
  0
APPID
  2
GENIUS_GENDTOL_13
 70
     0
  0
APPID
  2
GENIUS_GENTRA_14
 70
     0
  0
APPID
  2
GENIUS_GENOBJ-N-TIT_13
 70
     0
  0
APPID
  2
GENIUS_GENTITLE_13
 70
     0
  0
APPID
  2
GENIUS_GENSCREG_15
 70
     0
  0
APPID
  2
GENIUS_GENOBJ-N-SDF_13
 70
     0
  0
APPID
  2
ACAD_DSTYLE_DIMRADIAL_EXTENSION
 70
     0
  0
APPID
  2
GENIUS_GENOBJ-N-FIL_13
 70
     0
  0
APPID
  2
GENIUS_GENOBJ-N-CRS_13
 70
     0
  0
APPID
  2
GENIUS_GENDIMSH_14
 70
     0
  0
APPID
  2
ACAD_DSTYLE_DIMANGULAR_EXT
 70
     0
  0
APPID
  2
ACAD_NAV_VCDISPLAY
 70
     0
  0
APPID
  2
ACAD_DSTYLE_DIMBREAK
 70
     0
  0
APPID
  2
GENIUS_GENSCREG_13
 70
     0
  0
APPID
  2
CONTENTBLOCKICON
 70
     0
  0
APPID
  2
AcDbAttr
 70
     0
  0
ENDTAB
  0
TABLE
  2
DIMSTYLE
 70
    27
  0
DIMSTYLE
  2
STANDARD
 70
     0
  3

  4

  5

  6

  7

 40
1.0
 41
1.0
 42
0.8
 43
0.38
 44
1.0
 45
0.0
 46
0.0
 47
0.0
 48
0.0
140
3.1000000000000001
141
0.09
142
0.0
143
25.399999999999999
144
1.0
145
0.5
146
1.0
147
0.09
 71
     0
 72
     0
 73
     0
 74
     0
 75
     0
 76
     0
 77
     1
 78
     0
170
     0
171
     2
172
     0
173
     0
174
     0
175
     0
176
     0
177
     0
178
     0
  0
DIMSTYLE
  2
AM_ANSI
 70
     0
  3

  4
mm
  5

  6

  7

 40
1.0
 41
0.1
 42
0.05
 43
0.5
 44
0.1
 45
0.0
 46
0.0
 47
0.1
 48
0.1
140
0.12
141
0.0
142
0.0
143
25.399999999999999
144
1.0
145
0.0
146
0.71
147
0.06
 71
     0
 72
     0
 73
     1
 74
     1
 75
     0
 76
     0
 77
     0
 78
     7
170
     0
171
     2
172
     0
173
     0
174
     0
175
     0
176
   256
177
   256
178
     2
  0
DIMSTYLE
  2
AM_ANSI$3
 70
     0
  3

  4
mm
  5

  6

  7

 40
1.0
 41
0.1
 42
0.05
 43
0.5
 44
0.1
 45
0.0
 46
0.0
 47
0.1
 48
0.1
140
0.12
141
0.0
142
0.0
143
25.399999999999999
144
1.0
145
0.0
146
0.71
147
0.06
 71
     0
 72
     0
 73
     1
 74
     1
 75
     0
 76
     0
 77
     0
 78
     7
170
     0
171
     2
172
     0
173
     0
174
     0
175
     0
176
   256
177
   256
178
     2
  0
DIMSTYLE
  2
AM_ANSI$4
 70
     0
  3

  4
mm
  5

  6

  7

 40
1.0
 41
0.1
 42
0.05
 43
0.5
 44
0.1
 45
0.0
 46
0.0
 47
0.1
 48
0.1
140
0.12
141
0.0
142
0.0
143
25.399999999999999
144
1.0
145
0.0
146
0.71
147
0.06
 71
     0
 72
     0
 73
     1
 74
     1
 75
     0
 76
     0
 77
     0
 78
     7
170
     0
171
     2
172
     0
173
     0
174
     0
175
     0
176
   256
177
   256
178
     2
  0
DIMSTYLE
  2
AM_ANSI$7
 70
     0
  3

  4
mm
  5

  6

  7

 40
1.0
 41
0.1
 42
0.05
 43
0.5
 44
0.1
 45
0.0
 46
0.0
 47
0.1
 48
0.1
140
0.24
141
0.0
142
0.0
143
25.399999999999999
144
1.0
145
0.0
146
0.71
147
0.06
 71
     0
 72
     0
 73
     1
 74
     1
 75
     0
 76
     0
 77
     0
 78
     7
170
     0
171
     2
172
     0
173
     0
174
     0
175
     0
176
   256
177
   256
178
     2
  0
DIMSTYLE
  2
AM_ANSI$SF
 70
     0
  3

  4
mm
  5

  6

  7

 40
1.0
 41
0.1
 42
0.05
 43
0.5
 44
0.1
 45
0.0
 46
0.0
 47
0.1
 48
0.1
140
0.12
141
0.0
142
0.0
143
25.399999999999999
144
1.0
145
0.0
146
0.71
147
0.06
 71
     0
 72
     0
 73
     1
 74
     1
 75
     1
 76
     1
 77
     0
 78
     7
170
     0
171
     2
172
     0
173
     0
174
     0
175
     0
176
   256
177
   256
178
     2
  0
DIMSTYLE
  2
AM_ANSI$SH
 70
     0
  3

  4
mm
  5

  6
GENAXEH
  7

 40
1.0
 41
0.1
 42
0.05
 43
0.5
 44
0.1
 45
0.0
 46
0.0
 47
0.1
 48
0.1
140
0.12
141
0.0
142
0.0
143
25.399999999999999
144
1.0
145
0.0
146
0.71
147
0.06
 71
     0
 72
     0
 73
     1
 74
     1
 75
     1
 76
     1
 77
     0
 78
     7
170
     0
171
     2
172
     0
173
     1
174
     0
175
     0
176
   256
177
   256
178
     2
  0
DIMSTYLE
  2
AM_JIS
 70
     0
  3

  4
"
  5
OPEN30
  6

  7

 40
1.0
 41
2.5
 42
1.0
 43
7.0
 44
1.0
 45
0.0
 46
0.0
 47
0.1
 48
0.1
140
3.0
141
0.0
142
0.0
143
0.0393701
144
1.0
145
0.0
146
0.71
147
1.0
 71
     0
 72
     0
 73
     0
 74
     0
 75
     0
 76
     0
 77
     3
 78
     8
170
     0
171
     2
172
     1
173
     0
174
     0
175
     0
176
     7
177
     7
178
     7
  0
DIMSTYLE
  2
AM_JIS$3
 70
     0
  3

  4
"
  5
OPEN30
  6

  7

 40
1.0
 41
2.5
 42
1.0
 43
10.0
 44
1.0
 45
0.0
 46
0.0
 47
0.1
 48
0.1
140
3.0
141
0.0
142
0.0
143
0.0393701
144
1.0
145
0.0
146
0.71
147
1.0
 71
     0
 72
     0
 73
     0
 74
     1
 75
     0
 76
     0
 77
     3
 78
     8
170
     0
171
     2
172
     0
173
     0
174
     0
175
     0
176
     7
177
     7
178
     7
  0
DIMSTYLE
  2
AM_JIS$4
 70
     0
  3

  4
"
  5
OPEN30
  6

  7

 40
1.0
 41
2.5
 42
1.0
 43
10.0
 44
1.0
 45
0.0
 46
0.0
 47
0.1
 48
0.1
140
2.0
141
0.0
142
0.0
143
0.0393701
144
1.0
145
0.0
146
0.71
147
1.0
 71
     0
 72
     0
 73
     0
 74
     0
 75
     0
 76
     0
 77
     3
 78
     8
170
     0
171
     2
172
     0
173
     0
174
     0
175
     0
176
     7
177
     7
178
     7
  0
DIMSTYLE
  2
AM_JIS$6
 70
     0
  3

  4
"
  5
OPEN30
  6

  7

 40
1.0
 41
2.5
 42
1.0
 43
10.0
 44
1.0
 45
0.0
 46
0.0
 47
0.1
 48
0.1
140
3.0
141
0.0
142
0.0
143
0.0393701
144
1.0
145
0.0
146
0.71
147
1.0
 71
     0
 72
     0
 73
     0
 74
     0
 75
     0
 76
     0
 77
     0
 78
     8
170
     0
171
     2
172
     1
173
     0
174
     0
175
     0
176
   256
177
     7
178
     7
  0
DIMSTYLE
  2
AM_JIS$7
 70
     0
  3

  4
"
  5
OPEN30
  6

  7

 40
1.0
 41
2.5
 42
1.0
 43
10.0
 44
1.0
 45
0.0
 46
0.0
 47
0.1
 48
0.1
140
3.0
141
0.0
142
0.0
143
0.0393701
144
1.0
145
0.0
146
0.71
147
1.0
 71
     0
 72
     0
 73
     0
 74
     0
 75
     0
 76
     0
 77
     3
 78
     8
170
     0
171
     2
172
     1
173
     0
174
     0
175
     0
176
     7
177
   256
178
     7
  0
DIMSTYLE
  2
AM_JIS$SF
 70
     0
  3

  4
"
  5
OPEN30
  6

  7

 40
1.0
 41
2.5
 42
1.0
 43
7.0
 44
1.0
 45
0.0
 46
0.0
 47
0.1
 48
0.1
140
3.0
141
0.0
142
0.0
143
0.0393701
144
1.0
145
0.0
146
0.71
147
1.0
 71
     0
 72
     0
 73
     0
 74
     0
 75
     1
 76
     1
 77
     3
 78
     8
170
     0
171
     2
172
     1
173
     0
174
     0
175
     0
176
     7
177
   256
178
     7
  0
DIMSTYLE
  2
AM_JIS$SH
 70
     0
  3

  4
"
  5

  6
GENAXEH
  7
OPEN30
 40
1.0
 41
2.5
 42
1.0
 43
7.0
 44
1.0
 45
0.0
 46
0.0
 47
0.1
 48
0.1
140
3.0
141
0.0
142
0.0
143
0.0393701
144
2.0
145
0.0
146
0.71
147
1.0
 71
     0
 72
     0
 73
     0
 74
     0
 75
     1
 76
     1
 77
     3
 78
     8
170
     0
171
     2
172
     1
173
     1
174
     0
175
     0
176
     7
177
   256
178
     7
  0
DIMSTYLE
  2
AM_JIS$2
 70
     0
  3

  4
"
  5
OPEN30
  6

  7

 40
1.0
 41
2.5
 42
1.0
 43
7.0
 44
1.0
 45
0.0
 46
0.0
 47
0.1
 48
0.1
140
3.0
141
0.0
142
0.0
143
0.0393701
144
1.0
145
0.0
146
0.71
147
1.0
 71
     0
 72
     0
 73
     0
 74
     0
 75
     0
 76
     0
 77
     3
 78
     8
170
     0
171
     2
172
     1
173
     0
174
     0
175
     0
176
     7
177
     7
178
     7
  0
DIMSTYLE
  2
AM_JIS$0
 70
     0
  3

  4
"
  5
OPEN30
  6

  7

 40
1.0
 41
2.5
 42
1.0
 43
7.0
 44
1.0
 45
0.0
 46
0.0
 47
0.1
 48
0.1
140
3.0
141
0.0
142
0.0
143
0.0393701
144
1.0
145
0.0
146
0.71
147
1.0
 71
     0
 72
     0
 73
     0
 74
     0
 75
     0
 76
     0
 77
     3
 78
     8
170
     0
171
     2
172
     1
173
     0
174
     0
175
     0
176
     7
177
     7
178
     7
  0
DIMSTYLE
  2
STANDARD$0
 70
     0
  3

  4

  5

  6

  7

 40
1.0
 41
1.0
 42
0.8
 43
0.38
 44
1.0
 45
0.0
 46
0.0
 47
0.0
 48
0.0
140
3.1000000000000001
141
0.09
142
0.0
143
25.399999999999999
144
1.0
145
0.5
146
1.0
147
0.09
 71
     0
 72
     0
 73
     0
 74
     0
 75
     0
 76
     0
 77
     1
 78
     0
170
     0
171
     2
172
     0
173
     0
174
     0
175
     0
176
     0
177
     0
178
     0
  0
DIMSTYLE
  2
ANNOTATIVE
 70
     0
  3

  4

  5

  6

  7

 40
1.0
 41
0.18
 42
0.0625
 43
0.38
 44
0.18
 45
0.0
 46
0.0
 47
0.0
 48
0.0
140
0.18
141
0.09
142
0.0
143
25.399999999999999
144
1.0
145
0.0
146
1.0
147
0.09
 71
     0
 72
     0
 73
     1
 74
     1
 75
     0
 76
     0
 77
     0
 78
     0
170
     0
171
     2
172
     0
173
     0
174
     0
175
     0
176
     0
177
     0
178
     0
  0
DIMSTYLE
  2
AM_ISO
 70
     0
  3

  4
"
  5

  6

  7

 40
1.0
 41
2.5
 42
1.0
 43
10.0
 44
1.0
 45
0.0
 46
0.0
 47
0.1
 48
0.1
140
3.5
141
0.0
142
0.0
143
0.0393701
144
1.0
145
0.0
146
0.71
147
1.5
 71
     0
 72
     0
 73
     0
 74
     0
 75
     0
 76
     0
 77
     1
 78
     8
170
     0
171
     2
172
     1
173
     0
174
     0
175
     0
176
   256
177
   256
178
     2
  0
DIMSTYLE
  2
AM_ISO$3
 70
     0
  3

  4
"
  5

  6

  7

 40
1.0
 41
2.5
 42
1.0
 43
10.0
 44
1.0
 45
0.0
 46
0.0
 47
0.1
 48
0.1
140
3.5
141
0.0
142
0.0
143
0.0393701
144
1.0
145
0.0
146
0.71
147
1.5
 71
     0
 72
     0
 73
     0
 74
     1
 75
     0
 76
     0
 77
     1
 78
     8
170
     0
171
     2
172
     0
173
     0
174
     0
175
     0
176
   256
177
   256
178
     2
  0
DIMSTYLE
  2
AM_ISO$4
 70
     0
  3

  4
"
  5

  6

  7

 40
1.0
 41
2.5
 42
1.0
 43
10.0
 44
1.0
 45
0.0
 46
0.0
 47
0.1
 48
0.1
140
3.5
141
0.0
142
0.0
143
0.0393701
144
1.0
145
0.0
146
0.71
147
1.5
 71
     0
 72
     0
 73
     0
 74
     1
 75
     0
 76
     0
 77
     1
 78
     8
170
     0
171
     2
172
     0
173
     0
174
     0
175
     0
176
   256
177
   256
178
     2
  0
DIMSTYLE
  2
AM_ISO$6
 70
     0
  3

  4
"
  5

  6

  7

 40
1.0
 41
2.5
 42
1.0
 43
10.0
 44
1.0
 45
0.0
 46
0.0
 47
0.1
 48
0.1
140
3.5
141
0.0
142
0.0
143
0.0393701
144
1.0
145
0.0
146
0.71
147
1.5
 71
     0
 72
     0
 73
     0
 74
     0
 75
     0
 76
     0
 77
     0
 78
     8
170
     0
171
     2
172
     1
173
     0
174
     0
175
     0
176
   256
177
   256
178
     2
  0
DIMSTYLE
  2
AM_ISO$7
 70
     0
  3

  4
"
  5

  6

  7

 40
1.0
 41
2.5
 42
1.0
 43
10.0
 44
1.0
 45
0.0
 46
0.0
 47
0.1
 48
0.1
140
5.0
141
0.0
142
0.0
143
0.0393701
144
1.0
145
0.0
146
0.71
147
1.5
 71
     0
 72
     0
 73
     0
 74
     0
 75
     0
 76
     0
 77
     1
 78
     8
170
     0
171
     2
172
     1
173
     0
174
     0
175
     0
176
   256
177
   256
178
     2
  0
DIMSTYLE
  2
AM_ISO$SF
 70
     0
  3

  4
"
  5

  6

  7

 40
1.0
 41
2.5
 42
1.0
 43
10.0
 44
1.0
 45
0.0
 46
0.0
 47
0.1
 48
0.1
140
3.5
141
0.0
142
0.0
143
0.0393701
144
1.0
145
0.0
146
0.71
147
1.5
 71
     0
 72
     0
 73
     0
 74
     0
 75
     1
 76
     1
 77
     1
 78
     8
170
     0
171
     2
172
     1
173
     0
174
     0
175
     0
176
   256
177
   256
178
     2
  0
DIMSTYLE
  2
AM_ISO$SH
 70
     0
  3

  4
"
  5

  6
GENAXEH
  7

 40
1.0
 41
2.5
 42
1.0
 43
10.0
 44
1.0
 45
0.0
 46
0.0
 47
0.1
 48
0.1
140
3.5
141
0.0
142
0.0
143
0.0393701
144
2.0
145
0.0
146
0.71
147
1.5
 71
     0
 72
     0
 73
     0
 74
     0
 75
     1
 76
     1
 77
     1
 78
     8
170
     0
171
     2
172
     1
173
     1
174
     0
175
     0
176
   256
177
   256
178
     2
  0
DIMSTYLE
  2
DXF001
 70
     0
  3

  4

  5

  6

  7

 40
1.0
 41
1.0
 42
0.8
 43
0.38
 44
1.0
 45
0.0
 46
0.0
 47
0.0
 48
0.0
140
3.1000000000000001
141
0.09
142
0.0
143
25.399999999999999
144
1.0
145
0.66129
146
0.645161
147
0.09
 71
     0
 72
     0
 73
     0
 74
     0
 75
     0
 76
     0
 77
     1
 78
     8
170
     0
171
     2
172
     1
173
     0
174
     0
175
     0
176
     0
177
     0
178
     0
  0
ENDTAB
  0
ENDSEC
  0
SECTION
  2
BLOCKS
  0
BLOCK
  8
0
  2
$MODEL_SPACE
 70
     0
 10
0.0
 20
0.0
 30
0.0
  3
$MODEL_SPACE
  1

  0
ENDBLK
  5
1D3
  8
0
  0
BLOCK
 67
     1
  8
0
  2
$PAPER_SPACE
 70
     0
 10
0.0
 20
0.0
 30
0.0
  3
$PAPER_SPACE
  1

  0
ENDBLK
  5
1D1
 67
     1
  8
0
  0
BLOCK
  8
0
  2
GENAXEH
 70
     0
 10
0.0
 20
0.0
 30
0.0
  3
GENAXEH
  1

  0
LINE
  5
264
  8
0
 10
-1.0
 20
0.0
 30
0.0
 11
1.0
 21
0.0
 31
0.0
  0
ENDBLK
  5
266
  8
0
  0
BLOCK
  8
0
  2
_OPEN30
 70
     0
 10
0.0
 20
0.0
 30
0.0
  3
_OPEN30
  1

  0
LINE
  5
2FA
  8
0
  6
BYBLOCK
 62
     0
 10
-1.0
 20
0.26794919
 30
0.0
 11
0.0
 21
0.0
 31
0.0
  0
LINE
  5
2FB
  8
0
  6
BYBLOCK
 62
     0
 10
0.0
 20
0.0
 30
0.0
 11
-1.0
 21
-0.26794919
 31
0.0
  0
LINE
  5
2FC
  8
0
  6
BYBLOCK
 62
     0
 10
0.0
 20
0.0
 30
0.0
 11
-1.0
 21
0.0
 31
0.0
  0
ENDBLK
  5
2FE
  8
0
  0
BLOCK
  8
0
  2
MYPLIST0
 70
     2
 10
0.0
 20
0.0
 30
0.0
  3
MYPLIST0
  1

  0
LINE
  5
346
  8
SYS-BUHIN0
  6
CONTINUOUS
 62
     4
 10
-170.0
 20
7.0
 30
0.0
 11
0.0
 21
7.0
 31
0.0
  0
LINE
  5
347
  8
SYS-BUHIN0
  6
CONTINUOUS
 62
     4
 10
-170.0
 20
-0.0000000000030695
 30
0.0
 11
0.0
 21
-0.0000000000001137
 31
0.0
  0
LINE
  5
348
  8
SYS-BUHIN0
  6
CONTINUOUS
 62
     4
 10
-170.0
 20
7.0
 30
0.0
 11
-170.0
 21
0.0
 31
0.0
  0
LINE
  5
349
  8
SYS-BUHIN0
  6
CONTINUOUS
 62
     4
 10
0.0
 20
7.0
 30
0.0
 11
0.0
 21
0.0
 31
0.0
  0
LINE
  5
34A
  8
SYS-BUHIN0
  6
CONTINUOUS
 62
     4
 10
-161.0
 20
7.0
 30
0.0
 11
-161.0
 21
0.0
 31
0.0
  0
LINE
  5
34B
  8
SYS-BUHIN0
  6
CONTINUOUS
 62
     4
 10
-99.0
 20
7.0
 30
0.0
 11
-99.0
 21
0.0
 31
0.0
  0
LINE
  5
34C
  8
SYS-BUHIN0
  6
CONTINUOUS
 62
     4
 10
-72.0
 20
7.0
 30
0.0
 11
-72.0
 21
0.0
 31
0.0
  0
LINE
  5
34D
  8
SYS-BUHIN0
  6
CONTINUOUS
 62
     4
 10
-63.0
 20
7.0
 30
0.0
 11
-63.0
 21
0.0
 31
0.0
  0
LINE
  5
34E
  8
SYS-BUHIN0
  6
CONTINUOUS
 62
     4
 10
-16.0
 20
7.0
 30
0.0
 11
-16.0
 21
0.0
 31
0.0
  0
TEXT
  5
34F
  8
SYS-BUHIN0
  6
CONTINUOUS
 62
     7
 10
-13.61264708219346
 20
0.6000000119208835
 30
0.0
 40
1.1000000000000001
  1
PARTS NO.
 41
1.3
  0
TEXT
  5
350
  8
SYS-BUHIN0
  6
CONTINUOUS
 62
     7
 10
-14.36429419116018
 20
3.0691472933651762
 30
0.0
 40
2.2000000000000002
  1
部品コード
  0
TEXT
  5
351
  8
SYS-BUHIN0
  6
CONTINUOUS
 62
     7
 10
-43.852454807937526
 20
0.6000000119208835
 30
0.0
 40
1.1000000000000001
  1
REMARKS
 41
1.3
  0
TEXT
  5
352
  8
SYS-BUHIN0
  6
CONTINUOUS
 62
     7
 10
-47.370000243186951
 20
2.7500000476836699
 30
0.0
 40
2.7999999999999989
  1
備    考
  0
TEXT
  5
353
  8
SYS-BUHIN0
  6
CONTINUOUS
 62
     7
 10
-69.144963642251696
 20
0.6000000119208835
 30
0.0
 40
1.1000000000000001
  1
UNIT
  0
TEXT
  5
354
  8
SYS-BUHIN0
  6
CONTINUOUS
 62
     7
 10
-70.272262370934413
 20
2.6949072988287521
 30
0.0
 40
2.7999999999999989
  1
数量
  0
TEXT
  5
355
  8
SYS-BUHIN0
  6
CONTINUOUS
 62
     7
 10
-90.559234383463263
 20
0.6000000119208835
 30
0.0
 40
1.1000000000000001
  1
MATERIAL
 41
1.3
  0
TEXT
  5
357
  8
SYS-BUHIN0
  6
CONTINUOUS
 62
     7
 10
-138.9093619295486
 20
0.6000000119208835
 30
0.0
 40
1.1000000000000001
  1
  DESCRIPTION
 41
1.3
  0
TEXT
  5
358
  8
SYS-BUHIN0
  6
CONTINUOUS
 62
     7
 10
-142.0050003230572
 20
2.7500000476836699
 30
0.0
 40
2.7999999999999989
  1
 部  品  名
  0
TEXT
  5
359
  8
SYS-BUHIN0
  6
CONTINUOUS
 62
     7
 10
-166.63404873957319
 20
0.6000000119208835
 30
0.0
 40
1.1000000000000001
  1
NO.
  0
TEXT
  5
35A
  8
SYS-BUHIN0
  6
CONTINUOUS
 62
     7
 10
-168.29000008106229
 20
2.7500000476836699
 30
0.0
 40
2.7999999999999989
  1
項番
  0
ATTDEF
  5
35B
  8
AM_0
 62
     7
 10
-168.79000008106229
 20
3.5
 30
0.0
 40
3.1000000000000001
  1

  3

  2
ITEM
 70
     1
1001
AcDbAttr
1070
     0
1070
     1
  0
TEXT
  5
C0B
  8
AM_BOR
 62
     7
 10
-91.770000159740434
 20
2.7000000476837149
 30
0.0
 40
2.7999999999999989
  1
材　　質
  0
ENDBLK
  5
35C
  8
0
  0
BLOCK
  8
0
  2
MYPLIST1
 70
     2
 10
0.0
 20
0.0
 30
0.0
  3
MYPLIST1
  1

  0
LINE
  5
393
  8
SYS-BUHIN0
  6
CONTINUOUS
 62
     4
 10
-170.0
 20
6.0
 30
0.0
 11
0.0
 21
6.0
 31
0.0
  0
LINE
  5
394
  8
SYS-BUHIN0
  6
CONTINUOUS
 62
     4
 10
-170.0
 20
0.0
 30
0.0
 11
-170.0
 21
6.0
 31
0.0
  0
LINE
  5
395
  8
SYS-BUHIN0
  6
CONTINUOUS
 62
     4
 10
-161.0
 20
0.0
 30
0.0
 11
-161.0
 21
6.0
 31
0.0
  0
LINE
  5
396
  8
SYS-BUHIN0
  6
CONTINUOUS
 62
     4
 10
-99.0
 20
0.0
 30
0.0
 11
-99.0
 21
6.0
 31
0.0
  0
LINE
  5
397
  8
SYS-BUHIN0
  6
CONTINUOUS
 62
     4
 10
-72.0
 20
0.0
 30
0.0
 11
-72.0
 21
6.0
 31
0.0
  0
LINE
  5
398
  8
SYS-BUHIN0
  6
CONTINUOUS
 62
     4
 10
-63.0
 20
0.0
 30
0.0
 11
-63.0
 21
6.0
 31
0.0
  0
LINE
  5
399
  8
SYS-BUHIN0
  6
CONTINUOUS
 62
     4
 10
-16.0
 20
0.0
 30
0.0
 11
-16.0
 21
6.0
 31
0.0
  0
LINE
  5
39A
  8
SYS-BUHIN0
  6
CONTINUOUS
 62
     4
 10
0.0
 20
0.0
 30
0.0
 11
0.0
 21
6.0
 31
0.0
  0
LINE
  5
39B
  8
SYS-BUHIN0
  6
CONTINUOUS
 62
     4
 10
-170.0
 20
0.0
 30
0.0
 11
0.0
 21
0.0
 31
0.0
  0
ATTDEF
  5
39C
  8
SYS-BUHINCODE
 10
-14.0
 20
2.5
 30
0.0
 40
1.0
  1

 11
-14.0
 21
3.0
 31
0.0
  3
部品コード
  2
PCODE
 70
     0
 74
     2
1001
AcDbAttr
1070
     0
1070
     1
  0
ATTDEF
  5
39D
  8
SYS-BUHIN0
  6
CONTINUOUS
 62
     7
 10
-61.0
 20
2.0
 30
0.0
 40
2.0
  1

 11
-61.0
 21
3.0
 31
0.0
  3
備考
  2
NOTE
 70
     0
 74
     2
1001
AcDbAttr
1070
     0
1070
     1
  0
ATTDEF
  5
39E
  8
SYS-BUHIN0
  6
CONTINUOUS
 62
     7
 10
-67.5
 20
3.0
 30
0.0
 40
2.5
  1

 72
     4
 11
-67.5
 21
3.0
 31
0.0
  3
数量
  2
QTY
 70
     0
1001
AcDbAttr
1070
     0
1070
     1
  0
ATTDEF
  5
39F
  8
SYS-BUHIN0
  6
CONTINUOUS
 62
     7
 10
-97.595958160209875
 20
2.0
 30
0.0
 40
2.0
  1

 11
-97.595958160209875
 21
3.0
 31
0.0
  3
材質
  2
MATERIAL
 70
     0
 74
     2
1001
AcDbAttr
1070
     0
1070
     1
  0
ATTDEF
  5
3A0
  8
SYS-BUHIN0
  6
CONTINUOUS
 62
     7
 10
-159.0
 20
1.75
 30
0.0
 40
2.5
  1

 11
-159.0
 21
3.0
 31
0.0
  3
部品名
  2
DESCR
 70
     0
 74
     2
1001
AcDbAttr
1070
     0
1070
     1
  0
ATTDEF
  5
3A1
  8
SYS-BUHIN0
  6
CONTINUOUS
 62
     7
 10
-165.5
 20
3.0
 30
0.0
 40
2.5
  1

 72
     4
 11
-165.5
 21
3.0
 31
0.0
  3
項番
  2
ITEM
 70
     0
1001
AcDbAttr
1070
     0
1070
     1
  0
ENDBLK
  5
370
  8
0
  0
BLOCK
  8
0
  2
A$C1C06296A
 70
     2
 10
0.0
 20
0.0
 30
0.0
  3
A$C1C06296A
  1

  0
LINE
  5
204C
  8
AM_BOR
 10
198.86851880399371
 20
17.886744577931989
 30
0.0
 11
203.2337455721775
 21
13.521517809748619
 31
0.0
  0
LINE
  5
204D
  8
AM_BOR
 10
198.8685188039936
 20
17.866715351316039
 30
0.0
 11
198.86851880399399
 21
14.128964361178911
 31
0.0
  0
LINE
  5
204E
  8
AM_BOR
 10
204.7045172738834
 20
17.866715326469411
 30
0.0
 11
204.70451727388391
 21
14.181128845625549
 31
0.0
  0
LINE
  5
204F
  8
AM_BOR
 10
204.20428883360731
 20
17.793010290175861
 30
0.0
 11
204.204288833607
 21
14.69861035774108
 31
0.0
  0
LINE
  5
2050
  8
AM_BOR
 10
199.3687472442698
 20
17.176052465333349
 30
0.0
 11
199.36874724427059
 21
14.197800355103411
 31
0.0
  0
LINE
  5
2051
  8
AM_BOR
 10
200.43756462039269
 20
18.46533457095553
 30
0.0
 11
204.20428883360731
 21
14.69861035774052
 31
0.0
  0
LINE
  5
2052
  8
AM_BOR
 10
199.36874724426971
 20
17.17605246533255
 30
0.0
 11
203.02713287203409
 21
13.51766683756852
 31
0.0
  0
ARC
  5
2053
  8
AM_BOR
 10
198.36829036868701
 20
17.866715351316049
 30
0.0
 40
0.5002284402762121
 50
0.0
 51
50.265515568291427
  0
ARC
  5
2054
  8
AM_BOR
 10
198.36829034384081
 20
14.12896436117892
 30
0.0
 40
0.5002284402762121
 50
304.69759678405279
 51
0.0
  0
ARC
  5
2055
  8
AM_BOR
 10
205.20474573403669
 20
17.866715326469411
 30
0.0
 40
0.5002284402762121
 50
127.0284887689633
 51
180.00000500895629
  0
ARC
  5
2056
  8
AM_BOR
 10
203.53731756996689
 20
17.793010290175818
 30
0.0
 40
0.6669712537016159
 50
0.0
 51
74.714823568866152
  0
ARC
  5
2057
  8
AM_BOR
 10
200.03571849797169
 20
14.197800355103389
 30
0.0
 40
0.6669712537016159
 50
180.00000500895629
 51
256.4857883914604
  0
LINE
  5
2058
  8
AM_BOR
 10
210.95737277733619
 20
15.993445664994679
 30
0.0
 11
210.9224749062999
 21
16.211434571273589
 31
0.0
  0
LINE
  5
2059
  8
AM_BOR
 10
210.92247490629941
 20
16.211434571273411
 30
0.0
 11
210.8180468870608
 21
16.42776445035037
 31
0.0
  0
LINE
  5
205A
  8
AM_BOR
 10
210.8180468870604
 20
16.42776445035037
 30
0.0
 11
210.64488347990149
 21
16.640788901221669
 31
0.0
  0
LINE
  5
205B
  8
AM_BOR
 10
210.6448834799013
 20
16.640788901221619
 30
0.0
 11
210.40430256290981
 21
16.848886679188759
 31
0.0
  0
LINE
  5
205C
  8
AM_BOR
 10
210.40430256290949
 20
16.848886679189
 30
0.0
 11
210.0981351021297
 21
17.050474034508689
 31
0.0
  0
LINE
  5
205D
  8
AM_BOR
 10
210.09813510212999
 20
17.05047403450855
 30
0.0
 11
209.7287112168076
 21
17.244016765685139
 31
0.0
  0
LINE
  5
205E
  8
AM_BOR
 10
209.72871121680711
 20
17.24401676568521
 30
0.0
 11
209.29884244577369
 21
17.428041895669988
 31
0.0
  0
LINE
  5
205F
  8
AM_BOR
 10
209.29884244577369
 20
17.428041895670081
 30
0.0
 11
208.81180034993889
 21
17.601148882106369
 31
0.0
  0
LINE
  5
2060
  8
AM_BOR
 10
208.81180034993889
 20
17.60114888210644
 30
0.0
 11
208.27129161373591
 21
17.76202027630297
 31
0.0
  0
LINE
  5
2061
  8
AM_BOR
 10
208.27129161373611
 20
17.76202027630309
 30
0.0
 11
207.68142983501551
 21
17.909431749813081
 31
0.0
  0
LINE
  5
2062
  8
AM_BOR
 10
207.68142983501531
 20
17.90943174981297
 30
0.0
 11
207.04670421808169
 21
18.042261412313358
 31
0.0
  0
LINE
  5
2063
  8
AM_BOR
 10
207.04670421808169
 20
18.04226141231344
 30
0.0
 11
206.37194540813729
 21
18.15949834986797
 31
0.0
  0
LINE
  5
2064
  8
AM_BOR
 10
206.37194540813749
 20
18.159498349867881
 30
0.0
 11
205.66228872715681
 21
18.260250318592298
 31
0.0
  0
LINE
  5
2065
  8
AM_BOR
 10
205.66228872715661
 20
18.260250318592369
 30
0.0
 11
205.02242374599979
 21
18.33253416039674
 31
0.0
  0
LINE
  5
2066
  8
AM_BOR
 10
205.02242374599939
 20
18.332534160396779
 30
0.0
 11
204.92313509098369
 21
18.343750535168819
 31
0.0
  0
LINE
  5
2067
  8
AM_BOR
 10
204.92313509098369
 20
18.343750535168748
 30
0.0
 11
204.16010990510409
 21
18.409363512530259
 31
0.0
  0
LINE
  5
2068
  8
AM_BOR
 10
204.1601099051048
 20
18.409363512530259
 30
0.0
 11
203.71314686010501
 21
18.436387872932471
 31
0.0
  0
LINE
  5
2069
  8
AM_BOR
 10
200.43756462039249
 20
18.465334570955569
 30
0.0
 11
200.19401582596791
 21
18.45658989630088
 31
0.0
  0
LINE
  5
206A
  8
AM_BOR
 10
200.19401582596799
 20
18.456589896300901
 30
0.0
 11
199.41292617277259
 21
18.409363512530309
 31
0.0
  0
LINE
  5
206B
  8
AM_BOR
 10
199.41292617277259
 20
18.409363512530248
 30
0.0
 11
198.64990098689299
 21
18.343750535168759
 31
0.0
  0
LINE
  5
206C
  8
AM_BOR
 10
198.5506123731563
 20
18.332534165059979
 30
0.0
 11
197.9107473507209
 21
18.260250318592469
 31
0.0
  0
LINE
  5
206D
  8
AM_BOR
 10
198.64990098689299
 20
18.343750535168791
 30
0.0
 11
198.5506123731563
 21
18.332534165059919
 31
0.0
  0
LINE
  5
206E
  8
AM_BOR
 10
197.91074735072121
 20
18.26025031859243
 30
0.0
 11
197.20109066974049
 21
18.159498349868041
 31
0.0
  0
LINE
  5
206F
  8
AM_BOR
 10
197.20109066974041
 20
18.159498349868091
 30
0.0
 11
196.52633185979579
 21
18.042261412313529
 31
0.0
  0
LINE
  5
2070
  8
AM_BOR
 10
196.5263318597959
 20
18.042261412313589
 30
0.0
 11
195.89160624286239
 21
17.909431749813219
 31
0.0
  0
LINE
  5
2071
  8
AM_BOR
 10
195.89160624286171
 20
17.90943174981302
 30
0.0
 11
195.30174446414119
 21
17.762020276303058
 31
0.0
  0
LINE
  5
2072
  8
AM_BOR
 10
195.301744464141
 20
17.762020276303161
 30
0.0
 11
194.76123572793779
 21
17.60114888210661
 31
0.0
  0
LINE
  5
2073
  8
AM_BOR
 10
194.76123572793779
 20
17.60114888210656
 30
0.0
 11
194.27419363210299
 21
17.428041895670152
 31
0.0
  0
LINE
  5
2074
  8
AM_BOR
 10
194.27419363210339
 20
17.428041895670152
 30
0.0
 11
193.84432486106959
 21
17.244016765685259
 31
0.0
  0
LINE
  5
2075
  8
AM_BOR
 10
193.84432486106959
 20
17.24401676568521
 30
0.0
 11
193.4749009757472
 21
17.05047403450865
 31
0.0
  0
LINE
  5
2076
  8
AM_BOR
 10
193.4749009757472
 20
17.050474034508671
 30
0.0
 11
193.16873351496719
 21
16.848886679188929
 31
0.0
  0
LINE
  5
2077
  8
AM_BOR
 10
193.1687335149673
 20
16.848886679188951
 30
0.0
 11
192.92815259797499
 21
16.640788901221619
 31
0.0
  0
LINE
  5
2078
  8
AM_BOR
 10
192.9281525979753
 20
16.640788901221811
 30
0.0
 11
192.75498919081639
 21
16.42776445035042
 31
0.0
  0
LINE
  5
2079
  8
AM_BOR
 10
192.75498919081639
 20
16.427764450350349
 30
0.0
 11
192.65056117157769
 21
16.211434571273479
 31
0.0
  0
LINE
  5
207A
  8
AM_BOR
 10
192.65056117157789
 20
16.211434571273731
 30
0.0
 11
192.61566330054151
 21
15.993445664994679
 31
0.0
  0
LINE
  5
207B
  8
AM_BOR
 10
192.61566330054069
 20
15.99344566499464
 30
0.0
 11
192.65056117157721
 21
15.775456758715791
 31
0.0
  0
LINE
  5
207C
  8
AM_BOR
 10
192.65056117157769
 20
15.775456758715929
 30
0.0
 11
192.7549891908163
 21
15.55912687963913
 31
0.0
  0
LINE
  5
207D
  8
AM_BOR
 10
192.75498919081639
 20
15.559126879639029
 30
0.0
 11
192.9281525979753
 21
15.34610242876764
 31
0.0
  0
LINE
  5
207E
  8
AM_BOR
 10
192.9281525979751
 20
15.34610242876769
 30
0.0
 11
193.16873351496719
 21
15.1380046508005
 31
0.0
  0
LINE
  5
207F
  8
AM_BOR
 10
193.1687335149669
 20
15.1380046508005
 30
0.0
 11
193.47490097574689
 21
14.93641729548081
 31
0.0
  0
LINE
  5
2080
  8
AM_BOR
 10
193.47490097574729
 20
14.936417295480711
 30
0.0
 11
193.84432486106959
 21
14.742874564304079
 31
0.0
  0
LINE
  5
2081
  8
AM_BOR
 10
193.84432486106951
 20
14.74287456430417
 30
0.0
 11
194.27419363210271
 21
14.558849434319351
 31
0.0
  0
LINE
  5
2082
  8
AM_BOR
 10
194.27419363210319
 20
14.558849434319439
 30
0.0
 11
194.7612357279379
 21
14.38574244788296
 31
0.0
  0
LINE
  5
2083
  8
AM_BOR
 10
194.76123572793779
 20
14.38574244788277
 30
0.0
 11
195.301744464141
 21
14.22487105368617
 31
0.0
  0
LINE
  5
2084
  8
AM_BOR
 10
195.301744464141
 20
14.224871053686311
 30
0.0
 11
195.891606242862
 21
14.077459580176351
 31
0.0
  0
LINE
  5
2085
  8
AM_BOR
 10
195.89160624286191
 20
14.077459580176219
 30
0.0
 11
196.52633185979579
 21
13.94462991767579
 31
0.0
  0
LINE
  5
2086
  8
AM_BOR
 10
196.52633185979539
 20
13.944629917675821
 30
0.0
 11
197.2010906697397
 21
13.827392980121321
 31
0.0
  0
LINE
  5
2087
  8
AM_BOR
 10
197.20109066974049
 20
13.82739298012133
 30
0.0
 11
197.9107473507209
 21
13.726641011397049
 31
0.0
  0
LINE
  5
2088
  8
AM_BOR
 10
197.9107473507205
 20
13.72664101139711
 30
0.0
 11
198.5412166771807
 21
13.655418571666219
 31
0.0
  0
LINE
  5
2089
  8
AM_BOR
 10
198.54121667717999
 20
13.65541857166625
 30
0.0
 11
198.64990098689259
 21
13.643140794820731
 31
0.0
  0
LINE
  5
208A
  8
AM_BOR
 10
198.6499009868929
 20
13.643140794820679
 30
0.0
 11
199.41292617277259
 21
13.57752781745919
 31
0.0
  0
LINE
  5
208B
  8
AM_BOR
 10
199.41292617277259
 20
13.577527817459201
 30
0.0
 11
199.8798563250744
 21
13.54929620220682
 31
0.0
  0
LINE
  5
208C
  8
AM_BOR
 10
203.0271328720325
 20
13.51766683756999
 30
0.0
 11
203.37902025190911
 21
13.530301433688649
 31
0.0
  0
LINE
  5
208D
  8
AM_BOR
 10
203.3790202519092
 20
13.530301433688599
 30
0.0
 11
204.16010990510441
 21
13.57752781745919
 31
0.0
  0
LINE
  5
208E
  8
AM_BOR
 10
204.70451727388399
 20
13.624341722195579
 30
0.0
 11
204.9231350909844
 21
13.64314079482075
 31
0.0
  0
LINE
  5
208F
  8
AM_BOR
 10
204.16010990510441
 20
13.57752781745917
 30
0.0
 11
204.70451727388379
 21
13.62434172219551
 31
0.0
  0
LINE
  5
2090
  8
AM_BOR
 10
204.92313509098409
 20
13.643140794820759
 30
0.0
 11
205.66228872715669
 21
13.726641011397151
 31
0.0
  0
LINE
  5
2091
  8
AM_BOR
 10
205.66228872715661
 20
13.72664101139711
 30
0.0
 11
206.37194540813709
 21
13.827392980121401
 31
0.0
  0
LINE
  5
2092
  8
AM_BOR
 10
206.37194540813749
 20
13.82739298012145
 30
0.0
 11
207.04670421808191
 21
13.94462991767594
 31
0.0
  0
LINE
  5
2093
  8
AM_BOR
 10
207.04670421808169
 20
13.94462991767597
 30
0.0
 11
207.68142983501559
 21
14.07745958017637
 31
0.0
  0
LINE
  5
2094
  8
AM_BOR
 10
207.68142983501551
 20
14.07745958017629
 30
0.0
 11
208.27129161373611
 21
14.22487105368625
 31
0.0
  0
LINE
  5
2095
  8
AM_BOR
 10
208.2712916137362
 20
14.224871053686289
 30
0.0
 11
208.81180034993929
 21
14.38574244788289
 31
0.0
  0
LINE
  5
2096
  8
AM_BOR
 10
208.81180034993929
 20
14.385742447882921
 30
0.0
 11
209.29884244577411
 21
14.558849434319351
 31
0.0
  0
LINE
  5
2097
  8
AM_BOR
 10
209.298842445774
 20
14.55884943431932
 30
0.0
 11
209.72871121680751
 21
14.74287456430422
 31
0.0
  0
LINE
  5
2098
  8
AM_BOR
 10
209.72871121680711
 20
14.742874564304151
 30
0.0
 11
210.0981351021297
 21
14.93641729548083
 31
0.0
  0
LINE
  5
2099
  8
AM_BOR
 10
210.09813510212999
 20
14.93641729548081
 30
0.0
 11
210.40430256290989
 21
15.13800465080036
 31
0.0
  0
LINE
  5
209A
  8
AM_BOR
 10
210.40430256291
 20
15.13800465080055
 30
0.0
 11
210.64488347990201
 21
15.346102428767731
 31
0.0
  0
LINE
  5
209B
  8
AM_BOR
 10
210.64488347990169
 20
15.34610242876783
 30
0.0
 11
210.8180468870608
 21
15.559126879639029
 31
0.0
  0
LINE
  5
209C
  8
AM_BOR
 10
210.81804688706069
 20
15.559126879639059
 30
0.0
 11
210.92247490629899
 21
15.77545675871586
 31
0.0
  0
LINE
  5
209D
  8
AM_BOR
 10
210.92247490629981
 20
15.775456758715791
 30
0.0
 11
210.95737277733619
 21
15.993445664994621
 31
0.0
  0
LINE
  5
209E
  8
AM_BOR
 10
199.10514248704791
 20
18.382897015254191
 30
0.0
 11
203.92474251077411
 21
13.563296991527499
 31
0.0
  0
ARC
  5
209F
  8
AM_BOR
 10
205.2047457141602
 20
14.181128845625549
 30
0.0
 40
0.5002284402762121
 50
180.0
 51
244.5184856857075
  0
LINE
  5
20A0
  8
AM_BOR
 10
199.36521928176651
 20
18.405261169360589
 30
0.0
 11
204.19035209062989
 21
13.58012836049622
 31
0.0
  0
LINE
  5
20A1
  8
AM_BOR
 10
199.630408435547
 20
18.422512964405719
 30
0.0
 11
204.450428885349
 21
13.602492514602771
 31
0.0
  0
LINE
  5
20A2
  8
AM_BOR
 10
199.8967460324557
 20
18.438616316322719
 30
0.0
 11
204.70776895023289
 21
13.62759339854461
 31
0.0
  0
LINE
  5
20A3
  8
AM_BOR
 10
200.16308362936431
 20
18.454719668239761
 30
0.0
 11
204.9488987968831
 21
13.66890450072008
 31
0.0
  0
LINE
  5
20A4
  8
AM_BOR
 10
198.8450656923284
 20
18.36053286114759
 30
0.0
 11
203.6584049138651
 21
13.547193639610409
 31
0.0
  0
LINE
  5
20A5
  8
AM_BOR
 10
198.7943784573331
 20
18.12877914731807
 30
0.0
 11
203.39206731695711
 21
13.53109028769336
 31
0.0
  0
LINE
  5
20A6
  8
AM_BOR
 10
199.01830573664321
 20
18.375429872827009
 30
0.0
 11
199.01830573664321
 21
13.61146145716244
 31
0.0
  0
LINE
  5
20A7
  8
AM_BOR
 10
199.2180216468426
 20
18.39260355953768
 30
0.0
 11
199.2180216468426
 21
13.594287770451791
 31
0.0
  0
LINE
  5
20A8
  8
AM_BOR
 10
204.55473034123381
 20
18.375429872826999
 30
0.0
 11
204.55473034123381
 21
13.61146145716245
 31
0.0
  0
LINE
  5
20A9
  8
AM_BOR
 10
204.35501443103459
 20
18.39260355953764
 30
0.0
 11
204.35501443103459
 21
13.594287770451791
 31
0.0
  0
LINE
  5
20AA
  8
AM_BOR
 62
     4
 10
-0.0000001316067255
 20
15.000000173111291
 30
0.0
 11
190.49999986839319
 21
15.000000173111291
 31
0.0
  0
LINE
  5
20AB
  8
AM_BOR
 62
     4
 10
276.49999986839327
 20
28.000000173111289
 30
0.0
 11
276.49999986839327
 21
0.000000173111296
 31
0.0
  0
LINE
  5
20AC
  8
AM_BOR
 62
     4
 10
-0.0000001316067255
 20
15.000000173111291
 30
0.0
 11
-0.0000001316067255
 21
0.000000173111296
 31
0.0
  0
LINE
  5
20AD
  8
AM_BOR
 62
     4
 10
-0.0000001316067255
 20
28.000000173111289
 30
0.0
 11
276.49999986839327
 21
28.000000173111289
 31
0.0
  0
LINE
  5
20AE
  8
AM_BOR
 62
     4
 10
15.999999868393269
 20
15.000000173111291
 30
0.0
 11
15.999999868393269
 21
0.000000173111296
 31
0.0
  0
TEXT
  5
20AF
  8
AM_BOR
 62
     4
 10
215.17999986839331
 20
10.000000173111291
 30
0.0
 40
1.5
  1
NAKANISHI　INDUSTRIAL CO., LTD.
 41
1.5
  0
TEXT
  5
20B0
  8
AM_BOR
 62
     3
 10
213.19999986839329
 20
13.500000173111291
 30
0.0
 40
5.5
  1
中西産業株式会社
 41
1.1999999999999991
  0
TEXT
  5
20B1
  8
AM_BOR
 62
     4
 10
196.192787937406
 20
10.000000173111291
 30
0.0
 40
1.5
  1
Nakanishi
 41
1.1999999999999991
  0
TEXT
  5
20B2
  8
AM_BOR
 62
     7
 10
98.104999768257457
 20
15.650000185032219
 30
0.0
 40
1.0
  1
FINISH
 41
1.6000000000000001
  0
TEXT
  5
20B3
  8
AM_BOR
 62
     7
 10
96.979999708652798
 20
17.700000220795008
 30
0.0
 40
2.7999999999999989
  1
仕　　上
  0
TEXT
  5
20B4
  8
AM_BOR
 62
     7
 10
3.1549997801784002
 20
15.650000185032219
 30
0.0
 40
1.0
  1
MATERIAL
 41
1.6000000000000001
  0
TEXT
  5
20B5
  8
AM_BOR
 62
     7
 10
1.729999708652826
 20
17.700000220795008
 30
0.0
 40
2.7999999999999989
  1
材　　質
  0
LINE
  5
20B6
  8
AM_BOR
 62
     4
 10
190.49999986839319
 20
28.000000173111289
 30
0.0
 11
190.49999986839319
 21
0.000000173111296
 31
0.0
  0
LINE
  5
20B7
  8
AM_BOR
 62
     4
 10
-0.0000001316067255
 20
28.000000173111289
 30
0.0
 11
-0.0000001316067255
 21
15.000000173111291
 31
0.0
  0
LINE
  5
20B8
  8
AM_BOR
 62
     4
 10
-0.0000001316067255
 20
21.500000173111289
 30
0.0
 11
190.49999986839319
 21
21.500000173111289
 31
0.0
  0
LINE
  5
20B9
  8
AM_BOR
 62
     4
 10
15.999999868393269
 20
28.000000173111289
 30
0.0
 11
15.999999868393269
 21
15.000000173111291
 31
0.0
  0
TEXT
  5
20BA
  8
AM_BOR
 62
     7
 10
98.104999768257457
 20
22.150000185032219
 30
0.0
 40
1.0
  1
ART. NO.
 41
1.6000000000000001
  0
TEXT
  5
20BB
  8
AM_BOR
 62
     7
 10
96.979999708652684
 20
24.200000220795008
 30
0.0
 40
2.7999999999999989
  1
品　　番
  0
TEXT
  5
20BC
  8
AM_BOR
 62
     7
 10
3.1549997801784002
 20
22.150000185032219
 30
0.0
 40
1.0
  1
ARTICLE
 41
1.6000000000000001
  0
TEXT
  5
20BD
  8
AM_BOR
 62
     7
 10
1.7299997086527119
 20
24.200000220795008
 30
0.0
 40
2.7999999999999989
  1
品　　名
  0
LINE
  5
20BE
  8
AM_BOR
 62
     4
 10
-0.0000001316067255
 20
15.000000173111291
 30
0.0
 11
-0.0000001316067255
 21
0.0000001731112924
 31
0.0
  0
LINE
  5
20BF
  8
AM_BOR
 62
     4
 10
95.249999868393246
 20
28.000000173111289
 30
0.0
 11
95.249999868393246
 21
0.000000173111296
 31
0.0
  0
TEXT
  5
20C0
  8
AM_BOR
 62
     7
 10
3.1549997801784002
 20
9.1500001850322192
 30
0.0
 40
1.0
  1
REMARKS
 41
1.6000000000000001
  0
TEXT
  5
20C1
  8
AM_BOR
 62
     7
 10
1.7299997086527119
 20
11.20000022079501
 30
0.0
 40
2.7999999999999989
  1
備　　考
  0
LINE
  5
20C2
  8
AM_BOR
 62
     4
 10
111.2499998683932
 20
28.000000173111289
 30
0.0
 11
111.2499998683932
 21
0.000000173111296
 31
0.0
  0
LINE
  5
20C3
  8
AM_BOR
 62
     4
 10
-0.0000001316067255
 20
0.000000173111296
 30
0.0
 11
276.49999986839327
 21
0.000000173111296
 31
0.0
  0
TEXT
  5
20C4
  8
AM_BOR
 62
     7
 10
98.404999780178386
 20
9.1500001850322157
 30
0.0
 40
1.0
  1
SETS
 41
1.6000000000000001
  0
TEXT
  5
20C5
  8
AM_BOR
 62
     7
 10
96.979999708652684
 20
11.20000022079501
 30
0.0
 40
2.7999999999999989
  1
セット品
  0
ATTDEF
  5
20C6
  8
AM_BOR
 62
     7
 10
114.3107095753831
 20
0.5000001731112853
 30
0.0
 40
3.0
  1

 11
114.3107095753831
 21
2.0000001731112849
 31
0.0
  3
セット
  2
SETS｛20｝
 70
     0
 74
     2
1001
ACADANNOTATIVE
1000
AnnotativeData
1002
{
1070
     1
1070
     0
1002
}
1001
AcDbAttr
1070
     0
1070
     1
  0
ATTDEF
  5
20CA
  8
AM_BOR
 62
     7
 10
19.060709575383161
 20
0.5000001731112889
 30
0.0
 40
3.0
  1

 11
19.060709575383161
 21
2.000000173111288
 31
0.0
  3
備　　考
  2
REMARKS｛20｝
 70
     0
 74
     2
1001
ACADANNOTATIVE
1000
AnnotativeData
1002
{
1070
     1
1070
     0
1002
}
1001
AcDbAttr
1070
     0
1070
     1
  0
ATTDEF
  5
20CE
  8
AM_BOR
 62
     7
 10
114.3107095753831
 20
5.5000001731112853
 30
0.0
 40
3.0
  1

 11
114.3107095753831
 21
7.0000001731112853
 31
0.0
  3
セット
  2
SETS｛20｝
 70
     0
 74
     2
1001
ACADANNOTATIVE
1000
AnnotativeData
1002
{
1070
     1
1070
     0
1002
}
1001
AcDbAttr
1070
     0
1070
     1
  0
ATTDEF
  5
20D2
  8
AM_BOR
 62
     7
 10
19.060709575383161
 20
5.500000173111288
 30
0.0
 40
3.0
  1

 11
19.060709575383161
 21
7.000000173111288
 31
0.0
  3
備　　考
  2
REMARKS｛20｝
 70
     0
 74
     2
1001
ACADANNOTATIVE
1000
AnnotativeData
1002
{
1070
     1
1070
     0
1002
}
1001
AcDbAttr
1070
     0
1070
     1
  0
ATTDEF
  5
20D6
  8
AM_BOR
 62
     7
 10
114.3107095753831
 20
10.50000017311128
 30
0.0
 40
3.0
  1

 11
114.3107095753831
 21
12.00000017311128
 31
0.0
  3
セット
  2
SETS｛20｝
 70
     0
 74
     2
1001
ACADANNOTATIVE
1000
AnnotativeData
1002
{
1070
     1
1070
     0
1002
}
1001
AcDbAttr
1070
     0
1070
     1
  0
ATTDEF
  5
20DA
  8
AM_BOR
 62
     7
 10
19.060709575383161
 20
10.500000173111291
 30
0.0
 40
3.0
  1

 11
19.060709575383161
 21
12.000000173111291
 31
0.0
  3
備　　考
  2
REMARKS｛20｝
 70
     0
 74
     2
1001
ACADANNOTATIVE
1000
AnnotativeData
1002
{
1070
     1
1070
     0
1002
}
1001
AcDbAttr
1070
     0
1070
     1
  0
ATTDEF
  5
20DE
  8
AM_BOR
 62
     7
 10
114.2499998683932
 20
23.500000173111289
 30
0.0
 40
3.0
  1

 11
114.2499998683932
 21
25.000000173111289
 31
0.0
  3
品    番
  2
ART_NO｛20｝
 70
     0
 74
     2
1001
ACADANNOTATIVE
1000
AnnotativeData
1002
{
1070
     1
1070
     0
1002
}
1001
AcDbAttr
1070
     0
1070
     1
  0
ATTDEF
  5
20E2
  8
AM_BOR
 62
     7
 10
18.999999868393271
 20
23.500000173111289
 30
0.0
 40
3.0
  1

 11
18.999999868393271
 21
25.000000173111289
 31
0.0
  3
品    名
  2
ARTICLE｛20｝
 70
     0
 74
     2
1001
ACADANNOTATIVE
1000
AnnotativeData
1002
{
1070
     1
1070
     0
1002
}
1001
AcDbAttr
1070
     0
1070
     1
  0
ATTDEF
  5
20E6
  8
AM_BOR
 62
     7
 10
114.2499998683932
 20
17.000000173111289
 30
0.0
 40
3.0
  1

 11
114.2499998683932
 21
18.500000173111289
 31
0.0
  3
仕上
  2
FINISH｛20｝
 70
     0
 74
     2
1001
ACADANNOTATIVE
1000
AnnotativeData
1002
{
1070
     1
1070
     0
1002
}
1001
AcDbAttr
1070
     0
1070
     1
  0
ATTDEF
  5
20EA
  8
AM_BOR
 62
     7
 10
18.999999868393271
 20
17.000000173111289
 30
0.0
 40
3.0
  1

 11
18.999999868393271
 21
18.500000173111289
 31
0.0
  3
材　　質
  2
MATERIAK｛20｝
 70
     0
 74
     2
1001
ACADANNOTATIVE
1000
AnnotativeData
1002
{
1070
     1
1070
     0
1002
}
1001
AcDbAttr
1070
     0
1070
     1
  0
ENDBLK
  5
20F1
  8
0
  0
BLOCK
  8
0
  2
ZUWAKU-A3H
 70
     0
 10
0.0
 20
0.0
 30
0.0
  3
ZUWAKU-A3H
  1

  0
LINE
  5
29DD
  8
AM_BOR
 62
     3
 10
24.999999999999989
 20
284.99999999999977
 30
0.0
 11
24.999999999999979
 21
9.0
 31
0.0
  0
LINE
  5
29DE
  8
AM_BOR
 62
     3
 10
411.99999999999989
 20
284.99999999999989
 30
0.0
 11
25.0
 21
284.99999999999989
 31
0.0
  0
LINE
  5
29DF
  8
AM_BOR
 62
     3
 10
411.99999999999989
 20
284.99999999999989
 30
0.0
 11
411.99999999999989
 21
9.0
 31
0.0
  0
LINE
  5
29E0
  8
AM_BOR
 62
     3
 10
24.999999999999989
 20
8.9999999999999964
 30
0.0
 11
411.99999999999972
 21
8.9999999999999964
 31
0.0
  0
TEXT
  5
29E1
  8
SYS-TEISEI0
  6
CONTINUOUS
 62
     3
 10
144.38500001765789
 20
14.950000047683719
 30
0.0
 40
3.099999904632567
  1
 
  0
TEXT
  5
29E2
  8
SYS-TEISEI0
  6
CONTINUOUS
 62
     3
 10
169.88500004447991
 20
14.950000047683719
 30
0.0
 40
3.099999904632567
  1
 
  0
TEXT
  5
29E3
  8
SYS-TEISEI0
  6
CONTINUOUS
 62
     3
 10
229.24499995708459
 20
14.950000047683719
 30
0.0
 40
3.099999904632567
  1
 
  0
TEXT
  5
29E4
  8
SYS-TEISEI0
  6
CONTINUOUS
 62
     3
 10
236.9449999570846
 20
14.950000047683719
 30
0.0
 40
3.099999904632567
  1
 
  0
TEXT
  5
29E5
  8
SYS-TEISEI0
  6
CONTINUOUS
 62
     3
 10
144.38500001765789
 20
19.950000047683719
 30
0.0
 40
3.099999904632567
  1
 
  0
TEXT
  5
29E6
  8
SYS-TEISEI0
  6
CONTINUOUS
 62
     3
 10
169.88500004447991
 20
19.950000047683719
 30
0.0
 40
3.099999904632567
  1
 
  0
TEXT
  5
29E7
  8
SYS-TEISEI0
  6
CONTINUOUS
 62
     3
 10
229.24499995708459
 20
19.950000047683719
 30
0.0
 40
3.099999904632567
  1
 
  0
TEXT
  5
29E8
  8
SYS-TEISEI0
  6
CONTINUOUS
 62
     3
 10
236.9449999570846
 20
19.950000047683719
 30
0.0
 40
3.099999904632567
  1
 
  0
TEXT
  5
29E9
  8
SYS-TEISEI0
  6
CONTINUOUS
 62
     3
 10
144.38500001765789
 20
24.950000047683719
 30
0.0
 40
3.099999904632567
  1
 
  0
TEXT
  5
29EA
  8
SYS-TEISEI0
  6
CONTINUOUS
 62
     3
 10
169.88500004447991
 20
24.950000047683719
 30
0.0
 40
3.099999904632567
  1
 
  0
TEXT
  5
29EB
  8
SYS-TEISEI0
  6
CONTINUOUS
 62
     3
 10
229.24499995708459
 20
24.950000047683719
 30
0.0
 40
3.099999904632567
  1
 
  0
TEXT
  5
29EC
  8
SYS-TEISEI0
  6
CONTINUOUS
 62
     3
 10
236.9449999570846
 20
24.950000047683719
 30
0.0
 40
3.099999904632567
  1
 
  0
TEXT
  5
29ED
  8
AM_BOR
 10
24.999999999999989
 20
9.0
 30
0.0
 40
5.0
  1
!GENTITLE-LL
  0
TEXT
  5
29EE
  8
AM_BOR
 10
411.99999999999989
 20
9.0
 30
0.0
 40
5.0
  1
!GENTITLE-INSERT
  0
TEXT
  5
29EF
  8
AM_BOR
 10
411.99999999999989
 20
284.99999999999989
 30
0.0
 40
5.0
  1
!GENTITLE-RU
  0
TEXT
  5
29F0
  8
AM_BOR
 10
420.0
 20
297.0
 30
0.0
 40
5.0
  1
!GENTITLE-MAX
  0
ENDBLK
  5
29F2
  8
0
  0
BLOCK
  8
0
  2
_ACMFILLEDHALF
 70
     0
 10
0.0
 20
0.0
 30
0.0
  3
_ACMFILLEDHALF
  1

  0
TRACE
  5
32A5
  8
0
 62
     0
 10
-0.8
 20
0.0
 30
0.0
 11
-1.0
 21
0.166666666
 31
0.0
 12
0.0
 22
0.0
 32
0.0
 13
0.0
 23
0.0
 33
0.0
  0
LINE
  5
32A6
  8
0
 62
     0
 10
-1.0
 20
0.0
 30
0.0
 11
-0.8
 21
0.0
 31
0.0
  0
ENDBLK
  5
32A4
  8
0
  0
BLOCK
  8
0
  2
_ACMFILLED
 70
     0
 10
0.0
 20
0.0
 30
0.0
  3
_ACMFILLED
  1

  0
TRACE
  5
32B1
  8
0
 62
     0
 10
-1.0
 20
-0.166666666
 30
0.0
 11
-1.0
 21
0.166666666
 31
0.0
 12
0.0
 22
0.0
 32
0.0
 13
0.0
 23
0.0
 33
0.0
  0
ENDBLK
  5
32B0
  8
0
  0
BLOCK
  8
0
  2
_ACMOPEN15
 70
     0
 10
0.0
 20
0.0
 30
0.0
  3
_ACMOPEN15
  1

  0
LINE
  5
32BB
  8
0
 62
     0
 10
-1.0
 20
0.0
 30
0.0
 11
0.0
 21
0.0
 31
0.0
  0
LINE
  5
32BC
  8
0
 62
     0
 10
-1.0
 20
-0.131652497
 30
0.0
 11
0.0
 21
0.0
 31
0.0
  0
LINE
  5
32BD
  8
0
 62
     0
 10
0.0
 20
0.0
 30
0.0
 11
-1.0
 21
0.131652497
 31
0.0
  0
ENDBLK
  5
32BA
  8
0
  0
BLOCK
  8
0
  2
_ACMFILLED15
 70
     0
 10
0.0
 20
0.0
 30
0.0
  3
_ACMFILLED15
  1

  0
TRACE
  5
32C9
  8
0
 62
     0
 10
-1.0
 20
-0.131652497
 30
0.0
 11
-1.0
 21
0.131652497
 31
0.0
 12
0.0
 22
0.0
 32
0.0
 13
0.0
 23
0.0
 33
0.0
  0
ENDBLK
  5
32C8
  8
0
  0
BLOCK
  8
0
  2
*D13
 70
     1
 10
0.0
 20
0.0
 30
0.0
  3
*D13
  1

  0
LINE
  5
4ED0
  8
AM_5
  6
CONTINUOUS
 62
     7
 10
151.99217383840991
 20
180.01055265432569
 30
0.0
 11
119.73330775154859
 21
180.01055265432569
 31
0.0
  0
LINE
  5
4ED1
  8
AM_5
  6
CONTINUOUS
 62
     7
 10
151.99217383840991
 20
225.01055265432569
 30
0.0
 11
119.73330775154859
 21
225.01055265432569
 31
0.0
  0
LINE
  5
4ED2
  8
AM_5
  6
CONTINUOUS
 62
     7
 10
120.73330775154859
 20
182.51055265432569
 30
0.0
 11
120.73330775154859
 21
222.51055265432569
 31
0.0
  0
INSERT
  5
4ED3
  8
AM_5
 62
     7
  2
_OPEN30
 10
120.73330775154859
 20
180.01055265432569
 30
0.0
 41
2.5
 42
2.5
 43
2.5
 50
270.0
  0
INSERT
  5
4ED4
  8
AM_5
 62
     7
  2
_OPEN30
 10
120.73330775154859
 20
225.01055265432569
 30
0.0
 41
2.5
 42
2.5
 43
2.5
 50
90.0
  0
INSERT
  5
4ED5
  8
0
  2
*U40
 10
0.0
 20
0.0
 30
0.0
  0
POINT
  5
4ED6
  8
DEFPOINTS
 62
     0
 10
152.99217383840991
 20
180.01055265432569
 30
0.0
  0
POINT
  5
4ED7
  8
DEFPOINTS
 62
     0
 10
152.99217383840991
 20
225.01055265432569
 30
0.0
  0
POINT
  5
4ED8
  8
DEFPOINTS
 62
     0
 10
120.73330775154859
 20
225.01055265432569
 30
0.0
  0
ENDBLK
  5
4BBD
  8
0
  0
BLOCK
  8
0
  2
*D14
 70
     1
 10
0.0
 20
0.0
 30
0.0
  3
*D14
  1

  0
LINE
  5
4ED9
  8
AM_5
  6
CONTINUOUS
 62
     7
 10
182.4921738384098
 20
188.51055265432561
 30
0.0
 11
165.99217383840971
 21
188.51055265432561
 31
0.0
  0
LINE
  5
4EDA
  8
AM_5
  6
CONTINUOUS
 62
     7
 10
182.4921738384098
 20
216.51055265432569
 30
0.0
 11
165.9921738384098
 21
216.51055265432569
 31
0.0
  0
LINE
  5
4EDB
  8
AM_5
  6
CONTINUOUS
 62
     7
 10
166.9921738384098
 20
214.01055265432581
 30
0.0
 11
166.99217383840971
 21
191.01055265432561
 31
0.0
  0
LINE
  5
4EDC
  8
AM_5
  6
CONTINUOUS
 62
     7
 10
166.99217383840971
 20
188.51055265432561
 30
0.0
 11
166.99217383840971
 21
177.98164375929241
 31
0.0
  0
INSERT
  5
4EDD
  8
AM_5
 62
     7
  2
_OPEN30
 10
166.9921738384098
 20
216.51055265432569
 30
0.0
 41
2.5
 42
2.5
 43
2.5
 50
90.0
  0
INSERT
  5
4EDE
  8
AM_5
 62
     7
  2
_OPEN30
 10
166.99217383840971
 20
188.51055265432561
 30
0.0
 41
2.5
 42
2.5
 43
2.5
 50
270.0
  0
INSERT
  5
4EDF
  8
0
  2
*U41
 10
0.0
 20
0.0
 30
0.0
  0
POINT
  5
4EE0
  8
DEFPOINTS
 62
     0
 10
183.4921738384098
 20
188.51055265432561
 30
0.0
  0
POINT
  5
4EE1
  8
DEFPOINTS
 62
     0
 10
183.4921738384098
 20
216.51055265432569
 30
0.0
  0
POINT
  5
4EE2
  8
DEFPOINTS
 62
     0
 10
166.9921738384098
 20
216.51055265432569
 30
0.0
  0
ENDBLK
  5
4BF0
  8
0
  0
BLOCK
  8
0
  2
*D15
 70
     1
 10
0.0
 20
0.0
 30
0.0
  3
*D15
  1

  0
LINE
  5
4EE3
  8
AM_5
  6
CONTINUOUS
 62
     7
 10
152.99217383840991
 20
226.01055265432589
 30
0.0
 11
152.99217383840991
 21
240.01055265432581
 31
0.0
  0
LINE
  5
4EE4
  8
AM_5
  6
CONTINUOUS
 62
     7
 10
157.99217383840991
 20
225.01055265432569
 30
0.0
 11
157.99217383840991
 21
240.01055265432581
 31
0.0
  0
LINE
  5
4EE5
  8
AM_5
  6
CONTINUOUS
 62
     7
 10
150.49217383840991
 20
239.01055265432581
 30
0.0
 11
147.99217383840991
 21
239.01055265432581
 31
0.0
  0
LINE
  5
4EE6
  8
AM_5
  6
CONTINUOUS
 62
     7
 10
160.49217383840991
 20
239.01055265432581
 30
0.0
 11
162.99217383840991
 21
239.01055265432581
 31
0.0
  0
LINE
  5
4EE7
  8
AM_5
  6
CONTINUOUS
 62
     7
 10
152.99217383840991
 20
239.01055265432581
 30
0.0
 11
157.99217383840991
 21
239.01055265432581
 31
0.0
  0
INSERT
  5
4EE8
  8
AM_5
 62
     7
  2
_OPEN30
 10
152.99217383840991
 20
239.01055265432581
 30
0.0
 41
2.5
 42
2.5
 43
2.5
  0
INSERT
  5
4EE9
  8
AM_5
 62
     7
  2
_OPEN30
 10
157.99217383840991
 20
239.01055265432581
 30
0.0
 41
2.5
 42
2.5
 43
2.5
 50
180.0
  0
INSERT
  5
4EEA
  8
0
  2
*U42
 10
0.0
 20
0.0
 30
0.0
  0
POINT
  5
4EEB
  8
DEFPOINTS
 62
     0
 10
152.99217383840991
 20
225.01055265432589
 30
0.0
  0
POINT
  5
4EEC
  8
DEFPOINTS
 62
     0
 10
157.99217383840991
 20
224.01055265432581
 30
0.0
  0
POINT
  5
4EED
  8
DEFPOINTS
 62
     0
 10
157.99217383840991
 20
239.01055265432581
 30
0.0
  0
ENDBLK
  5
4C24
  8
0
  0
BLOCK
  8
0
  2
*D17
 70
     1
 10
0.0
 20
0.0
 30
0.0
  3
*D17
  1

  0
LINE
  5
4EEE
  8
AM_5
  6
CONTINUOUS
 62
     7
 10
152.9921738384098
 20
226.01055265432589
 30
0.0
 11
152.9921738384098
 21
247.1874268714831
 31
0.0
  0
LINE
  5
4EEF
  8
AM_5
  6
CONTINUOUS
 62
     7
 10
208.9921738384098
 20
208.6634255659427
 30
0.0
 11
208.9921738384098
 21
247.1874268714831
 31
0.0
  0
LINE
  5
4EF0
  8
AM_5
  6
CONTINUOUS
 62
     7
 10
155.4921738384098
 20
246.1874268714831
 30
0.0
 11
206.4921738384098
 21
246.1874268714831
 31
0.0
  0
INSERT
  5
4EF1
  8
AM_5
 62
     7
  2
_OPEN30
 10
152.9921738384098
 20
246.1874268714831
 30
0.0
 41
2.5
 42
2.5
 43
2.5
 50
180.0
  0
INSERT
  5
4EF2
  8
AM_5
 62
     7
  2
_OPEN30
 10
208.9921738384098
 20
246.1874268714831
 30
0.0
 41
2.5
 42
2.5
 43
2.5
  0
INSERT
  5
4EF3
  8
0
  2
*U43
 10
0.0
 20
0.0
 30
0.0
  0
POINT
  5
4EF4
  8
DEFPOINTS
 62
     0
 10
152.9921738384098
 20
225.01055265432589
 30
0.0
  0
POINT
  5
4EF5
  8
DEFPOINTS
 62
     0
 10
208.9921738384098
 20
207.6634255659427
 30
0.0
  0
POINT
  5
4EF6
  8
DEFPOINTS
 62
     0
 10
208.9921738384098
 20
246.1874268714831
 30
0.0
  0
ENDBLK
  5
4C77
  8
0
  0
BLOCK
  8
0
  2
*D18
 70
     1
 10
0.0
 20
0.0
 30
0.0
  3
*D18
  1

  0
LINE
  5
4EF7
  8
AM_5
  6
CONTINUOUS
 62
     7
 10
152.99217383840991
 20
226.01055265432581
 30
0.0
 11
152.99217383840991
 21
254.18742687148409
 31
0.0
  0
LINE
  5
4EF8
  8
AM_5
  6
CONTINUOUS
 62
     7
 10
221.99217383840991
 20
210.51055265432569
 30
0.0
 11
221.99217383840991
 21
254.18742687148409
 31
0.0
  0
LINE
  5
4EF9
  8
AM_5
  6
CONTINUOUS
 62
     7
 10
155.49217383840991
 20
253.18742687148409
 30
0.0
 11
219.49217383840991
 21
253.18742687148409
 31
0.0
  0
INSERT
  5
4EFA
  8
AM_5
 62
     7
  2
_OPEN30
 10
152.99217383840991
 20
253.18742687148409
 30
0.0
 41
2.5
 42
2.5
 43
2.5
 50
180.0
  0
INSERT
  5
4EFB
  8
AM_5
 62
     7
  2
_OPEN30
 10
221.99217383840991
 20
253.18742687148409
 30
0.0
 41
2.5
 42
2.5
 43
2.5
  0
INSERT
  5
4EFC
  8
0
  2
*U44
 10
0.0
 20
0.0
 30
0.0
  0
POINT
  5
4EFD
  8
DEFPOINTS
 62
     0
 10
152.99217383840991
 20
225.01055265432569
 30
0.0
  0
POINT
  5
4EFE
  8
DEFPOINTS
 62
     0
 10
221.99217383840991
 20
209.51055265432581
 30
0.0
  0
POINT
  5
4EFF
  8
DEFPOINTS
 62
     0
 10
221.99217383840991
 20
253.18742687148409
 30
0.0
  0
ENDBLK
  5
4CA1
  8
0
  0
BLOCK
  8
0
  2
*D19
 70
     1
 10
0.0
 20
0.0
 30
0.0
  3
*D19
  1

  0
LINE
  5
4F00
  8
AM_5
  6
CONTINUOUS
 62
     7
 10
152.99217383840991
 20
226.01055265432589
 30
0.0
 11
152.99217383840991
 21
261.18742687148477
 31
0.0
  0
LINE
  5
4F01
  8
AM_5
  6
CONTINUOUS
 62
     7
 10
228.99217383840971
 20
213.51055265432581
 30
0.0
 11
228.99217383840971
 21
261.18742687148477
 31
0.0
  0
LINE
  5
4F02
  8
AM_5
  6
CONTINUOUS
 62
     7
 10
155.49217383840991
 20
260.18742687148477
 30
0.0
 11
226.49217383840971
 21
260.18742687148477
 31
0.0
  0
INSERT
  5
4F03
  8
AM_5
 62
     7
  2
_OPEN30
 10
152.99217383840991
 20
260.18742687148477
 30
0.0
 41
2.5
 42
2.5
 43
2.5
 50
180.0
  0
INSERT
  5
4F04
  8
AM_5
 62
     7
  2
_OPEN30
 10
228.99217383840971
 20
260.18742687148477
 30
0.0
 41
2.5
 42
2.5
 43
2.5
  0
INSERT
  5
4F05
  8
0
  2
*U45
 10
0.0
 20
0.0
 30
0.0
  0
POINT
  5
4F06
  8
DEFPOINTS
 62
     0
 10
152.99217383840991
 20
225.01055265432589
 30
0.0
  0
POINT
  5
4F07
  8
DEFPOINTS
 62
     0
 10
228.99217383840971
 20
212.51055265432569
 30
0.0
  0
POINT
  5
4F08
  8
DEFPOINTS
 62
     0
 10
228.99217383840971
 20
260.18742687148477
 30
0.0
  0
ENDBLK
  5
4CC2
  8
0
  0
BLOCK
  8
0
  2
*D20
 70
     1
 10
0.0
 20
0.0
 30
0.0
  3
*D20
  1

  0
LINE
  5
4F09
  8
AM_5
  6
CONTINUOUS
 62
     7
 10
224.99217383819681
 20
207.01055265432581
 30
0.0
 11
246.3938229029163
 21
207.01055265432581
 31
0.0
  0
LINE
  5
4F0A
  8
AM_5
  6
CONTINUOUS
 62
     7
 10
224.99217383819681
 20
198.01055265432569
 30
0.0
 11
246.3938229029163
 21
198.01055265432569
 31
0.0
  0
LINE
  5
4F0B
  8
AM_5
  6
CONTINUOUS
 62
     7
 10
245.3938229029163
 20
204.51055265432569
 30
0.0
 11
245.3938229029163
 21
200.51055265432569
 31
0.0
  0
INSERT
  5
4F0C
  8
AM_5
 62
     7
  2
_OPEN30
 10
245.3938229029163
 20
207.01055265432581
 30
0.0
 41
2.5
 42
2.5
 43
2.5
 50
90.0
  0
INSERT
  5
4F0D
  8
AM_5
 62
     7
  2
_OPEN30
 10
245.3938229029163
 20
198.01055265432569
 30
0.0
 41
2.5
 42
2.5
 43
2.5
 50
270.0
  0
INSERT
  5
4F0E
  8
0
  2
*U46
 10
0.0
 20
0.0
 30
0.0
  0
POINT
  5
4F0F
  8
DEFPOINTS
 62
     0
 10
223.99217383819681
 20
207.01055265432581
 30
0.0
  0
POINT
  5
4F10
  8
DEFPOINTS
 62
     0
 10
223.99217383819681
 20
198.01055265432569
 30
0.0
  0
POINT
  5
4F11
  8
DEFPOINTS
 62
     0
 10
245.3938229029163
 20
198.01055265432569
 30
0.0
  0
ENDBLK
  5
4CE3
  8
0
  0
BLOCK
  8
0
  2
*D21
 70
     1
 10
0.0
 20
0.0
 30
0.0
  3
*D21
  1

  0
LINE
  5
4F12
  8
AM_5
  6
CONTINUOUS
 62
     7
 10
229.99217383840971
 20
192.51055265432569
 30
0.0
 11
253.39382290291641
 21
192.51055265432569
 31
0.0
  0
LINE
  5
4F13
  8
AM_5
  6
CONTINUOUS
 62
     7
 10
229.99217383840971
 20
212.51055265432569
 30
0.0
 11
253.39382290291641
 21
212.51055265432569
 31
0.0
  0
LINE
  5
4F14
  8
AM_5
  6
CONTINUOUS
 62
     7
 10
252.39382290291641
 20
195.01055265432569
 30
0.0
 11
252.39382290291641
 21
210.01055265432569
 31
0.0
  0
INSERT
  5
4F15
  8
AM_5
 62
     7
  2
_OPEN30
 10
252.39382290291641
 20
192.51055265432569
 30
0.0
 41
2.5
 42
2.5
 43
2.5
 50
270.0
  0
INSERT
  5
4F16
  8
AM_5
 62
     7
  2
_OPEN30
 10
252.39382290291641
 20
212.51055265432569
 30
0.0
 41
2.5
 42
2.5
 43
2.5
 50
90.0
  0
INSERT
  5
4F17
  8
0
  2
*U47
 10
0.0
 20
0.0
 30
0.0
  0
POINT
  5
4F18
  8
DEFPOINTS
 62
     0
 10
228.99217383840971
 20
192.51055265432569
 30
0.0
  0
POINT
  5
4F19
  8
DEFPOINTS
 62
     0
 10
228.99217383840971
 20
212.51055265432569
 30
0.0
  0
POINT
  5
4F1A
  8
DEFPOINTS
 62
     0
 10
252.39382290291641
 20
212.51055265432569
 30
0.0
  0
ENDBLK
  5
4D16
  8
0
  0
BLOCK
  8
0
  2
*D22
 70
     1
 10
0.0
 20
0.0
 30
0.0
  3
*D22
  1

  0
LINE
  5
51C6
  8
AM_5
  6
CONTINUOUS
 62
     7
 10
228.99217383840971
 20
127.2531698157882
 30
0.0
 11
228.99217383840971
 21
136.14722189485141
 31
0.0
  0
LINE
  5
51C7
  8
AM_5
  6
CONTINUOUS
 62
     7
 10
223.99217383840971
 20
116.2531698157881
 30
0.0
 11
223.99217383840971
 21
136.14722189485141
 31
0.0
  0
LINE
  5
51C8
  8
AM_5
  6
CONTINUOUS
 62
     7
 10
231.49217383840971
 20
135.14722189485141
 30
0.0
 11
233.99217383840971
 21
135.14722189485141
 31
0.0
  0
LINE
  5
51C9
  8
AM_5
  6
CONTINUOUS
 62
     7
 10
221.49217383840971
 20
135.14722189485141
 30
0.0
 11
218.99217383840971
 21
135.14722189485141
 31
0.0
  0
LINE
  5
51CA
  8
AM_5
  6
CONTINUOUS
 62
     7
 10
228.99217383840971
 20
135.14722189485141
 30
0.0
 11
223.99217383840971
 21
135.14722189485141
 31
0.0
  0
INSERT
  5
51CB
  8
AM_5
 62
     7
  2
_OPEN30
 10
228.99217383840971
 20
135.14722189485141
 30
0.0
 41
2.5
 42
2.5
 43
2.5
 50
180.0
  0
INSERT
  5
51CC
  8
AM_5
 62
     7
  2
GENDOT
 10
223.99217383840971
 20
135.14722189485141
 30
0.0
 41
2.5
 42
2.5
 43
2.5
  0
TEXT
  8
AM_5
  40
3
  5
5222
  62
7
  72
0
  71
0
 10
226.492
 20
133.747
 30
0.000000
  1
5
  0
POINT
  5
51CE
  8
DEFPOINTS
 62
     0
 10
228.99217383840971
 20
126.2531698157882
 30
0.0
  0
POINT
  5
51CF
  8
DEFPOINTS
 62
     0
 10
223.99217383840971
 20
115.2531698157881
 30
0.0
  0
POINT
  5
51D0
  8
DEFPOINTS
 62
     0
 10
223.99217383840971
 20
135.14722189485141
 30
0.0
  0
ENDBLK
  5
4DA0
  8
0
  0
BLOCK
  8
0
  2
*D23
 70
     1
 10
0.0
 20
0.0
 30
0.0
  3
*D23
  1

  0
LINE
  5
51D1
  8
AM_5
  6
CONTINUOUS
 62
     7
 10
223.99217383840971
 20
116.2531698157881
 30
0.0
 11
223.99217383840971
 21
136.14722189485141
 31
0.0
  0
LINE
  5
51D2
  8
AM_5
  6
CONTINUOUS
 62
     7
 10
215.99440774876649
 20
95.071101723304963
 30
0.0
 11
215.99440774876649
 21
136.14722189485141
 31
0.0
  0
LINE
  5
51D3
  8
AM_5
  6
CONTINUOUS
 62
     7
 10
221.49217383840971
 20
135.14722189485141
 30
0.0
 11
218.49440774876649
 21
135.14722189485141
 31
0.0
  0
INSERT
  5
51D4
  8
AM_5
 62
     7
  2
GENDOT
 10
223.99217383840971
 20
135.14722189485141
 30
0.0
 41
2.5
 42
2.5
 43
2.5
  0
INSERT
  5
51D5
  8
AM_5
 62
     7
  2
_OPEN30
 10
215.99440774876649
 20
135.14722189485141
 30
0.0
 41
2.5
 42
2.5
 43
2.5
 50
180.0
  0
TEXT
  8
AM_5
  40
3
  5
5223
  62
7
  72
0
  71
0
 10
219.993
 20
133.747
 30
0.000000
  1
8
  0
POINT
  5
51D7
  8
DEFPOINTS
 62
     0
 10
223.99217383840971
 20
115.2531698157881
 30
0.0
  0
POINT
  5
51D8
  8
DEFPOINTS
 62
     0
 10
215.99440774876649
 20
94.071101723304963
 30
0.0
  0
POINT
  5
51D9
  8
DEFPOINTS
 62
     0
 10
215.99440774876649
 20
135.14722189485141
 30
0.0
  0
ENDBLK
  5
4DDD
  8
0
  0
BLOCK
  8
0
  2
GENDOT
 70
     0
 10
0.0
 20
0.0
 30
0.0
  3
GENDOT
  1

  0
LINE
  5
4DF6
  8
0
 10
0.0
 20
0.0
 30
0.0
 11
-1.0
 21
0.0
 31
0.0
  0
POLYLINE
  5
4DF7
  8
0
 66
     1
 10
0.0
 20
0.0
 30
0.0
 70
     1
 40
0.25
 41
0.25
  0
VERTEX
  5
51DA
  8
0
 10
-0.125
 20
0.0
 30
0.0
 42
1.0
  0
VERTEX
  5
51DB
  8
0
 10
0.125
 20
0.0
 30
0.0
 42
1.0
  0
SEQEND
  5
51DC
  8
0
  0
ENDBLK
  5
4DF9
  8
0
  0
BLOCK
  8
0
  2
*D25
 70
     1
 10
0.0
 20
0.0
 30
0.0
  3
*D25
  1

  0
LINE
  5
4E45
  8
AM_5
  6
CONTINUOUS
 62
     7
 10
228.99217383840971
 20
127.2531698157882
 30
0.0
 11
228.99217383840971
 21
143.1472218948513
 31
0.0
  0
LINE
  5
4E46
  8
AM_5
  6
CONTINUOUS
 62
     7
 10
209.9921738384096
 20
98.253169815788084
 30
0.0
 11
209.9921738384096
 21
143.1472218948513
 31
0.0
  0
LINE
  5
4E47
  8
AM_5
  6
CONTINUOUS
 62
     7
 10
226.49217383840971
 20
142.1472218948513
 30
0.0
 11
212.4921738384096
 21
142.1472218948513
 31
0.0
  0
INSERT
  5
4E48
  8
AM_5
 62
     7
  2
_OPEN30
 10
228.99217383840971
 20
142.1472218948513
 30
0.0
 41
2.5
 42
2.5
 43
2.5
  0
INSERT
  5
4E49
  8
AM_5
 62
     7
  2
_OPEN30
 10
209.9921738384096
 20
142.1472218948513
 30
0.0
 41
2.5
 42
2.5
 43
2.5
 50
180.0
  0
INSERT
  5
4E4A
  8
0
  2
*U36
 10
0.0
 20
0.0
 30
0.0
  0
POINT
  5
4E4B
  8
DEFPOINTS
 62
     0
 10
228.99217383840971
 20
126.2531698157882
 30
0.0
  0
POINT
  5
4E4C
  8
DEFPOINTS
 62
     0
 10
209.9921738384096
 20
97.253169815788084
 30
0.0
  0
POINT
  5
4E4D
  8
DEFPOINTS
 62
     0
 10
209.9921738384096
 20
142.1472218948513
 30
0.0
  0
ENDBLK
  5
4E27
  8
0
  0
BLOCK
  8
0
  2
*D26
 70
     1
 10
0.0
 20
0.0
 30
0.0
  3
*D26
  1

  0
LINE
  5
4E78
  8
AM_5
  6
CONTINUOUS
 62
     7
 10
228.99217383840971
 20
127.2531698157882
 30
0.0
 11
228.99217383840971
 21
150.1472218948513
 31
0.0
  0
LINE
  5
4E79
  8
AM_5
  6
CONTINUOUS
 62
     7
 10
152.99217383841
 20
127.2531698157882
 30
0.0
 11
152.99217383841
 21
150.1472218948513
 31
0.0
  0
LINE
  5
4E7A
  8
AM_5
  6
CONTINUOUS
 62
     7
 10
226.49217383840971
 20
149.1472218948513
 30
0.0
 11
155.49217383841
 21
149.1472218948513
 31
0.0
  0
INSERT
  5
4E7B
  8
AM_5
 62
     7
  2
_OPEN30
 10
228.99217383840971
 20
149.1472218948513
 30
0.0
 41
2.5
 42
2.5
 43
2.5
  0
INSERT
  5
4E7C
  8
AM_5
 62
     7
  2
_OPEN30
 10
152.99217383841
 20
149.1472218948513
 30
0.0
 41
2.5
 42
2.5
 43
2.5
 50
180.0
  0
INSERT
  5
4E7D
  8
0
  2
*U37
 10
0.0
 20
0.0
 30
0.0
  0
POINT
  5
4E7E
  8
DEFPOINTS
 62
     0
 10
228.99217383840971
 20
126.2531698157882
 30
0.0
  0
POINT
  5
4E7F
  8
DEFPOINTS
 62
     0
 10
152.99217383841
 20
126.2531698157882
 30
0.0
  0
POINT
  5
4E80
  8
DEFPOINTS
 62
     0
 10
152.99217383841
 20
149.1472218948513
 30
0.0
  0
ENDBLK
  5
4E51
  8
0
  0
BLOCK
  8
0
  2
*D27
 70
     1
 10
0.0
 20
0.0
 30
0.0
  3
*D27
  1

  0
LINE
  5
4EA4
  8
AM_5
  6
CONTINUOUS
 62
     7
 10
257.92156133313023
 20
68.877625397840461
 30
0.0
 11
271.92156133313023
 21
68.877625397840461
 31
0.0
  0
LINE
  5
4EA5
  8
AM_5
  6
CONTINUOUS
 62
     7
 10
257.92156133313023
 20
108.8776253976077
 30
0.0
 11
271.92156133313023
 21
108.8776253976077
 31
0.0
  0
LINE
  5
4EA6
  8
AM_5
  6
CONTINUOUS
 62
     7
 10
270.92156133313023
 20
71.377625397840461
 30
0.0
 11
270.92156133313023
 21
106.3776253976077
 31
0.0
  0
INSERT
  5
4EA7
  8
AM_5
 62
     7
  2
_OPEN30
 10
270.92156133313023
 20
68.877625397840461
 30
0.0
 41
2.5
 42
2.5
 43
2.5
 50
270.0
  0
INSERT
  5
4EA8
  8
AM_5
 62
     7
  2
_OPEN30
 10
270.92156133313023
 20
108.8776253976077
 30
0.0
 41
2.5
 42
2.5
 43
2.5
 50
90.0
  0
INSERT
  5
4EA9
  8
0
  2
*U38
 10
0.0
 20
0.0
 30
0.0
  0
POINT
  5
4EAA
  8
DEFPOINTS
 62
     0
 10
256.92156133313023
 20
68.877625397840461
 30
0.0
  0
POINT
  5
4EAB
  8
DEFPOINTS
 62
     0
 10
256.92156133313023
 20
108.8776253976077
 30
0.0
  0
POINT
  5
4EAC
  8
DEFPOINTS
 62
     0
 10
270.92156133313023
 20
108.8776253976077
 30
0.0
  0
ENDBLK
  5
4E86
  8
0
  0
BLOCK
  8
0
  2
*D28
 70
     1
 10
0.0
 20
0.0
 30
0.0
  3
*D28
  1

  0
LINE
  5
4EC5
  8
AM_5
  6
CONTINUOUS
 62
     7
 10
229.99217383840971
 20
62.253169815787977
 30
0.0
 11
278.92156133313028
 21
62.25316981578797
 31
0.0
  0
LINE
  5
4EC6
  8
AM_5
  6
CONTINUOUS
 62
     7
 10
229.99217383840971
 20
116.2531698157881
 30
0.0
 11
278.92156133313028
 21
116.2531698157881
 31
0.0
  0
LINE
  5
4EC7
  8
AM_5
  6
CONTINUOUS
 62
     7
 10
277.92156133313028
 20
64.75316981578797
 30
0.0
 11
277.92156133313028
 21
113.7531698157881
 31
0.0
  0
INSERT
  5
4EC8
  8
AM_5
 62
     7
  2
_OPEN30
 10
277.92156133313028
 20
62.25316981578797
 30
0.0
 41
2.5
 42
2.5
 43
2.5
 50
270.0
  0
INSERT
  5
4EC9
  8
AM_5
 62
     7
  2
_OPEN30
 10
277.92156133313028
 20
116.2531698157881
 30
0.0
 41
2.5
 42
2.5
 43
2.5
 50
90.0
  0
INSERT
  5
4ECA
  8
0
  2
*U39
 10
0.0
 20
0.0
 30
0.0
  0
POINT
  5
4ECB
  8
DEFPOINTS
 62
     0
 10
228.99217383840971
 20
62.253169815787977
 30
0.0
  0
POINT
  5
4ECC
  8
DEFPOINTS
 62
     0
 10
228.99217383840971
 20
116.2531698157881
 30
0.0
  0
POINT
  5
4ECD
  8
DEFPOINTS
 62
     0
 10
277.92156133313028
 20
116.2531698157881
 30
0.0
  0
ENDBLK
  5
4EB0
  8
0
  0
BLOCK
  8
0
  2
*S30
 70
     1
 10
0.0
 20
0.0
 30
0.0
  3
*S30
  1

  0
LINE
  5
513A
  8
AM_5
  6
CONTINUOUS
 62
     7
 10
276.0547041412284
 20
224.7843371579182
 30
0.0
 11
241.6922139837481
 21
224.7843371579182
 31
0.0
  0
LINE
  5
513B
  8
AM_5
  6
CONTINUOUS
 62
     7
 10
241.6922139837481
 20
224.7843371579182
 30
0.0
 11
225.9519196505353
 21
204.9767027615805
 31
0.0
  0
LINE
  5
513C
  8
AM_5
  6
CONTINUOUS
 62
     7
 10
225.9519196505353
 20
204.9767027615805
 30
0.0
 11
223.992173838322
 21
202.51055265432569
 31
0.0
  0
LINE
  5
513D
  8
AM_5
  6
CONTINUOUS
 62
     7
 10
225.62724483093839
 20
205.23470819124361
 30
0.0
 11
223.992173838322
 21
202.51055265432569
 31
0.0
  0
LINE
  5
513E
  8
AM_5
  6
CONTINUOUS
 62
     7
 10
223.992173838322
 20
202.51055265432569
 30
0.0
 11
226.27659447013221
 21
204.7186973319173
 31
0.0
  0
INSERT
  5
513F
  8
0
  2
*U48
 10
0.0
 20
0.0
 30
0.0
  0
ENDBLK
  5
5141
  8
0
  0
BLOCK
  8
0
  2
*S31
 70
     1
 10
0.0
 20
0.0
 30
0.0
  3
*S31
  1

  0
LINE
  5
5144
  8
AM_5
  6
CONTINUOUS
 62
     7
 10
139.1098768555261
 20
124.91821133675739
 30
0.0
 11
145.1998768555261
 21
124.91821133675739
 31
0.0
  0
LINE
  5
5145
  8
AM_5
  6
CONTINUOUS
 62
     7
 10
145.1998768555261
 20
124.91821133675739
 30
0.0
 11
150.2440518250333
 21
120.1925126615774
 31
0.0
  0
LINE
  5
5146
  8
AM_5
  6
CONTINUOUS
 62
     7
 10
150.2440518250333
 20
120.1925126615774
 30
0.0
 11
152.54282502748691
 21
118.0388781141946
 31
0.0
  0
LINE
  5
5147
  8
AM_5
  6
CONTINUOUS
 62
     7
 10
149.96052045924489
 20
119.8898734294377
 30
0.0
 11
152.54282502748691
 21
118.0388781141946
 31
0.0
  0
LINE
  5
5148
  8
AM_5
  6
CONTINUOUS
 62
     7
 10
152.54282502748691
 20
118.0388781141946
 30
0.0
 11
150.5275831908217
 21
120.49515189371721
 31
0.0
  0
INSERT
  5
5149
  8
0
  2
*U49
 10
0.0
 20
0.0
 30
0.0
  0
ENDBLK
  5
514B
  8
0
  0
BLOCK
  8
0
  2
*S32
 70
     1
 10
0.0
 20
0.0
 30
0.0
  3
*S32
  1

  0
LINE
  5
514E
  8
AM_5
  6
CONTINUOUS
 62
     7
 10
86.533433560599846
 20
72.552408079573752
 30
0.0
 11
124.4909335605998
 21
72.552408079573752
 31
0.0
  0
LINE
  5
514F
  8
AM_5
  6
CONTINUOUS
 62
     7
 10
124.4909335605998
 20
72.552408079573752
 30
0.0
 11
133.71266010743409
 21
85.048759301556814
 31
0.0
  0
LINE
  5
5150
  8
AM_5
  6
CONTINUOUS
 62
     7
 10
133.71266010743409
 20
85.048759301556814
 30
0.0
 11
135.58306233599251
 21
87.583339247702497
 31
0.0
  0
LINE
  5
5151
  8
AM_5
  6
CONTINUOUS
 62
     7
 10
134.0463438861903
 20
84.802516177772745
 30
0.0
 11
135.58306233599251
 21
87.583339247702497
 31
0.0
  0
LINE
  5
5152
  8
AM_5
  6
CONTINUOUS
 62
     7
 10
135.58306233599251
 20
87.583339247702497
 30
0.0
 11
133.37897632867791
 21
85.295002425340897
 31
0.0
  0
INSERT
  5
5153
  8
0
  2
*U50
 10
0.0
 20
0.0
 30
0.0
  0
ENDBLK
  5
5155
  8
0
  0
BLOCK
  8
0
  2
*S33
 70
     1
 10
0.0
 20
0.0
 30
0.0
  3
*S33
  1

  0
LINE
  5
5158
  8
AM_5
  6
CONTINUOUS
 62
     7
 10
243.67555229573651
 20
125.14651768245319
 30
0.0
 11
235.69555229573641
 21
125.14651768245319
 31
0.0
  0
LINE
  5
5159
  8
AM_5
  6
CONTINUOUS
 62
     7
 10
235.69555229573641
 20
125.14651768245319
 30
0.0
 11
231.6221973001895
 21
121.49496270630959
 31
0.0
  0
LINE
  5
515A
  8
AM_5
  6
CONTINUOUS
 62
     7
 10
231.6221973001895
 20
121.49496270630959
 30
0.0
 11
229.27668379987611
 21
119.3923294953459
 31
0.0
  0
LINE
  5
515B
  8
AM_5
  6
CONTINUOUS
 62
     7
 10
231.34538038769099
 20
121.8037554153731
 30
0.0
 11
229.27668379987611
 21
119.3923294953459
 31
0.0
  0
LINE
  5
515C
  8
AM_5
  6
CONTINUOUS
 62
     7
 10
229.27668379987611
 20
119.3923294953459
 30
0.0
 11
231.899014212688
 21
121.1861699972461
 31
0.0
  0
INSERT
  5
515D
  8
0
  2
*U51
 10
0.0
 20
0.0
 30
0.0
  0
ENDBLK
  5
515F
  8
0
  0
BLOCK
  8
0
  2
*S34
 70
     1
 10
0.0
 20
0.0
 30
0.0
  3
*S34
  1

  0
LINE
  5
5162
  8
AM_5
  6
CONTINUOUS
 62
     7
 10
274.45425721182301
 20
46.232266531191719
 30
0.0
 11
245.4467670543427
 21
46.232266531191719
 31
0.0
  0
LINE
  5
5163
  8
AM_5
  6
CONTINUOUS
 62
     7
 10
245.4467670543427
 20
46.232266531191719
 30
0.0
 11
233.79935127695791
 21
63.759139071655632
 31
0.0
  0
LINE
  5
5164
  8
AM_5
  6
CONTINUOUS
 62
     7
 10
233.79935127695791
 20
63.759139071655632
 30
0.0
 11
232.0558989973733
 21
66.382662303649454
 31
0.0
  0
LINE
  5
5165
  8
AM_5
  6
CONTINUOUS
 62
     7
 10
234.14474466138739
 20
63.988668917663283
 30
0.0
 11
232.0558989973733
 21
66.382662303649454
 31
0.0
  0
LINE
  5
5166
  8
AM_5
  6
CONTINUOUS
 62
     7
 10
232.0558989973733
 20
66.382662303649454
 30
0.0
 11
233.45395789252839
 21
63.529609225647981
 31
0.0
  0
INSERT
  5
5167
  8
0
  2
*U52
 10
0.0
 20
0.0
 30
0.0
  0
ENDBLK
  5
5169
  8
0
  0
BLOCK
  8
0
  2
*U35
 70
     1
 10
0.0
 20
0.0
 30
0.0
  3
*U35
  1

  0
TEXT
  5
51C3
  8
AM_5
 62
     7
 10
178.63503098126699
 20
266.96380219388948
 30
0.0
 40
3.0
  1
56
  0
ENDBLK
  5
51C5
  8
0
  0
BLOCK
  8
0
  2
*U36
 70
     1
 10
0.0
 20
0.0
 30
0.0
  3
*U36
  1

  0
TEXT
  5
51DE
  8
AM_5
 62
     7
 10
217.4207452669811
 20
143.1472218948513
 30
0.0
 40
3.0
  1
19
  0
ENDBLK
  5
51E0
  8
0
  0
BLOCK
  8
0
  2
*U37
 70
     1
 10
0.0
 20
0.0
 30
0.0
  3
*U37
  1

  0
TEXT
  5
51E2
  8
AM_5
 62
     7
 10
186.63503098126699
 20
151.14722189485121
 30
0.0
 40
3.0
  1
(76)
  0
ENDBLK
  5
51E4
  8
0
  0
BLOCK
  8
0
  2
*U38
 70
     1
 10
0.0
 20
0.0
 30
0.0
  3
*U38
  1

  0
TEXT
  5
51E6
  8
AM_5
 62
     7
 10
269.92156133313023
 20
86.449053969152686
 30
0.0
 40
3.0
  1
40
 50
90.0
  0
ENDBLK
  5
51E8
  8
0
  0
BLOCK
  8
0
  2
*U39
 70
     1
 10
0.0
 20
0.0
 30
0.0
  3
*U39
  1

  0
TEXT
  5
51EA
  8
AM_5
 62
     7
 10
276.92156133313028
 20
86.753169815788084
 30
0.0
 40
3.0
  1
54
 50
90.0
  0
ENDBLK
  5
51EC
  8
0
  0
BLOCK
  8
0
  2
*U40
 70
     1
 10
0.0
 20
0.0
 30
0.0
  3
*U40
  1

  0
TEXT
  5
51EE
  8
AM_5
 62
     7
 10
119.73330775154859
 20
198.7248383686115
 30
0.0
 40
3.0
  1
\U+220545
 50
90.0
  0
ENDBLK
  5
51F0
  8
0
  0
BLOCK
  8
0
  2
*U41
 70
     1
 10
0.0
 20
0.0
 30
0.0
  3
*U41
  1

  0
TEXT
  5
51F2
  8
AM_5
 62
     7
 10
165.99217383840971
 20
178.98164375929241
 30
0.0
 40
3.0
  1
28
 50
90.0
  0
ENDBLK
  5
51F4
  8
0
  0
BLOCK
  8
0
  2
*U42
 70
     1
 10
0.0
 20
0.0
 30
0.0
  3
*U42
  1

  0
TEXT
  5
51F6
  8
AM_5
 62
     7
 10
154.49217383840991
 20
240.01055265432581
 30
0.0
 40
3.0
  1
5
  0
ENDBLK
  5
51F8
  8
0
  0
BLOCK
  8
0
  2
*U43
 70
     1
 10
0.0
 20
0.0
 30
0.0
  3
*U43
  1

  0
TEXT
  5
51FA
  8
AM_5
 62
     7
 10
178.63503098126691
 20
247.1874268714831
 30
0.0
 40
3.0
  1
56
  0
ENDBLK
  5
51FC
  8
0
  0
BLOCK
  8
0
  2
*U44
 70
     1
 10
0.0
 20
0.0
 30
0.0
  3
*U44
  1

  0
TEXT
  5
51FE
  8
AM_5
 62
     7
 10
185.13503098126699
 20
254.18742687148409
 30
0.0
 40
3.0
  1
69
  0
ENDBLK
  5
5200
  8
0
  0
BLOCK
  8
0
  2
*U45
 70
     1
 10
0.0
 20
0.0
 30
0.0
  3
*U45
  1

  0
TEXT
  5
5202
  8
AM_5
 62
     7
 10
188.63503098126691
 20
261.18742687148477
 30
0.0
 40
3.0
  1
76
  0
ENDBLK
  5
5204
  8
0
  0
BLOCK
  8
0
  2
*U46
 70
     1
 10
0.0
 20
0.0
 30
0.0
  3
*U46
  1

  0
TEXT
  5
5206
  8
AM_5
 62
     7
 10
244.3938229029163
 20
201.5819812257543
 30
0.0
 40
3.0
  1
9
 50
90.0
  0
ENDBLK
  5
5208
  8
0
  0
BLOCK
  8
0
  2
*U47
 70
     1
 10
0.0
 20
0.0
 30
0.0
  3
*U47
  1

  0
TEXT
  5
520A
  8
AM_5
 62
     7
 10
251.3938229029163
 20
200.08198122575439
 30
0.0
 40
3.0
  1
20
 50
90.0
  0
ENDBLK
  5
520C
  8
0
  0
BLOCK
  8
0
  2
*U48
 70
     1
 10
0.0
 20
0.0
 30
0.0
  3
*U48
  1

  0
TEXT
  5
520E
  8
AM_5
 62
     7
 10
244.44970414122841
 20
226.35933715791819
 30
0.0
 40
3.149999999999999
  1
2-\U+22054.5\U+00D7\U+22058.5皿孔
  7
ACJISTS
  0
ENDBLK
  5
5210
  8
0
  0
BLOCK
  8
0
  2
*U49
 70
     1
 10
0.0
 20
0.0
 30
0.0
  3
*U49
  1

  0
TEXT
  5
5212
  8
AM_5
 62
     7
 10
139.1098768555261
 20
126.4932113367574
 30
0.0
 40
3.149999999999999
  1
壁
  7
ACJISTS
  0
ENDBLK
  5
5214
  8
0
  0
BLOCK
  8
0
  2
*U50
 70
     1
 10
0.0
 20
0.0
 30
0.0
  3
*U50
  1

  0
TEXT
  5
5216
  8
AM_5
 62
     7
 10
86.060933560599835
 20
74.127408079573755
 30
0.0
 40
3.149999999999999
  1
W3/8オールアンカー
  7
ACJISTS
  0
ENDBLK
  5
5218
  8
0
  0
BLOCK
  8
0
  2
*U51
 70
     1
 10
0.0
 20
0.0
 30
0.0
  3
*U51
  1

  0
TEXT
  5
521A
  8
AM_5
 62
     7
 10
237.3755522957365
 20
126.7215176824532
 30
0.0
 40
3.149999999999999
  1
ドア
  7
ACJISTS
  0
ENDBLK
  5
521C
  8
0
  0
BLOCK
  8
0
  2
*U52
 70
     1
 10
0.0
 20
0.0
 30
0.0
  3
*U52
  1

  0
TEXT
  5
521E
  8
AM_5
 62
     7
 10
248.20425721182301
 20
53.057266531191729
 30
0.0
 40
3.149999999999999
  1
2-オールプラグ
  7
ACJISTS
  0
TEXT
  5
521F
  8
AM_5
 62
     7
 10
246.70676705434269
 20
47.807266531191729
 30
0.0
 40
3.149999999999999
  1
（PL-8C）
  7
ACJISTS
  0
ENDBLK
  5
5221
  8
0
  0
ENDSEC
  0
SECTION
  2
ENTITIES
  0
INSERT
  5
1BB5
  8
0
  2
ZUWAKU-A3H
 10
0.0
 20
0.0
 30
0.0
1001
GENIUS_GENOREF_13
1005
1C93
1001
GENIUS_GENOBJ-N-SDF_13
1002
{
1000
OWNER
1000
GEN
1002
}
1001
GENIUS_GENODEF_13
1002
{
1000
HIER
1070
     0
1002
}
1002
{
1000
MANEDIT
1070
     0
1002
}
1002
{
1000
NOSEL
1070
     0
1002
}
1002
{
1000
BEHIND
1070
     0
1002
}
1002
{
1000
OTHER
1070
     0
1002
}
1002
{
1000
REACTOR
1002
}
1001
GENIUS_GENSCREG_13
1040
1.0
1040
1.0
1011
24.999999999999979
1021
0.0
1031
0.0
1021
8.9999999999999964
1031
0.0
1011
411.99999999999989
1021
0.0
1031
0.0
1021
284.99999999999989
1031
0.0
1070
     3
  0
POINT
  5
1C93
  8
0
 10
0.0
 20
0.0
 30
0.0
1001
GENIUS_GENOENT_13
1002
{
1000
MYREF
1005
1C93
1002
}
1002
{
1000
GRP
1005
0
1002
}
1001
GENIUS_GENOBJ-N-TIT_13
1002
{
1000
OWNER
1000
GEN
1002
}
1001
GENIUS_GENODEF_13
1002
{
1000
HIER
1070
     1
1002
}
1002
{
1000
MANEDIT
1070
     1
1002
}
1002
{
1000
NOSEL
1070
     0
1002
}
1002
{
1000
BEHIND
1070
     0
1002
}
1002
{
1000
OTHER
1070
     0
1002
}
1002
{
1000
REACTOR
1002
}
1001
GENIUS_GENOLIS_13
1002
{
1000
ENT
1005
1BB5
1005
2A9C
1002
}
1001
GENIUS_GENTITLE_13
1002
{
1000
BORDER
1000
C:\Program Files\Autodesk\ACADM 2008\Acadm\gen\Dwg\Format\ZUWAKU-A3H
1002
}
1002
{
1000
TITLE
1000
C:\Program Files\Autodesk\ACADM 2008\Acadm\gen\Dwg\Title\N_Title
1002
}
1002
{
1000
ADDITIONAL1
1000

1002
}
1002
{
1000
ADDITIONAL2
1000

1002
}
1002
{
1000
SCALE
1000
1:1
1002
}
1002
{
1000
TITLESTD
1000
JIS
1002
}
1002
{
1000
HRA
1005
1BB5
1002
}
1002
{
1000
HTIT
1005
2A9C
1002
}
1002
{
1000
GENIUSID
1005
1C93
1002
}
1002
{
1000
INVTXTID
1005
0
1002
}
1002
{
1000
UNCHG
1002
{
1000
GEN-TITLE-SIZ
1000
GEN-TITLE-SCA
1002
}
1002
}
  0
INSERT
  5
20F2
  8
0
 66
     1
  2
A$C1C06296A
 10
135.5000001316065
 20
8.9999998268887005
 30
0.0
  0
ATTRIB
  5
20F3
  8
AM_BOR
 62
     7
 10
249.8107097069896
 20
9.4999999999999893
 30
0.0
 40
3.0
  1

 11
249.8107097069896
 21
10.999999999999989
 31
0.0
  2
SETS｛20｝
 70
     0
 74
     2
1001
AcDbAttr
1070
     0
1070
     1
  0
ATTRIB
  5
20F4
  8
AM_BOR
 62
     7
 10
154.5607097069896
 20
9.4999999999999893
 30
0.0
 40
3.0
  1

 11
154.5607097069896
 21
10.999999999999989
 31
0.0
  2
REMARKS｛20｝
 70
     0
 74
     2
1001
AcDbAttr
1070
     0
1070
     1
  0
ATTRIB
  5
20F5
  8
AM_BOR
 62
     7
 10
249.8107097069896
 20
14.499999999999989
 30
0.0
 40
3.0
  1
PL-8C(2本)
 11
249.8107097069896
 21
15.999999999999989
 31
0.0
  2
SETS｛20｝
 70
     0
 74
     2
1001
AcDbAttr
1070
     0
1070
     1
  0
ATTRIB
  5
20F6
  8
AM_BOR
 62
     7
 10
154.5607097069896
 20
14.499999999999989
 30
0.0
 40
3.0
  1

 11
154.5607097069896
 21
15.999999999999989
 31
0.0
  2
REMARKS｛20｝
 70
     0
 74
     2
1001
AcDbAttr
1070
     0
1070
     1
  0
ATTRIB
  5
20F7
  8
AM_BOR
 62
     7
 10
249.8107097069896
 20
19.499999999999989
 30
0.0
 40
3.0
  1
W3/8オールアンカー（1本）
 11
249.8107097069896
 21
20.999999999999989
 31
0.0
  2
SETS｛20｝
 70
     0
 74
     2
1001
AcDbAttr
1070
     0
1070
     1
  0
ATTRIB
  5
20F8
  8
AM_BOR
 62
     7
 10
154.5607097069896
 20
19.499999999999989
 30
0.0
 40
3.0
  1

 11
154.5607097069896
 21
20.999999999999989
 31
0.0
  2
REMARKS｛20｝
 70
     0
 74
     2
1001
AcDbAttr
1070
     0
1070
     1
  0
ATTRIB
  5
20F9
  8
AM_BOR
 62
     7
 10
249.74999999999969
 20
32.499999999999993
 30
0.0
 40
3.0
  1
DC-545
 11
249.74999999999969
 21
33.999999999999993
 31
0.0
  2
ART_NO｛20｝
 70
     0
 74
     2
1001
AcDbAttr
1070
     0
1070
     1
  0
ATTRIB
  5
20FA
  8
AM_BOR
 62
     7
 10
154.49999999999969
 20
32.499999999999993
 30
0.0
 40
3.0
  1
巾木付け戸当り（木付け用）
 11
154.49999999999969
 21
33.999999999999993
 31
0.0
  2
ARTICLE｛20｝
 70
     0
 74
     2
1001
AcDbAttr
1070
     0
1070
     1
  0
ATTRIB
  5
20FB
  8
AM_BOR
 62
     7
 10
249.74999999999969
 20
25.999999999999989
 30
0.0
 40
3.0
  1
サチライトクロム
 11
249.74999999999969
 21
27.499999999999989
 31
0.0
  2
FINISH｛20｝
 70
     0
 74
     2
1001
AcDbAttr
1070
     0
1070
     1
  0
ATTRIB
  5
20FC
  8
AM_BOR
 62
     7
 10
154.49999999999969
 20
25.999999999999989
 30
0.0
 40
3.0
  1
亜鉛ダイカスト
 11
154.49999999999969
 21
27.499999999999989
 31
0.0
  2
MATERIAK｛20｝
 70
     0
 74
     2
1001
AcDbAttr
1070
     0
1070
     1
  0
SEQEND
  5
20FD
  8
0
  0
LINE
  5
4916
  8
0
 10
157.99217383840991
 20
181.01055265432569
 30
0.0
 11
157.99217383840991
 21
224.01055265432581
 31
0.0
  0
LINE
  5
4917
  8
0
 10
152.99217383840991
 20
180.01055265432569
 30
0.0
 11
152.99217383840991
 21
225.01055265432569
 31
0.0
  0
LINE
  5
4918
  8
0
 10
156.9921738384098
 20
225.01055265432569
 30
0.0
 11
152.9921738384098
 21
225.01055265432589
 31
0.0
  0
ARC
  5
4919
  8
0
 10
156.99217383840991
 20
224.01055265432581
 30
0.0
 40
1.0
 50
0.0
 51
90.0
  0
LINE
  5
491A
  8
0
 10
156.99217383840991
 20
180.01055265432569
 30
0.0
 11
152.99217383840991
 21
180.01055265432569
 31
0.0
  0
ARC
  5
491B
  8
0
 10
156.99217383840991
 20
181.01055265432569
 30
0.0
 40
1.0
 50
270.0
 51
0.0
  0
LINE
  5
491C
  8
0
 10
208.99217383840991
 20
207.6634255659427
 30
0.0
 11
208.99217383840991
 21
197.3576797427088
 31
0.0
  0
ARC
  5
491D
  8
0
 10
159.9921738384098
 20
192.2161639062808
 30
0.0
 40
2.0
 50
96.203447901691135
 51
180.0
  0
ARC
  5
491E
  8
0
 10
159.9921738384098
 20
212.8049414023709
 30
0.0
 40
2.0
 50
180.0
 51
263.7965520983081
  0
LINE
  5
491F
  8
0
 10
180.9921738384098
 20
210.51055265432569
 30
0.0
 11
180.9921738384098
 21
194.51055265432569
 31
0.0
  0
LINE
  5
4920
  8
0
 10
196.9921738384098
 20
210.51055265432569
 30
0.0
 11
196.9921738384098
 21
202.51055265432569
 31
0.0
  0
LINE
  5
4921
  8
0
 10
196.9921738384098
 20
202.51055265432569
 30
0.0
 11
196.9921738384098
 21
194.51055265432569
 31
0.0
  0
LINE
  5
4922
  8
0
 10
180.9921738384098
 20
210.51055265432569
 30
0.0
 11
196.9921738384098
 21
210.51055265432569
 31
0.0
  0
LINE
  5
4923
  8
0
 10
180.9921738384098
 20
194.51055265432569
 30
0.0
 11
196.9921738384098
 21
194.51055265432569
 31
0.0
  0
LINE
  5
4924
  8
0
 10
159.7760554768731
 20
210.81665247623189
 30
0.0
 11
177.2898084762428
 21
208.91298367195259
 31
0.0
  0
LINE
  5
4925
  8
0
 10
177.28980847624271
 20
196.1081216366988
 30
0.0
 11
159.77605547687301
 21
194.20445283241961
 31
0.0
  0
ARC
  5
4926
  8
0
 10
177.95943171662361
 20
212.4500316089532
 30
0.0
 40
3.5998754690542381
 50
259.27980817384019
 51
327.40054368265811
  0
ARC
  5
4927
  8
0
 10
177.9594317166237
 20
192.57107369969839
 30
0.0
 40
3.599875469054107
 50
32.59945631733958
 51
100.7201918261614
  0
LINE
  5
4928
  8
0
 10
196.99217383840991
 20
194.51055265432569
 30
0.0
 11
208.15657282571519
 21
196.3712858188766
 31
0.0
  0
ARC
  5
4929
  8
0
 10
207.9921738384098
 20
197.35767974270871
 30
0.0
 40
1.0
 50
279.4623222080258
 51
0.0
  0
LINE
  5
492A
  8
0
 10
208.1565728257153
 20
208.6498194897749
 30
0.0
 11
196.99217383840991
 21
210.51055265432569
 31
0.0
  0
ARC
  5
492B
  8
0
 10
207.9921738384098
 20
207.6634255659427
 30
0.0
 40
1.0
 50
0.0
 51
80.537677791974204
  0
LINE
  5
492C
  8
0
 10
183.4921738384098
 20
188.51055265432561
 30
0.0
 11
214.5779602760368
 21
188.51055265432561
 31
0.0
  0
LINE
  5
492D
  8
0
 10
183.4921738384098
 20
216.51055265432569
 30
0.0
 11
214.5779602760368
 21
216.51055265432569
 31
0.0
  0
LINE
  5
492E
  8
0
 10
184.9921738384098
 20
211.2055526543258
 30
0.0
 11
184.99217383840971
 21
210.51055265432569
 31
0.0
  0
ARC
  5
492F
  8
0
 10
184.69217383840979
 20
211.20555265432591
 30
0.0
 40
0.3
 50
0.0
 51
90.0
  0
LINE
  5
4930
  8
0
 10
188.9921738384098
 20
211.2055526543258
 30
0.0
 11
188.99217383840991
 21
210.51055265432569
 31
0.0
  0
ARC
  5
4931
  8
0
 10
189.29217383840981
 20
211.2055526543258
 30
0.0
 40
0.3
 50
90.0
 51
180.0
  0
LINE
  5
4932
  8
0
 10
188.9921738384098
 20
194.51055265432569
 30
0.0
 11
188.99217383840991
 21
193.8155526543257
 31
0.0
  0
ARC
  5
4933
  8
0
 10
189.29217383840989
 20
193.8155526543257
 30
0.0
 40
0.3
 50
180.0
 51
270.0
  0
LINE
  5
4934
  8
0
 10
184.99217383840991
 20
194.51055265432561
 30
0.0
 11
184.99217383840991
 21
193.81555265432559
 31
0.0
  0
ARC
  5
4935
  8
0
 10
184.69217383840979
 20
193.8155526543257
 30
0.0
 40
0.3
 50
270.0
 51
0.0
  0
LINE
  5
4936
  8
0
 10
182.99217383840991
 20
193.02055265432571
 30
0.0
 11
182.99217383840991
 21
189.01055265432569
 31
0.0
  0
ARC
  5
4937
  8
0
 10
183.4921738384098
 20
189.01055265432569
 30
0.0
 40
0.5
 50
180.0
 51
270.0
  0
LINE
  5
4938
  8
0
 10
182.9921738384098
 20
216.01055265432581
 30
0.0
 11
182.9921738384098
 21
212.0005526543257
 31
0.0
  0
ARC
  5
4939
  8
0
 10
183.4921738384098
 20
216.01055265432581
 30
0.0
 40
0.5
 50
90.0
 51
180.0
  0
LINE
  5
493A
  8
0
 10
183.4871738384098
 20
211.50555265432581
 30
0.0
 11
213.12821280773099
 21
211.50555265432581
 31
0.0
  0
ARC
  5
493B
  8
0
 10
183.4871738384098
 20
212.0005526543257
 30
0.0
 40
0.4950000000000001
 50
180.0
 51
270.0
  0
LINE
  5
493C
  8
0
 10
183.4871738384098
 20
193.51555265432569
 30
0.0
 11
213.12821280773099
 21
193.51555265432569
 31
0.0
  0
ARC
  5
493D
  8
0
 10
183.4871738384098
 20
193.02055265432571
 30
0.0
 40
0.4950000000000001
 50
90.0
 51
180.0
  0
LINE
  5
493E
  8
0
 10
215.28506705722339
 20
188.8034458731392
 30
0.0
 11
221.99217383840991
 21
195.51055265432561
 31
0.0
  0
ARC
  5
493F
  8
0
 10
214.5779602760368
 20
189.51055265432569
 30
0.0
 40
1.0
 50
270.0
 51
314.99999999999949
  0
ARC
  5
4940
  8
0
 10
214.5779602760368
 20
215.51055265432581
 30
0.0
 40
1.0
 50
45.000000000000483
 51
90.0
  0
LINE
  5
4941
  8
0
 10
216.98717383840989
 20
207.64659162364671
 30
0.0
 11
216.98717383840989
 21
197.37451368500459
 31
0.0
  0
LINE
  5
4942
  8
0
 10
213.47823066441831
 20
211.36057051101301
 30
0.0
 11
216.84219169509731
 21
207.996609480334
 31
0.0
  0
ARC
  5
4943
  8
0
 10
216.49217383840991
 20
207.64659162364671
 30
0.0
 40
0.4950000000000001
 50
0.0
 51
44.999999999999339
  0
ARC
  5
4944
  8
0
 10
213.12821280773099
 20
211.01055265432569
 30
0.0
 40
0.4950000000000001
 50
44.999999999999339
 51
90.0
  0
LINE
  5
4945
  8
0
 10
216.84219169509731
 20
197.0244958283173
 30
0.0
 11
213.47823066441839
 21
193.66053479763849
 31
0.0
  0
ARC
  5
4946
  8
0
 10
216.49217383840991
 20
197.37451368500459
 30
0.0
 40
0.4950000000000001
 50
315.00000000000063
 51
0.0
  0
ARC
  5
4947
  8
0
 10
213.12821280773099
 20
194.01055265432561
 30
0.0
 40
0.4950000000000001
 50
270.0
 51
314.99999999999949
  0
LINE
  5
4948
  8
0
 10
215.28506705722339
 20
216.21765943551219
 30
0.0
 11
221.99217383840991
 21
209.51055265432581
 31
0.0
  0
LINE
  5
4949
  8
0
 10
221.99217383840991
 20
195.51055265432561
 30
0.0
 11
221.99217383840991
 21
209.51055265432581
 31
0.0
  0
LINE
  5
494F
  8
AM_7
 10
316.92980799125462
 20
202.51055265432569
 30
0.0
 11
367.92980799125542
 21
202.51055265432569
 31
0.0
  0
LINE
  5
4950
  8
0
 10
342.42980799125741
 20
216.51055265432569
 30
0.0
 11
345.4647074879598
 21
216.40457162857081
 31
0.0
  0
ARC
  5
4951
  8
0
 10
345.42980799125752
 20
215.40518080155181
 30
0.0
 40
1.0
 50
0.0
 51
87.999999999999588
  0
LINE
  5
4952
  8
0
 10
342.42980799125769
 20
216.51055265432581
 30
0.0
 11
339.39490849455512
 21
216.40457162857081
 31
0.0
  0
ARC
  5
4953
  8
0
 10
339.42980799125752
 20
215.40518080155181
 30
0.0
 40
1.0
 50
92.000000000000426
 51
180.0
  0
LINE
  5
4954
  8
0
 10
342.42980799125672
 20
188.51055265432569
 30
0.0
 11
345.46470748795917
 21
188.61653368008061
 31
0.0
  0
ARC
  5
4955
  8
0
 10
345.42980799125689
 20
189.61592450709969
 30
0.0
 40
1.0
 50
271.99999999999949
 51
0.0
  0
LINE
  5
4956
  8
0
 10
342.42980799125678
 20
188.51055265432561
 30
0.0
 11
339.39490849455439
 21
188.61653368008061
 31
0.0
  0
ARC
  5
4957
  8
0
 10
339.42980799125689
 20
189.61592450709969
 30
0.0
 40
1.0
 50
179.99999999999511
 51
267.9999999999996
  0
LINE
  5
4958
  8
0
 10
338.42980799125678
 20
189.61592450709981
 30
0.0
 11
338.42980799125752
 21
215.40518080155181
 31
0.0
  0
LINE
  5
4959
  8
0
 10
346.42980799125678
 20
189.61592450709961
 30
0.0
 11
346.42980799125752
 21
215.40518080155181
 31
0.0
  0
ARC
  5
495A
  8
0
 10
342.42980799125507
 20
202.51055265432569
 30
0.0
 40
8.0
 50
119.7448812969422
 51
239.9999999999998
  0
LINE
  5
495B
  8
AM_7
 10
342.42980799125507
 20
177.01055265432521
 30
0.0
 11
342.42980799125507
 21
228.01055265432601
 31
0.0
  0
CIRCLE
  5
495C
  8
0
 10
342.42980799125507
 20
202.51055265432569
 30
0.0
 40
22.50000000000038
  0
ARC
  5
495E
  8
0
 10
342.42980799125507
 20
202.51055265432569
 30
0.0
 40
8.0000000000000782
 50
299.99999999999932
 51
60.000000000000732
  0
LINE
  5
495F
  8
AM_2
 10
228.99217383840971
 20
116.2531698157881
 30
0.0
 11
228.99217383840971
 21
126.2531698157882
 31
0.0
  0
LINE
  5
4963
  8
0
 10
184.0975456911838
 20
94.877625397832503
 30
0.0
 11
190.9921738384096
 21
94.877625397832503
 31
0.0
  0
LINE
  5
4964
  8
0
 10
184.09754569118371
 20
86.877625397832588
 30
0.0
 11
190.9921738384096
 21
86.877625397832588
 31
0.0
  0
LINE
  5
4965
  8
0
 10
190.99217383840991
 20
94.877625397832702
 30
0.0
 11
220.9527750360736
 21
93.911154391456364
 31
0.0
  0
LINE
  5
4966
  8
0
 10
220.95277503607349
 20
87.844096404208884
 30
0.0
 11
190.99217383840991
 21
86.877625397832588
 31
0.0
  0
LINE
  5
4967
  8
0
 10
221.91992456908139
 20
92.946573773818997
 30
0.0
 11
221.99217383840951
 21
90.877625397832503
 31
0.0
  0
ARC
  5
4968
  8
0
 10
220.9205337420623
 20
92.911674277116589
 30
0.0
 40
1.0
 50
1.999999999999571
 51
88.152389734005368
  0
LINE
  5
4969
  8
0
 10
221.99217383840971
 20
90.877625397832588
 30
0.0
 11
221.9199245690815
 21
88.808677021845881
 31
0.0
  0
ARC
  5
496A
  8
0
 10
220.9205337420623
 20
88.843576518548502
 30
0.0
 40
1.0
 50
271.8476102659946
 51
358.0000000000004
  0
LINE
  5
496B
  8
0
 10
182.99217383840991
 20
90.877625397832503
 30
0.0
 11
183.0981548641648
 21
87.842725901130095
 31
0.0
  0
ARC
  5
496C
  8
0
 10
184.09754569118371
 20
87.877625397832489
 30
0.0
 40
1.0
 50
181.9999999999996
 51
270.0
  0
LINE
  5
496D
  8
0
 10
182.99217383840971
 20
90.877625397832503
 30
0.0
 11
183.09815486416471
 21
93.912524894535096
 31
0.0
  0
ARC
  5
496E
  8
0
 10
184.0975456911838
 20
93.877625397832574
 30
0.0
 40
1.0
 50
90.0
 51
177.9999999999996
  0
LINE
  5
496F
  8
0
 10
214.99217383840991
 20
93.458266733403093
 30
0.0
 11
214.99217383840991
 21
88.153710775527998
 31
0.0
  0
LINE
  5
4970
  8
0
 10
157.99217383840971
 20
69.377625397832588
 30
0.0
 11
157.99217383840971
 21
112.3776253978324
 31
0.0
  0
LINE
  5
4971
  8
0
 10
152.99217383840971
 20
68.377625397832588
 30
0.0
 11
152.99217383840971
 21
113.3776253978326
 31
0.0
  0
LINE
  5
4972
  8
AM_7
 10
231.49217383828091
 20
90.877625397832361
 30
0.0
 11
103.0391738384096
 21
90.877625397832503
 31
0.0
  0
LINE
  5
4973
  8
0
 10
156.9921738384096
 20
113.3776253978323
 30
0.0
 11
152.9921738384096
 21
113.3776253978324
 31
0.0
  0
ARC
  5
4974
  8
0
 10
156.99217383840971
 20
112.3776253978324
 30
0.0
 40
1.0
 50
0.0
 51
90.0
  0
LINE
  5
4975
  8
0
 10
156.99217383840971
 20
68.377625397832588
 30
0.0
 11
152.99217383840971
 21
68.377625397832588
 31
0.0
  0
ARC
  5
4976
  8
0
 10
156.99217383840971
 20
69.377625397832588
 30
0.0
 40
1.0
 50
270.0
 51
0.0
  0
LINE
  5
4977
  8
0
 10
208.99217383840971
 20
96.030498309449655
 30
0.0
 11
208.99217383840971
 21
94.264722172026097
 31
0.0
  0
LINE
  5
4978
  8
0
 10
208.99217383840971
 20
87.490528623638994
 30
0.0
 11
208.99217383840971
 21
85.724752486215479
 31
0.0
  0
LINE
  5
497B
  8
0
 10
180.9921738384096
 20
98.877625397832503
 30
0.0
 11
180.9921738384096
 21
82.877625397832489
 31
0.0
  0
LINE
  5
497C
  8
0
 10
196.9921738384096
 20
98.877625397832603
 30
0.0
 11
196.9921738384096
 21
94.684077010735763
 31
0.0
  0
LINE
  5
497D
  8
0
 10
196.9921738384096
 20
87.071173784929272
 30
0.0
 11
196.9921738384096
 21
82.877625397832489
 31
0.0
  0
LINE
  5
4982
  8
0
 10
228.99217383840971
 20
116.2531698157882
 30
0.0
 11
228.99217383840971
 21
62.253169815787977
 31
0.0
  0
LINE
  5
4983
  8
0
 10
223.99217383840951
 20
115.2531698157881
 30
0.0
 11
223.99217383840951
 21
63.253169815788098
 31
0.0
  0
LINE
  5
4984
  8
0
 10
224.99217383840971
 20
62.253169815787977
 30
0.0
 11
228.99217383840971
 21
62.253169815787977
 31
0.0
  0
ARC
  5
4985
  8
0
 10
224.99217383840971
 20
63.253169815788098
 30
0.0
 40
1.0
 50
180.0
 51
270.0
  0
LINE
  5
4986
  8
0
 10
224.99217383840971
 20
116.2531698157882
 30
0.0
 11
228.99217383840971
 21
116.2531698157882
 31
0.0
  0
ARC
  5
4987
  8
0
 10
224.99217383840971
 20
115.2531698157881
 30
0.0
 40
1.0
 50
90.0
 51
180.0
  0
LINE
  5
4988
  8
AM_7
 10
220.49217383828059
 20
68.877625397840461
 30
0.0
 11
231.49217383828079
 21
68.877625397840461
 31
0.0
  0
LINE
  5
4989
  8
AM_7
 10
220.49217383828059
 20
108.8776253976077
 30
0.0
 11
231.49217383828079
 21
108.8776253976077
 31
0.0
  0
LINE
  5
498A
  8
0
 10
222.41123201587141
 20
76.591943063474787
 30
0.0
 11
210.78264474967861
 21
79.083783191944676
 31
0.0
  0
ARC
  5
498B
  8
0
 10
221.99217383840951
 20
74.636338235320096
 30
0.0
 40
2.0
 50
0.0
 51
77.90524292298781
  0
ARC
  5
498C
  8
0
 10
210.9921738384096
 20
80.061585606022192
 30
0.0
 40
1.0
 50
180.0
 51
257.9052429229879
  0
ARC
  5
498D
  8
0
 10
210.9921738384096
 20
93.253169815788198
 30
0.0
 40
5.0
 50
9.4413405391132326
 51
90.0
  0
LINE
  5
498E
  8
0
 10
223.9921738384098
 20
84.637785200403485
 30
0.0
 11
218.3004325911979
 21
85.075611450189001
 31
0.0
  0
ARC
  5
498F
  8
0
 10
218.4921738384096
 20
87.568247663942998
 30
0.0
 40
2.5
 50
180.0
 51
265.60129464500409
  0
ARC
  5
4990
  8
0
 10
210.9921738384096
 20
97.253169815788084
 30
0.0
 40
1.0
 50
90.0
 51
180.0
  0
LINE
  5
4991
  8
0
 10
215.9921738384096
 20
87.568247663942998
 30
0.0
 11
215.9921738384096
 21
87.684077010735749
 31
0.0
  0
LINE
  5
4992
  8
0
 10
180.9921738384096
 20
98.877625397832503
 30
0.0
 11
196.9921738384096
 21
98.877625397832503
 31
0.0
  0
LINE
  5
4993
  8
0
 10
180.9921738384096
 20
82.877625397832489
 30
0.0
 11
196.9921738384096
 21
82.877625397832489
 31
0.0
  0
LINE
  5
4994
  8
0
 10
208.15657282571499
 20
97.016892233281794
 30
0.0
 11
196.9921738384096
 21
98.877625397832603
 31
0.0
  0
LINE
  5
4996
  8
0
 10
196.99217383840951
 20
82.877625397832489
 30
0.0
 11
208.15657282571499
 21
84.738358562383354
 31
0.0
  0
LINE
  5
4998
  8
0
 10
209.9921738384096
 20
87.490528623638994
 30
0.0
 11
209.9921738384096
 21
86.391419152882179
 31
0.0
  0
LINE
  5
4999
  8
0
 10
209.9921738384096
 20
95.36383164278277
 30
0.0
 11
209.9921738384096
 21
94.264722172026097
 31
0.0
  0
LINE
  5
499A
  8
0
 10
209.9921738384096
 20
87.474399591376766
 30
0.0
 11
209.9921738384096
 21
80.061585606022192
 31
0.0
  0
LINE
  5
499B
  8
0
 10
209.9921738384096
 20
97.253169815788084
 30
0.0
 11
209.9921738384096
 21
94.280851204288496
 31
0.0
  0
LINE
  5
499C
  8
AM_1
 10
117.9921738384097
 20
84.877625397832361
 30
0.0
 11
117.9921738384097
 21
90.377625397832347
 31
0.0
  0
LINE
  5
499D
  8
AM_1
 10
105.9921738384097
 20
86.921025171948997
 30
0.0
 11
105.9921738384097
 21
94.834225623716094
 31
0.0
  0
LINE
  5
499E
  8
AM_1
 10
117.9921738384096
 20
87.377625397832361
 30
0.0
 11
106.5336965783366
 21
86.422752292826289
 31
0.0
  0
ARC
  5
499F
  8
AM_1
 10
106.4921738384096
 20
86.921025171948997
 30
0.0
 40
0.5
 50
180.0
 51
274.7636416907261
  0
LINE
  5
49A0
  8
AM_1
 10
117.9921738384096
 20
94.377625397832361
 30
0.0
 11
106.5336965783365
 21
95.332498502838376
 31
0.0
  0
ARC
  5
49A1
  8
AM_1
 10
106.4921738384096
 20
94.834225623716094
 30
0.0
 40
0.5
 50
85.236358309273953
 51
180.0
  0
LINE
  5
49A2
  8
AM_1
 10
133.99217383840971
 20
90.377625397832347
 30
0.0
 11
117.9921738384097
 21
90.377625397832347
 31
0.0
  0
LINE
  5
49A3
  8
AM_1
 10
133.99217383840971
 20
91.377625397832375
 30
0.0
 11
117.9921738384097
 21
91.377625397832375
 31
0.0
  0
LINE
  5
49A4
  8
AM_1
 10
121.9921738384096
 20
90.377625397832347
 30
0.0
 11
121.9921738384096
 21
91.377625397832375
 31
0.0
  0
LINE
  5
49A5
  8
AM_1
 10
119.9921738384097
 20
85.877625397832361
 30
0.0
 11
119.9921738384097
 21
90.377625397832347
 31
0.0
  0
LINE
  5
49A6
  8
AM_1
 10
133.9921738384096
 20
90.377625397832347
 30
0.0
 11
133.9921738384096
 21
91.377625397832375
 31
0.0
  0
LINE
  5
49A7
  8
AM_1
 10
152.9921738384096
 20
84.877625397832361
 30
0.0
 11
127.9921738384097
 21
84.877625397832361
 31
0.0
  0
LINE
  5
49A8
  8
AM_1
 10
152.9921738384096
 20
96.877625397832503
 30
0.0
 11
127.9921738384096
 21
96.877625397832361
 31
0.0
  0
LINE
  5
49A9
  8
AM_1
 10
119.9921738384096
 20
85.877625397832702
 30
0.0
 11
117.9921738384095
 21
84.877625397832588
 31
0.0
  0
LINE
  5
49AA
  8
AM_1
 10
119.9921738384097
 20
84.877625397832361
 30
0.0
 11
119.9921738384097
 21
90.377625397832347
 31
0.0
  0
LINE
  5
49AB
  8
AM_1
 10
121.9921738384096
 20
85.877625397832361
 30
0.0
 11
121.9921738384096
 21
90.377625397832347
 31
0.0
  0
LINE
  5
49AC
  8
AM_1
 10
121.9921738384097
 20
85.877625397832588
 30
0.0
 11
119.9921738384097
 21
84.877625397832588
 31
0.0
  0
LINE
  5
49AD
  8
AM_1
 10
121.9921738384096
 20
84.877625397832361
 30
0.0
 11
121.9921738384096
 21
90.377625397832347
 31
0.0
  0
LINE
  5
49AE
  8
AM_1
 10
123.9921738384097
 20
85.877625397832361
 30
0.0
 11
123.9921738384097
 21
90.377625397832347
 31
0.0
  0
LINE
  5
49AF
  8
AM_1
 10
123.9921738384096
 20
85.877625397832787
 30
0.0
 11
121.9921738384095
 21
84.877625397832702
 31
0.0
  0
LINE
  5
49B0
  8
AM_1
 10
123.9921738384097
 20
84.877625397832361
 30
0.0
 11
123.9921738384097
 21
90.377625397832347
 31
0.0
  0
LINE
  5
49B1
  8
AM_1
 10
125.9921738384097
 20
85.877625397832361
 30
0.0
 11
125.9921738384097
 21
90.377625397832347
 31
0.0
  0
LINE
  5
49B2
  8
AM_1
 10
125.9921738384097
 20
85.877625397832588
 30
0.0
 11
123.9921738384097
 21
84.877625397832588
 31
0.0
  0
LINE
  5
49B3
  8
AM_1
 10
125.9921738384097
 20
84.877625397832361
 30
0.0
 11
125.9921738384097
 21
90.377625397832347
 31
0.0
  0
LINE
  5
49B4
  8
AM_1
 10
127.9921738384096
 20
84.877625397832361
 30
0.0
 11
127.9921738384096
 21
90.377625397832347
 31
0.0
  0
LINE
  5
49B5
  8
AM_1
 10
127.9921738384097
 20
85.877625397832588
 30
0.0
 11
125.9921738384098
 21
84.877625397832503
 31
0.0
  0
LINE
  5
49B6
  8
AM_1
 10
117.9921738384097
 20
96.877625397832361
 30
0.0
 11
117.9921738384097
 21
91.377625397832375
 31
0.0
  0
LINE
  5
49B7
  8
AM_1
 10
119.9921738384097
 20
95.877625397832361
 30
0.0
 11
119.9921738384097
 21
91.377625397832375
 31
0.0
  0
LINE
  5
49B8
  8
AM_1
 10
119.9921738384095
 20
95.877625397832588
 30
0.0
 11
117.9921738384096
 21
96.877625397832503
 31
0.0
  0
LINE
  5
49B9
  8
AM_1
 10
119.9921738384097
 20
96.877625397832361
 30
0.0
 11
119.9921738384097
 21
91.377625397832375
 31
0.0
  0
LINE
  5
49BA
  8
AM_1
 10
121.9921738384096
 20
95.877625397832361
 30
0.0
 11
121.9921738384096
 21
91.377625397832375
 31
0.0
  0
LINE
  5
49BB
  8
AM_1
 10
121.9921738384098
 20
95.877625397832276
 30
0.0
 11
119.9921738384096
 21
96.877625397832361
 31
0.0
  0
LINE
  5
49BC
  8
AM_1
 10
121.9921738384096
 20
96.877625397832361
 30
0.0
 11
121.9921738384096
 21
91.377625397832375
 31
0.0
  0
LINE
  5
49BD
  8
AM_1
 10
123.9921738384097
 20
95.877625397832361
 30
0.0
 11
123.9921738384097
 21
91.377625397832375
 31
0.0
  0
LINE
  5
49BE
  8
AM_1
 10
123.9921738384097
 20
95.877625397832276
 30
0.0
 11
121.9921738384096
 21
96.877625397832503
 31
0.0
  0
LINE
  5
49BF
  8
AM_1
 10
123.9921738384097
 20
96.877625397832361
 30
0.0
 11
123.9921738384097
 21
91.377625397832375
 31
0.0
  0
LINE
  5
49C0
  8
AM_1
 10
125.9921738384097
 20
95.877625397832361
 30
0.0
 11
125.9921738384097
 21
91.377625397832375
 31
0.0
  0
LINE
  5
49C1
  8
AM_1
 10
125.9921738384094
 20
95.877625397832503
 30
0.0
 11
123.9921738384095
 21
96.877625397832588
 31
0.0
  0
LINE
  5
49C2
  8
AM_1
 10
125.9921738384097
 20
96.877625397832361
 30
0.0
 11
125.9921738384097
 21
91.377625397832375
 31
0.0
  0
LINE
  5
49C3
  8
AM_1
 10
127.9921738384096
 20
96.877625397832361
 30
0.0
 11
127.9921738384096
 21
91.377625397832375
 31
0.0
  0
LINE
  5
49C4
  8
AM_1
 10
127.9921738384095
 20
95.877625397832503
 30
0.0
 11
125.9921738384096
 21
96.877625397832503
 31
0.0
  0
LINE
  5
49C5
  8
AM_1
 10
152.99217383840951
 20
95.877625397832361
 30
0.0
 11
145.4921738384096
 21
95.877625397832361
 31
0.0
  0
LINE
  5
49C6
  8
AM_1
 10
152.99217383840951
 20
93.877625397832375
 30
0.0
 11
145.49217383840951
 21
93.877625397832375
 31
0.0
  0
LINE
  5
49C7
  8
AM_1
 10
152.9921738384096
 20
91.877625397832361
 30
0.0
 11
145.4921738384096
 21
91.877625397832361
 31
0.0
  0
LINE
  5
49C8
  8
AM_1
 10
152.9921738384096
 20
89.877625397832361
 30
0.0
 11
145.4921738384096
 21
89.877625397832361
 31
0.0
  0
LINE
  5
49C9
  8
AM_1
 10
152.9921738384096
 20
87.877625397832347
 30
0.0
 11
145.4921738384096
 21
87.877625397832347
 31
0.0
  0
LINE
  5
49CA
  8
AM_1
 10
152.9921738384096
 20
85.877625397832361
 30
0.0
 11
145.4921738384096
 21
85.877625397832361
 31
0.0
  0
LINE
  5
49CB
  8
AM_1
 10
152.9921738384096
 20
84.877625397832361
 30
0.0
 11
127.9921738384097
 21
84.877625397832361
 31
0.0
  0
LINE
  5
49CC
  8
AM_1
 10
145.49217383840971
 20
96.877625397832361
 30
0.0
 11
145.49217383840971
 21
84.877625397832361
 31
0.0
  0
LINE
  5
49CD
  8
AM_2
 10
152.99217383841
 20
113.3776253978324
 30
0.0
 11
152.99217383841
 21
126.2531698157882
 31
0.0
  0
LINE
  5
49CF
  8
AM_1
 10
228.9921738384094
 20
73.077625397840592
 30
0.0
 11
228.99217383840929
 21
64.677625397840472
 31
0.0
  0
LINE
  5
49D0
  8
AM_1
 10
234.79217383840921
 20
69.377625397840461
 30
0.0
 11
234.79217383840921
 21
68.377625397840461
 31
0.0
  0
LINE
  5
49D1
  8
AM_1
 10
250.11252441676061
 20
71.962106800154089
 30
0.0
 11
248.26760145684429
 21
71.954727108314387
 31
0.0
  0
LINE
  5
49D2
  8
AM_1
 10
246.5125659362057
 20
71.947706966231763
 30
0.0
 11
244.667657392313
 21
71.940327332056285
 31
0.0
  0
LINE
  5
49D3
  8
AM_1
 10
242.91263961491731
 20
71.933307260946378
 30
0.0
 11
241.0677149913918
 21
71.925927562452273
 31
0.0
  0
LINE
  5
49D4
  8
AM_1
 10
239.31269721399559
 20
71.918907491342793
 30
0.0
 11
237.49326201480909
 21
71.911629750546084
 31
0.0
  0
LINE
  5
49D5
  8
AM_1
 10
234.79217383840921
 20
71.900825397840379
 30
0.0
 11
228.99217383840929
 21
71.877625397840376
 31
0.0
  0
LINE
  5
49D6
  8
AM_1
 10
236.3321990463817
 20
71.906985498672469
 30
0.0
 11
234.79217383841009
 21
71.900825397840464
 31
0.0
  0
ARC
  5
49D7
  8
AM_1
 10
251.49217383840929
 20
69.467605397920494
 30
0.0
 40
2.5
 50
3.668365409823064
 51
81.127977809495036
  0
LINE
  5
49D8
  8
AM_1
 10
228.99217383840889
 20
65.877625397840475
 30
0.0
 11
234.7921738384089
 21
65.854425397840473
 31
0.0
  0
LINE
  5
49D9
  8
AM_1
 10
234.79217383840961
 20
65.854425397840373
 30
0.0
 11
236.33219904638179
 21
65.848265297008496
 31
0.0
  0
ARC
  5
49DA
  8
AM_1
 10
251.49217383840929
 20
68.287645397760485
 30
0.0
 40
2.5
 50
278.87202219050488
 51
356.33163459017612
  0
LINE
  5
49DB
  8
AM_1
 10
234.7921738384093
 20
68.877625397840461
 30
0.0
 11
228.99217383840929
 21
70.127625397840376
 31
0.0
  0
LINE
  5
49DC
  8
AM_1
 10
228.99217383840929
 20
67.627625397840688
 30
0.0
 11
234.79217383840921
 21
68.877625397840603
 31
0.0
  0
LINE
  5
49DD
  8
AM_1
 10
228.99217383840929
 20
68.877625397840461
 30
0.0
 11
234.79217383840921
 21
68.877625397840461
 31
0.0
  0
LINE
  5
49DE
  8
AM_1
 10
237.81025977061299
 20
69.424500397840461
 30
0.0
 11
236.33219904638111
 21
71.906985498672469
 31
0.0
  0
LINE
  5
49DF
  8
AM_1
 10
238.39217383840901
 20
70.401857403263193
 30
0.0
 11
237.1719916136642
 21
72.451221237623372
 31
0.0
  0
LINE
  5
49E0
  8
AM_1
 10
239.6123560631541
 20
72.451221237623372
 30
0.0
 11
238.39217383840941
 21
70.401857403263278
 31
0.0
  0
LINE
  5
49E1
  8
AM_1
 10
240.1921738384093
 20
71.470343392417391
 30
0.0
 11
238.97408790620531
 21
69.424500397840376
 31
0.0
  0
LINE
  5
49E2
  8
AM_1
 10
241.38704191517911
 20
69.463496075923672
 30
0.0
 11
240.1921738384097
 21
71.470343392417703
 31
0.0
  0
LINE
  5
49E3
  8
AM_1
 10
241.99217383840929
 20
70.401857403263392
 30
0.0
 11
240.77199161366471
 21
72.451221237623486
 31
0.0
  0
LINE
  5
49E4
  8
AM_1
 10
243.21235606315409
 20
72.451221237623372
 30
0.0
 11
241.9921738384096
 21
70.401857403263463
 31
0.0
  0
LINE
  5
49E5
  8
AM_1
 10
243.7921738384097
 20
71.470343392417391
 30
0.0
 11
242.6067616965355
 21
69.479377843909674
 31
0.0
  0
LINE
  5
49E6
  8
AM_1
 10
244.9593474487379
 20
69.510010470891785
 30
0.0
 11
243.7921738384091
 21
71.470343392417391
 31
0.0
  0
LINE
  5
49E7
  8
AM_1
 10
245.59217383840951
 20
70.401857403263591
 30
0.0
 11
244.37199161366479
 21
72.451221237623599
 31
0.0
  0
LINE
  5
49E8
  8
AM_1
 10
246.81235606315391
 20
72.451221237623685
 30
0.0
 11
245.59217383840911
 21
70.401857403263676
 31
0.0
  0
LINE
  5
49E9
  8
AM_1
 10
247.39217383840921
 20
71.470343392417391
 30
0.0
 11
246.23488892327379
 21
69.526619083840984
 31
0.0
  0
LINE
  5
49EA
  8
AM_1
 10
248.53165298229791
 20
69.556524865860098
 30
0.0
 11
247.39217383840941
 21
71.470343392417789
 31
0.0
  0
LINE
  5
49EB
  8
AM_1
 10
249.1921738384091
 20
70.401857403263463
 30
0.0
 11
247.9719916136643
 21
72.451221237623372
 31
0.0
  0
LINE
  5
49EC
  8
AM_1
 10
250.41235606315411
 20
72.451221237623685
 30
0.0
 11
249.19217383840939
 21
70.401857403263463
 31
0.0
  0
LINE
  5
49ED
  8
AM_1
 10
250.9921738384096
 20
71.47034339241759
 30
0.0
 11
249.8630161500129
 21
69.573860323772692
 31
0.0
  0
LINE
  5
49EE
  8
AM_1
 10
252.1039585158573
 20
69.603039260828098
 30
0.0
 11
250.9921738384092
 21
71.470343392417789
 31
0.0
  0
LINE
  5
49EF
  8
AM_1
 10
253.25883342943749
 20
69.618076694598983
 30
0.0
 11
251.57199161366449
 21
72.45122123762377
 31
0.0
  0
LINE
  5
49F0
  8
AM_1
 10
253.98705157902
 20
69.627558701754594
 30
0.0
 11
236.84128100008149
 21
69.404306480674677
 31
0.0
  0
LINE
  5
49F1
  8
AM_1
 10
236.71260412631639
 20
69.402631000547473
 30
0.0
 11
232.60435458497091
 21
69.349138167977884
 31
0.0
  0
LINE
  5
49F2
  8
AM_1
 10
253.98705157901989
 20
68.127692093925901
 30
0.0
 11
236.7601177584809
 21
68.35200112804759
 31
0.0
  0
LINE
  5
49F3
  8
AM_1
 10
236.7126041263171
 20
68.352619795133393
 30
0.0
 11
232.60435458497179
 21
68.406112627703095
 31
0.0
  0
LINE
  5
49F4
  8
AM_1
 10
238.9861112757805
 20
69.404306480674762
 30
0.0
 11
238.97408790620571
 21
69.424500397840774
 31
0.0
  0
LINE
  5
49F5
  8
AM_1
 10
237.8102597706129
 20
69.424500397840603
 30
0.0
 11
237.7982364010382
 21
69.404306480674904
 31
0.0
  0
LINE
  5
49F6
  8
AM_1
 10
234.79217383840981
 20
71.900825397840094
 30
0.0
 11
228.9921738384094
 21
73.07762539784008
 31
0.0
  0
LINE
  5
49F7
  8
AM_1
 10
234.79217383840941
 20
65.854425397840373
 30
0.0
 11
228.9921738384098
 21
64.677625397840586
 31
0.0
  0
ARC
  5
49F8
  8
AM_1
 10
233.3624462175905
 20
68.952924839037394
 30
0.0
 40
1.9907623756952451
 50
343.01710535129553
 51
12.515033431329069
  0
LINE
  5
49F9
  8
AM_1
 10
250.11252441676041
 20
65.793143995527188
 30
0.0
 11
248.2676014568442
 21
65.800523687366791
 31
0.0
  0
LINE
  5
49FA
  8
AM_1
 10
246.5125659362059
 20
65.807543829449472
 30
0.0
 11
244.6676573923132
 21
65.814923463625078
 31
0.0
  0
LINE
  5
49FB
  8
AM_1
 10
242.91263961491731
 20
65.821943534734402
 30
0.0
 11
241.0677149913916
 21
65.829323233228564
 31
0.0
  0
LINE
  5
49FC
  8
AM_1
 10
239.3126972139961
 20
65.836343304338087
 30
0.0
 11
237.49326201480909
 21
65.843621045134881
 31
0.0
  0
LINE
  5
49FD
  8
AM_1
 10
237.81025977061299
 20
68.330750397840873
 30
0.0
 11
236.33219904638131
 21
65.848265297008965
 31
0.0
  0
LINE
  5
49FE
  8
AM_1
 10
238.39217383840889
 20
67.353393392417175
 30
0.0
 11
237.1719916136642
 21
65.304029558057465
 31
0.0
  0
LINE
  5
49FF
  8
AM_1
 10
239.6123560631541
 20
65.304029558057465
 30
0.0
 11
238.39217383840929
 21
67.353393392417871
 31
0.0
  0
LINE
  5
4A00
  8
AM_1
 10
240.19217383840899
 20
66.284907403263176
 30
0.0
 11
238.974087906205
 21
68.330750397840461
 31
0.0
  0
LINE
  5
4A01
  8
AM_1
 10
241.38704191517891
 20
68.291754719757591
 30
0.0
 11
240.1921738384095
 21
66.284907403263588
 31
0.0
  0
LINE
  5
4A02
  8
AM_1
 10
241.992173838409
 20
67.353393392417701
 30
0.0
 11
240.7719916136642
 21
65.304029558057465
 31
0.0
  0
LINE
  5
4A03
  8
AM_1
 10
243.2123560631542
 20
65.304029558057778
 30
0.0
 11
241.99217383840991
 21
67.353393392417587
 31
0.0
  0
LINE
  5
4A04
  8
AM_1
 10
243.7921738384093
 20
66.284907403263773
 30
0.0
 11
242.6067616965353
 21
68.275872951771191
 31
0.0
  0
LINE
  5
4A05
  8
AM_1
 10
244.95934744873821
 20
68.245240324789279
 30
0.0
 11
243.79217383840921
 21
66.284907403263475
 31
0.0
  0
LINE
  5
4A06
  8
AM_1
 10
245.5921738384092
 20
67.353393392417473
 30
0.0
 11
244.37199161366451
 21
65.304029558057465
 31
0.0
  0
LINE
  5
4A07
  8
AM_1
 10
246.81235606315369
 20
65.304029558057678
 30
0.0
 11
245.59217383840891
 21
67.353393392417871
 31
0.0
  0
LINE
  5
4A08
  8
AM_1
 10
247.39217383840909
 20
66.284907403263674
 30
0.0
 11
246.23488892327379
 21
68.228631711839881
 31
0.0
  0
LINE
  5
4A09
  8
AM_1
 10
248.53165298229811
 20
68.198725929820995
 30
0.0
 11
247.39217383840949
 21
66.284907403263389
 31
0.0
  0
LINE
  5
4A0A
  8
AM_1
 10
249.1921738384093
 20
67.353393392417473
 30
0.0
 11
247.97199161366439
 21
65.304029558057394
 31
0.0
  0
LINE
  5
4A0B
  8
AM_1
 10
250.41235606315399
 20
65.304029558057593
 30
0.0
 11
249.19217383840939
 21
67.353393392417473
 31
0.0
  0
LINE
  5
4A0C
  8
AM_1
 10
250.99217383840951
 20
66.284907403263276
 30
0.0
 11
249.86301615001281
 21
68.181390471908287
 31
0.0
  0
LINE
  5
4A0D
  8
AM_1
 10
252.1039585158575
 20
68.152211534852796
 30
0.0
 11
250.99217383840929
 21
66.284907403263389
 31
0.0
  0
LINE
  5
4A0E
  8
AM_1
 10
253.2588334294374
 20
68.137174101082479
 30
0.0
 11
251.57199161366441
 21
65.304029558057593
 31
0.0
  0
LINE
  5
4A0F
  8
AM_1
 10
233.7991595654068
 20
71.896853340748578
 30
0.0
 11
233.7991595654068
 21
69.364695524494095
 31
0.0
  0
LINE
  5
4A10
  8
AM_1
 10
233.7991595654068
 20
68.390555271186884
 30
0.0
 11
233.7991595654068
 21
65.858397454932586
 31
0.0
  0
LINE
  5
4A11
  8
AM_1
 10
251.57199161366469
 20
72.451221237623599
 30
0.0
 11
250.41235606315411
 21
72.451221237623599
 31
0.0
  0
LINE
  5
4A12
  8
AM_1
 10
247.97199161366439
 20
72.451221237623599
 30
0.0
 11
246.812356063154
 21
72.451221237623599
 31
0.0
  0
LINE
  5
4A13
  8
AM_1
 10
244.37199161366459
 20
72.451221237623599
 30
0.0
 11
243.21235606315409
 21
72.451221237623599
 31
0.0
  0
LINE
  5
4A14
  8
AM_1
 10
240.77199161366471
 20
72.451221237623599
 30
0.0
 11
239.61235606315401
 21
72.451221237623599
 31
0.0
  0
LINE
  5
4A15
  8
AM_1
 10
237.1719916136646
 20
72.451221237623599
 30
0.0
 11
236.01235606315399
 21
72.451221237623599
 31
0.0
  0
LINE
  5
4A16
  8
AM_1
 10
236.0123560631541
 20
72.451221237623685
 30
0.0
 11
235.68678338424451
 21
71.90440383602396
 31
0.0
  0
LINE
  5
4A17
  8
AM_1
 10
251.57199161366469
 20
65.304029558057394
 30
0.0
 11
250.41235606315411
 21
65.304029558057394
 31
0.0
  0
LINE
  5
4A18
  8
AM_1
 10
247.97199161366439
 20
65.304029558057394
 30
0.0
 11
246.812356063154
 21
65.304029558057394
 31
0.0
  0
LINE
  5
4A19
  8
AM_1
 10
244.37199161366459
 20
65.304029558057394
 30
0.0
 11
243.21235606315409
 21
65.304029558057394
 31
0.0
  0
LINE
  5
4A1A
  8
AM_1
 10
240.77199161366471
 20
65.304029558057394
 30
0.0
 11
239.61235606315401
 21
65.304029558057394
 31
0.0
  0
LINE
  5
4A1B
  8
AM_1
 10
237.1719916136646
 20
65.304029558057394
 30
0.0
 11
236.01235606315399
 21
65.304029558057394
 31
0.0
  0
LINE
  5
4A1C
  8
AM_1
 10
236.0123560631539
 20
65.304029558057394
 30
0.0
 11
235.68678338424439
 21
65.850846959657176
 31
0.0
  0
LINE
  5
4A21
  8
0
 10
223.99217383840929
 20
64.877625397840475
 30
0.0
 11
223.99217383840929
 21
72.877625397840461
 31
0.0
  0
LINE
  5
4A23
  8
AM_7
 10
220.99217383840929
 20
68.877625397840461
 30
0.0
 11
256.92156133313023
 21
68.877625397840461
 31
0.0
  0
LINE
  5
4A24
  8
AM_1
 10
228.99217383840929
 20
113.0776253976077
 30
0.0
 11
228.9921738384092
 21
104.6776253976076
 31
0.0
  0
LINE
  5
4A25
  8
AM_1
 10
234.79217383840921
 20
109.3776253976077
 30
0.0
 11
234.79217383840921
 21
108.3776253976077
 31
0.0
  0
LINE
  5
4A26
  8
AM_1
 10
250.11252441676049
 20
111.9621067999212
 30
0.0
 11
248.26760145684429
 21
111.9547271080815
 31
0.0
  0
LINE
  5
4A27
  8
AM_1
 10
246.5125659362057
 20
111.9477069659988
 30
0.0
 11
244.667657392313
 21
111.9403273318233
 31
0.0
  0
LINE
  5
4A28
  8
AM_1
 10
242.9126396149174
 20
111.93330726071351
 30
0.0
 11
241.0677149913918
 21
111.9259275622194
 31
0.0
  0
LINE
  5
4A29
  8
AM_1
 10
239.31269721399551
 20
111.91890749111001
 30
0.0
 11
237.49326201480901
 21
111.9116297503133
 31
0.0
  0
LINE
  5
4A2A
  8
AM_1
 10
234.79217383840921
 20
111.90082539760751
 30
0.0
 11
228.9921738384092
 21
111.8776253976075
 31
0.0
  0
LINE
  5
4A2B
  8
AM_1
 10
236.33219904638179
 20
111.9069854984396
 30
0.0
 11
234.79217383841009
 21
111.9008253976077
 31
0.0
  0
ARC
  5
4A2C
  8
AM_1
 10
251.49217383840929
 20
109.46760539768771
 30
0.0
 40
2.5
 50
3.668365409823064
 51
81.127977809495036
  0
LINE
  5
4A2D
  8
AM_1
 10
228.9921738384088
 20
105.8776253976075
 30
0.0
 11
234.79217383840879
 21
105.8544253976074
 31
0.0
  0
LINE
  5
4A2E
  8
AM_1
 10
234.79217383840961
 20
105.8544253976076
 30
0.0
 11
236.33219904638179
 21
105.84826529677569
 31
0.0
  0
ARC
  5
4A2F
  8
AM_1
 10
251.49217383840929
 20
108.2876453975277
 30
0.0
 40
2.5
 50
278.87202219050488
 51
356.33163459017612
  0
LINE
  5
4A30
  8
AM_1
 10
234.79217383840941
 20
108.8776253976076
 30
0.0
 11
228.9921738384092
 21
110.1276253976076
 31
0.0
  0
LINE
  5
4A31
  8
AM_1
 10
228.99217383840951
 20
107.6276253976077
 30
0.0
 11
234.7921738384093
 21
108.8776253976077
 31
0.0
  0
LINE
  5
4A32
  8
AM_1
 10
228.99217383840929
 20
108.8776253976077
 30
0.0
 11
234.79217383840921
 21
108.8776253976077
 31
0.0
  0
LINE
  5
4A33
  8
AM_1
 10
237.8102597706131
 20
109.4245003976076
 30
0.0
 11
236.33219904638119
 21
111.9069854984396
 31
0.0
  0
LINE
  5
4A34
  8
AM_1
 10
238.39217383840909
 20
110.40185740303031
 30
0.0
 11
237.17199161366429
 21
112.4512212373906
 31
0.0
  0
LINE
  5
4A35
  8
AM_1
 10
239.61235606315401
 20
112.4512212373906
 30
0.0
 11
238.39217383840941
 21
110.4018574030305
 31
0.0
  0
LINE
  5
4A36
  8
AM_1
 10
240.1921738384093
 20
111.4703433921844
 30
0.0
 11
238.9740879062054
 21
109.4245003976075
 31
0.0
  0
LINE
  5
4A37
  8
AM_1
 10
241.38704191517911
 20
109.4634960756908
 30
0.0
 11
240.1921738384097
 21
111.4703433921848
 31
0.0
  0
LINE
  5
4A38
  8
AM_1
 10
241.99217383840929
 20
110.4018574030306
 30
0.0
 11
240.77199161366471
 21
112.4512212373907
 31
0.0
  0
LINE
  5
4A39
  8
AM_1
 10
243.21235606315409
 20
112.4512212373906
 30
0.0
 11
241.99217383840971
 21
110.4018574030307
 31
0.0
  0
LINE
  5
4A3A
  8
AM_1
 10
243.79217383840961
 20
111.4703433921846
 30
0.0
 11
242.60676169653539
 21
109.4793778436768
 31
0.0
  0
LINE
  5
4A3B
  8
AM_1
 10
244.95934744873799
 20
109.5100104706588
 30
0.0
 11
243.7921738384091
 21
111.4703433921844
 31
0.0
  0
LINE
  5
4A3C
  8
AM_1
 10
245.59217383840939
 20
110.4018574030307
 30
0.0
 11
244.3719916136647
 21
112.4512212373907
 31
0.0
  0
LINE
  5
4A3D
  8
AM_1
 10
246.81235606315391
 20
112.4512212373908
 30
0.0
 11
245.5921738384092
 21
110.4018574030309
 31
0.0
  0
LINE
  5
4A3E
  8
AM_1
 10
247.39217383840921
 20
111.4703433921844
 30
0.0
 11
246.23488892327379
 21
109.5266190836081
 31
0.0
  0
LINE
  5
4A3F
  8
AM_1
 10
248.53165298229791
 20
109.5565248656273
 30
0.0
 11
247.39217383840941
 21
111.4703433921848
 31
0.0
  0
LINE
  5
4A40
  8
AM_1
 10
249.1921738384091
 20
110.4018574030306
 30
0.0
 11
247.9719916136643
 21
112.4512212373906
 31
0.0
  0
LINE
  5
4A41
  8
AM_1
 10
250.41235606315411
 20
112.4512212373908
 30
0.0
 11
249.19217383840919
 21
110.4018574030306
 31
0.0
  0
LINE
  5
4A42
  8
AM_1
 10
250.99217383840951
 20
111.4703433921846
 30
0.0
 11
249.8630161500129
 21
109.57386032353971
 31
0.0
  0
LINE
  5
4A43
  8
AM_1
 10
252.10395851585741
 20
109.6030392605952
 30
0.0
 11
250.99217383840909
 21
111.4703433921848
 31
0.0
  0
LINE
  5
4A44
  8
AM_1
 10
253.25883342943749
 20
109.6180766943661
 30
0.0
 11
251.57199161366449
 21
112.4512212373908
 31
0.0
  0
LINE
  5
4A45
  8
AM_1
 10
253.98705157902
 20
109.62755870152159
 30
0.0
 11
236.84128100008161
 21
109.4043064804417
 31
0.0
  0
LINE
  5
4A46
  8
AM_1
 10
236.71260412631639
 20
109.4026310003146
 30
0.0
 11
232.60435458497091
 21
109.349138167745
 31
0.0
  0
LINE
  5
4A47
  8
AM_1
 10
253.98705157901981
 20
108.1276920936931
 30
0.0
 11
236.7601177584809
 21
108.3520011278146
 31
0.0
  0
LINE
  5
4A48
  8
AM_1
 10
236.7126041263171
 20
108.3526197949006
 30
0.0
 11
232.60435458497179
 21
108.40611262747019
 31
0.0
  0
LINE
  5
4A49
  8
AM_1
 10
238.98611127578079
 20
109.4043064804421
 30
0.0
 11
238.9740879062058
 21
109.424500397608
 31
0.0
  0
LINE
  5
4A4A
  8
AM_1
 10
237.81025977061299
 20
109.4245003976077
 30
0.0
 11
237.7982364010382
 21
109.404306480442
 31
0.0
  0
LINE
  5
4A4B
  8
AM_1
 10
234.79217383840981
 20
111.90082539760709
 30
0.0
 11
228.9921738384094
 21
113.07762539760721
 31
0.0
  0
LINE
  5
4A4C
  8
AM_1
 10
234.7921738384095
 20
105.8544253976076
 30
0.0
 11
228.9921738384098
 21
104.6776253976076
 31
0.0
  0
ARC
  5
4A4D
  8
AM_1
 10
233.3624462175905
 20
108.95292483880461
 30
0.0
 40
1.9907623756952451
 50
343.01710535129553
 51
12.515033431329069
  0
LINE
  5
4A4E
  8
AM_1
 10
250.11252441676029
 20
105.7931439952943
 30
0.0
 11
248.2676014568442
 21
105.800523687134
 31
0.0
  0
LINE
  5
4A4F
  8
AM_1
 10
246.5125659362059
 20
105.8075438292167
 30
0.0
 11
244.6676573923132
 21
105.8149234633922
 31
0.0
  0
LINE
  5
4A50
  8
AM_1
 10
242.9126396149172
 20
105.8219435345015
 30
0.0
 11
241.0677149913916
 21
105.82932323299561
 31
0.0
  0
LINE
  5
4A51
  8
AM_1
 10
239.31269721399599
 20
105.8363433041052
 30
0.0
 11
237.49326201480901
 21
105.84362104490199
 31
0.0
  0
LINE
  5
4A52
  8
AM_1
 10
237.81025977061299
 20
108.330750397608
 30
0.0
 11
236.33219904638131
 21
105.84826529677611
 31
0.0
  0
LINE
  5
4A53
  8
AM_1
 10
238.39217383840889
 20
107.3533933921843
 30
0.0
 11
237.1719916136642
 21
105.30402955782451
 31
0.0
  0
LINE
  5
4A54
  8
AM_1
 10
239.6123560631541
 20
105.30402955782471
 30
0.0
 11
238.39217383840929
 21
107.3533933921851
 31
0.0
  0
LINE
  5
4A55
  8
AM_1
 10
240.19217383840899
 20
106.2849074030302
 30
0.0
 11
238.974087906205
 21
108.3307503976076
 31
0.0
  0
LINE
  5
4A56
  8
AM_1
 10
241.38704191517891
 20
108.2917547195248
 30
0.0
 11
240.1921738384095
 21
106.2849074030306
 31
0.0
  0
LINE
  5
4A57
  8
AM_1
 10
241.99217383840909
 20
107.3533933921848
 30
0.0
 11
240.77199161366431
 21
105.30402955782471
 31
0.0
  0
LINE
  5
4A58
  8
AM_1
 10
243.21235606315429
 20
105.3040295578248
 30
0.0
 11
241.99217383840991
 21
107.3533933921848
 31
0.0
  0
LINE
  5
4A59
  8
AM_1
 10
243.79217383840921
 20
106.2849074030307
 30
0.0
 11
242.6067616965353
 21
108.2758729515382
 31
0.0
  0
LINE
  5
4A5A
  8
AM_1
 10
244.95934744873821
 20
108.24524032455651
 30
0.0
 11
243.79217383840921
 21
106.2849074030306
 31
0.0
  0
LINE
  5
4A5B
  8
AM_1
 10
245.5921738384092
 20
107.3533933921846
 30
0.0
 11
244.37199161366451
 21
105.30402955782461
 31
0.0
  0
LINE
  5
4A5C
  8
AM_1
 10
246.8123560631538
 20
105.3040295578248
 30
0.0
 11
245.592173838409
 21
107.353393392185
 31
0.0
  0
LINE
  5
4A5D
  8
AM_1
 10
247.39217383840929
 20
106.2849074030308
 30
0.0
 11
246.23488892327401
 21
108.22863171160709
 31
0.0
  0
LINE
  5
4A5E
  8
AM_1
 10
248.5316529822982
 20
108.19872592958821
 30
0.0
 11
247.3921738384096
 21
106.2849074030306
 31
0.0
  0
LINE
  5
4A5F
  8
AM_1
 10
249.19217383840919
 20
107.3533933921847
 30
0.0
 11
247.97199161366439
 21
105.30402955782451
 31
0.0
  0
LINE
  5
4A60
  8
AM_1
 10
250.41235606315411
 20
105.30402955782471
 30
0.0
 11
249.19217383840939
 21
107.3533933921846
 31
0.0
  0
LINE
  5
4A61
  8
AM_1
 10
250.99217383840951
 20
106.2849074030303
 30
0.0
 11
249.86301615001281
 21
108.1813904716755
 31
0.0
  0
LINE
  5
4A62
  8
AM_1
 10
252.1039585158575
 20
108.15221153461999
 30
0.0
 11
250.99217383840929
 21
106.2849074030306
 31
0.0
  0
LINE
  5
4A63
  8
AM_1
 10
253.2588334294374
 20
108.13717410084961
 30
0.0
 11
251.5719916136643
 21
105.30402955782471
 31
0.0
  0
LINE
  5
4A64
  8
AM_1
 10
233.7991595654068
 20
111.8968533405157
 30
0.0
 11
233.7991595654068
 21
109.36469552426119
 31
0.0
  0
LINE
  5
4A65
  8
AM_1
 10
233.7991595654068
 20
108.390555270954
 30
0.0
 11
233.7991595654068
 21
105.8583974546997
 31
0.0
  0
LINE
  5
4A66
  8
AM_1
 10
251.57199161366469
 20
112.4512212373907
 30
0.0
 11
250.41235606315411
 21
112.4512212373907
 31
0.0
  0
LINE
  5
4A67
  8
AM_1
 10
247.97199161366439
 20
112.4512212373907
 30
0.0
 11
246.812356063154
 21
112.4512212373907
 31
0.0
  0
LINE
  5
4A68
  8
AM_1
 10
244.37199161366459
 20
112.4512212373907
 30
0.0
 11
243.21235606315409
 21
112.4512212373907
 31
0.0
  0
LINE
  5
4A69
  8
AM_1
 10
240.77199161366471
 20
112.4512212373907
 30
0.0
 11
239.61235606315401
 21
112.4512212373907
 31
0.0
  0
LINE
  5
4A6A
  8
AM_1
 10
237.1719916136646
 20
112.4512212373907
 30
0.0
 11
236.01235606315399
 21
112.4512212373907
 31
0.0
  0
LINE
  5
4A6B
  8
AM_1
 10
236.01235606315419
 20
112.4512212373907
 30
0.0
 11
235.68678338424471
 21
111.904403835791
 31
0.0
  0
LINE
  5
4A6C
  8
AM_1
 10
251.57199161366469
 20
105.30402955782451
 30
0.0
 11
250.41235606315411
 21
105.30402955782451
 31
0.0
  0
LINE
  5
4A6D
  8
AM_1
 10
247.97199161366439
 20
105.30402955782451
 30
0.0
 11
246.812356063154
 21
105.30402955782451
 31
0.0
  0
LINE
  5
4A6E
  8
AM_1
 10
244.37199161366459
 20
105.30402955782451
 30
0.0
 11
243.21235606315409
 21
105.30402955782451
 31
0.0
  0
LINE
  5
4A6F
  8
AM_1
 10
240.77199161366471
 20
105.30402955782451
 30
0.0
 11
239.61235606315401
 21
105.30402955782451
 31
0.0
  0
LINE
  5
4A70
  8
AM_1
 10
237.1719916136646
 20
105.30402955782451
 30
0.0
 11
236.01235606315399
 21
105.30402955782451
 31
0.0
  0
LINE
  5
4A71
  8
AM_1
 10
236.01235606315379
 20
105.30402955782441
 30
0.0
 11
235.68678338424431
 21
105.8508469594243
 31
0.0
  0
LINE
  5
4A76
  8
0
 10
223.99217383840929
 20
104.8776253976077
 30
0.0
 11
223.99217383840929
 21
112.8776253976077
 31
0.0
  0
LINE
  5
4A78
  8
AM_7
 10
220.99217383840929
 20
108.8776253976077
 30
0.0
 11
256.92156133313023
 21
108.8776253976077
 31
0.0
  0
LINE
  5
4A7D
  8
0
 10
215.99217383853389
 20
198.01055265432569
 30
0.0
 11
215.99217383854781
 21
207.01055265419359
 31
0.0
  0
LINE
  5
4A7E
  8
0
 10
210.99217383854671
 20
207.01055265432581
 30
0.0
 11
216.98717383819701
 21
207.01055265432581
 31
0.0
  0
ARC
  5
4A7F
  8
0
 10
210.99217383854671
 20
206.01055265432569
 30
0.0
 40
1.0
 50
90.0
 51
180.0
  0
LINE
  5
4A80
  8
0
 10
209.99217383853869
 20
199.010552654327
 30
0.0
 11
209.99217383854671
 21
206.01055265432689
 31
0.0
  0
LINE
  5
4A81
  8
0
 10
210.99217383853869
 20
198.01055265432569
 30
0.0
 11
216.98717383819701
 21
198.01055265432569
 31
0.0
  0
ARC
  5
4A82
  8
0
 10
210.99217383853869
 20
199.01055265432569
 30
0.0
 40
1.0
 50
180.0
 51
270.0
  0
LINE
  5
4A83
  8
0
 10
221.99217383840991
 20
198.01055265432569
 30
0.0
 11
223.99217383819681
 21
198.01055265432569
 31
0.0
  0
LINE
  5
4A84
  8
0
 10
221.99217383840991
 20
207.01055265432581
 30
0.0
 11
223.99217383819681
 21
207.01055265432581
 31
0.0
  0
LINE
  5
4A85
  8
0
 10
223.99217383832831
 20
193.51055265432501
 30
0.0
 11
223.99217383831569
 21
211.5105526543251
 31
0.0
  0
ARC
  5
4A86
  8
0
 10
224.99217383831569
 20
211.51055265432581
 30
0.0
 40
1.0
 50
90.0
 51
180.0
  0
LINE
  5
4A87
  8
0
 10
224.99217383831569
 20
212.51055265432569
 30
0.0
 11
228.9921738384098
 21
212.51055265432569
 31
0.0
  0
LINE
  5
4A88
  8
0
 10
228.99217383840971
 20
192.51055265432569
 30
0.0
 11
228.99217383840971
 21
212.51055265432569
 31
0.0
  0
LINE
  5
4A89
  8
0
 10
224.99217383832831
 20
192.51055265432569
 30
0.0
 11
228.99217383840971
 21
192.51055265432569
 31
0.0
  0
ARC
  5
4A8A
  8
0
 10
224.99217383832831
 20
193.51055265432569
 30
0.0
 40
1.0
 50
180.0
 51
270.0
  0
LINE
  5
4A91
  8
AM_7
 10
146.8090644096539
 20
202.51055265432569
 30
0.0
 11
231.80633403762121
 21
202.51055265432569
 31
0.0
  0
DIMENSION
  5
4BBA
  8
AM_5
  2
*D13
 10
120.73330775154859
 20
225.01055265432569
 30
0.0
 11
118.23330775154859
 21
202.51055265432581
 31
0.0
 70
     0
  1
%%c<>
 13
152.99217383840991
 23
180.01055265432569
 33
0.0
 14
152.99217383840991
 24
225.01055265432569
 34
0.0
 50
90.000000000000057
1001
ACAD_DSTYLE_DIMINSPECT
1070
   396
1000
100%
1070
   395
1000

1070
   394
1070
    33
1070
   393
1070
     0
  0
DIMENSION
  5
4BED
  8
AM_5
  2
*D14
 10
166.9921738384098
 20
216.51055265432569
 30
0.0
 11
166.99217383840971
 21
181.4102151878638
 31
0.0
 70
   128
 13
183.4921738384098
 23
188.51055265432561
 33
0.0
 14
183.4921738384098
 24
216.51055265432569
 34
0.0
 50
90.000000000000057
1001
ACAD_DSTYLE_DIMINSPECT
1070
   396
1000
100%
1070
   395
1000

1070
   394
1070
    33
1070
   393
1070
     0
  0
DIMENSION
  5
4C21
  8
AM_5
  2
*D15
 10
157.99217383840991
 20
239.01055265432581
 30
0.0
 11
155.49217383840991
 21
241.51055265432581
 31
0.0
 70
     0
 13
152.99217383840991
 23
225.01055265432589
 33
0.0
 14
157.99217383840991
 24
224.01055265432581
 34
0.0
 50
359.99999999999841
1001
ACAD_DSTYLE_DIMINSPECT
1070
   396
1000
100%
1070
   395
1000

1070
   394
1070
    33
1070
   393
1070
     0
  0
DIMENSION
  5
4C74
  8
AM_5
  2
*D17
 10
208.9921738384098
 20
246.1874268714831
 30
0.0
 11
180.9921738384098
 21
248.6874268714831
 31
0.0
 70
     0
 13
152.9921738384098
 23
225.01055265432589
 33
0.0
 14
208.9921738384098
 24
207.6634255659427
 34
0.0
 50
359.99999999999841
1001
ACAD_DSTYLE_DIMINSPECT
1070
   396
1000
100%
1070
   395
1000

1070
   394
1070
    33
1070
   393
1070
     0
  0
DIMENSION
  5
4C9E
  8
AM_5
  2
*D18
 10
221.99217383840991
 20
253.18742687148409
 30
0.0
 11
187.49217383840991
 21
255.68742687148409
 31
0.0
 70
     0
 13
152.99217383840991
 23
225.01055265432569
 33
0.0
 14
221.99217383840991
 24
209.51055265432581
 34
0.0
 50
359.99999999999841
1001
ACAD_DSTYLE_DIMINSPECT
1070
   396
1000
100%
1070
   395
1000

1070
   394
1070
    33
1070
   393
1070
     0
  0
DIMENSION
  5
4CBF
  8
AM_5
  2
*D19
 10
228.99217383840971
 20
260.18742687148477
 30
0.0
 11
190.9921738384098
 21
262.68742687148477
 31
0.0
 70
     0
 13
152.99217383840991
 23
225.01055265432589
 33
0.0
 14
228.99217383840971
 24
212.51055265432569
 34
0.0
 50
359.99999999999841
1001
ACAD_DSTYLE_DIMINSPECT
1070
   396
1000
100%
1070
   395
1000

1070
   394
1070
    33
1070
   393
1070
     0
  0
DIMENSION
  5
4CE0
  8
AM_5
  2
*D20
 10
245.3938229029163
 20
198.01055265432569
 30
0.0
 11
242.8938229029163
 21
202.51055265432581
 31
0.0
 70
     0
 13
223.99217383819681
 23
207.01055265432581
 33
0.0
 14
223.99217383819681
 24
198.01055265432569
 34
0.0
 50
90.0
1001
ACAD_DSTYLE_DIMINSPECT
1070
   396
1000
100%
1070
   395
1000

1070
   394
1070
    33
1070
   393
1070
     0
  0
DIMENSION
  5
4D13
  8
AM_5
  2
*D21
 10
252.39382290291641
 20
212.51055265432569
 30
0.0
 11
249.8938229029163
 21
202.51055265432581
 31
0.0
 70
     0
 13
228.99217383840971
 23
192.51055265432569
 33
0.0
 14
228.99217383840971
 24
212.51055265432569
 34
0.0
 50
90.000000000000028
1001
ACAD_DSTYLE_DIMINSPECT
1070
   396
1000
100%
1070
   395
1000

1070
   394
1070
    33
1070
   393
1070
     0
  0
INSERT
  5
4D3D
  8
AM_5
  2
*S30
 10
0.0
 20
0.0
 30
0.0
  0
ARC
  5
4D92
  8
0
 10
207.99217383840971
 20
96.030498309449655
 30
0.0
 40
1.0
 50
0.0
 51
80.537677791974843
1001
GENIUS_GENOBJ-N-FIL_13
1002
{
1000
OWNER
1000
GEN
1002
}
1001
GENIUS_GENODEF_13
1002
{
1000
HIER
1070
     0
1002
}
1002
{
1000
MANEDIT
1070
     0
1002
}
1002
{
1000
NOSEL
1070
     0
1002
}
1002
{
1000
BEHIND
1070
     0
1002
}
1002
{
1000
OTHER
1070
     0
1002
}
1002
{
1000
REACTOR
1002
}
  0
ARC
  5
4D93
  8
0
 10
207.99217383840971
 20
85.724752486215479
 30
0.0
 40
1.0
 50
279.46232220802528
 51
0.0
1001
GENIUS_GENODEF_13
1002
{
1000
HIER
1070
     0
1002
}
1002
{
1000
MANEDIT
1070
     0
1002
}
1002
{
1000
NOSEL
1070
     0
1002
}
1002
{
1000
BEHIND
1070
     0
1002
}
1002
{
1000
OTHER
1070
     0
1002
}
1002
{
1000
REACTOR
1002
}
1001
GENIUS_GENOBJ-N-FIL_13
1002
{
1000
OWNER
1000
GEN
1002
}
  0
DIMENSION
  5
4D9D
  8
AM_5
  2
*D22
 10
223.99217383840971
 20
135.14722189485141
 30
0.0
 11
226.49217383840971
 21
137.64722189485141
 31
0.0
 70
     0
 13
228.99217383840971
 23
126.2531698157882
 33
0.0
 14
223.99217383840971
 24
115.2531698157881
 34
0.0
1001
ACAD_DSTYLE_DIMINSPECT
1070
   396
1000
100%
1070
   395
1000

1070
   394
1070
    33
1070
   393
1070
     0
1001
ACAD
1000
DSTYLE
1002
{
1070
   173
1070
     1
1070
   174
1070
     1
1070
     6
1000
OPEN30
1070
     7
1000
GENDOT
1002
}
  0
DIMENSION
  5
4DDA
  8
AM_5
  2
*D23
 10
215.99440774876649
 20
135.14722189485141
 30
0.0
 11
219.9932907935881
 21
137.64722189485141
 31
0.0
 70
     0
 13
223.99217383840971
 23
115.2531698157881
 33
0.0
 14
215.99440774876649
 24
94.071101723304963
 34
0.0
1001
ACAD_DSTYLE_DIMINSPECT
1070
   396
1000
100%
1070
   395
1000

1070
   394
1070
    33
1070
   393
1070
     0
1001
ACAD
1000
DSTYLE
1002
{
1070
   173
1070
     1
1070
   174
1070
     1
1070
     6
1000
GENDOT
1070
     7
1000
OPEN30
1002
}
  0
DIMENSION
  5
4E24
  8
AM_5
  2
*D25
 10
209.9921738384096
 20
142.1472218948513
 30
0.0
 11
219.4921738384096
 21
144.6472218948513
 31
0.0
 70
     0
 13
228.99217383840971
 23
126.2531698157882
 33
0.0
 14
209.9921738384096
 24
97.253169815788084
 34
0.0
1001
ACAD_DSTYLE_DIMINSPECT
1070
   396
1000
100%
1070
   395
1000

1070
   394
1070
    33
1070
   393
1070
     0
  0
DIMENSION
  5
4E4E
  8
AM_5
  2
*D26
 10
152.99217383841
 20
149.1472218948513
 30
0.0
 11
190.9921738384098
 21
152.43293618056549
 31
0.0
 70
     0
  1
(<>)
 13
228.99217383840971
 23
126.2531698157882
 33
0.0
 14
152.99217383841
 24
126.2531698157882
 34
0.0
1001
ACAD_DSTYLE_DIMINSPECT
1070
   396
1000
100%
1070
   395
1000

1070
   394
1070
    33
1070
   393
1070
     0
  0
INSERT
  5
4E81
  8
AM_5
  2
*S31
 10
0.0
 20
0.0
 30
0.0
  0
INSERT
  5
4E82
  8
AM_5
  2
*S32
 10
0.0
 20
0.0
 30
0.0
  0
DIMENSION
  5
4E83
  8
AM_5
  2
*D27
 10
270.92156133313023
 20
108.8776253976077
 30
0.0
 11
268.42156133313023
 21
88.877625397724117
 31
0.0
 70
     0
 13
256.92156133313023
 23
68.877625397840461
 33
0.0
 14
256.92156133313023
 24
108.8776253976077
 34
0.0
 50
90.000000000000028
1001
ACAD_DSTYLE_DIMINSPECT
1070
   396
1000
100%
1070
   395
1000

1070
   394
1070
    33
1070
   393
1070
     0
  0
DIMENSION
  5
4EAD
  8
AM_5
  2
*D28
 10
277.92156133313028
 20
116.2531698157881
 30
0.0
 11
275.42156133313028
 21
89.253169815788084
 31
0.0
 70
     0
 13
228.99217383840971
 23
62.253169815787977
 33
0.0
 14
228.99217383840971
 24
116.2531698157881
 34
0.0
 50
90.000000000000028
1001
ACAD_DSTYLE_DIMINSPECT
1070
   396
1000
100%
1070
   395
1000

1070
   394
1070
    33
1070
   393
1070
     0
  0
INSERT
  5
4ECE
  8
AM_5
  2
*S33
 10
0.0
 20
0.0
 30
0.0
  0
INSERT
  5
4ECF
  8
AM_5
  2
*S34
 10
0.0
 20
0.0
 30
0.0
  0
ARC
  5
4F76
  8
0
 10
159.9921738384096
 20
80.583236649787565
 30
0.0
 40
2.0
 50
96.203447901691106
 51
180.0
  0
ARC
  5
4F77
  8
0
 10
159.9921738384096
 20
101.1720141458777
 30
0.0
 40
2.0
 50
180.0
 51
263.7965520983081
  0
LINE
  5
4F78
  8
0
 10
159.7760554768729
 20
99.183725219738704
 30
0.0
 11
177.2898084762426
 21
97.280056415459427
 31
0.0
  0
LINE
  5
4F79
  8
0
 10
177.28980847624251
 20
84.475194380205636
 30
0.0
 11
159.77605547687281
 21
82.571525575926358
 31
0.0
  0
ARC
  5
4F7A
  8
0
 10
177.95943171662341
 20
100.81710435246001
 30
0.0
 40
3.5998754690542518
 50
259.27980817384019
 51
327.40054368265828
  0
ARC
  5
4F7B
  8
0
 10
177.9594317166235
 20
80.938146443205341
 30
0.0
 40
3.5998754690540311
 50
32.599456317337669
 51
100.7201918261613
  0
LINE
  5
4FD3
  8
0
 10
342.42980799125507
 20
209.51055265432581
 30
0.0
 11
345.46470748795758
 21
209.40457162857081
 31
0.0
  0
ARC
  5
4FD4
  8
0
 10
345.4298079912553
 20
208.40518080155189
 30
0.0
 40
1.0
 50
0.0
 51
87.999999999999588
  0
LINE
  5
4FD5
  8
0
 10
342.42980799125542
 20
209.51055265432589
 30
0.0
 11
339.39490849455279
 21
209.40457162857089
 31
0.0
  0
ARC
  5
4FD6
  8
0
 10
339.4298079912553
 20
208.40518080155189
 30
0.0
 40
1.0
 50
92.000000000000426
 51
180.0
  0
LINE
  5
4FD7
  8
0
 10
342.42980799125507
 20
195.51055265432561
 30
0.0
 11
345.46470748795758
 21
195.61653368008049
 31
0.0
  0
ARC
  5
4FD8
  8
0
 10
345.4298079912553
 20
196.61592450709941
 30
0.0
 40
1.0
 50
272.0000000000004
 51
0.0
  0
LINE
  5
4FD9
  8
0
 10
342.42980799125542
 20
195.51055265432541
 30
0.0
 11
339.39490849455279
 21
195.61653368008041
 31
0.0
  0
ARC
  5
4FDA
  8
0
 10
339.4298079912553
 20
196.61592450709949
 30
0.0
 40
1.0
 50
180.0
 51
267.9999999999996
  0
VIEWPORT
  5
95A
 67
     1
  8
0
  6
CONTINUOUS
 10
128.5
 20
97.5
 30
0.0
 40
386.73855140186919
 41
222.18000000000001
 68
     1
 69
     1
1001
ACAD
1000
MVIEW
1002
{
1070
    16
1010
0.0
1020
0.0
1030
0.0
1010
0.0
1020
0.0
1030
1.0
1040
0.0
1040
222.18000000000001
1040
128.5
1040
97.5
1040
50.0
1040
0.0
1040
0.0
1070
     0
1070
   100
1070
     1
1070
     1
1070
     0
1070
     0
1070
     0
1070
     0
1040
0.0
1040
0.0
1040
0.0
1040
10.0
1040
10.0
1040
10.0
1040
10.0
1070
     0
1002
{
1002
}
1002
}
1001
GENIUS_GENODEF_13
1002
{
1000
HIER
1070
     0
1002
}
1002
{
1000
MANEDIT
1070
     0
1002
}
1002
{
1000
NOSEL
1070
     0
1002
}
1002
{
1000
BEHIND
1070
     0
1002
}
1002
{
1000
OTHER
1070
     0
1002
}
1002
{
1000
REACTOR
1002
}
1001
GENIUS_GENOBJ-N-SDF_13
1002
{
1000
OWNER
1000
GEN
1002
}
1001
GENIUS_GENSCREG_15
1000
PF
1040
1.0
1000
DF
1040
1.0
1000
MIN
1011
-64.869275700934566
1021
0.0
1031
0.0
1021
-13.59
1031
0.0
1000
MAX
1011
321.86927570093462
1021
0.0
1031
0.0
1021
208.59
1031
0.0
1000
FLAGS
1070
     4
  0
ENDSEC
  0
EOF
