  0
SECTION
  2
HEADER
  9
$ACADVER
  1
AC1009
  9
$INSBASE
 10
0.0
 20
0.0
 30
0.0
  9
$EXTMIN
 10
12.9527839063523498
 20
9.9970857766065802
 30
-0.0000000000112498
  9
$EXTMAX
 10
289.4612199569240261
 20
201.1236168934752016
 30
0.0000000000002956
  9
$LIMMIN
 10
12.9569999999950802
 20
10.0
  9
$LIMMAX
 10
289.4570000003852783
 20
201.1206999999936045
  9
$ORTHOMODE
 70
     1
  9
$REGENMODE
 70
     1
  9
$FILLMODE
 70
     1
  9
$QTEXTMODE
 70
     0
  9
$MIRRTEXT
 70
     1
  9
$DRAGMODE
 70
     2
  9
$LTSCALE
 40
5.0
  9
$OSMODE
 70
    39
  9
$ATTMODE
 70
     1
  9
$TEXTSIZE
 40
3.0
  9
$TRACEWID
 40
0.05
  9
$TEXTSTYLE
  7
STANDARD
  9
$CLAYER
  8
AM_5
  9
$CELTYPE
  6
BYLAYER
  9
$CECOLOR
 62
   256
  9
$DIMSCALE
 40
1.0
  9
$DIMASZ
 40
2.5
  9
$DIMEXO
 40
1.0
  9
$DIMDLI
 40
7.0
  9
$DIMRND
 40
0.0
  9
$DIMDLE
 40
0.0
  9
$DIMEXE
 40
1.0
  9
$DIMTP
 40
0.1
  9
$DIMTM
 40
0.1
  9
$DIMTXT
 40
3.0
  9
$DIMCEN
 40
0.0
  9
$DIMTSZ
 40
0.0
  9
$DIMTOL
 70
     0
  9
$DIMLIM
 70
     0
  9
$DIMTIH
 70
     0
  9
$DIMTOH
 70
     0
  9
$DIMSE1
 70
     0
  9
$DIMSE2
 70
     0
  9
$DIMTAD
 70
     3
  9
$DIMZIN
 70
     8
  9
$DIMBLK
  1
OPEN30
  9
$DIMASO
 70
     1
  9
$DIMSHO
 70
     1
  9
$DIMPOST
  1

  9
$DIMAPOST
  1
"
  9
$DIMALT
 70
     0
  9
$DIMALTD
 70
     2
  9
$DIMALTF
 40
0.0393701
  9
$DIMLFAC
 40
1.0
  9
$DIMTOFL
 70
     1
  9
$DIMTVP
 40
0.0
  9
$DIMTIX
 70
     0
  9
$DIMSOXD
 70
     0
  9
$DIMSAH
 70
     0
  9
$DIMBLK1
  1

  9
$DIMBLK2
  1

  9
$DIMSTYLE
  2
AM_JIS
  9
$DIMCLRD
 70
     7
  9
$DIMCLRE
 70
     7
  9
$DIMCLRT
 70
     7
  9
$DIMTFAC
 40
0.71
  9
$DIMGAP
 40
1.0
  9
$LUNITS
 70
     2
  9
$LUPREC
 70
     4
  9
$SKETCHINC
 40
0.1
  9
$FILLETRAD
 40
0.0
  9
$AUNITS
 70
     0
  9
$AUPREC
 70
     0
  9
$MENU
  1
acad
  9
$ELEVATION
 40
0.0
  9
$PELEVATION
 40
0.0
  9
$THICKNESS
 40
0.0
  9
$LIMCHECK
 70
     0
  9
$BLIPMODE
 70
     0
  9
$CHAMFERA
 40
0.0
  9
$CHAMFERB
 40
0.0
  9
$SKPOLY
 70
     0
  9
$TDCREATE
 40
2455755.6568634258583188
  9
$TDUPDATE
 40
2458914.4199652778916061
  9
$TDINDWG
 40
0.2238839815
  9
$TDUSRTIMER
 40
0.2238837963
  9
$USRTIMER
 70
     1
  9
$ANGBASE
 50
0.0
  9
$ANGDIR
 70
     0
  9
$PDMODE
 70
     0
  9
$PDSIZE
 40
0.0
  9
$PLINEWID
 40
0.0
  9
$COORDS
 70
     1
  9
$SPLFRAME
 70
     0
  9
$SPLINETYPE
 70
     6
  9
$SPLINESEGS
 70
     8
  9
$ATTDIA
 70
     1
  9
$ATTREQ
 70
     1
  9
$HANDLING
 70
     1
  9
$HANDSEED
  5
66A2
  9
$SURFTAB1
 70
     6
  9
$SURFTAB2
 70
     6
  9
$SURFTYPE
 70
     6
  9
$SURFU
 70
     6
  9
$SURFV
 70
     6
  9
$UCSNAME
  2

  9
$UCSORG
 10
0.0
 20
0.0
 30
0.0
  9
$UCSXDIR
 10
1.0
 20
0.0
 30
0.0
  9
$UCSYDIR
 10
0.0
 20
1.0
 30
0.0
  9
$PUCSNAME
  2

  9
$PUCSORG
 10
0.0
 20
0.0
 30
0.0
  9
$PUCSXDIR
 10
1.0
 20
0.0
 30
0.0
  9
$PUCSYDIR
 10
0.0
 20
1.0
 30
0.0
  9
$USERI1
 70
     0
  9
$USERI2
 70
     0
  9
$USERI3
 70
     0
  9
$USERI4
 70
     0
  9
$USERI5
 70
     0
  9
$USERR1
 40
0.0
  9
$USERR2
 40
0.0
  9
$USERR3
 40
0.0
  9
$USERR4
 40
0.0
  9
$USERR5
 40
0.0
  9
$WORLDVIEW
 70
     1
  9
$SHADEDGE
 70
     3
  9
$SHADEDIF
 70
    70
  9
$TILEMODE
 70
     1
  9
$MAXACTVP
 70
    16
  9
$PLIMCHECK
 70
     0
  9
$PEXTMIN
 10
1.0000000000000000E+20
 20
1.0000000000000000E+20
 30
1.0000000000000000E+20
  9
$PEXTMAX
 10
-1.0000000000000000E+20
 20
-1.0000000000000000E+20
 30
-1.0000000000000000E+20
  9
$PLIMMIN
 10
-20.0
 20
-7.5
  9
$PLIMMAX
 10
277.0
 20
202.5
  9
$UNITMODE
 70
     0
  9
$VISRETAIN
 70
     0
  9
$PLINEGEN
 70
     1
  9
$PSLTSCALE
 70
     0
  0
ENDSEC
  0
SECTION
  2
TABLES
  0
TABLE
  2
VPORT
 70
     1
  0
VPORT
  2
*ACTIVE
 70
     0
 10
0.0
 20
0.0
 11
1.0
 21
1.0
 12
151.2070019316381035
 22
105.5603513350408065
 13
0.0
 23
0.0
 14
2.5
 24
2.5
 15
10.0
 25
10.0
 16
0.0
 26
0.0
 36
1.0
 17
0.0
 27
0.0
 37
0.0
 40
192.7587334575839009
 41
2.205673758865248
 42
50.0
 43
0.0
 44
0.0
 50
0.0
 51
0.0
 71
    16
 72
   100
 73
     1
 74
     3
 75
     0
 76
     0
 77
     0
 78
     1
  0
ENDTAB
  0
TABLE
  2
LTYPE
 70
    22
  0
LTYPE
  2
CONTINUOUS
 70
     0
  3
Solid line (NEC CAE2D for Win R7.2 : 2008.02.20
 72
    65
 73
     0
 40
0.0
  0
LTYPE
  2
HIDDEN
 70
     0
  3
Hidden __ __ __ __ __ __ __ __ __ __ __ __ __ _
 72
    65
 73
     2
 40
0.375
 49
0.25
 49
-0.125
  0
LTYPE
  2
PHANTOM2
 70
     0
  3
Phantom (.5x) ___ _ _ ___ _ _ ___ _ _ ___ _ _
 72
    65
 73
     6
 40
1.25
 49
0.625
 49
-0.125
 49
0.125
 49
-0.125
 49
0.125
 49
-0.125
  0
LTYPE
  2
CENTER
 70
     0
  3
Center ____ _ ____ _ ____ _ ____ _ ____ _ ____
 72
    65
 73
     4
 40
2.0
 49
1.25
 49
-0.25
 49
0.25
 49
-0.25
  0
LTYPE
  2
CENTER2
 70
     0
  3
Center (.5x) ___ _ ___ _ ___ _ ___ _ ___ _ ___
 72
    65
 73
     4
 40
1.125
 49
0.75
 49
-0.125
 49
0.125
 49
-0.125
  0
LTYPE
  2
HIDDEN2
 70
     0
  3
Hidden (.5x) _ _ _ _ _ _ _ _ _ _ _ _ _ _ _ _ _
 72
    65
 73
     2
 40
0.1875
 49
0.125
 49
-0.0625
  0
LTYPE
  2
ACANSTGB
 70
     0
  3
__ . . __ . .
 72
    65
 73
     6
 40
0.35433070866
 49
0.15748031496
 49
-0.03937007874
 49
0.03937007874
 49
-0.03937007874
 49
0.03937007874
 49
-0.03937007874
  0
LTYPE
  2
ACANSTGL
 70
     0
  3
_ _ _ _ _
 72
    65
 73
     2
 40
0.11811023622
 49
0.07874015748
 49
-0.03937007874
  0
LTYPE
  2
ACJISWELD
 70
     0
  3
_ _ _ _ _
 72
    65
 73
     2
 40
2.0
 49
2.0
 49
-1.0
  0
LTYPE
  2
ACJISTGB
 70
     0
  3
__ . . __ . .
 72
    65
 73
     6
 40
9.0
 49
4.0
 49
-1.0
 49
1.0
 49
-1.0
 49
1.0
 49
-1.0
  0
LTYPE
  2
ACJISTGL
 70
     0
  3
_ _ _ _ _
 72
    65
 73
     2
 40
3.0
 49
2.0
 49
-1.0
  0
LTYPE
  2
ACISOWELD
 70
     0
  3
_ _ _ _ _
 72
    65
 73
     2
 40
2.0
 49
2.0
 49
-1.0
  0
LTYPE
  2
ACISOTGB
 70
     0
  3
__ . . __ . .
 72
    65
 73
     6
 40
9.0
 49
4.0
 49
-1.0
 49
1.0
 49
-1.0
 49
1.0
 49
-1.0
  0
LTYPE
  2
ACISOTGL
 70
     0
  3
_ _ _ _ _
 72
    65
 73
     2
 40
3.0
 49
2.0
 49
-1.0
  0
LTYPE
  2
AM_ISO02W050
 70
     0
  3
__ __ __ __ __ __ __ __ __ __ __ __ __ __ __
 72
    65
 73
     2
 40
7.5
 49
6.0
 49
-1.5
  0
LTYPE
  2
AM_ISO08W050
 70
     0
  3
____ . ____ . ____ . ____ . ____ . ____ . ____
 72
    65
 73
     4
 40
18.0
 49
12.0
 49
-1.5
 49
3.0
 49
-1.5
  0
LTYPE
  2
AM_ISO09W050
 70
     0
  3
_____ . . _____ . . _____ . . ____ .. ____
 72
    65
 73
     6
 40
22.5
 49
12.0
 49
-1.5
 49
3.0
 49
-1.5
 49
3.0
 49
-1.5
  0
LTYPE
  2
AMCONSTR
 70
     0
  3
_______________________
 72
    65
 73
     2
 40
9999.0
 49
9999.0
 49
0.0
  0
LTYPE
  2
AM_ISO08W050X2
 70
     0
  3
__ . __ . __ . __ . __ . __
 72
    65
 73
     4
 40
9.0
 49
6.0
 49
-0.75
 49
1.5
 49
-0.75
  0
LTYPE
  2
AM_ISO02W050X2
 70
     0
  3
 _ _ _ _ _ _ _ _ _ _ _ _
 72
    65
 73
     2
 40
3.75
 49
3.0
 49
-0.75
  0
LTYPE
  2
AMZIGZAG
 70
     0
  3
/\/-/\/-/\/-/\/-/\/-/\/
 72
    65
 73
     2
 40
11.0000999999999998
 49
0.0001
 49
-11.0
  0
ENDTAB
  0
TABLE
  2
LAYER
 70
    21
  0
LAYER
  2
0
 70
     0
 62
     3
  6
CONTINUOUS
  0
LAYER
  2
SYS-BUHIN0
 70
     0
 62
     7
  6
CONTINUOUS
  0
LAYER
  2
AM_0
 70
     0
 62
     3
  6
CONTINUOUS
  0
LAYER
  2
DEFPOINTS
 70
     0
 62
     7
  6
CONTINUOUS
  0
LAYER
  2
AM_5
 70
     0
 62
     7
  6
CONTINUOUS
  0
LAYER
  2
AM_BOR
 70
     0
 62
     7
  6
CONTINUOUS
  0
LAYER
  2
AM_7
 70
     0
 62
     4
  6
CENTER
  0
LAYER
  2
AM_3
 70
     0
 62
     7
  6
HIDDEN
  0
LAYER
  2
AM_12
 70
     0
 62
   253
  6
CONTINUOUS
  0
LAYER
  2
AM_PAREF
 70
     0
 62
     4
  6
CONTINUOUS
  0
LAYER
  2
AM_6
 70
     0
 62
     7
  6
CONTINUOUS
  0
LAYER
  2
AM_8
 70
     0
 62
   253
  6
CONTINUOUS
  0
LAYER
  2
AM_4
 70
     0
 62
     6
  6
CONTINUOUS
  0
LAYER
  2
AM_10
 70
     0
 62
     7
  6
CONTINUOUS
  0
LAYER
  2
AM_CL
 70
     0
 62
     1
  6
CONTINUOUS
  0
LAYER
  2
AM_2
 70
     0
 62
     5
  6
PHANTOM2
  0
LAYER
  2
AM_1N
 70
     0
 62
    14
  6
CONTINUOUS
  0
LAYER
  2
AM_1
 70
     0
 62
    14
  6
PHANTOM2
  0
LAYER
  2
AM_9
 70
     0
 62
    -7
  6
CONTINUOUS
  0
LAYER
  2
SYS-TEISEI0
 70
     0
 62
     7
  6
CONTINUOUS
  0
ENDTAB
  0
TABLE
  2
STYLE
 70
    14
  0
STYLE
  2
STANDARD
 70
     0
 40
0.0
 41
1.0
 50
0.0
 71
     0
 42
3.0
  3
dim.shx
  4
extfont.shx
  0
STYLE
  2
KNJYOKO
 70
     0
 40
0.0
 41
1.0
 50
0.0
 71
     0
 42
3.099999904632567
  3
TXT.shx
  4
extfont.shx
  0
STYLE
  2
ACJISTS
 70
     0
 40
1.0
 41
1.0
 50
0.0
 71
     0
 42
0.2
  3
isocp.shx
  4
extfont.shx
  0
STYLE
  2
R寸法
 70
     0
 40
2.0
 41
1.0
 50
0.0
 71
     0
 42
3.0
  3
dim.shx
  4
extfont.shx
  0
STYLE
  2
ACISOGDT
 70
     0
 40
0.0
 41
1.0
 50
0.0
 71
     0
 42
2.5
  3
amgdt.shx
  4

  0
STYLE
  2

 70
     1
 40
0.0
 41
1.0
 50
0.0
 71
     0
 42
3.0
  3
genltshp.shx
  4

  0
ENDTAB
  0
TABLE
  2
VIEW
 70
     6
  0
VIEW
  2
AM_VIEW1
 70
     0
 40
95.560349999996788
 10
100.7985233311002986
 20
153.3405249999952105
 41
175.683046662210387
 11
0.0
 21
0.0
 31
1.0
 12
0.0
 22
0.0
 32
0.0
 42
50.0
 43
0.0
 44
0.0
 50
0.0
 71
    16
  0
VIEW
  2
AM_VIEW2
 70
     0
 40
95.560349999996788
 10
201.615476669280099
 20
153.3405249999952105
 41
175.683046662210387
 11
0.0
 21
0.0
 31
1.0
 12
0.0
 22
0.0
 32
0.0
 42
50.0
 43
0.0
 44
0.0
 50
0.0
 71
    16
  0
VIEW
  2
AM_VIEW3
 70
     0
 40
95.560349999996788
 10
100.7985233311002986
 20
57.7801749999984011
 41
175.683046662210387
 11
0.0
 21
0.0
 31
1.0
 12
0.0
 22
0.0
 32
0.0
 42
50.0
 43
0.0
 44
0.0
 50
0.0
 71
    16
  0
VIEW
  2
AM_VIEW4
 70
     0
 40
95.560349999996788
 10
201.615476669280099
 20
57.7801749999984011
 41
175.683046662210387
 11
0.0
 21
0.0
 31
1.0
 12
0.0
 22
0.0
 32
0.0
 42
50.0
 43
0.0
 44
0.0
 50
0.0
 71
    16
  0
VIEW
  2
AM_VIEW5
 70
     0
 40
95.5603499999968165
 10
151.2070000001901064
 20
105.5603499999968022
 41
175.683046662210387
 11
0.0
 21
0.0
 31
1.0
 12
0.0
 22
0.0
 32
0.0
 42
50.0
 43
0.0
 44
0.0
 50
0.0
 71
    16
  0
VIEW
  2
AM_VIEW6
 70
     0
 40
191.1187887929935982
 10
151.2070000001901917
 20
105.5603499999968022
 41
351.3625796634876224
 11
0.0
 21
0.0
 31
1.0
 12
0.0
 22
0.0
 32
0.0
 42
50.0
 43
0.0
 44
0.0
 50
0.0
 71
    16
  0
ENDTAB
  0
TABLE
  2
UCS
 70
     0
  0
ENDTAB
  0
TABLE
  2
APPID
 70
    63
  0
APPID
  2
ACAD
 70
     0
  0
APPID
  2
ACADANNOTATIVE
 70
     0
  0
APPID
  2
ACAD_MLEADERVER
 70
     0
  0
APPID
  2
MCAD_NO_VIS
 70
     0
  0
APPID
  2
ACAD_TEMP_GRAPHIC
 70
     0
  0
APPID
  2
AD_DRAW
 70
     0
  0
APPID
  2
ACATTRIBSERVICES
 70
     0
  0
APPID
  2
DESIGNERASSEMBLIES
 70
     0
  0
APPID
  2
ACADM_DIM_EDIT
 70
     0
  0
APPID
  2
AMDT_DM_ADJ
 70
     0
  0
APPID
  2
ACADANNOPO
 70
     0
  0
APPID
  2
ACAECLAYERSTANDARD
 70
     0
  0
APPID
  2
ACDBDYNAMICBLOCKGUID
 70
     0
  0
APPID
  2
ACDBBLOCKREPETAG
 70
     0
  0
APPID
  2
ACAUTHENVIRON
 70
     0
  0
APPID
  2
ACDBDYNAMICBLOCKTRUENAME
 70
     0
  0
APPID
  2
GENIUS_GENREC_14
 70
     0
  0
APPID
  2
GENIUS_GENOBJ-N-REC_13
 70
     0
  0
APPID
  2
GENIUS_GENODEF_13
 70
     0
  0
APPID
  2
ACAD_EXEMPT_FROM_CAD_STANDARDS
 70
     0
  0
APPID
  2
GENIUS_GENOBJ-N-CEN_13
 70
     0
  0
APPID
  2
GENIUS_GENCEN_19
 70
     0
  0
APPID
  2
ACAD_DSTYLE_DIMINSPECT
 70
     0
  0
APPID
  2
DCO15
 70
     0
  0
APPID
  2
ACAD_PSEXT
 70
     0
  0
APPID
  2
GENIUS_GENBH_13
 70
     0
  0
APPID
  2
GENIUS_GENOENT_13
 70
     0
  0
APPID
  2
GENIUS_GENOLIS_13
 70
     0
  0
APPID
  2
GENIUS_GENOBJ-NBEHI-BHF_13
 70
     0
  0
APPID
  2
GENIUS_GENOREF_13
 70
     0
  0
APPID
  2
GENIUS_GENOBJ-NBEHI-BHB_13
 70
     0
  0
APPID
  2
AMG_2DHIDE
 70
     0
  0
APPID
  2
AMG_2DSTRUCT_BTR
 70
     0
  0
APPID
  2
GENIUS_AMGTXT_16
 70
     0
  0
APPID
  2
GENIUS_GENOBJ-N-HTC_13
 70
     0
  0
APPID
  2
GENIUS_GENHATCH_13
 70
     0
  0
APPID
  2
GEVID1208849169
 70
     0
  0
APPID
  2
GEVDC
 70
     0
  0
APPID
  2
ACADM_2DVIEW_IGN_NOTIFY
 70
     0
  0
APPID
  2
GEVID1208849170
 70
     0
  0
APPID
  2
GEVID1208849171
 70
     0
  0
APPID
  2
GEVRADREF
 70
     0
  0
APPID
  2
ACAD_DSTYLE_DIMJAG
 70
     0
  0
APPID
  2
ACAD_DSTYLE_DIMTALN
 70
     0
  0
APPID
  2
GENIUS_GENDTOL_13
 70
     0
  0
APPID
  2
GENIUS_GENTRA_14
 70
     0
  0
APPID
  2
GENIUS_GENOBJ-N-TIT_13
 70
     0
  0
APPID
  2
GENIUS_GENTITLE_13
 70
     0
  0
APPID
  2
GENIUS_GENSCREG_15
 70
     0
  0
APPID
  2
GENIUS_GENOBJ-N-SDF_13
 70
     0
  0
APPID
  2
ACAD_DSTYLE_DIMRADIAL_EXTENSION
 70
     0
  0
APPID
  2
GENIUS_GENOBJ-N-FIL_13
 70
     0
  0
APPID
  2
GENIUS_GENOBJ-N-CRS_13
 70
     0
  0
APPID
  2
GENIUS_GENDIMSH_14
 70
     0
  0
APPID
  2
ACAD_DSTYLE_DIMANGULAR_EXT
 70
     0
  0
APPID
  2
ACAD_NAV_VCDISPLAY
 70
     0
  0
APPID
  2
ACAD_DSTYLE_DIMBREAK
 70
     0
  0
APPID
  2
ACAD_DSTYLE_DIMARC_LENGTH_
 70
     0
  0
APPID
  2
ACAD_DSTYLE_DIM_LINETYPE
 70
     0
  0
APPID
  2
ACAD_DSTYLE_DIM_EXT1_LINETYPE
 70
     0
  0
APPID
  2
ACAD_DSTYLE_DIM_EXT2_LINETYPE
 70
     0
  0
APPID
  2
ACDBATTR
 70
     0
  0
APPID
  2
GENIUS_GENSCREG_13
 70
     0
  0
ENDTAB
  0
TABLE
  2
DIMSTYLE
 70
    27
  0
DIMSTYLE
  2
STANDARD
 70
     0
  3

  4

  5

  6

  7

 40
1.0
 41
1.0
 42
0.8
 43
0.38
 44
1.0
 45
0.0
 46
0.0
 47
0.0
 48
0.0
140
3.1000000000000001
141
0.09
142
0.0
143
25.3999999999999986
144
1.0
145
0.5
146
1.0
147
0.09
 71
     0
 72
     0
 73
     0
 74
     0
 75
     0
 76
     0
 77
     1
 78
     0
170
     0
171
     2
172
     0
173
     0
174
     0
175
     0
176
     0
177
     0
178
     0
  0
DIMSTYLE
  2
AM_ANSI
 70
     0
  3

  4
mm
  5

  6

  7

 40
1.0
 41
0.1
 42
0.05
 43
0.5
 44
0.1
 45
0.0
 46
0.0
 47
0.1
 48
0.1
140
0.12
141
0.0
142
0.0
143
25.3999999999999986
144
1.0
145
0.0
146
0.71
147
0.06
 71
     0
 72
     0
 73
     1
 74
     1
 75
     0
 76
     0
 77
     0
 78
     7
170
     0
171
     2
172
     0
173
     0
174
     0
175
     0
176
   256
177
   256
178
     2
  0
DIMSTYLE
  2
AM_ANSI$3
 70
     0
  3

  4
mm
  5

  6

  7

 40
1.0
 41
0.1
 42
0.05
 43
0.5
 44
0.1
 45
0.0
 46
0.0
 47
0.1
 48
0.1
140
0.12
141
0.0
142
0.0
143
25.3999999999999986
144
1.0
145
0.0
146
0.71
147
0.06
 71
     0
 72
     0
 73
     1
 74
     1
 75
     0
 76
     0
 77
     0
 78
     7
170
     0
171
     2
172
     0
173
     0
174
     0
175
     0
176
   256
177
   256
178
     2
  0
DIMSTYLE
  2
AM_ANSI$4
 70
     0
  3

  4
mm
  5

  6

  7

 40
1.0
 41
0.1
 42
0.05
 43
0.5
 44
0.1
 45
0.0
 46
0.0
 47
0.1
 48
0.1
140
0.12
141
0.0
142
0.0
143
25.3999999999999986
144
1.0
145
0.0
146
0.71
147
0.06
 71
     0
 72
     0
 73
     1
 74
     1
 75
     0
 76
     0
 77
     0
 78
     7
170
     0
171
     2
172
     0
173
     0
174
     0
175
     0
176
   256
177
   256
178
     2
  0
DIMSTYLE
  2
AM_ANSI$7
 70
     0
  3

  4
mm
  5

  6

  7

 40
1.0
 41
0.1
 42
0.05
 43
0.5
 44
0.1
 45
0.0
 46
0.0
 47
0.1
 48
0.1
140
0.24
141
0.0
142
0.0
143
25.3999999999999986
144
1.0
145
0.0
146
0.71
147
0.06
 71
     0
 72
     0
 73
     1
 74
     1
 75
     0
 76
     0
 77
     0
 78
     7
170
     0
171
     2
172
     0
173
     0
174
     0
175
     0
176
   256
177
   256
178
     2
  0
DIMSTYLE
  2
AM_ANSI$SF
 70
     0
  3

  4
mm
  5

  6

  7

 40
1.0
 41
0.1
 42
0.05
 43
0.5
 44
0.1
 45
0.0
 46
0.0
 47
0.1
 48
0.1
140
0.12
141
0.0
142
0.0
143
25.3999999999999986
144
1.0
145
0.0
146
0.71
147
0.06
 71
     0
 72
     0
 73
     1
 74
     1
 75
     1
 76
     1
 77
     0
 78
     7
170
     0
171
     2
172
     0
173
     0
174
     0
175
     0
176
   256
177
   256
178
     2
  0
DIMSTYLE
  2
AM_ANSI$SH
 70
     0
  3

  4
mm
  5

  6
GENAXEH
  7

 40
1.0
 41
0.1
 42
0.05
 43
0.5
 44
0.1
 45
0.0
 46
0.0
 47
0.1
 48
0.1
140
0.12
141
0.0
142
0.0
143
25.3999999999999986
144
1.0
145
0.0
146
0.71
147
0.06
 71
     0
 72
     0
 73
     1
 74
     1
 75
     1
 76
     1
 77
     0
 78
     7
170
     0
171
     2
172
     0
173
     1
174
     0
175
     0
176
   256
177
   256
178
     2
  0
DIMSTYLE
  2
AM_JIS
 70
     0
  3

  4
"
  5
OPEN30
  6

  7

 40
1.0
 41
2.5
 42
1.0
 43
7.0
 44
1.0
 45
0.0
 46
0.0
 47
0.1
 48
0.1
140
3.0
141
0.0
142
0.0
143
0.0393701
144
1.0
145
0.0
146
0.71
147
1.0
 71
     0
 72
     0
 73
     0
 74
     0
 75
     0
 76
     0
 77
     3
 78
     8
170
     0
171
     2
172
     1
173
     0
174
     0
175
     0
176
     7
177
     7
178
     7
  0
DIMSTYLE
  2
AM_JIS$3
 70
     0
  3

  4
"
  5
OPEN30
  6

  7

 40
1.0
 41
2.5
 42
1.0
 43
10.0
 44
1.0
 45
0.0
 46
0.0
 47
0.1
 48
0.1
140
3.0
141
0.0
142
0.0
143
0.0393701
144
1.0
145
0.0
146
0.71
147
1.0
 71
     0
 72
     0
 73
     0
 74
     1
 75
     0
 76
     0
 77
     3
 78
     8
170
     0
171
     2
172
     0
173
     0
174
     0
175
     0
176
     7
177
     7
178
     7
  0
DIMSTYLE
  2
AM_JIS$4
 70
     0
  3

  4
"
  5
OPEN30
  6

  7

 40
1.0
 41
2.5
 42
1.0
 43
10.0
 44
1.0
 45
0.0
 46
0.0
 47
0.1
 48
0.1
140
2.0
141
0.0
142
0.0
143
0.0393701
144
1.0
145
0.0
146
0.71
147
1.0
 71
     0
 72
     0
 73
     0
 74
     0
 75
     0
 76
     0
 77
     3
 78
     8
170
     0
171
     2
172
     0
173
     0
174
     0
175
     0
176
     7
177
     7
178
     7
  0
DIMSTYLE
  2
AM_JIS$6
 70
     0
  3

  4
"
  5
OPEN30
  6

  7

 40
1.0
 41
2.5
 42
1.0
 43
10.0
 44
1.0
 45
0.0
 46
0.0
 47
0.1
 48
0.1
140
3.0
141
0.0
142
0.0
143
0.0393701
144
1.0
145
0.0
146
0.71
147
1.0
 71
     0
 72
     0
 73
     0
 74
     0
 75
     0
 76
     0
 77
     0
 78
     8
170
     0
171
     2
172
     1
173
     0
174
     0
175
     0
176
   256
177
     7
178
     7
  0
DIMSTYLE
  2
AM_JIS$7
 70
     0
  3

  4
"
  5
OPEN30
  6

  7

 40
1.0
 41
2.5
 42
1.0
 43
10.0
 44
1.0
 45
0.0
 46
0.0
 47
0.1
 48
0.1
140
3.0
141
0.0
142
0.0
143
0.0393701
144
1.0
145
0.0
146
0.71
147
1.0
 71
     0
 72
     0
 73
     0
 74
     0
 75
     0
 76
     0
 77
     3
 78
     8
170
     0
171
     2
172
     1
173
     0
174
     0
175
     0
176
     7
177
   256
178
     7
  0
DIMSTYLE
  2
AM_JIS$SF
 70
     0
  3

  4
"
  5
OPEN30
  6

  7

 40
1.0
 41
2.5
 42
1.0
 43
7.0
 44
1.0
 45
0.0
 46
0.0
 47
0.1
 48
0.1
140
3.0
141
0.0
142
0.0
143
0.0393701
144
1.0
145
0.0
146
0.71
147
1.0
 71
     0
 72
     0
 73
     0
 74
     0
 75
     1
 76
     1
 77
     3
 78
     8
170
     0
171
     2
172
     1
173
     0
174
     0
175
     0
176
     7
177
   256
178
     7
  0
DIMSTYLE
  2
AM_JIS$SH
 70
     0
  3

  4
"
  5

  6
GENAXEH
  7
OPEN30
 40
1.0
 41
2.5
 42
1.0
 43
7.0
 44
1.0
 45
0.0
 46
0.0
 47
0.1
 48
0.1
140
3.0
141
0.0
142
0.0
143
0.0393701
144
2.0
145
0.0
146
0.71
147
1.0
 71
     0
 72
     0
 73
     0
 74
     0
 75
     1
 76
     1
 77
     3
 78
     8
170
     0
171
     2
172
     1
173
     1
174
     0
175
     0
176
     7
177
   256
178
     7
  0
DIMSTYLE
  2
AM_JIS$2
 70
     0
  3

  4
"
  5
OPEN30
  6

  7

 40
1.0
 41
2.5
 42
1.0
 43
7.0
 44
1.0
 45
0.0
 46
0.0
 47
0.1
 48
0.1
140
3.0
141
0.0
142
0.0
143
0.0393701
144
1.0
145
0.0
146
0.71
147
1.0
 71
     0
 72
     0
 73
     0
 74
     0
 75
     0
 76
     0
 77
     3
 78
     8
170
     0
171
     2
172
     1
173
     0
174
     0
175
     0
176
     7
177
     7
178
     7
  0
DIMSTYLE
  2
AM_JIS$0
 70
     0
  3

  4
"
  5
OPEN30
  6

  7

 40
1.0
 41
2.5
 42
1.0
 43
7.0
 44
1.0
 45
0.0
 46
0.0
 47
0.1
 48
0.1
140
3.0
141
0.0
142
0.0
143
0.0393701
144
1.0
145
0.0
146
0.71
147
1.0
 71
     0
 72
     0
 73
     0
 74
     0
 75
     0
 76
     0
 77
     3
 78
     8
170
     0
171
     2
172
     1
173
     0
174
     0
175
     0
176
     7
177
     7
178
     7
  0
DIMSTYLE
  2
STANDARD$0
 70
     0
  3

  4

  5

  6

  7

 40
1.0
 41
1.0
 42
0.8
 43
0.38
 44
1.0
 45
0.0
 46
0.0
 47
0.0
 48
0.0
140
3.1000000000000001
141
0.09
142
0.0
143
25.3999999999999986
144
1.0
145
0.5
146
1.0
147
0.09
 71
     0
 72
     0
 73
     0
 74
     0
 75
     0
 76
     0
 77
     1
 78
     0
170
     0
171
     2
172
     0
173
     0
174
     0
175
     0
176
     0
177
     0
178
     0
  0
DIMSTYLE
  2
ANNOTATIVE
 70
     0
  3

  4

  5

  6

  7

 40
1.0
 41
0.18
 42
0.0625
 43
0.38
 44
0.18
 45
0.0
 46
0.0
 47
0.0
 48
0.0
140
0.18
141
0.09
142
0.0
143
25.3999999999999986
144
1.0
145
0.0
146
1.0
147
0.09
 71
     0
 72
     0
 73
     1
 74
     1
 75
     0
 76
     0
 77
     0
 78
     0
170
     0
171
     2
172
     0
173
     0
174
     0
175
     0
176
     0
177
     0
178
     0
  0
DIMSTYLE
  2
AM_ISO
 70
     0
  3

  4
"
  5

  6

  7

 40
1.0
 41
2.5
 42
1.0
 43
10.0
 44
1.0
 45
0.0
 46
0.0
 47
0.1
 48
0.1
140
3.5
141
0.0
142
0.0
143
0.0393701
144
1.0
145
0.0
146
0.71
147
1.5
 71
     0
 72
     0
 73
     0
 74
     0
 75
     0
 76
     0
 77
     1
 78
     8
170
     0
171
     2
172
     1
173
     0
174
     0
175
     0
176
   256
177
   256
178
     2
  0
DIMSTYLE
  2
AM_ISO$3
 70
     0
  3

  4
"
  5

  6

  7

 40
1.0
 41
2.5
 42
1.0
 43
10.0
 44
1.0
 45
0.0
 46
0.0
 47
0.1
 48
0.1
140
3.5
141
0.0
142
0.0
143
0.0393701
144
1.0
145
0.0
146
0.71
147
1.5
 71
     0
 72
     0
 73
     0
 74
     1
 75
     0
 76
     0
 77
     1
 78
     8
170
     0
171
     2
172
     0
173
     0
174
     0
175
     0
176
   256
177
   256
178
     2
  0
DIMSTYLE
  2
AM_ISO$4
 70
     0
  3

  4
"
  5

  6

  7

 40
1.0
 41
2.5
 42
1.0
 43
10.0
 44
1.0
 45
0.0
 46
0.0
 47
0.1
 48
0.1
140
3.5
141
0.0
142
0.0
143
0.0393701
144
1.0
145
0.0
146
0.71
147
1.5
 71
     0
 72
     0
 73
     0
 74
     1
 75
     0
 76
     0
 77
     1
 78
     8
170
     0
171
     2
172
     0
173
     0
174
     0
175
     0
176
   256
177
   256
178
     2
  0
DIMSTYLE
  2
AM_ISO$6
 70
     0
  3

  4
"
  5

  6

  7

 40
1.0
 41
2.5
 42
1.0
 43
10.0
 44
1.0
 45
0.0
 46
0.0
 47
0.1
 48
0.1
140
3.5
141
0.0
142
0.0
143
0.0393701
144
1.0
145
0.0
146
0.71
147
1.5
 71
     0
 72
     0
 73
     0
 74
     0
 75
     0
 76
     0
 77
     0
 78
     8
170
     0
171
     2
172
     1
173
     0
174
     0
175
     0
176
   256
177
   256
178
     2
  0
DIMSTYLE
  2
AM_ISO$7
 70
     0
  3

  4
"
  5

  6

  7

 40
1.0
 41
2.5
 42
1.0
 43
10.0
 44
1.0
 45
0.0
 46
0.0
 47
0.1
 48
0.1
140
5.0
141
0.0
142
0.0
143
0.0393701
144
1.0
145
0.0
146
0.71
147
1.5
 71
     0
 72
     0
 73
     0
 74
     0
 75
     0
 76
     0
 77
     1
 78
     8
170
     0
171
     2
172
     1
173
     0
174
     0
175
     0
176
   256
177
   256
178
     2
  0
DIMSTYLE
  2
AM_ISO$SF
 70
     0
  3

  4
"
  5

  6

  7

 40
1.0
 41
2.5
 42
1.0
 43
10.0
 44
1.0
 45
0.0
 46
0.0
 47
0.1
 48
0.1
140
3.5
141
0.0
142
0.0
143
0.0393701
144
1.0
145
0.0
146
0.71
147
1.5
 71
     0
 72
     0
 73
     0
 74
     0
 75
     1
 76
     1
 77
     1
 78
     8
170
     0
171
     2
172
     1
173
     0
174
     0
175
     0
176
   256
177
   256
178
     2
  0
DIMSTYLE
  2
AM_ISO$SH
 70
     0
  3

  4
"
  5

  6
GENAXEH
  7

 40
1.0
 41
2.5
 42
1.0
 43
10.0
 44
1.0
 45
0.0
 46
0.0
 47
0.1
 48
0.1
140
3.5
141
0.0
142
0.0
143
0.0393701
144
2.0
145
0.0
146
0.71
147
1.5
 71
     0
 72
     0
 73
     0
 74
     0
 75
     1
 76
     1
 77
     1
 78
     8
170
     0
171
     2
172
     1
173
     1
174
     0
175
     0
176
   256
177
   256
178
     2
  0
ENDTAB
  0
ENDSEC
  0
SECTION
  2
BLOCKS
  0
BLOCK
  8
0
  2
$MODEL_SPACE
 70
     0
 10
0.0
 20
0.0
 30
0.0
  3
$MODEL_SPACE
  1

  0
ENDBLK
  5
1D3
  8
0
  0
BLOCK
 67
     1
  8
0
  2
$PAPER_SPACE
 70
     0
 10
0.0
 20
0.0
 30
0.0
  3
$PAPER_SPACE
  1

  0
ENDBLK
  5
1D1
 67
     1
  8
0
  0
BLOCK
  8
0
  2
GENAXEH
 70
     0
 10
0.0
 20
0.0
 30
0.0
  3
GENAXEH
  1

  0
LINE
  5
264
  8
0
 10
-1.0
 20
0.0
 30
0.0
 11
1.0
 21
0.0
 31
0.0
  0
ENDBLK
  5
266
  8
0
  0
BLOCK
  8
0
  2
_OPEN30
 70
     0
 10
0.0
 20
0.0
 30
0.0
  3
_OPEN30
  1

  0
LINE
  5
2FA
  8
0
  6
BYBLOCK
 62
     0
 10
-1.0
 20
0.26794919
 30
0.0
 11
0.0
 21
0.0
 31
0.0
  0
LINE
  5
2FB
  8
0
  6
BYBLOCK
 62
     0
 10
0.0
 20
0.0
 30
0.0
 11
-1.0
 21
-0.26794919
 31
0.0
  0
LINE
  5
2FC
  8
0
  6
BYBLOCK
 62
     0
 10
0.0
 20
0.0
 30
0.0
 11
-1.0
 21
0.0
 31
0.0
  0
ENDBLK
  5
2FE
  8
0
  0
BLOCK
  8
0
  2
ZUWAKU-A4H
 70
     0
 10
0.0
 20
0.0
 30
0.0
  3
ZUWAKU-A4H
  1

  0
LINE
  5
1B9F
  8
AM_BOR
 62
     3
 10
12.9569999999950891
 20
201.1206999999936045
 30
0.0
 11
12.9569999999997592
 21
10.0
 31
0.0
  0
LINE
  5
1BA0
  8
AM_BOR
 62
     3
 10
289.4570000003852783
 20
201.1206999998576919
 30
0.0
 11
289.4570000000192067
 21
10.0
 31
0.0
  0
LINE
  5
1BA1
  8
AM_BOR
 62
     3
 10
12.9569999999950802
 20
201.1206999999936045
 30
0.0
 11
289.4570000003852783
 21
201.1206999998576919
 31
0.0
  0
LINE
  5
1BA2
  8
AM_BOR
 62
     3
 10
12.9569999999997396
 20
10.0
 30
0.0
 11
289.4570000000192067
 21
10.0
 31
0.0
  0
TEXT
  5
1BA3
  8
SYS-TEISEI0
  6
CONTINUOUS
 62
     3
 10
21.8420000176578597
 20
20.9500000476837194
 30
0.0
 40
3.099999904632567
  1
 
  0
TEXT
  5
1BA4
  8
SYS-TEISEI0
  6
CONTINUOUS
 62
     3
 10
47.3420000444799385
 20
20.9500000476837194
 30
0.0
 40
3.099999904632567
  1
 
  0
TEXT
  5
1BA5
  8
SYS-TEISEI0
  6
CONTINUOUS
 62
     3
 10
106.7019999570845954
 20
20.9500000476837194
 30
0.0
 40
3.099999904632567
  1
 
  0
TEXT
  5
1BA6
  8
SYS-TEISEI0
  6
CONTINUOUS
 62
     3
 10
114.4019999570845982
 20
20.9500000476837194
 30
0.0
 40
3.099999904632567
  1
 
  0
TEXT
  5
1BA7
  8
SYS-TEISEI0
  6
CONTINUOUS
 62
     3
 10
21.8420000176578597
 20
25.9500000476837194
 30
0.0
 40
3.099999904632567
  1
 
  0
TEXT
  5
1BA8
  8
SYS-TEISEI0
  6
CONTINUOUS
 62
     3
 10
47.3420000444799385
 20
25.9500000476837194
 30
0.0
 40
3.099999904632567
  1
 
  0
TEXT
  5
1BA9
  8
SYS-TEISEI0
  6
CONTINUOUS
 62
     3
 10
106.7019999570845954
 20
25.9500000476837194
 30
0.0
 40
3.099999904632567
  1
 
  0
TEXT
  5
1BAA
  8
SYS-TEISEI0
  6
CONTINUOUS
 62
     3
 10
114.4019999570845982
 20
25.9500000476837194
 30
0.0
 40
3.099999904632567
  1
 
  0
TEXT
  5
1BAB
  8
SYS-BUHIN0
  6
CONTINUOUS
 62
     3
 10
260.7069999999999936
 20
52.4500000476837229
 30
0.0
 40
3.099999904632567
  1
 
  0
TEXT
  5
1BAC
  8
SYS-BUHIN0
  6
CONTINUOUS
 62
     3
 10
260.7069999999999936
 20
58.45000004768373
 30
0.0
 40
3.099999904632567
  1
 
  0
TEXT
  5
1BAD
  8
SYS-BUHIN0
  6
CONTINUOUS
 62
     3
 10
260.7069999999999936
 20
64.4500000476837158
 30
0.0
 40
3.099999904632567
  1
 
  0
TEXT
  5
1BAE
  8
AM_BOR
 10
12.9569999999997592
 20
10.0
 30
0.0
 40
5.0
  1
!GENTITLE-LL
  0
TEXT
  5
1BAF
  8
AM_BOR
 10
289.4570000000192067
 20
10.0
 30
0.0
 40
5.0
  1
!GENTITLE-INSERT
  0
TEXT
  5
1BB0
  8
AM_BOR
 10
289.4570000003852783
 20
201.1206999998576919
 30
0.0
 40
5.0
  1
!GENTITLE-RU
  0
TEXT
  5
1BB1
  8
AM_BOR
 10
297.0
 20
210.0
 30
0.0
 40
5.0
  1
!GENTITLE-MAX
  0
ENDBLK
  5
1BB3
  8
0
  0
BLOCK
  8
0
  2
A$C1C06296A
 70
     2
 10
0.0
 20
0.0
 30
0.0
  3
A$C1C06296A
  1

  0
LINE
  5
204C
  8
AM_BOR
 10
198.8685188039937088
 20
17.8867445779319887
 30
0.0
 11
203.2337455721774973
 21
13.5215178097486195
 31
0.0
  0
LINE
  5
204D
  8
AM_BOR
 10
198.8685188039935952
 20
17.8667153513160386
 30
0.0
 11
198.8685188039939931
 21
14.1289643611789106
 31
0.0
  0
LINE
  5
204E
  8
AM_BOR
 10
204.7045172738833969
 20
17.8667153264694107
 30
0.0
 11
204.7045172738839085
 21
14.1811288456255493
 31
0.0
  0
LINE
  5
204F
  8
AM_BOR
 10
204.2042888336073077
 20
17.7930102901758609
 30
0.0
 11
204.204288833606995
 21
14.6986103577410798
 31
0.0
  0
LINE
  5
2050
  8
AM_BOR
 10
199.3687472442697981
 20
17.1760524653333491
 30
0.0
 11
199.3687472442705939
 21
14.1978003551034107
 31
0.0
  0
LINE
  5
2051
  8
AM_BOR
 10
200.4375646203926919
 20
18.4653345709555303
 30
0.0
 11
204.2042888336073077
 21
14.6986103577405203
 31
0.0
  0
LINE
  5
2052
  8
AM_BOR
 10
199.3687472442697128
 20
17.1760524653325497
 30
0.0
 11
203.0271328720340875
 21
13.5176668375685196
 31
0.0
  0
ARC
  5
2053
  8
AM_BOR
 10
198.3682903686870134
 20
17.8667153513160493
 30
0.0
 40
0.500228440276212
 50
0.0
 51
50.265515568291427
  0
ARC
  5
2054
  8
AM_BOR
 10
198.3682903438408118
 20
14.1289643611789195
 30
0.0
 40
0.500228440276212
 50
304.6975967840527915
 51
0.0
  0
ARC
  5
2055
  8
AM_BOR
 10
205.2047457340366918
 20
17.8667153264694107
 30
0.0
 40
0.500228440276212
 50
127.0284887689632995
 51
180.0000050089562933
  0
ARC
  5
2056
  8
AM_BOR
 10
203.5373175699668877
 20
17.7930102901758183
 30
0.0
 40
0.6669712537016159
 50
0.0
 51
74.7148235688661515
  0
ARC
  5
2057
  8
AM_BOR
 10
200.0357184979716862
 20
14.1978003551033893
 30
0.0
 40
0.6669712537016159
 50
180.0000050089562933
 51
256.4857883914604031
  0
LINE
  5
2058
  8
AM_BOR
 10
210.9573727773361895
 20
15.9934456649946792
 30
0.0
 11
210.9224749062998967
 21
16.211434571273589
 31
0.0
  0
LINE
  5
2059
  8
AM_BOR
 10
210.9224749062994135
 20
16.2114345712734114
 30
0.0
 11
210.8180468870608024
 21
16.4277644503503701
 31
0.0
  0
LINE
  5
205A
  8
AM_BOR
 10
210.8180468870604045
 20
16.4277644503503701
 30
0.0
 11
210.6448834799014946
 21
16.6407889012216685
 31
0.0
  0
LINE
  5
205B
  8
AM_BOR
 10
210.6448834799012957
 20
16.6407889012216188
 30
0.0
 11
210.4043025629098054
 21
16.8488866791887588
 31
0.0
  0
LINE
  5
205C
  8
AM_BOR
 10
210.4043025629094927
 20
16.8488866791890004
 30
0.0
 11
210.098135102129703
 21
17.0504740345086887
 31
0.0
  0
LINE
  5
205D
  8
AM_BOR
 10
210.0981351021299872
 20
17.0504740345085501
 30
0.0
 11
209.7287112168075964
 21
17.2440167656851386
 31
0.0
  0
LINE
  5
205E
  8
AM_BOR
 10
209.7287112168071133
 20
17.2440167656852097
 30
0.0
 11
209.2988424457736869
 21
17.4280418956699883
 31
0.0
  0
LINE
  5
205F
  8
AM_BOR
 10
209.2988424457736869
 20
17.4280418956700807
 30
0.0
 11
208.8118003499388919
 21
17.6011488821063686
 31
0.0
  0
LINE
  5
2060
  8
AM_BOR
 10
208.8118003499388919
 20
17.6011488821064397
 30
0.0
 11
208.2712916137359116
 21
17.7620202763029695
 31
0.0
  0
LINE
  5
2061
  8
AM_BOR
 10
208.2712916137361105
 20
17.7620202763030903
 30
0.0
 11
207.681429835015507
 21
17.9094317498130806
 31
0.0
  0
LINE
  5
2062
  8
AM_BOR
 10
207.6814298350153081
 20
17.9094317498129705
 30
0.0
 11
207.0467042180816861
 21
18.0422614123133584
 31
0.0
  0
LINE
  5
2063
  8
AM_BOR
 10
207.0467042180816861
 20
18.0422614123134402
 30
0.0
 11
206.371945408137293
 21
18.1594983498679703
 31
0.0
  0
LINE
  5
2064
  8
AM_BOR
 10
206.371945408137492
 20
18.1594983498678815
 30
0.0
 11
205.6622887271568061
 21
18.2602503185922984
 31
0.0
  0
LINE
  5
2065
  8
AM_BOR
 10
205.6622887271566071
 20
18.2602503185923695
 30
0.0
 11
205.022423745999788
 21
18.3325341603967402
 31
0.0
  0
LINE
  5
2066
  8
AM_BOR
 10
205.0224237459993901
 20
18.3325341603967793
 30
0.0
 11
204.923135090983692
 21
18.3437505351688195
 31
0.0
  0
LINE
  5
2067
  8
AM_BOR
 10
204.923135090983692
 20
18.3437505351687484
 30
0.0
 11
204.1601099051040933
 21
18.409363512530259
 31
0.0
  0
LINE
  5
2068
  8
AM_BOR
 10
204.1601099051048038
 20
18.409363512530259
 30
0.0
 11
203.713146860105013
 21
18.4363878729324711
 31
0.0
  0
LINE
  5
2069
  8
AM_BOR
 10
200.437564620392493
 20
18.4653345709555694
 30
0.0
 11
200.1940158259679094
 21
18.4565898963008799
 31
0.0
  0
LINE
  5
206A
  8
AM_BOR
 10
200.1940158259679947
 20
18.4565898963009012
 30
0.0
 11
199.4129261727725861
 21
18.4093635125303088
 31
0.0
  0
LINE
  5
206B
  8
AM_BOR
 10
199.4129261727725861
 20
18.4093635125302484
 30
0.0
 11
198.6499009868929875
 21
18.3437505351687591
 31
0.0
  0
LINE
  5
206C
  8
AM_BOR
 10
198.550612373156298
 20
18.3325341650599789
 30
0.0
 11
197.9107473507208965
 21
18.2602503185924689
 31
0.0
  0
LINE
  5
206D
  8
AM_BOR
 10
198.6499009868929875
 20
18.3437505351687911
 30
0.0
 11
198.550612373156298
 21
18.3325341650599185
 31
0.0
  0
LINE
  5
206E
  8
AM_BOR
 10
197.9107473507212092
 20
18.2602503185924299
 30
0.0
 11
197.2010906697404948
 21
18.1594983498680413
 31
0.0
  0
LINE
  5
206F
  8
AM_BOR
 10
197.2010906697404096
 20
18.1594983498680911
 30
0.0
 11
196.5263318597957891
 21
18.042261412313529
 31
0.0
  0
LINE
  5
2070
  8
AM_BOR
 10
196.5263318597959028
 20
18.0422614123135894
 30
0.0
 11
195.8916062428623945
 21
17.9094317498132192
 31
0.0
  0
LINE
  5
2071
  8
AM_BOR
 10
195.8916062428617124
 20
17.9094317498130202
 30
0.0
 11
195.3017444641411942
 21
17.7620202763030584
 31
0.0
  0
LINE
  5
2072
  8
AM_BOR
 10
195.3017444641409952
 20
17.7620202763031614
 30
0.0
 11
194.7612357279377875
 21
17.6011488821066102
 31
0.0
  0
LINE
  5
2073
  8
AM_BOR
 10
194.7612357279377875
 20
17.6011488821065605
 30
0.0
 11
194.2741936321029925
 21
17.4280418956701517
 31
0.0
  0
LINE
  5
2074
  8
AM_BOR
 10
194.2741936321033904
 20
17.4280418956701517
 30
0.0
 11
193.8443248610695946
 21
17.2440167656852594
 31
0.0
  0
LINE
  5
2075
  8
AM_BOR
 10
193.8443248610695946
 20
17.2440167656852097
 30
0.0
 11
193.4749009757472038
 21
17.0504740345086496
 31
0.0
  0
LINE
  5
2076
  8
AM_BOR
 10
193.4749009757472038
 20
17.0504740345086709
 30
0.0
 11
193.1687335149671867
 21
16.8488866791889293
 31
0.0
  0
LINE
  5
2077
  8
AM_BOR
 10
193.1687335149673004
 20
16.8488866791889507
 30
0.0
 11
192.9281525979749858
 21
16.6407889012216188
 31
0.0
  0
LINE
  5
2078
  8
AM_BOR
 10
192.9281525979752985
 20
16.6407889012218106
 30
0.0
 11
192.7549891908163886
 21
16.4277644503504199
 31
0.0
  0
LINE
  5
2079
  8
AM_BOR
 10
192.7549891908163886
 20
16.4277644503503488
 30
0.0
 11
192.6505611715776922
 21
16.2114345712734789
 31
0.0
  0
LINE
  5
207A
  8
AM_BOR
 10
192.6505611715778912
 20
16.2114345712737311
 30
0.0
 11
192.6156633005415131
 21
15.9934456649946792
 31
0.0
  0
LINE
  5
207B
  8
AM_BOR
 10
192.6156633005406889
 20
15.9934456649946402
 30
0.0
 11
192.6505611715772091
 21
15.7754567587157908
 31
0.0
  0
LINE
  5
207C
  8
AM_BOR
 10
192.6505611715776922
 20
15.7754567587159293
 30
0.0
 11
192.7549891908163033
 21
15.5591268796391304
 31
0.0
  0
LINE
  5
207D
  8
AM_BOR
 10
192.7549891908163886
 20
15.5591268796390292
 30
0.0
 11
192.9281525979752985
 21
15.3461024287676402
 31
0.0
  0
LINE
  5
207E
  8
AM_BOR
 10
192.9281525979750995
 20
15.3461024287676899
 30
0.0
 11
193.1687335149671867
 21
15.1380046508005002
 31
0.0
  0
LINE
  5
207F
  8
AM_BOR
 10
193.1687335149669025
 20
15.1380046508005002
 30
0.0
 11
193.4749009757468912
 21
14.9364172954808101
 31
0.0
  0
LINE
  5
2080
  8
AM_BOR
 10
193.4749009757472891
 20
14.9364172954807106
 30
0.0
 11
193.8443248610695946
 21
14.7428745643040795
 31
0.0
  0
LINE
  5
2081
  8
AM_BOR
 10
193.8443248610695093
 20
14.7428745643041701
 30
0.0
 11
194.2741936321027083
 21
14.5588494343193506
 31
0.0
  0
LINE
  5
2082
  8
AM_BOR
 10
194.2741936321031915
 20
14.5588494343194395
 30
0.0
 11
194.7612357279379012
 21
14.3857424478829596
 31
0.0
  0
LINE
  5
2083
  8
AM_BOR
 10
194.7612357279377875
 20
14.3857424478827696
 30
0.0
 11
195.3017444641409952
 21
14.2248710536861704
 31
0.0
  0
LINE
  5
2084
  8
AM_BOR
 10
195.3017444641409952
 20
14.2248710536863108
 30
0.0
 11
195.8916062428619966
 21
14.0774595801763507
 31
0.0
  0
LINE
  5
2085
  8
AM_BOR
 10
195.8916062428619114
 20
14.0774595801762192
 30
0.0
 11
196.5263318597957891
 21
13.9446299176757904
 31
0.0
  0
LINE
  5
2086
  8
AM_BOR
 10
196.5263318597953912
 20
13.9446299176758206
 30
0.0
 11
197.201090669739699
 21
13.8273929801213207
 31
0.0
  0
LINE
  5
2087
  8
AM_BOR
 10
197.2010906697404948
 20
13.8273929801213296
 30
0.0
 11
197.9107473507208965
 21
13.7266410113970494
 31
0.0
  0
LINE
  5
2088
  8
AM_BOR
 10
197.9107473507204986
 20
13.7266410113971098
 30
0.0
 11
198.5412166771806994
 21
13.6554185716662193
 31
0.0
  0
LINE
  5
2089
  8
AM_BOR
 10
198.5412166771799889
 20
13.6554185716662495
 30
0.0
 11
198.6499009868925896
 21
13.6431407948207308
 31
0.0
  0
LINE
  5
208A
  8
AM_BOR
 10
198.6499009868929022
 20
13.6431407948206793
 30
0.0
 11
199.4129261727725861
 21
13.57752781745919
 31
0.0
  0
LINE
  5
208B
  8
AM_BOR
 10
199.4129261727725861
 20
13.5775278174592007
 30
0.0
 11
199.8798563250743996
 21
13.5492962022068202
 31
0.0
  0
LINE
  5
208C
  8
AM_BOR
 10
203.0271328720324959
 20
13.5176668375699904
 30
0.0
 11
203.379020251909111
 21
13.5303014336886491
 31
0.0
  0
LINE
  5
208D
  8
AM_BOR
 10
203.3790202519091963
 20
13.5303014336885994
 30
0.0
 11
204.1601099051044059
 21
13.57752781745919
 31
0.0
  0
LINE
  5
208E
  8
AM_BOR
 10
204.7045172738839938
 20
13.6243417221955792
 30
0.0
 11
204.9231350909844025
 21
13.6431407948207504
 31
0.0
  0
LINE
  5
208F
  8
AM_BOR
 10
204.1601099051044059
 20
13.5775278174591705
 30
0.0
 11
204.7045172738837948
 21
13.6243417221955099
 31
0.0
  0
LINE
  5
2090
  8
AM_BOR
 10
204.9231350909840899
 20
13.6431407948207593
 30
0.0
 11
205.6622887271566924
 21
13.7266410113971506
 31
0.0
  0
LINE
  5
2091
  8
AM_BOR
 10
205.6622887271566071
 20
13.7266410113971098
 30
0.0
 11
206.3719454081370941
 21
13.8273929801214006
 31
0.0
  0
LINE
  5
2092
  8
AM_BOR
 10
206.371945408137492
 20
13.8273929801214503
 30
0.0
 11
207.0467042180819135
 21
13.9446299176759396
 31
0.0
  0
LINE
  5
2093
  8
AM_BOR
 10
207.0467042180816861
 20
13.9446299176759698
 30
0.0
 11
207.6814298350155923
 21
14.0774595801763702
 31
0.0
  0
LINE
  5
2094
  8
AM_BOR
 10
207.681429835015507
 20
14.0774595801762903
 30
0.0
 11
208.2712916137361105
 21
14.2248710536862504
 31
0.0
  0
LINE
  5
2095
  8
AM_BOR
 10
208.2712916137361958
 20
14.2248710536862895
 30
0.0
 11
208.8118003499392898
 21
14.3857424478828904
 31
0.0
  0
LINE
  5
2096
  8
AM_BOR
 10
208.8118003499392898
 20
14.3857424478829206
 30
0.0
 11
209.2988424457741132
 21
14.5588494343193506
 31
0.0
  0
LINE
  5
2097
  8
AM_BOR
 10
209.2988424457739995
 20
14.5588494343193204
 30
0.0
 11
209.7287112168075112
 21
14.7428745643042198
 31
0.0
  0
LINE
  5
2098
  8
AM_BOR
 10
209.7287112168071133
 20
14.7428745643041506
 30
0.0
 11
210.098135102129703
 21
14.9364172954808296
 31
0.0
  0
LINE
  5
2099
  8
AM_BOR
 10
210.0981351021299872
 20
14.9364172954808101
 30
0.0
 11
210.4043025629098906
 21
15.1380046508003598
 31
0.0
  0
LINE
  5
209A
  8
AM_BOR
 10
210.4043025629100043
 20
15.1380046508005499
 30
0.0
 11
210.6448834799020062
 21
15.3461024287677308
 31
0.0
  0
LINE
  5
209B
  8
AM_BOR
 10
210.6448834799016936
 20
15.3461024287678303
 30
0.0
 11
210.8180468870608024
 21
15.5591268796390292
 31
0.0
  0
LINE
  5
209C
  8
AM_BOR
 10
210.8180468870606887
 20
15.5591268796390594
 30
0.0
 11
210.9224749062989872
 21
15.7754567587158601
 31
0.0
  0
LINE
  5
209D
  8
AM_BOR
 10
210.9224749062998114
 20
15.7754567587157908
 30
0.0
 11
210.9573727773361895
 21
15.9934456649946206
 31
0.0
  0
LINE
  5
209E
  8
AM_BOR
 10
199.1051424870479138
 20
18.3828970152541906
 30
0.0
 11
203.9247425107741094
 21
13.5632969915274995
 31
0.0
  0
ARC
  5
209F
  8
AM_BOR
 10
205.2047457141601967
 20
14.1811288456255493
 30
0.0
 40
0.500228440276212
 50
180.0
 51
244.5184856857075033
  0
LINE
  5
20A0
  8
AM_BOR
 10
199.3652192817665139
 20
18.405261169360589
 30
0.0
 11
204.1903520906298866
 21
13.5801283604962197
 31
0.0
  0
LINE
  5
20A1
  8
AM_BOR
 10
199.6304084355469968
 20
18.4225129644057191
 30
0.0
 11
204.4504288853489982
 21
13.6024925146027709
 31
0.0
  0
LINE
  5
20A2
  8
AM_BOR
 10
199.8967460324556953
 20
18.4386163163227188
 30
0.0
 11
204.7077689502328894
 21
13.6275933985446098
 31
0.0
  0
LINE
  5
20A3
  8
AM_BOR
 10
200.1630836293643085
 20
18.4547196682397612
 30
0.0
 11
204.9488987968830997
 21
13.66890450072008
 31
0.0
  0
LINE
  5
20A4
  8
AM_BOR
 10
198.8450656923284043
 20
18.3605328611475898
 30
0.0
 11
203.6584049138650983
 21
13.5471936396104091
 31
0.0
  0
LINE
  5
20A5
  8
AM_BOR
 10
198.7943784573330959
 20
18.1287791473180704
 30
0.0
 11
203.3920673169571103
 21
13.5310902876933596
 31
0.0
  0
LINE
  5
20A6
  8
AM_BOR
 10
199.0183057366432138
 20
18.3754298728270093
 30
0.0
 11
199.0183057366432138
 21
13.6114614571624397
 31
0.0
  0
LINE
  5
20A7
  8
AM_BOR
 10
199.2180216468426011
 20
18.3926035595376796
 30
0.0
 11
199.2180216468426011
 21
13.5942877704517908
 31
0.0
  0
LINE
  5
20A8
  8
AM_BOR
 10
204.5547303412338067
 20
18.3754298728269987
 30
0.0
 11
204.5547303412338067
 21
13.6114614571624504
 31
0.0
  0
LINE
  5
20A9
  8
AM_BOR
 10
204.35501443103459
 20
18.3926035595376405
 30
0.0
 11
204.35501443103459
 21
13.5942877704517908
 31
0.0
  0
LINE
  5
20AA
  8
AM_BOR
 62
     4
 10
-0.0000001316067255
 20
15.0000001731112906
 30
0.0
 11
190.4999998683931892
 21
15.0000001731112906
 31
0.0
  0
LINE
  5
20AB
  8
AM_BOR
 62
     4
 10
276.4999998683932745
 20
28.0000001731112889
 30
0.0
 11
276.4999998683932745
 21
0.000000173111296
 31
0.0
  0
LINE
  5
20AC
  8
AM_BOR
 62
     4
 10
-0.0000001316067255
 20
15.0000001731112906
 30
0.0
 11
-0.0000001316067255
 21
0.000000173111296
 31
0.0
  0
LINE
  5
20AD
  8
AM_BOR
 62
     4
 10
-0.0000001316067255
 20
28.0000001731112889
 30
0.0
 11
276.4999998683932745
 21
28.0000001731112889
 31
0.0
  0
LINE
  5
20AE
  8
AM_BOR
 62
     4
 10
15.9999998683932692
 20
15.0000001731112906
 30
0.0
 11
15.9999998683932692
 21
0.000000173111296
 31
0.0
  0
TEXT
  5
20AF
  8
AM_BOR
 62
     4
 10
215.1799998683933097
 20
10.0000001731112906
 30
0.0
 40
1.5
  1
NAKANISHI　INDUSTRIAL CO., LTD.
 41
1.5
  0
TEXT
  5
20B0
  8
AM_BOR
 62
     3
 10
213.1999998683932915
 20
13.5000001731112906
 30
0.0
 40
5.5
  1
中西産業株式会社
 41
1.1999999999999991
  0
TEXT
  5
20B1
  8
AM_BOR
 62
     4
 10
196.1927879374059955
 20
10.0000001731112906
 30
0.0
 40
1.5
  1
Nakanishi
 41
1.1999999999999991
  0
TEXT
  5
20B2
  8
AM_BOR
 62
     7
 10
98.104999768257457
 20
15.6500001850322192
 30
0.0
 40
1.0
  1
FINISH
 41
1.6000000000000001
  0
TEXT
  5
20B3
  8
AM_BOR
 62
     7
 10
96.9799997086527981
 20
17.7000002207950082
 30
0.0
 40
2.7999999999999989
  1
仕　　上
  0
TEXT
  5
20B4
  8
AM_BOR
 62
     7
 10
3.1549997801784002
 20
15.6500001850322192
 30
0.0
 40
1.0
  1
MATERIAL
 41
1.6000000000000001
  0
TEXT
  5
20B5
  8
AM_BOR
 62
     7
 10
1.729999708652826
 20
17.7000002207950082
 30
0.0
 40
2.7999999999999989
  1
材　　質
  0
LINE
  5
20B6
  8
AM_BOR
 62
     4
 10
190.4999998683931892
 20
28.0000001731112889
 30
0.0
 11
190.4999998683931892
 21
0.000000173111296
 31
0.0
  0
LINE
  5
20B7
  8
AM_BOR
 62
     4
 10
-0.0000001316067255
 20
28.0000001731112889
 30
0.0
 11
-0.0000001316067255
 21
15.0000001731112906
 31
0.0
  0
LINE
  5
20B8
  8
AM_BOR
 62
     4
 10
-0.0000001316067255
 20
21.5000001731112889
 30
0.0
 11
190.4999998683931892
 21
21.5000001731112889
 31
0.0
  0
LINE
  5
20B9
  8
AM_BOR
 62
     4
 10
15.9999998683932692
 20
28.0000001731112889
 30
0.0
 11
15.9999998683932692
 21
15.0000001731112906
 31
0.0
  0
TEXT
  5
20BA
  8
AM_BOR
 62
     7
 10
98.104999768257457
 20
22.1500001850322192
 30
0.0
 40
1.0
  1
ART. NO.
 41
1.6000000000000001
  0
TEXT
  5
20BB
  8
AM_BOR
 62
     7
 10
96.9799997086526844
 20
24.2000002207950082
 30
0.0
 40
2.7999999999999989
  1
品　　番
  0
TEXT
  5
20BC
  8
AM_BOR
 62
     7
 10
3.1549997801784002
 20
22.1500001850322192
 30
0.0
 40
1.0
  1
ARTICLE
 41
1.6000000000000001
  0
TEXT
  5
20BD
  8
AM_BOR
 62
     7
 10
1.7299997086527119
 20
24.2000002207950082
 30
0.0
 40
2.7999999999999989
  1
品　　名
  0
LINE
  5
20BE
  8
AM_BOR
 62
     4
 10
-0.0000001316067255
 20
15.0000001731112906
 30
0.0
 11
-0.0000001316067255
 21
0.0000001731112924
 31
0.0
  0
LINE
  5
20BF
  8
AM_BOR
 62
     4
 10
95.2499998683932461
 20
28.0000001731112889
 30
0.0
 11
95.2499998683932461
 21
0.000000173111296
 31
0.0
  0
TEXT
  5
20C0
  8
AM_BOR
 62
     7
 10
3.1549997801784002
 20
9.1500001850322192
 30
0.0
 40
1.0
  1
REMARKS
 41
1.6000000000000001
  0
TEXT
  5
20C1
  8
AM_BOR
 62
     7
 10
1.7299997086527119
 20
11.20000022079501
 30
0.0
 40
2.7999999999999989
  1
備　　考
  0
LINE
  5
20C2
  8
AM_BOR
 62
     4
 10
111.2499998683932034
 20
28.0000001731112889
 30
0.0
 11
111.2499998683932034
 21
0.000000173111296
 31
0.0
  0
LINE
  5
20C3
  8
AM_BOR
 62
     4
 10
-0.0000001316067255
 20
0.000000173111296
 30
0.0
 11
276.4999998683932745
 21
0.000000173111296
 31
0.0
  0
TEXT
  5
20C4
  8
AM_BOR
 62
     7
 10
98.404999780178386
 20
9.1500001850322157
 30
0.0
 40
1.0
  1
SETS
 41
1.6000000000000001
  0
TEXT
  5
20C5
  8
AM_BOR
 62
     7
 10
96.9799997086526844
 20
11.20000022079501
 30
0.0
 40
2.7999999999999989
  1
セット品
  0
ATTDEF
  5
20C6
  8
AM_BOR
 62
     7
 10
114.3107095753831004
 20
0.5000001731112853
 30
0.0
 40
3.0
  1

 11
114.3107095753831004
 21
2.0000001731112849
 31
0.0
  3
セット
  2
SETS｛20｝
 70
     0
 74
     2
1001
ACADANNOTATIVE
1000
AnnotativeData
1002
{
1070
     1
1070
     0
1002
}
1001
ACDBATTR
1070
     0
1070
     1
  0
ATTDEF
  5
20CA
  8
AM_BOR
 62
     7
 10
19.0607095753831608
 20
0.5000001731112889
 30
0.0
 40
3.0
  1

 11
19.0607095753831608
 21
2.000000173111288
 31
0.0
  3
備　　考
  2
REMARKS｛20｝
 70
     0
 74
     2
1001
ACADANNOTATIVE
1000
AnnotativeData
1002
{
1070
     1
1070
     0
1002
}
1001
ACDBATTR
1070
     0
1070
     1
  0
ATTDEF
  5
20CE
  8
AM_BOR
 62
     7
 10
114.3107095753831004
 20
5.5000001731112853
 30
0.0
 40
3.0
  1

 11
114.3107095753831004
 21
7.0000001731112853
 31
0.0
  3
セット
  2
SETS｛20｝
 70
     0
 74
     2
1001
ACADANNOTATIVE
1000
AnnotativeData
1002
{
1070
     1
1070
     0
1002
}
1001
ACDBATTR
1070
     0
1070
     1
  0
ATTDEF
  5
20D2
  8
AM_BOR
 62
     7
 10
19.0607095753831608
 20
5.500000173111288
 30
0.0
 40
3.0
  1

 11
19.0607095753831608
 21
7.000000173111288
 31
0.0
  3
備　　考
  2
REMARKS｛20｝
 70
     0
 74
     2
1001
ACADANNOTATIVE
1000
AnnotativeData
1002
{
1070
     1
1070
     0
1002
}
1001
ACDBATTR
1070
     0
1070
     1
  0
ATTDEF
  5
20D6
  8
AM_BOR
 62
     7
 10
114.3107095753831004
 20
10.50000017311128
 30
0.0
 40
3.0
  1

 11
114.3107095753831004
 21
12.00000017311128
 31
0.0
  3
セット
  2
SETS｛20｝
 70
     0
 74
     2
1001
ACADANNOTATIVE
1000
AnnotativeData
1002
{
1070
     1
1070
     0
1002
}
1001
ACDBATTR
1070
     0
1070
     1
  0
ATTDEF
  5
20DA
  8
AM_BOR
 62
     7
 10
19.0607095753831608
 20
10.5000001731112906
 30
0.0
 40
3.0
  1

 11
19.0607095753831608
 21
12.0000001731112906
 31
0.0
  3
備　　考
  2
REMARKS｛20｝
 70
     0
 74
     2
1001
ACADANNOTATIVE
1000
AnnotativeData
1002
{
1070
     1
1070
     0
1002
}
1001
ACDBATTR
1070
     0
1070
     1
  0
ATTDEF
  5
20DE
  8
AM_BOR
 62
     7
 10
114.2499998683932034
 20
23.5000001731112889
 30
0.0
 40
3.0
  1

 11
114.2499998683932034
 21
25.0000001731112889
 31
0.0
  3
品    番
  2
ART_NO｛20｝
 70
     0
 74
     2
1001
ACADANNOTATIVE
1000
AnnotativeData
1002
{
1070
     1
1070
     0
1002
}
1001
ACDBATTR
1070
     0
1070
     1
  0
ATTDEF
  5
20E2
  8
AM_BOR
 62
     7
 10
18.9999998683932709
 20
23.5000001731112889
 30
0.0
 40
3.0
  1

 11
18.9999998683932709
 21
25.0000001731112889
 31
0.0
  3
品    名
  2
ARTICLE｛20｝
 70
     0
 74
     2
1001
ACADANNOTATIVE
1000
AnnotativeData
1002
{
1070
     1
1070
     0
1002
}
1001
ACDBATTR
1070
     0
1070
     1
  0
ATTDEF
  5
20E6
  8
AM_BOR
 62
     7
 10
114.2499998683932034
 20
17.0000001731112889
 30
0.0
 40
3.0
  1

 11
114.2499998683932034
 21
18.5000001731112889
 31
0.0
  3
仕上
  2
FINISH｛20｝
 70
     0
 74
     2
1001
ACADANNOTATIVE
1000
AnnotativeData
1002
{
1070
     1
1070
     0
1002
}
1001
ACDBATTR
1070
     0
1070
     1
  0
ATTDEF
  5
20EA
  8
AM_BOR
 62
     7
 10
18.9999998683932709
 20
17.0000001731112889
 30
0.0
 40
3.0
  1

 11
18.9999998683932709
 21
18.5000001731112889
 31
0.0
  3
材　　質
  2
MATERIAK｛20｝
 70
     0
 74
     2
1001
ACADANNOTATIVE
1000
AnnotativeData
1002
{
1070
     1
1070
     0
1002
}
1001
ACDBATTR
1070
     0
1070
     1
  0
ENDBLK
  5
20F1
  8
0
  0
BLOCK
  8
0
  2
*D10
 70
     1
 10
0.0
 20
0.0
 30
0.0
  3
*D10
  1

  0
LINE
  5
60C1
  8
AM_5
  6
CONTINUOUS
 62
     7
 10
142.5944876224826885
 20
126.4346911324082043
 30
0.0
 11
142.5944876224826885
 21
100.7948468196151026
 31
0.0
  0
LINE
  5
60C2
  8
AM_5
  6
CONTINUOUS
 62
     7
 10
44.5944876224827667
 20
126.4346911324083038
 30
0.0
 11
44.5944876224827667
 21
100.7948468196151026
 31
0.0
  0
LINE
  5
60C3
  8
AM_5
  6
CONTINUOUS
 62
     7
 10
140.0944876224826885
 20
101.7948468196151026
 30
0.0
 11
47.0944876224827667
 21
101.7948468196151026
 31
0.0
  0
INSERT
  5
60C4
  8
AM_5
 62
     7
  2
_OPEN30
 10
142.5944876224826885
 20
101.7948468196151026
 30
0.0
 41
2.5
 42
2.5
 43
2.5
  0
INSERT
  5
60C5
  8
AM_5
 62
     7
  2
_OPEN30
 10
44.5944876224827667
 20
101.7948468196151026
 30
0.0
 41
2.5
 42
2.5
 43
2.5
 50
180.0
  0
INSERT
  5
60C6
  8
AM_5
  2
*U31
 10
0.0
 20
0.0
 30
0.0
  0
POINT
  5
60C7
  8
DEFPOINTS
 62
     0
 10
142.5944876224826885
 20
127.4346911324082043
 30
0.0
  0
POINT
  5
60C8
  8
DEFPOINTS
 62
     0
 10
44.5944876224827667
 20
127.4346911324083038
 30
0.0
  0
POINT
  5
60C9
  8
DEFPOINTS
 62
     0
 10
44.5944876224827667
 20
101.7948468196151026
 30
0.0
  0
ENDBLK
  5
609A
  8
0
  0
BLOCK
  8
0
  2
*D11
 70
     1
 10
0.0
 20
0.0
 30
0.0
  3
*D11
  1

  0
LINE
  5
60EB
  8
AM_5
  6
CONTINUOUS
 62
     7
 10
113.5944876224769047
 20
156.6346911321676032
 30
0.0
 11
113.5944876224769047
 21
178.1346921321795094
 31
0.0
  0
LINE
  5
60EC
  8
AM_5
  6
CONTINUOUS
 62
     7
 10
73.5944876224769757
 20
156.6346911321521134
 30
0.0
 11
73.5944876224769757
 21
178.1346921321795094
 31
0.0
  0
LINE
  5
60ED
  8
AM_5
  6
CONTINUOUS
 62
     7
 10
111.0944876224769047
 20
177.1346921321795094
 30
0.0
 11
76.0944876224769757
 21
177.1346921321795094
 31
0.0
  0
INSERT
  5
60EE
  8
AM_5
 62
     7
  2
_OPEN30
 10
113.5944876224769047
 20
177.1346921321795094
 30
0.0
 41
2.5
 42
2.5
 43
2.5
  0
INSERT
  5
60EF
  8
AM_5
 62
     7
  2
_OPEN30
 10
73.5944876224769757
 20
177.1346921321795094
 30
0.0
 41
2.5
 42
2.5
 43
2.5
 50
180.0
  0
INSERT
  5
60F0
  8
AM_5
  2
*U32
 10
0.0
 20
0.0
 30
0.0
  0
POINT
  5
60F1
  8
DEFPOINTS
 62
     0
 10
113.5944876224769047
 20
155.6346911321676032
 30
0.0
  0
POINT
  5
60F2
  8
DEFPOINTS
 62
     0
 10
73.5944876224769757
 20
155.6346911321521134
 30
0.0
  0
POINT
  5
60F3
  8
DEFPOINTS
 62
     0
 10
73.5944876224769757
 20
177.1346921321795094
 30
0.0
  0
ENDBLK
  5
60CD
  8
0
  0
BLOCK
  8
0
  2
*D12
 70
     1
 10
0.0
 20
0.0
 30
0.0
  3
*D12
  1

  0
LINE
  5
610C
  8
AM_5
  6
CONTINUOUS
 62
     7
 10
49.5944876224733733
 20
163.1346911321427058
 30
0.0
 11
49.5944876224733733
 21
185.1346921321795094
 31
0.0
  0
LINE
  5
610D
  8
AM_5
  6
CONTINUOUS
 62
     7
 10
137.5944876224733946
 20
163.1346911321772097
 30
0.0
 11
137.5944876224733946
 21
185.1346921321795094
 31
0.0
  0
LINE
  5
610E
  8
AM_5
  6
CONTINUOUS
 62
     7
 10
52.0944876224733733
 20
184.1346921321795094
 30
0.0
 11
135.0944876224733946
 21
184.1346921321795094
 31
0.0
  0
INSERT
  5
610F
  8
AM_5
 62
     7
  2
_OPEN30
 10
49.5944876224733733
 20
184.1346921321795094
 30
0.0
 41
2.5
 42
2.5
 43
2.5
 50
180.0
  0
INSERT
  5
6110
  8
AM_5
 62
     7
  2
_OPEN30
 10
137.5944876224733946
 20
184.1346921321795094
 30
0.0
 41
2.5
 42
2.5
 43
2.5
  0
INSERT
  5
6111
  8
AM_5
  2
*U33
 10
0.0
 20
0.0
 30
0.0
  0
POINT
  5
6112
  8
DEFPOINTS
 62
     0
 10
49.5944876224733733
 20
162.1346911321427058
 30
0.0
  0
POINT
  5
6113
  8
DEFPOINTS
 62
     0
 10
137.5944876224733946
 20
162.1346911321772097
 30
0.0
  0
POINT
  5
6114
  8
DEFPOINTS
 62
     0
 10
137.5944876224733946
 20
184.1346921321795094
 30
0.0
  0
ENDBLK
  5
60F7
  8
0
  0
BLOCK
  8
0
  2
*D13
 70
     1
 10
0.0
 20
0.0
 30
0.0
  3
*D13
  1

  0
LINE
  5
612D
  8
AM_5
  6
CONTINUOUS
 62
     7
 10
43.5944876224727906
 20
164.1346911321404036
 30
0.0
 11
43.5944876224727906
 21
192.1346921322148091
 31
0.0
  0
LINE
  5
612E
  8
AM_5
  6
CONTINUOUS
 62
     7
 10
143.5944876224729114
 20
164.1346911321795119
 30
0.0
 11
143.5944876224729114
 21
192.1346921322148091
 31
0.0
  0
LINE
  5
612F
  8
AM_5
  6
CONTINUOUS
 62
     7
 10
46.0944876224727906
 20
191.1346921322148091
 30
0.0
 11
141.0944876224727977
 21
191.1346921322148091
 31
0.0
  0
INSERT
  5
6130
  8
AM_5
 62
     7
  2
_OPEN30
 10
43.5944876224727906
 20
191.1346921322148091
 30
0.0
 41
2.5
 42
2.5
 43
2.5
 50
180.0
  0
INSERT
  5
6131
  8
AM_5
 62
     7
  2
_OPEN30
 10
143.5944876224729114
 20
191.1346921322148091
 30
0.0
 41
2.5
 42
2.5
 43
2.5
  0
INSERT
  5
6132
  8
AM_5
  2
*U34
 10
0.0
 20
0.0
 30
0.0
  0
POINT
  5
6133
  8
DEFPOINTS
 62
     0
 10
43.5944876224727906
 20
163.1346911321404036
 30
0.0
  0
POINT
  5
6134
  8
DEFPOINTS
 62
     0
 10
143.5944876224729114
 20
163.1346911321795119
 30
0.0
  0
POINT
  5
6135
  8
DEFPOINTS
 62
     0
 10
143.5944876224729114
 20
191.1346921322148091
 30
0.0
  0
ENDBLK
  5
6118
  8
0
  0
BLOCK
  8
0
  2
*D14
 70
     1
 10
0.0
 20
0.0
 30
0.0
  3
*D14
  1

  0
LINE
  5
6168
  8
AM_5
  6
CONTINUOUS
 62
     7
 10
94.5944876224728404
 20
163.1346911321599009
 30
0.0
 11
128.0944876224766915
 21
163.1346911321599009
 31
0.0
  0
LINE
  5
6169
  8
AM_5
  6
CONTINUOUS
 62
     7
 10
114.0944876224767057
 20
156.1346911321676032
 30
0.0
 11
128.0944876224766915
 21
156.1346911321676032
 31
0.0
  0
LINE
  5
616A
  8
AM_5
  6
CONTINUOUS
 62
     7
 10
127.0944876224767057
 20
165.6346911321599009
 30
0.0
 11
127.0944876224767057
 21
168.1346911321599009
 31
0.0
  0
LINE
  5
616B
  8
AM_5
  6
CONTINUOUS
 62
     7
 10
127.0944876224767057
 20
153.6346911321676032
 30
0.0
 11
127.0944876224767057
 21
151.1346911321676032
 31
0.0
  0
LINE
  5
616C
  8
AM_5
  6
CONTINUOUS
 62
     7
 10
127.0944876224767057
 20
163.1346911321599009
 30
0.0
 11
127.0944876224767057
 21
156.1346911321676032
 31
0.0
  0
INSERT
  5
616D
  8
AM_5
 62
     7
  2
_OPEN30
 10
127.0944876224767057
 20
163.1346911321599009
 30
0.0
 41
2.5
 42
2.5
 43
2.5
 50
270.0
  0
INSERT
  5
616E
  8
AM_5
 62
     7
  2
_OPEN30
 10
127.0944876224767057
 20
156.1346911321676032
 30
0.0
 41
2.5
 42
2.5
 43
2.5
 50
90.0
  0
INSERT
  5
616F
  8
AM_5
  2
*U35
 10
0.0
 20
0.0
 30
0.0
  0
POINT
  5
6170
  8
DEFPOINTS
 62
     0
 10
93.5944876224728404
 20
163.1346911321599009
 30
0.0
  0
POINT
  5
6171
  8
DEFPOINTS
 62
     0
 10
113.0944876224767057
 20
156.1346911321676032
 30
0.0
  0
POINT
  5
6172
  8
DEFPOINTS
 62
     0
 10
127.0944876224767057
 20
156.1346911321676032
 30
0.0
  0
ENDBLK
  5
6139
  8
0
  0
BLOCK
  8
0
  2
*D15
 70
     1
 10
0.0
 20
0.0
 30
0.0
  3
*D15
  1

  0
LINE
  5
618B
  8
AM_5
  6
CONTINUOUS
 62
     7
 10
114.5944876224865965
 20
138.1346911321676885
 30
0.0
 11
128.0944876224766915
 21
138.1346911321676885
 31
0.0
  0
LINE
  5
618C
  8
AM_5
  6
CONTINUOUS
 62
     7
 10
114.0944876224767057
 20
156.1346911321676032
 30
0.0
 11
128.0944876224766915
 21
156.1346911321676032
 31
0.0
  0
LINE
  5
618D
  8
AM_5
  6
CONTINUOUS
 62
     7
 10
127.0944876224767057
 20
140.6346911321676885
 30
0.0
 11
127.0944876224767057
 21
153.6346911321676032
 31
0.0
  0
INSERT
  5
618E
  8
AM_5
 62
     7
  2
_OPEN30
 10
127.0944876224767057
 20
138.1346911321676885
 30
0.0
 41
2.5
 42
2.5
 43
2.5
 50
270.0
  0
INSERT
  5
618F
  8
AM_5
 62
     7
  2
_OPEN30
 10
127.0944876224767057
 20
156.1346911321676032
 30
0.0
 41
2.5
 42
2.5
 43
2.5
 50
90.0
  0
INSERT
  5
6190
  8
AM_5
  2
*U36
 10
0.0
 20
0.0
 30
0.0
  0
POINT
  5
6191
  8
DEFPOINTS
 62
     0
 10
113.5944876224865965
 20
138.1346911321676885
 30
0.0
  0
POINT
  5
6192
  8
DEFPOINTS
 62
     0
 10
113.0944876224767057
 20
156.1346911321676032
 30
0.0
  0
POINT
  5
6193
  8
DEFPOINTS
 62
     0
 10
127.0944876224767057
 20
156.1346911321676032
 30
0.0
  0
ENDBLK
  5
6176
  8
0
  0
BLOCK
  8
0
  2
*D16
 70
     1
 10
0.0
 20
0.0
 30
0.0
  3
*D16
  1

  0
LINE
  5
620D
  8
AM_5
  6
CONTINUOUS
 62
     7
 10
144.5944876224729114
 20
163.1346911321795119
 30
0.0
 11
165.9480366936211908
 21
163.1346911321795119
 31
0.0
  0
LINE
  5
620E
  8
AM_5
  6
CONTINUOUS
 62
     7
 10
143.5944876224826885
 20
157.134691132179114
 30
0.0
 11
165.9480366936211908
 21
157.134691132179114
 31
0.0
  0
LINE
  5
620F
  8
AM_5
  6
CONTINUOUS
 62
     7
 10
164.9480366936211908
 20
165.6346911321795119
 30
0.0
 11
164.9480366936211908
 21
168.1346911321795119
 31
0.0
  0
LINE
  5
6210
  8
AM_5
  6
CONTINUOUS
 62
     7
 10
164.9480366936211908
 20
154.6346911321791993
 30
0.0
 11
164.9480366936211908
 21
152.134691132179114
 31
0.0
  0
LINE
  5
6211
  8
AM_5
  6
CONTINUOUS
 62
     7
 10
164.9480366936211908
 20
163.1346911321795119
 30
0.0
 11
164.9480366936211908
 21
157.134691132179114
 31
0.0
  0
INSERT
  5
6212
  8
AM_5
 62
     7
  2
_OPEN30
 10
164.9480366936211908
 20
163.1346911321795119
 30
0.0
 41
2.5
 42
2.5
 43
2.5
 50
270.0
  0
INSERT
  5
6213
  8
AM_5
 62
     7
  2
_OPEN30
 10
164.9480366936211908
 20
157.134691132179114
 30
0.0
 41
2.5
 42
2.5
 43
2.5
 50
90.0
  0
INSERT
  5
6214
  8
AM_5
  2
*U37
 10
0.0
 20
0.0
 30
0.0
  0
POINT
  5
6215
  8
DEFPOINTS
 62
     0
 10
143.5944876224729114
 20
163.1346911321795119
 30
0.0
  0
POINT
  5
6216
  8
DEFPOINTS
 62
     0
 10
142.5944876224826885
 20
157.134691132179114
 30
0.0
  0
POINT
  5
6217
  8
DEFPOINTS
 62
     0
 10
164.9480366936211908
 20
157.134691132179114
 30
0.0
  0
ENDBLK
  5
61DE
  8
0
  0
BLOCK
  8
0
  2
*D17
 70
     1
 10
0.0
 20
0.0
 30
0.0
  3
*D17
  1

  0
LINE
  5
6230
  8
AM_5
  6
CONTINUOUS
 62
     7
 10
143.5944876224899076
 20
132.134691132179114
 30
0.0
 11
165.9480366936261078
 21
132.134691132179114
 31
0.0
  0
LINE
  5
6231
  8
AM_5
  6
CONTINUOUS
 62
     7
 10
143.5944876224826885
 20
157.134691132179114
 30
0.0
 11
165.9480366936261078
 21
157.134691132179114
 31
0.0
  0
LINE
  5
6232
  8
AM_5
  6
CONTINUOUS
 62
     7
 10
164.9480366936261078
 20
134.634691132179114
 30
0.0
 11
164.9480366936261078
 21
154.6346911321791993
 31
0.0
  0
INSERT
  5
6233
  8
AM_5
 62
     7
  2
_OPEN30
 10
164.9480366936261078
 20
132.134691132179114
 30
0.0
 41
2.5
 42
2.5
 43
2.5
 50
270.0
  0
INSERT
  5
6234
  8
AM_5
 62
     7
  2
_OPEN30
 10
164.9480366936261078
 20
157.134691132179114
 30
0.0
 41
2.5
 42
2.5
 43
2.5
 50
90.0
  0
INSERT
  5
6235
  8
AM_5
  2
*U38
 10
0.0
 20
0.0
 30
0.0
  0
POINT
  5
6236
  8
DEFPOINTS
 62
     0
 10
142.5944876224899076
 20
132.134691132179114
 30
0.0
  0
POINT
  5
6237
  8
DEFPOINTS
 62
     0
 10
142.5944876224826885
 20
157.134691132179114
 30
0.0
  0
POINT
  5
6238
  8
DEFPOINTS
 62
     0
 10
164.9480366936261078
 20
157.134691132179114
 30
0.0
  0
ENDBLK
  5
621B
  8
0
  0
BLOCK
  8
0
  2
*D18
 70
     1
 10
0.0
 20
0.0
 30
0.0
  3
*D18
  1

  0
LINE
  5
629C
  8
AM_5
  6
CONTINUOUS
 62
     7
 10
144.5944876224729114
 20
163.1346911321795119
 30
0.0
 11
172.9480366936303142
 21
163.1346911321795119
 31
0.0
  0
LINE
  5
629D
  8
AM_5
  6
CONTINUOUS
 62
     7
 10
144.5944876224949951
 20
123.1346911321632973
 30
0.0
 11
172.9480366936303142
 21
123.1346911321632973
 31
0.0
  0
LINE
  5
629E
  8
AM_5
  6
CONTINUOUS
 62
     7
 10
171.9480366936303142
 20
160.6346911321795119
 30
0.0
 11
171.9480366936303142
 21
125.6346911321632973
 31
0.0
  0
INSERT
  5
629F
  8
AM_5
 62
     7
  2
_OPEN30
 10
171.9480366936303142
 20
163.1346911321795119
 30
0.0
 41
2.5
 42
2.5
 43
2.5
 50
90.0
  0
INSERT
  5
62A0
  8
AM_5
 62
     7
  2
_OPEN30
 10
171.9480366936303142
 20
123.1346911321632973
 30
0.0
 41
2.5
 42
2.5
 43
2.5
 50
270.0
  0
INSERT
  5
62A1
  8
AM_5
  2
*U39
 10
0.0
 20
0.0
 30
0.0
  0
POINT
  5
62A2
  8
DEFPOINTS
 62
     0
 10
143.5944876224729114
 20
163.1346911321795119
 30
0.0
  0
POINT
  5
62A3
  8
DEFPOINTS
 62
     0
 10
143.5944876224949951
 20
123.1346911321632973
 30
0.0
  0
POINT
  5
62A4
  8
DEFPOINTS
 62
     0
 10
171.9480366936303142
 20
123.1346911321632973
 30
0.0
  0
ENDBLK
  5
623C
  8
0
  0
BLOCK
  8
0
  2
*D19
 70
     1
 10
0.0
 20
0.0
 30
0.0
  3
*D19
  1

  0
LINE
  5
62B6
  8
AM_5
  6
CONTINUOUS
 62
     7
 10
144.5944876224955067
 20
122.1346911321794977
 30
0.0
 11
172.9480366936303142
 21
122.1346911321794977
 31
0.0
  0
LINE
  5
62B7
  8
AM_5
  6
CONTINUOUS
 62
     7
 10
144.5944876224949951
 20
123.1346911321632973
 30
0.0
 11
172.9480366936303142
 21
123.1346911321632973
 31
0.0
  0
LINE
  5
62B8
  8
AM_5
  6
CONTINUOUS
 62
     7
 10
171.9480366936303142
 20
125.6346911321632973
 30
0.0
 11
171.9480366936303142
 21
128.1346911321633115
 31
0.0
  0
LINE
  5
62B9
  8
AM_5
  6
CONTINUOUS
 62
     7
 10
171.9480366936303142
 20
119.6346911321794977
 30
0.0
 11
171.9480366936303142
 21
114.4204054178938037
 31
0.0
  0
LINE
  5
62BA
  8
AM_5
  6
CONTINUOUS
 62
     7
 10
171.9480366936303142
 20
123.1346911321632973
 30
0.0
 11
171.9480366936303142
 21
122.1346911321794977
 31
0.0
  0
INSERT
  5
62BB
  8
AM_5
 62
     7
  2
_OPEN30
 10
171.9480366936303142
 20
123.1346911321632973
 30
0.0
 41
2.5
 42
2.5
 43
2.5
 50
270.0
  0
INSERT
  5
62BC
  8
AM_5
 62
     7
  2
_OPEN30
 10
171.9480366936303142
 20
122.1346911321794977
 30
0.0
 41
2.5
 42
2.5
 43
2.5
 50
90.0
  0
INSERT
  5
62BD
  8
AM_5
  2
*U40
 10
0.0
 20
0.0
 30
0.0
  0
POINT
  5
62BE
  8
DEFPOINTS
 62
     0
 10
143.5944876224955067
 20
122.1346911321794977
 30
0.0
  0
POINT
  5
62BF
  8
DEFPOINTS
 62
     0
 10
143.5944876224949951
 20
123.1346911321632973
 30
0.0
  0
POINT
  5
62C0
  8
DEFPOINTS
 62
     0
 10
171.9480366936303142
 20
123.1346911321632973
 30
0.0
  0
ENDBLK
  5
626F
  8
0
  0
BLOCK
  8
0
  2
*D20
 70
     1
 10
0.0
 20
0.0
 30
0.0
  3
*D20
  1

  0
LINE
  5
62E8
  8
AM_5
  6
CONTINUOUS
 62
     7
 10
199.4153032180014975
 20
164.134691132194888
 30
0.0
 11
199.4153032180014975
 21
178.1346911321969912
 31
0.0
  0
LINE
  5
62E9
  8
AM_5
  6
CONTINUOUS
 62
     7
 10
201.2153032179994057
 20
163.134691132202903
 30
0.0
 11
201.2153032179994057
 21
178.1346911321969912
 31
0.0
  0
LINE
  5
62EA
  8
AM_5
  6
CONTINUOUS
 62
     7
 10
196.9153032180014975
 20
177.1346911321969912
 30
0.0
 11
194.4153032180014975
 21
177.1346911321969912
 31
0.0
  0
LINE
  5
62EB
  8
AM_5
  6
CONTINUOUS
 62
     7
 10
203.7153032179994057
 20
177.1346911321969912
 30
0.0
 11
213.9295889322850996
 21
177.1346911321969912
 31
0.0
  0
LINE
  5
62EC
  8
AM_5
  6
CONTINUOUS
 62
     7
 10
199.4153032180014975
 20
177.1346911321969912
 30
0.0
 11
201.2153032179994057
 21
177.1346911321969912
 31
0.0
  0
INSERT
  5
62ED
  8
AM_5
 62
     7
  2
_OPEN30
 10
199.4153032180014975
 20
177.1346911321969912
 30
0.0
 41
2.5
 42
2.5
 43
2.5
  0
INSERT
  5
62EE
  8
AM_5
 62
     7
  2
_OPEN30
 10
201.2153032179994057
 20
177.1346911321969912
 30
0.0
 41
2.5
 42
2.5
 43
2.5
 50
180.0
  0
INSERT
  5
62EF
  8
AM_5
  2
*U41
 10
0.0
 20
0.0
 30
0.0
  0
POINT
  5
62F0
  8
DEFPOINTS
 62
     0
 10
199.4153032180014975
 20
163.134691132194888
 30
0.0
  0
POINT
  5
62F1
  8
DEFPOINTS
 62
     0
 10
201.2153032179994057
 20
162.134691132202903
 30
0.0
  0
POINT
  5
62F2
  8
DEFPOINTS
 62
     0
 10
201.2153032179994057
 20
177.1346911321969912
 30
0.0
  0
ENDBLK
  5
62C4
  8
0
  0
BLOCK
  8
0
  2
*D21
 70
     1
 10
0.0
 20
0.0
 30
0.0
  3
*D21
  1

  0
LINE
  5
6477
  8
AM_5
  6
CONTINUOUS
 62
     7
 10
201.4153032180014975
 20
163.1346911321952859
 30
0.0
 11
235.6379766730921972
 21
163.1346911321952859
 31
0.0
  0
LINE
  5
6478
  8
AM_5
  6
CONTINUOUS
 62
     7
 10
202.2153032179994057
 20
162.134691132202903
 30
0.0
 11
235.6379766730921972
 21
162.134691132202903
 31
0.0
  0
LINE
  5
6479
  8
AM_5
  6
CONTINUOUS
 62
     7
 10
234.6379766730921972
 20
159.634691132202903
 30
0.0
 11
234.6379766730921972
 21
157.134691132202903
 31
0.0
  0
LINE
  5
647A
  8
AM_5
  6
CONTINUOUS
 62
     7
 10
234.6379766730921972
 20
165.6346911321952859
 30
0.0
 11
234.6379766730921972
 21
170.8489768464810936
 31
0.0
  0
LINE
  5
647B
  8
AM_5
  6
CONTINUOUS
 62
     7
 10
234.6379766730921972
 20
162.134691132202903
 30
0.0
 11
234.6379766730921972
 21
163.1346911321952859
 31
0.0
  0
INSERT
  5
647C
  8
AM_5
 62
     7
  2
_OPEN30
 10
234.6379766730921972
 20
162.134691132202903
 30
0.0
 41
2.5
 42
2.5
 43
2.5
 50
90.0
  0
INSERT
  5
647D
  8
AM_5
 62
     7
  2
_OPEN30
 10
234.6379766730921972
 20
163.1346911321952859
 30
0.0
 41
2.5
 42
2.5
 43
2.5
 50
270.0
  0
INSERT
  5
647E
  8
AM_5
  2
*U45
 10
0.0
 20
0.0
 30
0.0
  0
POINT
  5
647F
  8
DEFPOINTS
 62
     0
 10
200.4153032180014975
 20
163.1346911321952859
 30
0.0
  0
POINT
  5
6480
  8
DEFPOINTS
 62
     0
 10
201.2153032179994057
 20
162.134691132202903
 30
0.0
  0
POINT
  5
6481
  8
DEFPOINTS
 62
     0
 10
234.6379766730921972
 20
162.134691132202903
 30
0.0
  0
ENDBLK
  5
6349
  8
0
  0
BLOCK
  8
0
  2
*D22
 70
     1
 10
0.0
 20
0.0
 30
0.0
  3
*D22
  1

  0
LINE
  5
6482
  8
AM_5
  6
CONTINUOUS
 62
     7
 10
202.2153032179994057
 20
127.134691132202903
 30
0.0
 11
235.6379766730921972
 21
127.134691132202903
 31
0.0
  0
LINE
  5
6483
  8
AM_5
  6
CONTINUOUS
 62
     7
 10
202.2153032179994057
 20
162.134691132202903
 30
0.0
 11
235.6379766730921972
 21
162.134691132202903
 31
0.0
  0
LINE
  5
6484
  8
AM_5
  6
CONTINUOUS
 62
     7
 10
234.6379766730921972
 20
129.634691132202903
 30
0.0
 11
234.6379766730921972
 21
159.634691132202903
 31
0.0
  0
INSERT
  5
6485
  8
AM_5
 62
     7
  2
_OPEN30
 10
234.6379766730921972
 20
127.134691132202903
 30
0.0
 41
2.5
 42
2.5
 43
2.5
 50
270.0
  0
INSERT
  5
6486
  8
AM_5
 62
     7
  2
_OPEN30
 10
234.6379766730921972
 20
162.134691132202903
 30
0.0
 41
2.5
 42
2.5
 43
2.5
 50
90.0
  0
INSERT
  5
6487
  8
AM_5
  2
*U46
 10
0.0
 20
0.0
 30
0.0
  0
POINT
  5
6488
  8
DEFPOINTS
 62
     0
 10
201.2153032179994057
 20
127.134691132202903
 30
0.0
  0
POINT
  5
6489
  8
DEFPOINTS
 62
     0
 10
201.2153032179994057
 20
162.134691132202903
 30
0.0
  0
POINT
  5
648A
  8
DEFPOINTS
 62
     0
 10
234.6379766730921972
 20
162.134691132202903
 30
0.0
  0
ENDBLK
  5
6386
  8
0
  0
BLOCK
  8
0
  2
*D23
 70
     1
 10
0.0
 20
0.0
 30
0.0
  3
*D23
  1

  0
LINE
  5
648B
  8
AM_5
  6
CONTINUOUS
 62
     7
 10
201.4153032180014975
 20
163.1346911321952859
 30
0.0
 11
242.6379766730923109
 21
163.1346911321952859
 31
0.0
  0
LINE
  5
648C
  8
AM_5
  6
CONTINUOUS
 62
     7
 10
202.2153032179994057
 20
127.134691132202903
 30
0.0
 11
242.6379766730923109
 21
127.134691132202903
 31
0.0
  0
LINE
  5
648D
  8
AM_5
  6
CONTINUOUS
 62
     7
 10
241.6379766730923109
 20
160.6346911321952859
 30
0.0
 11
241.6379766730923109
 21
129.634691132202903
 31
0.0
  0
INSERT
  5
648E
  8
AM_5
 62
     7
  2
_OPEN30
 10
241.6379766730923109
 20
163.1346911321952859
 30
0.0
 41
2.5
 42
2.5
 43
2.5
 50
90.0
  0
INSERT
  5
648F
  8
AM_5
 62
     7
  2
_OPEN30
 10
241.6379766730923109
 20
127.134691132202903
 30
0.0
 41
2.5
 42
2.5
 43
2.5
 50
270.0
  0
INSERT
  5
6490
  8
AM_5
  2
*U47
 10
0.0
 20
0.0
 30
0.0
  0
POINT
  5
6491
  8
DEFPOINTS
 62
     0
 10
200.4153032180016112
 20
163.1346911321952859
 30
0.0
  0
POINT
  5
6492
  8
DEFPOINTS
 62
     0
 10
201.2153032179994057
 20
127.134691132202903
 30
0.0
  0
POINT
  5
6493
  8
DEFPOINTS
 62
     0
 10
241.6379766730923109
 20
127.134691132202903
 30
0.0
  0
ENDBLK
  5
63A7
  8
0
  0
BLOCK
  8
0
  2
*D24
 70
     1
 10
0.0
 20
0.0
 30
0.0
  3
*D24
  1

  0
LINE
  5
6426
  8
AM_5
  6
CONTINUOUS
 62
     7
 10
72.7944876225294166
 20
59.9974805301849585
 30
0.0
 11
72.7944876225294166
 21
45.997480530169689
 31
0.0
  0
LINE
  5
6427
  8
AM_5
  6
CONTINUOUS
 62
     7
 10
114.3944876225294962
 20
59.9974805301697174
 30
0.0
 11
114.3944876225294962
 21
45.997480530169689
 31
0.0
  0
LINE
  5
6428
  8
AM_5
  6
CONTINUOUS
 62
     7
 10
75.2944876225294166
 20
46.997480530169689
 30
0.0
 11
111.8944876225294962
 21
46.997480530169689
 31
0.0
  0
INSERT
  5
6429
  8
AM_5
 62
     7
  2
_OPEN30
 10
72.7944876225294166
 20
46.997480530169689
 30
0.0
 41
2.5
 42
2.5
 43
2.5
 50
180.0
  0
INSERT
  5
642A
  8
AM_5
 62
     7
  2
_OPEN30
 10
114.3944876225294962
 20
46.997480530169689
 30
0.0
 41
2.5
 42
2.5
 43
2.5
  0
INSERT
  5
642B
  8
AM_5
  2
*U42
 10
0.0
 20
0.0
 30
0.0
  0
POINT
  5
642C
  8
DEFPOINTS
 62
     0
 10
72.7944876225294166
 20
60.9974805301849727
 30
0.0
  0
POINT
  5
642D
  8
DEFPOINTS
 62
     0
 10
114.3944876225294962
 20
60.9974805301697174
 30
0.0
  0
POINT
  5
642E
  8
DEFPOINTS
 62
     0
 10
114.3944876225294962
 20
46.997480530169689
 30
0.0
  0
ENDBLK
  5
6408
  8
0
  0
BLOCK
  8
0
  2
*D25
 70
     1
 10
0.0
 20
0.0
 30
0.0
  3
*D25
  1

  0
LINE
  5
644B
  8
AM_5
  6
CONTINUOUS
 62
     7
 10
144.5944876224752988
 20
77.4974805301575032
 30
0.0
 11
158.5944876224762936
 21
77.4974805301575032
 31
0.0
  0
LINE
  5
644C
  8
AM_5
  6
CONTINUOUS
 62
     7
 10
144.5944876224714051
 20
81.4974805301575032
 30
0.0
 11
158.5944876224762936
 21
81.4974805301575032
 31
0.0
  0
LINE
  5
644D
  8
AM_5
  6
CONTINUOUS
 62
     7
 10
157.5944876224762936
 20
74.9974805301575032
 30
0.0
 11
157.5944876224762936
 21
72.4974805301575032
 31
0.0
  0
LINE
  5
644E
  8
AM_5
  6
CONTINUOUS
 62
     7
 10
157.5944876224762936
 20
83.9974805301575032
 30
0.0
 11
157.5944876224762936
 21
90.6403376730146562
 31
0.0
  0
LINE
  5
644F
  8
AM_5
  6
CONTINUOUS
 62
     7
 10
157.5944876224762936
 20
77.4974805301575032
 30
0.0
 11
157.5944876224762936
 21
81.4974805301575032
 31
0.0
  0
INSERT
  5
6450
  8
AM_5
 62
     7
  2
_OPEN30
 10
157.5944876224762936
 20
77.4974805301575032
 30
0.0
 41
2.5
 42
2.5
 43
2.5
 50
90.0
  0
INSERT
  5
6451
  8
AM_5
 62
     7
  2
_OPEN30
 10
157.5944876224762936
 20
81.4974805301575032
 30
0.0
 41
2.5
 42
2.5
 43
2.5
 50
270.0
  0
INSERT
  5
6452
  8
AM_5
  2
*U43
 10
0.0
 20
0.0
 30
0.0
  0
POINT
  5
6453
  8
DEFPOINTS
 62
     0
 10
143.5944876224752988
 20
77.4974805301575032
 30
0.0
  0
POINT
  5
6454
  8
DEFPOINTS
 62
     0
 10
143.5944876224714051
 20
81.4974805301575032
 30
0.0
  0
POINT
  5
6455
  8
DEFPOINTS
 62
     0
 10
157.5944876224762936
 20
81.4974805301575032
 30
0.0
  0
ENDBLK
  5
6432
  8
0
  0
BLOCK
  8
0
  2
*D26
 70
     1
 10
0.0
 20
0.0
 30
0.0
  3
*D26
  1

  0
LINE
  5
646E
  8
AM_5
  6
CONTINUOUS
 62
     7
 10
114.5944876223668984
 20
60.1974805301692584
 30
0.0
 11
165.5944876224749009
 21
60.1974805301692513
 31
0.0
  0
LINE
  5
646F
  8
AM_5
  6
CONTINUOUS
 62
     7
 10
144.5944876224714051
 20
81.4974805301575174
 30
0.0
 11
165.5944876224749009
 21
81.4974805301575032
 31
0.0
  0
LINE
  5
6470
  8
AM_5
  6
CONTINUOUS
 62
     7
 10
164.5944876224749009
 20
62.6974805301692513
 30
0.0
 11
164.5944876224749009
 21
78.9974805301575032
 31
0.0
  0
INSERT
  5
6471
  8
AM_5
 62
     7
  2
_OPEN30
 10
164.5944876224749009
 20
60.1974805301692513
 30
0.0
 41
2.5
 42
2.5
 43
2.5
 50
270.0
  0
INSERT
  5
6472
  8
AM_5
 62
     7
  2
_OPEN30
 10
164.5944876224749009
 20
81.4974805301575032
 30
0.0
 41
2.5
 42
2.5
 43
2.5
 50
90.0
  0
INSERT
  5
6473
  8
AM_5
  2
*U44
 10
0.0
 20
0.0
 30
0.0
  0
POINT
  5
6474
  8
DEFPOINTS
 62
     0
 10
113.5944876223668984
 20
60.1974805301692584
 30
0.0
  0
POINT
  5
6475
  8
DEFPOINTS
 62
     0
 10
143.5944876224714051
 20
81.4974805301575174
 30
0.0
  0
POINT
  5
6476
  8
DEFPOINTS
 62
     0
 10
164.5944876224749009
 20
81.4974805301575032
 30
0.0
  0
ENDBLK
  5
6459
  8
0
  0
BLOCK
  8
0
  2
*S27
 70
     1
 10
0.0
 20
0.0
 30
0.0
  3
*S27
  1

  0
LINE
  5
64E0
  8
AM_5
  6
CONTINUOUS
 62
     7
 10
185.0614984667915905
 20
171.6316731808298925
 30
0.0
 11
150.4639984667915087
 21
171.6316731808298925
 31
0.0
  0
LINE
  5
64E1
  8
AM_5
  6
CONTINUOUS
 62
     7
 10
150.4639984667915087
 20
171.6316731808298925
 30
0.0
 11
141.7769479521869016
 21
161.8460630757193996
 31
0.0
  0
LINE
  5
64E2
  8
AM_5
  6
CONTINUOUS
 62
     7
 10
141.7769479521869016
 20
161.8460630757193996
 30
0.0
 11
139.6857177873314981
 21
159.4903771039483047
 31
0.0
  0
LINE
  5
64E3
  8
AM_5
  6
CONTINUOUS
 62
     7
 10
141.4668160118553999
 20
162.121378748724311
 30
0.0
 11
139.6857177873314981
 21
159.4903771039483047
 31
0.0
  0
LINE
  5
64E4
  8
AM_5
  6
CONTINUOUS
 62
     7
 10
139.6857177873314981
 20
159.4903771039483047
 30
0.0
 11
142.0870798925184033
 21
161.5707474027144031
 31
0.0
  0
INSERT
  5
64E5
  8
AM_5
  2
*U48
 10
0.0
 20
0.0
 30
0.0
  0
ENDBLK
  5
64E7
  8
0
  0
BLOCK
  8
0
  2
*U31
 70
     1
 10
0.0
 20
0.0
 30
0.0
  3
*U31
  1

  0
TEXT
  5
6658
  8
AM_5
 62
     7
 10
72.0373447653399239
 20
103.7948468196151026
 30
0.0
 40
3.0
  1
98(切欠き98.4×35.4)
  0
ENDBLK
  5
665A
  8
0
  0
BLOCK
  8
0
  2
*U32
 70
     1
 10
0.0
 20
0.0
 30
0.0
  3
*U32
  1

  0
TEXT
  5
665C
  8
AM_5
 62
     7
 10
91.1659161939055451
 20
178.1346921321795094
 30
0.0
 40
3.0
  1
40
  0
ENDBLK
  5
665E
  8
0
  0
BLOCK
  8
0
  2
*U33
 70
     1
 10
0.0
 20
0.0
 30
0.0
  3
*U33
  1

  0
TEXT
  5
6660
  8
AM_5
 62
     7
 10
91.1659161939019498
 20
185.1346921321795094
 30
0.0
 40
3.0
  1
88
  0
ENDBLK
  5
6662
  8
0
  0
BLOCK
  8
0
  2
*U34
 70
     1
 10
0.0
 20
0.0
 30
0.0
  3
*U34
  1

  0
TEXT
  5
6664
  8
AM_5
 62
     7
 10
90.0230590510442568
 20
192.1346921322148091
 30
0.0
 40
3.0
  1
100
  0
ENDBLK
  5
6666
  8
0
  0
BLOCK
  8
0
  2
*U35
 70
     1
 10
0.0
 20
0.0
 30
0.0
  3
*U35
  1

  0
TEXT
  5
6668
  8
AM_5
 62
     7
 10
126.0944876224767057
 20
158.6346911321637947
 30
0.0
 40
3.0
  1
7
 50
90.0
  0
ENDBLK
  5
666A
  8
0
  0
BLOCK
  8
0
  2
*U36
 70
     1
 10
0.0
 20
0.0
 30
0.0
  3
*U36
  1

  0
TEXT
  5
666C
  8
AM_5
 62
     7
 10
126.0944876224767057
 20
144.9918339893104928
 30
0.0
 40
3.0
  1
18
 50
90.0
  0
ENDBLK
  5
666E
  8
0
  0
BLOCK
  8
0
  2
*U37
 70
     1
 10
0.0
 20
0.0
 30
0.0
  3
*U37
  1

  0
TEXT
  5
6670
  8
AM_5
 62
     7
 10
163.9480366936211908
 20
159.2061197036080102
 30
0.0
 40
3.0
  1
6
 50
90.0
  0
ENDBLK
  5
6672
  8
0
  0
BLOCK
  8
0
  2
*U38
 70
     1
 10
0.0
 20
0.0
 30
0.0
  3
*U38
  1

  0
TEXT
  5
6674
  8
AM_5
 62
     7
 10
163.9480366936261078
 20
142.2061197036078113
 30
0.0
 40
3.0
  1
25
 50
90.0
  0
ENDBLK
  5
6676
  8
0
  0
BLOCK
  8
0
  2
*U39
 70
     1
 10
0.0
 20
0.0
 30
0.0
  3
*U39
  1

  0
TEXT
  5
6678
  8
AM_5
 62
     7
 10
170.9480366936303142
 20
142.2775482750286073
 30
0.0
 40
3.0
  1
L
 50
90.0
  0
ENDBLK
  5
667A
  8
0
  0
BLOCK
  8
0
  2
*U40
 70
     1
 10
0.0
 20
0.0
 30
0.0
  3
*U40
  1

  0
TEXT
  5
667C
  8
AM_5
 62
     7
 10
170.9480366936303142
 20
115.4204054178938037
 30
0.0
 40
3.0
  1
1
 50
90.0
  0
ENDBLK
  5
667E
  8
0
  0
BLOCK
  8
0
  2
*U41
 70
     1
 10
0.0
 20
0.0
 30
0.0
  3
*U41
  1

  0
TEXT
  5
6680
  8
AM_5
 62
     7
 10
207.2153032179994057
 20
178.1346911321969912
 30
0.0
 40
3.0
  1
1.8
  0
ENDBLK
  5
6682
  8
0
  0
BLOCK
  8
0
  2
*U42
 70
     1
 10
0.0
 20
0.0
 30
0.0
  3
*U42
  1

  0
TEXT
  5
6684
  8
AM_5
 62
     7
 10
89.380201908243734
 20
47.997480530169689
 30
0.0
 40
3.0
  1
41.6
  0
ENDBLK
  5
6686
  8
0
  0
BLOCK
  8
0
  2
*U43
 70
     1
 10
0.0
 20
0.0
 30
0.0
  3
*U43
  1

  0
TEXT
  5
6688
  8
AM_5
 62
     7
 10
156.5944876224762936
 20
87.4974805301575174
 30
0.0
 40
3.0
  1
4
 50
90.0
  0
ENDBLK
  5
668A
  8
0
  0
BLOCK
  8
0
  2
*U44
 70
     1
 10
0.0
 20
0.0
 30
0.0
  3
*U44
  1

  0
TEXT
  5
668C
  8
AM_5
 62
     7
 10
163.5944876224749009
 20
66.5617662444491316
 30
0.0
 40
3.0
  1
21.3
 50
90.0
  0
ENDBLK
  5
668E
  8
0
  0
BLOCK
  8
0
  2
*U45
 70
     1
 10
0.0
 20
0.0
 30
0.0
  3
*U45
  1

  0
TEXT
  5
6690
  8
AM_5
 62
     7
 10
233.6379766730921972
 20
169.1346911321953996
 30
0.0
 40
3.0
  1
1
 50
90.0
  0
ENDBLK
  5
6692
  8
0
  0
BLOCK
  8
0
  2
*U46
 70
     1
 10
0.0
 20
0.0
 30
0.0
  3
*U46
  1

  0
TEXT
  5
6694
  8
AM_5
 62
     7
 10
233.6379766730921972
 20
142.2061197036314866
 30
0.0
 40
3.0
  1
35
 50
90.0
  0
ENDBLK
  5
6696
  8
0
  0
BLOCK
  8
0
  2
*U47
 70
     1
 10
0.0
 20
0.0
 30
0.0
  3
*U47
  1

  0
TEXT
  5
6698
  8
AM_5
 62
     7
 10
240.6379766730923109
 20
142.7775482750562901
 30
0.0
 40
3.0
  1
36
 50
90.0
  0
ENDBLK
  5
669A
  8
0
  0
BLOCK
  8
0
  2
*U48
 70
     1
 10
0.0
 20
0.0
 30
0.0
  3
*U48
  1

  0
TEXT
  5
669C
  8
AM_5
 62
     7
 10
153.1414984667914894
 20
173.2066731808299096
 30
0.0
 40
3.149999999999999
  1
4-\U+22054.3×\U+22056.3皿孔
  7
ACJISTS
  0
ENDBLK
  5
669E
  8
0
  0
ENDSEC
  0
SECTION
  2
ENTITIES
  0
INSERT
  5
1BB5
  8
0
  2
ZUWAKU-A4H
 10
0.0
 20
0.0
 30
0.0
1001
GENIUS_GENOREF_13
1005
1C93
1001
GENIUS_GENOBJ-N-SDF_13
1002
{
1000
OWNER
1000
GEN
1002
}
1001
GENIUS_GENODEF_13
1002
{
1000
HIER
1070
     0
1002
}
1002
{
1000
MANEDIT
1070
     0
1002
}
1002
{
1000
NOSEL
1070
     0
1002
}
1002
{
1000
BEHIND
1070
     0
1002
}
1002
{
1000
OTHER
1070
     0
1002
}
1002
{
1000
REACTOR
1002
}
1001
GENIUS_GENSCREG_13
1040
1.0
1040
1.0
1011
12.9569999999950802
1021
0.0
1031
0.0
1021
10.0
1031
0.0
1011
289.4570000003852783
1021
0.0
1031
0.0
1021
201.1206999999936045
1031
0.0
1070
     3
  0
POINT
  5
1C93
  8
0
 10
0.0
 20
0.0
 30
0.0
1001
GENIUS_GENOLIS_13
1002
{
1000
ENT
1005
1C84
1005
1BB5
1002
}
1001
GENIUS_GENOENT_13
1002
{
1000
MYREF
1005
1C93
1002
}
1002
{
1000
GRP
1005
0
1002
}
1001
GENIUS_GENOBJ-N-TIT_13
1002
{
1000
OWNER
1000
GEN
1002
}
1001
GENIUS_GENTITLE_13
1002
{
1000
BORDER
1000
C:\Program Files\Autodesk\ACADM 2008\Acadm\gen\Dwg\Format\ZUWAKU-A4H
1002
}
1002
{
1000
TITLE
1000
C:\Program Files\Autodesk\ACADM 2008\Acadm\gen\Dwg\Title\N_Title
1002
}
1002
{
1000
ADDITIONAL1
1000

1002
}
1002
{
1000
ADDITIONAL2
1000

1002
}
1002
{
1000
SCALE
1000
1:1
1002
}
1002
{
1000
TITLESTD
1000
JIS
1002
}
1002
{
1000
HRA
1005
1BB5
1002
}
1002
{
1000
HTIT
1005
1C84
1002
}
1002
{
1000
INVTXTID
1005
0
1002
}
1002
{
1000
UNCHG
1002
{
1000
GEN-TITLE-SIZ
1000
GEN-TITLE-SCA
1002
}
1002
}
1002
{
1000
GENIUSID
1005
1C93
1002
}
1001
GENIUS_GENODEF_13
1002
{
1000
HIER
1070
     1
1002
}
1002
{
1000
MANEDIT
1070
     1
1002
}
1002
{
1000
NOSEL
1070
     0
1002
}
1002
{
1000
BEHIND
1070
     0
1002
}
1002
{
1000
OTHER
1070
     0
1002
}
1002
{
1000
REACTOR
1002
}
  0
INSERT
  5
20F2
  8
0
 66
     1
  2
A$C1C06296A
 10
12.9570001316259305
 20
9.9999998268887111
 30
0.0
  0
ATTRIB
  5
20F3
  8
AM_BOR
 62
     7
 10
127.2677097070090042
 20
10.5
 30
0.0
 40
3.0
  1

 11
127.2677097070090042
 21
12.0
 31
0.0
  2
SETS｛20｝
 70
     0
 74
     2
1001
ACDBATTR
1070
     0
1070
     1
  0
ATTRIB
  5
20F4
  8
AM_BOR
 62
     7
 10
32.0177097070090895
 20
10.5
 30
0.0
 40
3.0
  1

 11
32.0177097070090895
 21
12.0
 31
0.0
  2
REMARKS｛20｝
 70
     0
 74
     2
1001
ACDBATTR
1070
     0
1070
     1
  0
ATTRIB
  5
20F5
  8
AM_BOR
 62
     7
 10
127.2677097070090042
 20
15.5
 30
0.0
 40
3.0
  1

 11
127.2677097070090042
 21
17.0
 31
0.0
  2
SETS｛20｝
 70
     0
 74
     2
1001
ACDBATTR
1070
     0
1070
     1
  0
ATTRIB
  5
20F6
  8
AM_BOR
 62
     7
 10
32.0177097070090895
 20
15.5
 30
0.0
 40
3.0
  1

 11
32.0177097070090895
 21
17.0
 31
0.0
  2
REMARKS｛20｝
 70
     0
 74
     2
1001
ACDBATTR
1070
     0
1070
     1
  0
ATTRIB
  5
20F7
  8
AM_BOR
 62
     7
 10
127.2677097070090042
 20
20.5
 30
0.0
 40
3.0
  1
M4×10（D=6）皿小ねじ（4本）
 11
127.2677097070090042
 21
22.0
 31
0.0
  2
SETS｛20｝
 70
     0
 74
     2
1001
ACDBATTR
1070
     0
1070
     1
  0
ATTRIB
  5
20F8
  8
AM_BOR
 62
     7
 10
32.0177097070090895
 20
20.5
 30
0.0
 40
3.0
  1

 11
32.0177097070090895
 21
22.0
 31
0.0
  2
REMARKS｛20｝
 70
     0
 74
     2
1001
ACDBATTR
1070
     0
1070
     1
  0
ATTRIB
  5
20F9
  8
AM_BOR
 62
     7
 10
127.2070000000192067
 20
33.5
 30
0.0
 40
3.0
  1
GP-10-(DtA)
 11
127.2070000000192067
 21
35.0
 31
0.0
  2
ART_NO｛20｝
 70
     0
 74
     2
1001
ACDBATTR
1070
     0
1070
     1
  0
ATTRIB
  5
20FA
  8
AM_BOR
 62
     7
 10
31.9570000000192103
 20
33.5
 30
0.0
 40
3.0
  1
ストライク
 11
31.9570000000192103
 21
35.0
 31
0.0
  2
ARTICLE｛20｝
 70
     0
 74
     2
1001
ACDBATTR
1070
     0
1070
     1
  0
ATTRIB
  5
20FB
  8
AM_BOR
 62
     7
 10
127.2070000000192067
 20
27.0
 30
0.0
 40
3.0
  1
ヘアライン
 11
127.2070000000192067
 21
28.5
 31
0.0
  2
FINISH｛20｝
 70
     0
 74
     2
1001
ACDBATTR
1070
     0
1070
     1
  0
ATTRIB
  5
20FC
  8
AM_BOR
 62
     7
 10
31.9570000000192103
 20
27.0
 30
0.0
 40
3.0
  1
ステンレス
 11
31.9570000000192103
 21
28.5
 31
0.0
  2
MATERIAK｛20｝
 70
     0
 74
     2
1001
ACDBATTR
1070
     0
1070
     1
  0
SEQEND
  5
20FD
  8
0
  0
LINE
  5
4B08
  8
AM_0
 10
43.5944876225644435
 20
81.4974805301967109
 30
0.0
 11
143.5944876224714051
 21
81.4974805301575174
 31
0.0
  0
LINE
  5
4B09
  8
AM_0
 10
43.594487622495528
 20
122.1346911321403041
 30
0.0
 11
43.5944876224727906
 21
163.1346911321404036
 31
0.0
  0
LINE
  5
4B0A
  8
AM_0
 10
199.415303217912907
 20
123.1346911321974034
 30
0.0
 11
199.4153032180014975
 21
163.134691132194888
 31
0.0
  0
LINE
  5
4B0B
  8
AM_0
 10
143.5944876224955067
 20
122.1346911321794977
 30
0.0
 11
143.5944876224727977
 21
163.1346911321795119
 31
0.0
  0
LINE
  5
4B0C
  8
AM_0
 10
43.5944876224955422
 20
122.1346911321403041
 30
0.0
 11
143.5944876224955067
 21
122.1346911321794977
 31
0.0
  0
LINE
  5
4B0D
  8
AM_0
 10
200.4153032179133049
 20
122.1346911321953002
 30
0.0
 11
203.4153032179106049
 21
122.1346911321959965
 31
0.0
  0
LINE
  5
4B0E
  8
AM_0
 10
43.5944876224727906
 20
163.1346911321402899
 30
0.0
 11
143.5944876224729114
 21
163.1346911321795119
 31
0.0
  0
LINE
  5
4B0F
  8
AM_0
 10
199.4153032180014975
 20
163.134691132194888
 30
0.0
 11
200.4153032180014975
 21
163.1346911321952859
 31
0.0
  0
LINE
  5
4B10
  8
AM_0
 10
200.415303217912907
 20
123.1346911321953002
 30
0.0
 11
203.415303217912907
 21
123.1346911321959965
 31
0.0
  0
LINE
  5
4B11
  8
AM_7
 10
196.7799048043432038
 20
157.1346911321938933
 30
0.0
 11
203.0369498686139025
 21
157.1346911321963091
 31
0.0
  0
LINE
  5
4B12
  8
AM_7
 10
196.7799048043530945
 20
132.1346911321938933
 30
0.0
 11
203.036949868623708
 21
132.1346911321963091
 31
0.0
  0
CIRCLE
  5
4B13
  8
AM_0
 10
137.5944876224899076
 20
132.1346911321772097
 30
0.0
 40
2.149999999999999
  0
CIRCLE
  5
4B14
  8
AM_0
 10
137.5944876224899076
 20
132.1346911321772097
 30
0.0
 40
3.149999999999999
  0
CIRCLE
  5
4B15
  8
AM_0
 10
137.5944876224762083
 20
157.1346911321772097
 30
0.0
 40
2.149999999999999
  0
CIRCLE
  5
4B16
  8
AM_0
 10
137.5944876224762083
 20
157.1346911321772097
 30
0.0
 40
3.149999999999999
  0
CIRCLE
  5
4B17
  8
AM_0
 10
49.5944876224761089
 20
157.1346911321427058
 30
0.0
 40
2.149999999999999
  0
CIRCLE
  5
4B18
  8
AM_0
 10
49.5944876224761089
 20
157.1346911321427058
 30
0.0
 40
3.149999999999999
  0
CIRCLE
  5
4B19
  8
AM_0
 10
49.5944876224899929
 20
132.134691132142791
 30
0.0
 40
2.149999999999999
  0
CIRCLE
  5
4B1A
  8
AM_0
 10
49.5944876224899929
 20
132.134691132142791
 30
0.0
 40
3.149999999999999
  0
LINE
  5
4B1B
  8
AM_0
 10
73.5944876224888844
 20
134.1346911321521134
 30
0.0
 11
73.5944876224769615
 21
155.6346911321521134
 31
0.0
  0
LINE
  5
4B1C
  8
AM_0
 10
113.5944876224887992
 20
134.1346911321676885
 30
0.0
 11
113.5944876224769047
 21
155.6346911321678874
 31
0.0
  0
LINE
  5
4B1D
  8
AM_0
 10
74.0944876224768052
 20
156.1346911321523123
 30
0.0
 11
113.0944876224768052
 21
156.1346911321676032
 31
0.0
  0
LINE
  5
4B1E
  8
AM_0
 10
73.5944876224888844
 20
134.1346911321521134
 30
0.0
 11
113.5944876224887992
 21
134.1346911321678022
 31
0.0
  0
LINE
  5
4B1F
  8
AM_0
 10
143.5944876224752988
 20
77.4974805301575032
 30
0.0
 11
143.5944876224714051
 21
81.4974805301575032
 31
0.0
  0
LINE
  5
4B20
  8
AM_0
 10
43.5944876225691331
 20
77.4974805301967109
 30
0.0
 11
43.5944876225644009
 21
81.4974805301967109
 31
0.0
  0
LINE
  5
4B21
  8
AM_0
 10
43.5944876225691402
 20
77.4974805301967109
 30
0.0
 11
143.5944876224752988
 21
77.4974805301575174
 31
0.0
  0
LINE
  5
4B22
  8
AM_0
 10
73.5944876225647278
 20
72.4974805301849301
 30
0.0
 11
113.5944876223737054
 21
72.4974805301692555
 31
0.0
  0
LINE
  5
4B23
  8
AM_7
 10
44.59448762249
 20
132.1346911321408015
 30
0.0
 11
54.59448762249
 21
132.1346911321446953
 31
0.0
  0
LINE
  5
4B24
  8
AM_7
 10
132.5944876224899076
 20
132.1346911321753055
 30
0.0
 11
142.5944876224899076
 21
132.134691132179114
 31
0.0
  0
LINE
  5
4B25
  8
AM_7
 10
44.5944876224761089
 20
157.1346911321406878
 30
0.0
 11
54.5944876224761089
 21
157.1346911321446953
 31
0.0
  0
LINE
  5
4B26
  8
AM_7
 10
132.5944876224762083
 20
157.1346911321753055
 30
0.0
 11
142.5944876224760947
 21
157.134691132179114
 31
0.0
  0
LINE
  5
4B27
  8
AM_7
 10
137.5944876224926929
 20
127.1346911321770961
 30
0.0
 11
137.5944876224872075
 21
137.1346911321772097
 31
0.0
  0
LINE
  5
4B28
  8
AM_7
 10
137.5944876224789084
 20
152.134691132177295
 30
0.0
 11
137.5944876224733946
 21
162.1346911321772097
 31
0.0
  0
LINE
  5
4B29
  8
AM_7
 10
49.5944876224927924
 20
127.1346911321427058
 30
0.0
 11
49.5944876224872218
 21
137.1346911321427058
 31
0.0
  0
LINE
  5
4B2A
  8
AM_7
 10
49.5944876224789084
 20
152.1346911321427058
 30
0.0
 11
49.5944876224733733
 21
162.1346911321427058
 31
0.0
  0
LINE
  5
4B2B
  8
AM_7
 10
93.5944876225313322
 20
57.5457569190996807
 30
0.0
 11
93.5944876225132845
 21
90.1093404784488143
 31
0.0
  0
LINE
  5
4B2C
  8
AM_7
 10
93.5944876225000257
 20
114.0610743556627966
 30
0.0
 11
93.5944876224675966
 21
172.4974805301569063
 31
0.0
  0
LINE
  5
4B2D
  8
AM_0
 10
73.5944876224873212
 20
138.1346911321521134
 30
0.0
 11
113.5944876224874065
 21
138.1346911321676885
 31
0.0
  0
LINE
  5
4B2E
  8
AM_0
 10
113.5944876223668984
 20
60.1974805301692584
 30
0.0
 11
113.5944876223775992
 21
77.4974805301692697
 31
0.0
  0
LINE
  5
4B2F
  8
AM_0
 10
73.5944876225647278
 20
60.1974805301849685
 30
0.0
 11
73.594487622565282
 21
77.4974805301849585
 31
0.0
  0
LINE
  5
4B30
  8
AM_7
 10
137.5944876225647135
 20
74.8741316839540758
 30
0.0
 11
137.5944876225647135
 21
85.9882108877548461
 31
0.0
  0
LINE
  5
4B31
  8
AM_7
 10
49.59448762249135
 20
74.8741316840028901
 30
0.0
 11
49.5944876224975033
 21
85.9882108878036746
 31
0.0
  0
LINE
  5
4B32
  8
AM_0
 10
200.415303217912907
 20
123.1346911321952007
 30
0.0
 11
200.4153032180016112
 21
163.1346911321952859
 31
0.0
  0
ARC
  5
4B33
  8
AM_0
 10
200.415303217912907
 20
123.1346911321952007
 30
0.0
 40
1.0
 50
180.0
 51
270.0
  0
LINE
  5
4B34
  8
AM_0
 10
203.4153032179106049
 20
122.1346911321959965
 30
0.0
 11
203.415303217912907
 21
123.1346911321959965
 31
0.0
  0
LINE
  5
4B3C
  8
AM_5
 10
203.725565525153911
 20
71.0653761992037118
 30
0.0
 11
247.5007892997367946
 21
71.0653761992208786
 31
0.0
  0
LINE
  5
4B3D
  8
AM_5
 10
203.725565525153911
 20
65.0653761992037118
 30
0.0
 11
247.5007892997367946
 21
65.0653761992208786
 31
0.0
  0
LINE
  5
4B3E
  8
AM_5
 10
203.725565525153911
 20
59.0653761992036408
 30
0.0
 11
247.5007892997367946
 21
59.0653761992208075
 31
0.0
  0
LINE
  5
4B3F
  8
AM_5
 10
203.7255655251539963
 20
53.0653761992036408
 30
0.0
 11
247.5007892997367946
 21
53.0653761992208004
 31
0.0
  0
LINE
  5
4B40
  8
AM_5
 10
203.7255655251539963
 20
47.0653761992036266
 30
0.0
 11
247.5007892997367946
 21
47.0653761992208004
 31
0.0
  0
LINE
  5
4B41
  8
AM_5
 10
203.7255655251539963
 20
41.0653761992036479
 30
0.0
 11
247.5007892997367946
 21
41.0653761992208075
 31
0.0
  0
TEXT
  5
4B43
  8
AM_5
 10
208.2502383195379991
 20
66.5153762468884224
 30
0.0
 40
3.0999999046325679
  1
40
  0
TEXT
  5
4B44
  8
AM_5
 10
208.2502383195379991
 20
60.5153762468884509
 30
0.0
 40
3.0999999046325679
  1
45
  0
TEXT
  5
4B45
  8
AM_5
 10
208.2502383195379991
 20
54.5153762468883869
 30
0.0
 40
3.0999999046325679
  1
50
  0
TEXT
  5
4B46
  8
AM_5
 10
208.2502383195379991
 20
48.5153762468884509
 30
0.0
 40
3.0999999046325679
  1
55
  0
TEXT
  5
4B47
  8
AM_5
 10
208.2502383195379991
 20
42.515376246888458
 30
0.0
 40
3.0999999046325679
  1
60
  0
TEXT
  5
4B4F
  8
AM_5
 10
229.0986107069959132
 20
72.5153762469037702
 30
0.0
 40
3.0999999046325679
  1
L寸法
  7
KNJYOKO
  0
TEXT
  5
4B50
  8
AM_5
 10
228.0111300506976022
 20
66.5153762469035712
 30
0.0
 40
3.0999999046325679
  1
40
  0
TEXT
  5
4B51
  8
AM_5
 10
228.0111300506976022
 20
60.5153762469035925
 30
0.0
 40
3.0999999046325679
  1
42.5
  0
TEXT
  5
4B52
  8
AM_5
 10
228.0111300506976022
 20
54.5153762469035925
 30
0.0
 40
3.0999999046325679
  1
45
  0
TEXT
  5
4B53
  8
AM_5
 10
228.0111300506976022
 20
48.5153762469035925
 30
0.0
 40
3.0999999046325679
  1
47.5
  0
TEXT
  5
4B54
  8
AM_5
 10
228.0111300506976022
 20
42.5153762469035925
 30
0.0
 40
3.0999999046325679
  1
50
  0
LINE
  5
4B55
  8
AM_5
 10
218.5702227479798125
 20
41.065376199209517
 30
0.0
 11
218.5702227479798125
 21
77.0653761992095383
 31
0.0
  0
TEXT
  5
4B59
  8
AM_5
 10
208.3447711860345066
 20
72.5153762468884793
 30
0.0
 40
3.0999999046325679
  1
Dt
  0
ARC
  5
4B5A
  8
AM_0
 10
113.0944876224769047
 20
155.6346911321676032
 30
0.0
 40
0.5
 50
0.0
 51
90.0
  0
ARC
  5
4B5B
  8
AM_0
 10
74.0944876224769757
 20
155.6346911321523976
 30
0.0
 40
0.5
 50
90.0
 51
180.0
  0
LINE
  5
4B5C
  8
AM_0
 10
201.215303217921587
 20
127.1346911322028035
 30
0.0
 11
201.2153032179994057
 21
162.134691132202903
 31
0.0
  0
LINE
  5
4B5D
  8
AM_0
 10
201.2153032179878096
 20
156.93469113219561
 30
0.0
 11
219.915303217985695
 21
156.9346911322029996
 31
0.0
  0
LINE
  5
4B5E
  8
AM_0
 10
200.415303217999309
 20
162.134691132202903
 30
0.0
 11
201.2153032179994057
 21
162.134691132202903
 31
0.0
  0
LINE
  5
4B5F
  8
AM_0
 10
220.7153032179427896
 20
136.6346911322011124
 30
0.0
 11
220.7153032179861043
 21
156.1346911322013113
 31
0.0
  0
ARC
  5
4B60
  8
AM_0
 10
219.9153032179860077
 20
156.1346911322029882
 30
0.0
 40
0.8
 50
0.0
 51
90.0
  0
LINE
  5
4B61
  8
AM_0
 10
208.5826459832653086
 20
135.8346911322028916
 30
0.0
 11
219.9153032179860077
 21
135.8346911322028916
 31
0.0
  0
LINE
  5
4B62
  8
AM_0
 10
201.2153032179338936
 20
132.6114786723734937
 30
0.0
 11
208.5826459832651949
 21
135.8346911322028063
 31
0.0
  0
ARC
  5
4B63
  8
AM_0
 10
219.9153032179428067
 20
136.634691132202903
 30
0.0
 40
0.8
 50
270.0
 51
0.0
  0
LINE
  5
4B64
  8
AM_0
 10
200.415303217999309
 20
127.134691132202903
 30
0.0
 11
201.2153032179994057
 21
127.134691132202903
 31
0.0
  0
LINE
  5
4B67
  8
AM_0
 10
73.5944876225291011
 20
60.1974805301849685
 30
0.0
 11
113.5944876225290017
 21
60.1974805301692868
 31
0.0
  0
ARC
  5
4B68
  8
AM_0
 10
113.5944876225293996
 20
60.9974805301692697
 30
0.0
 40
0.8
 50
270.0
 51
0.0
  0
ARC
  5
4B69
  8
AM_0
 10
73.5944876225294138
 20
60.9974805301849727
 30
0.0
 40
0.8
 50
180.0
 51
270.0
  0
LINE
  5
4B6A
  8
AM_0
 10
114.3944876225294962
 20
60.9974805301697174
 30
0.0
 11
114.3944876225202023
 21
77.4974805301689287
 31
0.0
  0
LINE
  5
4B6B
  8
AM_0
 10
72.7944876225293882
 20
60.9974805301845109
 30
0.0
 11
72.7944876225202506
 21
77.497480530185257
 31
0.0
  0
LINE
  5
4B6F
  8
AM_5
 10
203.725565525153911
 20
77.0653761992036834
 30
0.0
 11
218.5702227479798125
 21
77.0653761992094957
 31
0.0
  0
LINE
  5
4B70
  8
AM_5
 10
218.5702227479798125
 20
77.0653761992095383
 30
0.0
 11
247.5007892997367946
 21
77.0653761992208644
 31
0.0
  0
LINE
  5
4B73
  8
AM_3
 10
44.5944876224827667
 20
127.4346911324083038
 30
0.0
 11
142.5944876224826885
 21
127.4346911324083038
 31
0.0
  0
LINE
  5
4B74
  8
AM_3
 10
142.5944876224826885
 20
127.4346911324082043
 30
0.0
 11
142.5944876224826885
 21
162.83469113240821
 31
0.0
  0
LINE
  5
4B75
  8
AM_3
 10
142.5944876224826885
 20
162.8346911324082953
 30
0.0
 11
44.5944876224827667
 21
162.8346911324082953
 31
0.0
  0
LINE
  5
4B76
  8
AM_3
 10
44.5944876224827667
 20
162.8346911324078974
 30
0.0
 11
44.5944876224827667
 21
127.4346911324080054
 31
0.0
  0
LINE
  5
4B78
  8
AM_7
 10
128.5944876224893108
 20
145.1346911323533959
 30
0.0
 11
150.6593510805101062
 21
145.1346911323188067
 31
0.0
  0
LINE
  5
4B7B
  8
AM_3
 10
143.5944876224949098
 20
123.1346911321632973
 30
0.0
 11
43.5944876225308278
 21
123.134691132085905
 31
0.0
  0
LINE
  5
4B7E
  8
AM_7
 10
38.7144849509268028
 20
145.1346911324943108
 30
0.0
 11
122.4944877178566998
 21
145.1346911323628888
 31
0.0
  0
DIMENSION
  5
6097
  8
AM_5
  2
*D10
 10
44.5944876224827667
 20
101.7948468196151026
 30
0.0
 11
93.5944876224827738
 21
105.0805611053292949
 31
0.0
 70
     0
  1
<>(切欠き98.4×35.4)
 13
142.5944876224826885
 23
127.4346911324082043
 33
0.0
 14
44.5944876224827667
 24
127.4346911324083038
 34
0.0
 50
0.0000000000001132
1001
ACAD_DSTYLE_DIMINSPECT
1070
   396
1000
100%
1070
   395
1000

1070
   394
1070
    33
1070
   393
1070
     0
  0
DIMENSION
  5
60CA
  8
AM_5
  2
*D11
 10
73.5944876224769757
 20
177.1346921321795094
 30
0.0
 11
93.5944876224769757
 21
179.6346921321795094
 31
0.0
 70
     0
 13
113.5944876224769047
 23
155.6346911321676032
 33
0.0
 14
73.5944876224769757
 24
155.6346911321521134
 34
0.0
1001
ACAD_DSTYLE_DIMINSPECT
1070
   396
1000
100%
1070
   395
1000

1070
   394
1070
    33
1070
   393
1070
     0
  0
DIMENSION
  5
60F4
  8
AM_5
  2
*D12
 10
137.5944876224733946
 20
184.1346921321795094
 30
0.0
 11
93.5944876224733662
 21
186.6346921321795094
 31
0.0
 70
     0
 13
49.5944876224733733
 23
162.1346911321427058
 33
0.0
 14
137.5944876224733946
 24
162.1346911321772097
 34
0.0
1001
ACAD_DSTYLE_DIMINSPECT
1070
   396
1000
100%
1070
   395
1000

1070
   394
1070
    33
1070
   393
1070
     0
  0
DIMENSION
  5
6115
  8
AM_5
  2
*D13
 10
143.5944876224729114
 20
191.1346921322148091
 30
0.0
 11
93.5944876224728404
 21
193.6346921322148091
 31
0.0
 70
     0
 13
43.5944876224727906
 23
163.1346911321404036
 33
0.0
 14
143.5944876224729114
 24
163.1346911321795119
 34
0.0
 50
0.0000000000224661
1001
ACAD_DSTYLE_DIMINSPECT
1070
   396
1000
100%
1070
   395
1000

1070
   394
1070
    33
1070
   393
1070
     0
  0
DIMENSION
  5
6136
  8
AM_5
  2
*D14
 10
127.0944876224767057
 20
156.1346911321676032
 30
0.0
 11
124.5944876224767057
 21
159.6346911321637947
 31
0.0
 70
     0
 13
93.5944876224728404
 23
163.1346911321599009
 33
0.0
 14
113.0944876224767057
 24
156.1346911321676032
 34
0.0
 50
90.0
1001
ACAD_DSTYLE_DIMINSPECT
1070
   396
1000
100%
1070
   395
1000

1070
   394
1070
    33
1070
   393
1070
     0
1001
ACAD
1000
DSTYLE
1002
{
1070
   174
1070
     1
1002
}
  0
DIMENSION
  5
6173
  8
AM_5
  2
*D15
 10
127.0944876224767057
 20
156.1346911321676032
 30
0.0
 11
124.5944876224767057
 21
147.1346911321676885
 31
0.0
 70
     0
 13
113.5944876224865965
 23
138.1346911321676885
 33
0.0
 14
113.0944876224767057
 24
156.1346911321676032
 34
0.0
 50
90.0
1001
ACAD
1000
DSTYLE
1002
{
1070
   174
1070
     1
1002
}
1001
ACAD_DSTYLE_DIMINSPECT
1070
   396
1000
100%
1070
   395
1000

1070
   394
1070
    33
1070
   393
1070
     0
  0
INSERT
  5
61A7
  8
AM_5
  2
*S27
 10
0.0
 20
0.0
 30
0.0
  0
DIMENSION
  5
61DB
  8
AM_5
  2
*D16
 10
164.9480366936211908
 20
157.134691132179114
 30
0.0
 11
162.4480366936211908
 21
160.1346911321793982
 31
0.0
 70
     0
 13
143.5944876224729114
 23
163.1346911321795119
 33
0.0
 14
142.5944876224826885
 24
157.134691132179114
 34
0.0
 50
90.0000000000224816
1001
ACAD_DSTYLE_DIMINSPECT
1070
   396
1000
100%
1070
   395
1000

1070
   394
1070
    33
1070
   393
1070
     0
1001
ACAD
1000
DSTYLE
1002
{
1070
   174
1070
     1
1002
}
  0
DIMENSION
  5
6218
  8
AM_5
  2
*D17
 10
164.9480366936261078
 20
157.134691132179114
 30
0.0
 11
162.4480366936261078
 21
144.6346911321791993
 31
0.0
 70
     0
 13
142.5944876224899076
 23
132.134691132179114
 33
0.0
 14
142.5944876224826885
 24
157.134691132179114
 34
0.0
 50
90.0000000000227942
1001
ACAD
1000
DSTYLE
1002
{
1070
   174
1070
     1
1002
}
1001
ACAD_DSTYLE_DIMINSPECT
1070
   396
1000
100%
1070
   395
1000

1070
   394
1070
    33
1070
   393
1070
     0
  0
DIMENSION
  5
6239
  8
AM_5
  2
*D18
 10
171.9480366936303142
 20
123.1346911321632973
 30
0.0
 11
169.4480366936303142
 21
143.1346911321714117
 31
0.0
 70
     0
  1
L
 13
143.5944876224729114
 23
163.1346911321795119
 33
0.0
 14
143.5944876224949951
 24
123.1346911321632973
 34
0.0
 50
90.0000000000224816
1001
ACAD
1000
DSTYLE
1002
{
1070
   174
1070
     1
1002
}
1001
ACAD_DSTYLE_DIMINSPECT
1070
   396
1000
100%
1070
   395
1000

1070
   394
1070
    33
1070
   393
1070
     0
  0
DIMENSION
  5
626C
  8
AM_5
  2
*D19
 10
171.9480366936303142
 20
123.1346911321632973
 30
0.0
 11
171.9480366936303142
 21
115.7775482750366933
 31
0.0
 70
   128
 13
143.5944876224955067
 23
122.1346911321794977
 33
0.0
 14
143.5944876224949951
 24
123.1346911321632973
 34
0.0
 50
90.0000000000227942
1001
ACAD_DSTYLE_DIMINSPECT
1070
   396
1000
100%
1070
   395
1000

1070
   394
1070
    33
1070
   393
1070
     0
1001
ACAD
1000
DSTYLE
1002
{
1070
   174
1070
     1
1002
}
  0
DIMENSION
  5
62C1
  8
AM_5
  2
*D20
 10
201.2153032179994057
 20
177.1346911321969912
 30
0.0
 11
210.07244607514221
 21
179.6346911321969912
 31
0.0
 70
     0
 13
199.4153032180014975
 23
163.134691132194888
 33
0.0
 14
201.2153032179994057
 24
162.134691132202903
 34
0.0
 50
0.0000000000244381
1001
ACAD_DSTYLE_DIMINSPECT
1070
   396
1000
100%
1070
   395
1000

1070
   394
1070
    33
1070
   393
1070
     0
  0
DIMENSION
  5
6346
  8
AM_5
  2
*D21
 10
234.6379766730921972
 20
162.134691132202903
 30
0.0
 11
234.6379766730921972
 21
169.491833989338204
 31
0.0
 70
   128
 13
200.4153032180014975
 23
163.1346911321952859
 33
0.0
 14
201.2153032179994057
 24
162.134691132202903
 34
0.0
 50
90.0
1001
ACAD_DSTYLE_DIMINSPECT
1070
   396
1000
100%
1070
   395
1000

1070
   394
1070
    33
1070
   393
1070
     0
1001
ACAD
1000
DSTYLE
1002
{
1070
   174
1070
     1
1002
}
  0
DIMENSION
  5
6383
  8
AM_5
  2
*D22
 10
234.6379766730921972
 20
162.134691132202903
 30
0.0
 11
232.1379766730921972
 21
144.634691132202903
 31
0.0
 70
     0
 13
201.2153032179994057
 23
127.134691132202903
 33
0.0
 14
201.2153032179994057
 24
162.134691132202903
 34
0.0
 50
90.0
1001
ACAD
1000
DSTYLE
1002
{
1070
   174
1070
     1
1002
}
1001
ACAD_DSTYLE_DIMINSPECT
1070
   396
1000
100%
1070
   395
1000

1070
   394
1070
    33
1070
   393
1070
     0
  0
DIMENSION
  5
63A4
  8
AM_5
  2
*D23
 10
241.6379766730923109
 20
127.134691132202903
 30
0.0
 11
239.1379766730923109
 21
145.1346911321992081
 31
0.0
 70
     0
 13
200.4153032180016112
 23
163.1346911321952859
 33
0.0
 14
201.2153032179994057
 24
127.134691132202903
 34
0.0
 50
90.0
1001
ACAD_DSTYLE_DIMINSPECT
1070
   396
1000
100%
1070
   395
1000

1070
   394
1070
    33
1070
   393
1070
     0
  0
DIMENSION
  5
6405
  8
AM_5
  2
*D24
 10
114.3944876225294962
 20
46.997480530169689
 30
0.0
 11
93.594487622529428
 21
49.497480530169689
 31
0.0
 70
     0
 13
72.7944876225294166
 23
60.9974805301849727
 33
0.0
 14
114.3944876225294962
 24
60.9974805301697174
 34
0.0
 50
0.0000000000001132
1001
ACAD_DSTYLE_DIMINSPECT
1070
   396
1000
100%
1070
   395
1000

1070
   394
1070
    33
1070
   393
1070
     0
  0
DIMENSION
  5
642F
  8
AM_5
  2
*D25
 10
157.5944876224762936
 20
81.4974805301575032
 30
0.0
 11
155.0944876224762936
 21
88.5689091015860868
 31
0.0
 70
     0
 13
143.5944876224752988
 23
77.4974805301575032
 33
0.0
 14
143.5944876224714051
 24
81.4974805301575032
 34
0.0
 50
89.9999999999775184
1001
ACAD_DSTYLE_DIMINSPECT
1070
   396
1000
100%
1070
   395
1000

1070
   394
1070
    33
1070
   393
1070
     0
  0
DIMENSION
  5
6456
  8
AM_5
  2
*D26
 10
164.5944876224749009
 20
81.4974805301575032
 30
0.0
 11
162.0944876224749009
 21
70.847480530163395
 31
0.0
 70
     0
 13
113.5944876223668984
 23
60.1974805301692584
 33
0.0
 14
143.5944876224714051
 24
81.4974805301575174
 34
0.0
 50
89.9999999999775184
1001
ACAD_DSTYLE_DIMINSPECT
1070
   396
1000
100%
1070
   395
1000

1070
   394
1070
    33
1070
   393
1070
     0
  0
VIEWPORT
  5
95A
 67
     1
  8
0
  6
CONTINUOUS
 10
128.5
 20
97.5
 30
0.0
 40
386.7385514018691879
 41
222.1800000000000068
 68
     1
 69
     1
1001
ACAD
1000
MVIEW
1002
{
1070
    16
1010
0.0
1020
0.0
1030
0.0
1010
0.0
1020
0.0
1030
1.0
1040
0.0
1040
222.1800000000000068
1040
128.5
1040
97.5
1040
50.0
1040
0.0
1040
0.0
1070
     0
1070
   100
1070
     1
1070
     1
1070
     0
1070
     0
1070
     0
1070
     0
1040
0.0
1040
0.0
1040
0.0
1040
10.0
1040
10.0
1040
10.0
1040
10.0
1070
     0
1002
{
1002
}
1002
}
1001
GENIUS_GENODEF_13
1002
{
1000
HIER
1070
     0
1002
}
1002
{
1000
MANEDIT
1070
     0
1002
}
1002
{
1000
NOSEL
1070
     0
1002
}
1002
{
1000
BEHIND
1070
     0
1002
}
1002
{
1000
OTHER
1070
     0
1002
}
1002
{
1000
REACTOR
1002
}
1001
GENIUS_GENOBJ-N-SDF_13
1002
{
1000
OWNER
1000
GEN
1002
}
1001
GENIUS_GENSCREG_15
1000
PF
1040
1.0
1000
DF
1040
1.0
1000
MIN
1011
-64.8692757009345655
1021
0.0
1031
0.0
1021
-13.5899999999999999
1031
0.0
1000
MAX
1011
321.8692757009346224
1021
0.0
1031
0.0
1021
208.5900000000000034
1031
0.0
1000
FLAGS
1070
     4
  0
ENDSEC
  0
EOF
