  0
SECTION
  2
HEADER
  9
$ACADVER
  1
AC1009
  9
$INSBASE
 10
0.0
 20
0.0
 30
0.0
  9
$EXTMIN
 10
11.4783946346604999
 20
8.9750178823478564
 30
-0.0015258207003583
  9
$EXTMAX
 10
412.0032760899354116
 20
546.712124862610608
 30
0.0000000349246037
  9
$LIMMIN
 10
24.9999999999999787
 20
8.9999999999999964
  9
$LIMMAX
 10
411.9999999999998863
 20
284.9999999999998863
  9
$ORTHOMODE
 70
     1
  9
$REGENMODE
 70
     1
  9
$FILLMODE
 70
     1
  9
$QTEXTMODE
 70
     0
  9
$MIRRTEXT
 70
     1
  9
$DRAGMODE
 70
     2
  9
$LTSCALE
 40
5.0
  9
$OSMODE
 70
    53
  9
$ATTMODE
 70
     1
  9
$TEXTSIZE
 40
3.0
  9
$TRACEWID
 40
0.05
  9
$TEXTSTYLE
  7
STANDARD
  9
$CLAYER
  8
0
  9
$CELTYPE
  6
BYLAYER
  9
$CECOLOR
 62
   256
  9
$DIMSCALE
 40
1.0
  9
$DIMASZ
 40
2.5
  9
$DIMEXO
 40
1.0
  9
$DIMDLI
 40
7.0
  9
$DIMRND
 40
0.0
  9
$DIMDLE
 40
0.0
  9
$DIMEXE
 40
1.0
  9
$DIMTP
 40
0.1
  9
$DIMTM
 40
0.1
  9
$DIMTXT
 40
3.0
  9
$DIMCEN
 40
0.0
  9
$DIMTSZ
 40
0.0
  9
$DIMTOL
 70
     0
  9
$DIMLIM
 70
     0
  9
$DIMTIH
 70
     0
  9
$DIMTOH
 70
     0
  9
$DIMSE1
 70
     0
  9
$DIMSE2
 70
     0
  9
$DIMTAD
 70
     3
  9
$DIMZIN
 70
     8
  9
$DIMBLK
  1
OPEN30
  9
$DIMASO
 70
     1
  9
$DIMSHO
 70
     1
  9
$DIMPOST
  1

  9
$DIMAPOST
  1
"
  9
$DIMALT
 70
     0
  9
$DIMALTD
 70
     2
  9
$DIMALTF
 40
0.0393701
  9
$DIMLFAC
 40
1.0
  9
$DIMTOFL
 70
     1
  9
$DIMTVP
 40
0.0
  9
$DIMTIX
 70
     0
  9
$DIMSOXD
 70
     0
  9
$DIMSAH
 70
     0
  9
$DIMBLK1
  1

  9
$DIMBLK2
  1

  9
$DIMSTYLE
  2
AM_JIS
  9
$DIMCLRD
 70
     7
  9
$DIMCLRE
 70
     7
  9
$DIMCLRT
 70
     7
  9
$DIMTFAC
 40
0.71
  9
$DIMGAP
 40
1.0
  9
$LUNITS
 70
     2
  9
$LUPREC
 70
     4
  9
$SKETCHINC
 40
0.1
  9
$FILLETRAD
 40
0.0
  9
$AUNITS
 70
     0
  9
$AUPREC
 70
     0
  9
$MENU
  1
acad
  9
$ELEVATION
 40
0.0
  9
$PELEVATION
 40
0.0
  9
$THICKNESS
 40
0.0
  9
$LIMCHECK
 70
     0
  9
$BLIPMODE
 70
     0
  9
$CHAMFERA
 40
0.0
  9
$CHAMFERB
 40
0.0
  9
$SKPOLY
 70
     0
  9
$TDCREATE
 40
2455755.6568634258583188
  9
$TDUPDATE
 40
2459004.4934143521822989
  9
$TDINDWG
 40
0.3084295949
  9
$TDUSRTIMER
 40
0.3084294097
  9
$USRTIMER
 70
     1
  9
$ANGBASE
 50
0.0
  9
$ANGDIR
 70
     0
  9
$PDMODE
 70
     0
  9
$PDSIZE
 40
0.0
  9
$PLINEWID
 40
0.0
  9
$COORDS
 70
     1
  9
$SPLFRAME
 70
     0
  9
$SPLINETYPE
 70
     6
  9
$SPLINESEGS
 70
     8
  9
$ATTDIA
 70
     1
  9
$ATTREQ
 70
     1
  9
$HANDLING
 70
     1
  9
$HANDSEED
  5
6C1C
  9
$SURFTAB1
 70
     6
  9
$SURFTAB2
 70
     6
  9
$SURFTYPE
 70
     6
  9
$SURFU
 70
     6
  9
$SURFV
 70
     6
  9
$UCSNAME
  2

  9
$UCSORG
 10
0.0
 20
0.0
 30
0.0
  9
$UCSXDIR
 10
1.0
 20
0.0
 30
0.0
  9
$UCSYDIR
 10
0.0
 20
1.0
 30
0.0
  9
$PUCSNAME
  2

  9
$PUCSORG
 10
0.0
 20
0.0
 30
0.0
  9
$PUCSXDIR
 10
1.0
 20
0.0
 30
0.0
  9
$PUCSYDIR
 10
0.0
 20
1.0
 30
0.0
  9
$USERI1
 70
     0
  9
$USERI2
 70
     0
  9
$USERI3
 70
     0
  9
$USERI4
 70
     0
  9
$USERI5
 70
     0
  9
$USERR1
 40
0.0
  9
$USERR2
 40
0.0
  9
$USERR3
 40
0.0
  9
$USERR4
 40
0.0
  9
$USERR5
 40
0.0
  9
$WORLDVIEW
 70
     1
  9
$SHADEDGE
 70
     3
  9
$SHADEDIF
 70
    70
  9
$TILEMODE
 70
     1
  9
$MAXACTVP
 70
    16
  9
$PLIMCHECK
 70
     0
  9
$PEXTMIN
 10
1.0000000000000000E+20
 20
1.0000000000000000E+20
 30
1.0000000000000000E+20
  9
$PEXTMAX
 10
-1.0000000000000000E+20
 20
-1.0000000000000000E+20
 30
-1.0000000000000000E+20
  9
$PLIMMIN
 10
-20.0
 20
-7.5
  9
$PLIMMAX
 10
277.0
 20
202.5
  9
$UNITMODE
 70
     0
  9
$VISRETAIN
 70
     0
  9
$PLINEGEN
 70
     1
  9
$PSLTSCALE
 70
     0
  0
ENDSEC
  0
SECTION
  2
TABLES
  0
TABLE
  2
VPORT
 70
     1
  0
VPORT
  2
*ACTIVE
 70
     0
 10
0.0
 20
0.0
 11
1.0
 21
1.0
 12
211.7408353622979007
 22
277.8435713724791754
 13
0.0
 23
0.0
 14
2.5
 24
2.5
 15
10.0
 25
10.0
 16
0.0
 26
0.0
 36
1.0
 17
0.0
 27
0.0
 37
0.0
 40
542.588870351513151
 41
2.3418674698795181
 42
50.0
 43
0.0
 44
0.0
 50
0.0
 51
0.0
 71
     0
 72
   100
 73
     1
 74
     3
 75
     0
 76
     0
 77
     0
 78
     1
  0
ENDTAB
  0
TABLE
  2
LTYPE
 70
    22
  0
LTYPE
  2
CONTINUOUS
 70
     0
  3
Solid line (NEC CAE2D for Win R7.2 : 2008.02.20
 72
    65
 73
     0
 40
0.0
  0
LTYPE
  2
HIDDEN
 70
     0
  3
Hidden __ __ __ __ __ __ __ __ __ __ __ __ __ _
 72
    65
 73
     2
 40
0.375
 49
0.25
 49
-0.125
  0
LTYPE
  2
PHANTOM2
 70
     0
  3
Phantom (.5x) ___ _ _ ___ _ _ ___ _ _ ___ _ _
 72
    65
 73
     6
 40
1.25
 49
0.625
 49
-0.125
 49
0.125
 49
-0.125
 49
0.125
 49
-0.125
  0
LTYPE
  2
CENTER
 70
     0
  3
Center ____ _ ____ _ ____ _ ____ _ ____ _ ____
 72
    65
 73
     4
 40
2.0
 49
1.25
 49
-0.25
 49
0.25
 49
-0.25
  0
LTYPE
  2
CENTER2
 70
     0
  3
Center (.5x) ___ _ ___ _ ___ _ ___ _ ___ _ ___
 72
    65
 73
     4
 40
1.125
 49
0.75
 49
-0.125
 49
0.125
 49
-0.125
  0
LTYPE
  2
HIDDEN2
 70
     0
  3
Hidden (.5x) _ _ _ _ _ _ _ _ _ _ _ _ _ _ _ _ _
 72
    65
 73
     2
 40
0.1875
 49
0.125
 49
-0.0625
  0
LTYPE
  2
ACANSTGB
 70
     0
  3
__ . . __ . .
 72
    65
 73
     6
 40
0.35433070866
 49
0.15748031496
 49
-0.03937007874
 49
0.03937007874
 49
-0.03937007874
 49
0.03937007874
 49
-0.03937007874
  0
LTYPE
  2
ACANSTGL
 70
     0
  3
_ _ _ _ _
 72
    65
 73
     2
 40
0.11811023622
 49
0.07874015748
 49
-0.03937007874
  0
LTYPE
  2
ACJISWELD
 70
     0
  3
_ _ _ _ _
 72
    65
 73
     2
 40
2.0
 49
2.0
 49
-1.0
  0
LTYPE
  2
ACJISTGB
 70
     0
  3
__ . . __ . .
 72
    65
 73
     6
 40
9.0
 49
4.0
 49
-1.0
 49
1.0
 49
-1.0
 49
1.0
 49
-1.0
  0
LTYPE
  2
ACJISTGL
 70
     0
  3
_ _ _ _ _
 72
    65
 73
     2
 40
3.0
 49
2.0
 49
-1.0
  0
LTYPE
  2
ACISOWELD
 70
     0
  3
_ _ _ _ _
 72
    65
 73
     2
 40
2.0
 49
2.0
 49
-1.0
  0
LTYPE
  2
ACISOTGB
 70
     0
  3
__ . . __ . .
 72
    65
 73
     6
 40
9.0
 49
4.0
 49
-1.0
 49
1.0
 49
-1.0
 49
1.0
 49
-1.0
  0
LTYPE
  2
ACISOTGL
 70
     0
  3
_ _ _ _ _
 72
    65
 73
     2
 40
3.0
 49
2.0
 49
-1.0
  0
LTYPE
  2
PHANTOM
 70
     0
  3
____ _ _ ____ _ _ ____ _ _ ____ _ _ ____
 72
    65
 73
     6
 40
2.5
 49
1.25
 49
-0.25
 49
0.25
 49
-0.25
 49
0.25
 49
-0.25
  0
LTYPE
  2
AM_ISO02W050
 70
     0
  3
__ __ __ __ __ __ __ __ __ __ __ __ __ __ __
 72
    65
 73
     2
 40
7.5
 49
6.0
 49
-1.5
  0
LTYPE
  2
AM_ISO08W050
 70
     0
  3
____ . ____ . ____ . ____ . ____ . ____ . ____
 72
    65
 73
     4
 40
18.0
 49
12.0
 49
-1.5
 49
3.0
 49
-1.5
  0
LTYPE
  2
AM_ISO09W050
 70
     0
  3
_____ . . _____ . . _____ . . ____ .. ____
 72
    65
 73
     6
 40
22.5
 49
12.0
 49
-1.5
 49
3.0
 49
-1.5
 49
3.0
 49
-1.5
  0
LTYPE
  2
AMCONSTR
 70
     0
  3
_______________________
 72
    65
 73
     2
 40
9999.0
 49
9999.0
 49
0.0
  0
LTYPE
  2
AM_ISO08W050X2
 70
     0
  3
__ . __ . __ . __ . __ . __
 72
    65
 73
     4
 40
9.0
 49
6.0
 49
-0.75
 49
1.5
 49
-0.75
  0
LTYPE
  2
AM_ISO02W050X2
 70
     0
  3
 _ _ _ _ _ _ _ _ _ _ _ _
 72
    65
 73
     2
 40
3.75
 49
3.0
 49
-0.75
  0
LTYPE
  2
AMZIGZAG
 70
     0
  3
/\/-/\/-/\/-/\/-/\/-/\/
 72
    65
 73
     2
 40
11.0000999999999998
 49
0.0001
 49
-11.0
  0
ENDTAB
  0
TABLE
  2
LAYER
 70
    20
  0
LAYER
  2
0
 70
     0
 62
     3
  6
CONTINUOUS
  0
LAYER
  2
SYS-BUHIN0
 70
     0
 62
     7
  6
CONTINUOUS
  0
LAYER
  2
AM_0
 70
     0
 62
     3
  6
CONTINUOUS
  0
LAYER
  2
DEFPOINTS
 70
     0
 62
     7
  6
CONTINUOUS
  0
LAYER
  2
AM_5
 70
     0
 62
     7
  6
CONTINUOUS
  0
LAYER
  2
AM_BOR
 70
     0
 62
     7
  6
CONTINUOUS
  0
LAYER
  2
SYS-BUHINCODE
 70
     0
 62
     7
  6
CONTINUOUS
  0
LAYER
  2
AM_7
 70
     0
 62
     4
  6
CENTER
  0
LAYER
  2
AM_3
 70
     0
 62
     7
  6
HIDDEN
  0
LAYER
  2
AM_12
 70
     0
 62
   253
  6
CONTINUOUS
  0
LAYER
  2
AM_PAREF
 70
     0
 62
     4
  6
CONTINUOUS
  0
LAYER
  2
AM_6
 70
     0
 62
     7
  6
CONTINUOUS
  0
LAYER
  2
AM_8
 70
     0
 62
   253
  6
CONTINUOUS
  0
LAYER
  2
AM_4
 70
     0
 62
     6
  6
CONTINUOUS
  0
LAYER
  2
AM_10
 70
     0
 62
     7
  6
CONTINUOUS
  0
LAYER
  2
AM_CL
 70
     0
 62
     1
  6
CONTINUOUS
  0
LAYER
  2
AM_2
 70
     0
 62
     5
  6
PHANTOM2
  0
LAYER
  2
AM_1N
 70
     0
 62
    14
  6
CONTINUOUS
  0
LAYER
  2
AM_1
 70
     0
 62
    14
  6
PHANTOM2
  0
LAYER
  2
AM_9
 70
     0
 62
    -7
  6
CONTINUOUS
  0
ENDTAB
  0
TABLE
  2
STYLE
 70
    13
  0
STYLE
  2
STANDARD
 70
     0
 40
0.0
 41
1.0
 50
0.0
 71
     0
 42
3.0
  3
dim.shx
  4
extfont.shx
  0
STYLE
  2
KNJYOKO
 70
     0
 40
0.0
 41
1.0
 50
0.0
 71
     0
 42
3.099999904632567
  3
TXT.shx
  4
extfont.shx
  0
STYLE
  2
ACANSTS
 70
     0
 40
1.0
 41
1.0
 50
0.0
 71
     0
 42
0.2
  3
romans.shx
  4
extfont.shx
  0
STYLE
  2
ACANSGDT
 70
     0
 40
0.0
 41
1.0
 50
0.0
 71
     0
 42
0.2
  3
amgdt.shx
  4

  0
STYLE
  2
ACJISTS
 70
     0
 40
1.0
 41
1.0
 50
0.0
 71
     0
 42
0.2
  3
isocp.shx
  4
extfont.shx
  0
STYLE
  2
ACJISGDT
 70
     0
 40
0.0
 41
1.0
 50
0.0
 71
     0
 42
0.2
  3
amgdt.shx
  4

  0
STYLE
  2
MINNTYOU
 70
     0
 40
0.0
 41
1.0
 50
0.0
 71
     0
 42
3.0
  3
txt
  4

  0
STYLE
  2
R寸法
 70
     0
 40
2.0
 41
1.0
 50
0.0
 71
     0
 42
3.0
  3
dim.shx
  4
extfont.shx
  0
STYLE
  2
ANKTATE
 70
     4
 40
0.0
 41
1.0
 50
0.0
 71
     0
 42
3.099999904632567
  3
TXT
  4

  0
STYLE
  2
KNJTATE
 70
     4
 40
0.0
 41
1.0
 50
0.0
 71
     0
 42
3.099999904632567
  3
TXT
  4
BIGFONT
  0
STYLE
  2
ACISOTS
 70
     0
 40
1.0
 41
1.0
 50
0.0
 71
     0
 42
2.5
  3
isocp.shx
  4
extfont.shx
  0
STYLE
  2
ACISOGDT
 70
     0
 40
0.0
 41
1.0
 50
0.0
 71
     0
 42
2.5
  3
amgdt.shx
  4

  0
STYLE
  2

 70
     1
 40
0.0
 41
1.0
 50
0.0
 71
     0
 42
3.0
  3
genltshp.shx
  4

  0
ENDTAB
  0
TABLE
  2
VIEW
 70
     6
  0
VIEW
  2
AM_VIEW1
 70
     0
 40
137.9999999999998863
 10
151.853137516688804
 20
215.9999999999998863
 41
253.7062750333776933
 11
0.0
 21
0.0
 31
1.0
 12
0.0
 22
0.0
 32
0.0
 42
50.0
 43
0.0
 44
0.0
 50
0.0
 71
     0
  0
VIEW
  2
AM_VIEW2
 70
     0
 40
137.9999999999998863
 10
285.146862483310997
 20
215.9999999999998863
 41
253.7062750333776933
 11
0.0
 21
0.0
 31
1.0
 12
0.0
 22
0.0
 32
0.0
 42
50.0
 43
0.0
 44
0.0
 50
0.0
 71
     0
  0
VIEW
  2
AM_VIEW3
 70
     0
 40
137.9999999999998863
 10
151.853137516688804
 20
77.9999999999999716
 41
253.7062750333776933
 11
0.0
 21
0.0
 31
1.0
 12
0.0
 22
0.0
 32
0.0
 42
50.0
 43
0.0
 44
0.0
 50
0.0
 71
     0
  0
VIEW
  2
AM_VIEW4
 70
     0
 40
137.9999999999998863
 10
285.146862483310997
 20
77.9999999999999716
 41
253.7062750333776933
 11
0.0
 21
0.0
 31
1.0
 12
0.0
 22
0.0
 32
0.0
 42
50.0
 43
0.0
 44
0.0
 50
0.0
 71
     0
  0
VIEW
  2
AM_VIEW5
 70
     0
 40
137.9999999999998863
 10
218.4999999999998863
 20
146.9999999999998863
 41
253.7062750333776933
 11
0.0
 21
0.0
 31
1.0
 12
0.0
 22
0.0
 32
0.0
 42
50.0
 43
0.0
 44
0.0
 50
0.0
 71
     0
  0
VIEW
  2
AM_VIEW6
 70
     0
 40
275.9972399999999197
 10
218.4999999999998863
 20
146.9999999999998863
 41
507.4074759412548019
 11
0.0
 21
0.0
 31
1.0
 12
0.0
 22
0.0
 32
0.0
 42
50.0
 43
0.0
 44
0.0
 50
0.0
 71
     0
  0
ENDTAB
  0
TABLE
  2
UCS
 70
     0
  0
ENDTAB
  0
TABLE
  2
APPID
 70
    64
  0
APPID
  2
ACAD
 70
     0
  0
APPID
  2
ACADANNOTATIVE
 70
     0
  0
APPID
  2
ACAD_MLEADERVER
 70
     0
  0
APPID
  2
MCAD_NO_VIS
 70
     0
  0
APPID
  2
ACAD_TEMP_GRAPHIC
 70
     0
  0
APPID
  2
AD_DRAW
 70
     0
  0
APPID
  2
ACATTRIBSERVICES
 70
     0
  0
APPID
  2
DESIGNERASSEMBLIES
 70
     0
  0
APPID
  2
ACADM_DIM_EDIT
 70
     0
  0
APPID
  2
AMDT_DM_ADJ
 70
     0
  0
APPID
  2
ACADANNOPO
 70
     0
  0
APPID
  2
ACAECLAYERSTANDARD
 70
     0
  0
APPID
  2
ACDBDYNAMICBLOCKGUID
 70
     0
  0
APPID
  2
ACDBBLOCKREPETAG
 70
     0
  0
APPID
  2
ACAUTHENVIRON
 70
     0
  0
APPID
  2
ACDBDYNAMICBLOCKTRUENAME
 70
     0
  0
APPID
  2
GENIUS_GENREC_14
 70
     0
  0
APPID
  2
GENIUS_GENOBJ-N-REC_13
 70
     0
  0
APPID
  2
GENIUS_GENODEF_13
 70
     0
  0
APPID
  2
ACAD_EXEMPT_FROM_CAD_STANDARDS
 70
     0
  0
APPID
  2
GENIUS_GENOBJ-N-CEN_13
 70
     0
  0
APPID
  2
GENIUS_GENCEN_19
 70
     0
  0
APPID
  2
ACAD_DSTYLE_DIMINSPECT
 70
     0
  0
APPID
  2
DCO15
 70
     0
  0
APPID
  2
ACAD_PSEXT
 70
     0
  0
APPID
  2
GENIUS_GENBH_13
 70
     0
  0
APPID
  2
GENIUS_GENOENT_13
 70
     0
  0
APPID
  2
GENIUS_GENOLIS_13
 70
     0
  0
APPID
  2
GENIUS_GENOBJ-NBEHI-BHF_13
 70
     0
  0
APPID
  2
GENIUS_GENOREF_13
 70
     0
  0
APPID
  2
GENIUS_GENOBJ-NBEHI-BHB_13
 70
     0
  0
APPID
  2
AMG_2DHIDE
 70
     0
  0
APPID
  2
AMG_2DSTRUCT_BTR
 70
     0
  0
APPID
  2
GENIUS_AMGTXT_16
 70
     0
  0
APPID
  2
GENIUS_GENOBJ-N-HTC_13
 70
     0
  0
APPID
  2
GENIUS_GENHATCH_13
 70
     0
  0
APPID
  2
GEVID1208849169
 70
     0
  0
APPID
  2
GEVDC
 70
     0
  0
APPID
  2
ACADM_2DVIEW_IGN_NOTIFY
 70
     0
  0
APPID
  2
GEVID1208849170
 70
     0
  0
APPID
  2
GEVID1208849171
 70
     0
  0
APPID
  2
GEVRADREF
 70
     0
  0
APPID
  2
ACAD_DSTYLE_DIMJAG
 70
     0
  0
APPID
  2
ACAD_DSTYLE_DIMTALN
 70
     0
  0
APPID
  2
GENIUS_GENDTOL_13
 70
     0
  0
APPID
  2
GENIUS_GENTRA_14
 70
     0
  0
APPID
  2
GENIUS_GENOBJ-N-TIT_13
 70
     0
  0
APPID
  2
GENIUS_GENTITLE_13
 70
     0
  0
APPID
  2
GENIUS_GENSCREG_15
 70
     0
  0
APPID
  2
GENIUS_GENOBJ-N-SDF_13
 70
     0
  0
APPID
  2
ACAD_DSTYLE_DIMRADIAL_EXTENSION
 70
     0
  0
APPID
  2
GENIUS_GENOBJ-N-FIL_13
 70
     0
  0
APPID
  2
GENIUS_GENOBJ-N-CRS_13
 70
     0
  0
APPID
  2
GENIUS_GENDIMSH_14
 70
     0
  0
APPID
  2
ACAD_DSTYLE_DIMANGULAR_EXT
 70
     0
  0
APPID
  2
ACAD_NAV_VCDISPLAY
 70
     0
  0
APPID
  2
ACAD_DSTYLE_DIMBREAK
 70
     0
  0
APPID
  2
GEVID1415767385
 70
     0
  0
APPID
  2
ACAD_DSTYLE_DIMARC_LENGTH_
 70
     0
  0
APPID
  2
ACAD_DSTYLE_DIM_LINETYPE
 70
     0
  0
APPID
  2
ACAD_DSTYLE_DIM_EXT1_LINETYPE
 70
     0
  0
APPID
  2
ACAD_DSTYLE_DIM_EXT2_LINETYPE
 70
     0
  0
APPID
  2
ACDBATTR
 70
     0
  0
APPID
  2
CONTENTBLOCKICON
 70
     0
  0
ENDTAB
  0
TABLE
  2
DIMSTYLE
 70
    25
  0
DIMSTYLE
  2
STANDARD
 70
     0
  3

  4

  5

  6

  7

 40
1.0
 41
1.0
 42
0.8
 43
0.38
 44
1.0
 45
0.0
 46
0.0
 47
0.0
 48
0.0
140
3.1000000000000001
141
0.09
142
0.0
143
25.3999999999999986
144
1.0
145
0.5
146
1.0
147
0.09
 71
     0
 72
     0
 73
     0
 74
     0
 75
     0
 76
     0
 77
     1
 78
     0
170
     0
171
     2
172
     0
173
     0
174
     0
175
     0
176
     0
177
     0
178
     0
  0
DIMSTYLE
  2
AM_ANSI
 70
     0
  3

  4
mm
  5

  6

  7

 40
1.0
 41
0.1
 42
0.05
 43
0.5
 44
0.1
 45
0.0
 46
0.0
 47
0.1
 48
0.1
140
0.12
141
0.0
142
0.0
143
25.3999999999999986
144
1.0
145
0.0
146
0.71
147
0.06
 71
     0
 72
     0
 73
     1
 74
     1
 75
     0
 76
     0
 77
     0
 78
     7
170
     0
171
     2
172
     0
173
     0
174
     0
175
     0
176
   256
177
   256
178
     2
  0
DIMSTYLE
  2
AM_ANSI$3
 70
     0
  3

  4
mm
  5

  6

  7

 40
1.0
 41
0.1
 42
0.05
 43
0.5
 44
0.1
 45
0.0
 46
0.0
 47
0.1
 48
0.1
140
0.12
141
0.0
142
0.0
143
25.3999999999999986
144
1.0
145
0.0
146
0.71
147
0.06
 71
     0
 72
     0
 73
     1
 74
     1
 75
     0
 76
     0
 77
     0
 78
     7
170
     0
171
     2
172
     0
173
     0
174
     0
175
     0
176
   256
177
   256
178
     2
  0
DIMSTYLE
  2
AM_ANSI$4
 70
     0
  3

  4
mm
  5

  6

  7

 40
1.0
 41
0.1
 42
0.05
 43
0.5
 44
0.1
 45
0.0
 46
0.0
 47
0.1
 48
0.1
140
0.12
141
0.0
142
0.0
143
25.3999999999999986
144
1.0
145
0.0
146
0.71
147
0.06
 71
     0
 72
     0
 73
     1
 74
     1
 75
     0
 76
     0
 77
     0
 78
     7
170
     0
171
     2
172
     0
173
     0
174
     0
175
     0
176
   256
177
   256
178
     2
  0
DIMSTYLE
  2
AM_ANSI$7
 70
     0
  3

  4
mm
  5

  6

  7

 40
1.0
 41
0.1
 42
0.05
 43
0.5
 44
0.1
 45
0.0
 46
0.0
 47
0.1
 48
0.1
140
0.24
141
0.0
142
0.0
143
25.3999999999999986
144
1.0
145
0.0
146
0.71
147
0.06
 71
     0
 72
     0
 73
     1
 74
     1
 75
     0
 76
     0
 77
     0
 78
     7
170
     0
171
     2
172
     0
173
     0
174
     0
175
     0
176
   256
177
   256
178
     2
  0
DIMSTYLE
  2
AM_ANSI$SF
 70
     0
  3

  4
mm
  5

  6

  7

 40
1.0
 41
0.1
 42
0.05
 43
0.5
 44
0.1
 45
0.0
 46
0.0
 47
0.1
 48
0.1
140
0.12
141
0.0
142
0.0
143
25.3999999999999986
144
1.0
145
0.0
146
0.71
147
0.06
 71
     0
 72
     0
 73
     1
 74
     1
 75
     1
 76
     1
 77
     0
 78
     7
170
     0
171
     2
172
     0
173
     0
174
     0
175
     0
176
   256
177
   256
178
     2
  0
DIMSTYLE
  2
AM_ANSI$SH
 70
     0
  3

  4
mm
  5

  6
GENAXEH
  7

 40
1.0
 41
0.1
 42
0.05
 43
0.5
 44
0.1
 45
0.0
 46
0.0
 47
0.1
 48
0.1
140
0.12
141
0.0
142
0.0
143
25.3999999999999986
144
1.0
145
0.0
146
0.71
147
0.06
 71
     0
 72
     0
 73
     1
 74
     1
 75
     1
 76
     1
 77
     0
 78
     7
170
     0
171
     2
172
     0
173
     1
174
     0
175
     0
176
   256
177
   256
178
     2
  0
DIMSTYLE
  2
AM_JIS
 70
     0
  3

  4
"
  5
OPEN30
  6

  7

 40
1.0
 41
2.5
 42
1.0
 43
7.0
 44
1.0
 45
0.0
 46
0.0
 47
0.1
 48
0.1
140
3.0
141
0.0
142
0.0
143
0.0393701
144
1.0
145
0.0
146
0.71
147
1.0
 71
     0
 72
     0
 73
     0
 74
     0
 75
     0
 76
     0
 77
     3
 78
     8
170
     0
171
     2
172
     1
173
     0
174
     0
175
     0
176
     7
177
     7
178
     7
  0
DIMSTYLE
  2
AM_JIS$3
 70
     0
  3

  4
"
  5
OPEN30
  6

  7

 40
1.0
 41
2.5
 42
1.0
 43
10.0
 44
1.0
 45
0.0
 46
0.0
 47
0.1
 48
0.1
140
3.0
141
0.0
142
0.0
143
0.0393701
144
1.0
145
0.0
146
0.71
147
1.0
 71
     0
 72
     0
 73
     0
 74
     1
 75
     0
 76
     0
 77
     3
 78
     8
170
     0
171
     2
172
     0
173
     0
174
     0
175
     0
176
     7
177
     7
178
     7
  0
DIMSTYLE
  2
AM_JIS$4
 70
     0
  3

  4
"
  5
OPEN30
  6

  7

 40
1.0
 41
2.5
 42
1.0
 43
10.0
 44
1.0
 45
0.0
 46
0.0
 47
0.1
 48
0.1
140
2.0
141
0.0
142
0.0
143
0.0393701
144
1.0
145
0.0
146
0.71
147
1.0
 71
     0
 72
     0
 73
     0
 74
     0
 75
     0
 76
     0
 77
     3
 78
     8
170
     0
171
     2
172
     0
173
     0
174
     0
175
     0
176
     7
177
     7
178
     7
  0
DIMSTYLE
  2
AM_JIS$6
 70
     0
  3

  4
"
  5
OPEN30
  6

  7

 40
1.0
 41
2.5
 42
1.0
 43
10.0
 44
1.0
 45
0.0
 46
0.0
 47
0.1
 48
0.1
140
3.0
141
0.0
142
0.0
143
0.0393701
144
1.0
145
0.0
146
0.71
147
1.0
 71
     0
 72
     0
 73
     0
 74
     0
 75
     0
 76
     0
 77
     0
 78
     8
170
     0
171
     2
172
     1
173
     0
174
     0
175
     0
176
   256
177
     7
178
     7
  0
DIMSTYLE
  2
AM_JIS$7
 70
     0
  3

  4
"
  5
OPEN30
  6

  7

 40
1.0
 41
2.5
 42
1.0
 43
10.0
 44
1.0
 45
0.0
 46
0.0
 47
0.1
 48
0.1
140
3.0
141
0.0
142
0.0
143
0.0393701
144
1.0
145
0.0
146
0.71
147
1.0
 71
     0
 72
     0
 73
     0
 74
     0
 75
     0
 76
     0
 77
     3
 78
     8
170
     0
171
     2
172
     1
173
     0
174
     0
175
     0
176
     7
177
   256
178
     7
  0
DIMSTYLE
  2
AM_JIS$SF
 70
     0
  3

  4
"
  5
OPEN30
  6

  7

 40
1.0
 41
2.5
 42
1.0
 43
7.0
 44
1.0
 45
0.0
 46
0.0
 47
0.1
 48
0.1
140
3.0
141
0.0
142
0.0
143
0.0393701
144
1.0
145
0.0
146
0.71
147
1.0
 71
     0
 72
     0
 73
     0
 74
     0
 75
     1
 76
     1
 77
     3
 78
     8
170
     0
171
     2
172
     1
173
     0
174
     0
175
     0
176
     7
177
   256
178
     7
  0
DIMSTYLE
  2
AM_JIS$SH
 70
     0
  3

  4
"
  5

  6
GENAXEH
  7
OPEN30
 40
1.0
 41
2.5
 42
1.0
 43
7.0
 44
1.0
 45
0.0
 46
0.0
 47
0.1
 48
0.1
140
3.0
141
0.0
142
0.0
143
0.0393701
144
2.0
145
0.0
146
0.71
147
1.0
 71
     0
 72
     0
 73
     0
 74
     0
 75
     1
 76
     1
 77
     3
 78
     8
170
     0
171
     2
172
     1
173
     1
174
     0
175
     0
176
     7
177
   256
178
     7
  0
DIMSTYLE
  2
AM_JIS$2
 70
     0
  3

  4
"
  5
OPEN30
  6

  7

 40
1.0
 41
2.5
 42
1.0
 43
7.0
 44
1.0
 45
0.0
 46
0.0
 47
0.1
 48
0.1
140
3.0
141
0.0
142
0.0
143
0.0393701
144
1.0
145
0.0
146
0.71
147
1.0
 71
     0
 72
     0
 73
     0
 74
     0
 75
     0
 76
     0
 77
     3
 78
     8
170
     0
171
     2
172
     1
173
     0
174
     0
175
     0
176
     7
177
     7
178
     7
  0
DIMSTYLE
  2
AM_JIS$0
 70
     0
  3

  4
"
  5
OPEN30
  6

  7

 40
1.0
 41
2.5
 42
1.0
 43
7.0
 44
1.0
 45
0.0
 46
0.0
 47
0.1
 48
0.1
140
3.0
141
0.0
142
0.0
143
0.0393701
144
1.0
145
0.0
146
0.71
147
1.0
 71
     0
 72
     0
 73
     0
 74
     0
 75
     0
 76
     0
 77
     3
 78
     8
170
     0
171
     2
172
     1
173
     0
174
     0
175
     0
176
     7
177
     7
178
     7
  0
DIMSTYLE
  2
STANDARD$0
 70
     0
  3

  4

  5

  6

  7

 40
1.0
 41
1.0
 42
0.8
 43
0.38
 44
1.0
 45
0.0
 46
0.0
 47
0.0
 48
0.0
140
3.1000000000000001
141
0.09
142
0.0
143
25.3999999999999986
144
1.0
145
0.5
146
1.0
147
0.09
 71
     0
 72
     0
 73
     0
 74
     0
 75
     0
 76
     0
 77
     1
 78
     0
170
     0
171
     2
172
     0
173
     0
174
     0
175
     0
176
     0
177
     0
178
     0
  0
DIMSTYLE
  2
ANNOTATIVE
 70
     0
  3

  4

  5

  6

  7

 40
1.0
 41
0.18
 42
0.0625
 43
0.38
 44
0.18
 45
0.0
 46
0.0
 47
0.0
 48
0.0
140
0.18
141
0.09
142
0.0
143
25.3999999999999986
144
1.0
145
0.0
146
1.0
147
0.09
 71
     0
 72
     0
 73
     1
 74
     1
 75
     0
 76
     0
 77
     0
 78
     0
170
     0
171
     2
172
     0
173
     0
174
     0
175
     0
176
     0
177
     0
178
     0
  0
DIMSTYLE
  2
AM_ISO
 70
     0
  3

  4
"
  5

  6

  7

 40
1.0
 41
2.5
 42
1.0
 43
10.0
 44
1.0
 45
0.0
 46
0.0
 47
0.1
 48
0.1
140
3.5
141
0.0
142
0.0
143
0.0393701
144
1.0
145
0.0
146
0.71
147
1.5
 71
     0
 72
     0
 73
     0
 74
     0
 75
     0
 76
     0
 77
     1
 78
     8
170
     0
171
     2
172
     1
173
     0
174
     0
175
     0
176
   256
177
   256
178
     2
  0
DIMSTYLE
  2
AM_ISO$3
 70
     0
  3

  4
"
  5

  6

  7

 40
1.0
 41
2.5
 42
1.0
 43
10.0
 44
1.0
 45
0.0
 46
0.0
 47
0.1
 48
0.1
140
3.5
141
0.0
142
0.0
143
0.0393701
144
1.0
145
0.0
146
0.71
147
1.5
 71
     0
 72
     0
 73
     0
 74
     1
 75
     0
 76
     0
 77
     1
 78
     8
170
     0
171
     2
172
     0
173
     0
174
     0
175
     0
176
   256
177
   256
178
     2
  0
DIMSTYLE
  2
AM_ISO$4
 70
     0
  3

  4
"
  5

  6

  7

 40
1.0
 41
2.5
 42
1.0
 43
10.0
 44
1.0
 45
0.0
 46
0.0
 47
0.1
 48
0.1
140
3.5
141
0.0
142
0.0
143
0.0393701
144
1.0
145
0.0
146
0.71
147
1.5
 71
     0
 72
     0
 73
     0
 74
     1
 75
     0
 76
     0
 77
     1
 78
     8
170
     0
171
     2
172
     0
173
     0
174
     0
175
     0
176
   256
177
   256
178
     2
  0
DIMSTYLE
  2
AM_ISO$6
 70
     0
  3

  4
"
  5

  6

  7

 40
1.0
 41
2.5
 42
1.0
 43
10.0
 44
1.0
 45
0.0
 46
0.0
 47
0.1
 48
0.1
140
3.5
141
0.0
142
0.0
143
0.0393701
144
1.0
145
0.0
146
0.71
147
1.5
 71
     0
 72
     0
 73
     0
 74
     0
 75
     0
 76
     0
 77
     0
 78
     8
170
     0
171
     2
172
     1
173
     0
174
     0
175
     0
176
   256
177
   256
178
     2
  0
DIMSTYLE
  2
AM_ISO$7
 70
     0
  3

  4
"
  5

  6

  7

 40
1.0
 41
2.5
 42
1.0
 43
10.0
 44
1.0
 45
0.0
 46
0.0
 47
0.1
 48
0.1
140
5.0
141
0.0
142
0.0
143
0.0393701
144
1.0
145
0.0
146
0.71
147
1.5
 71
     0
 72
     0
 73
     0
 74
     0
 75
     0
 76
     0
 77
     1
 78
     8
170
     0
171
     2
172
     1
173
     0
174
     0
175
     0
176
   256
177
   256
178
     2
  0
DIMSTYLE
  2
AM_ISO$SF
 70
     0
  3

  4
"
  5

  6

  7

 40
1.0
 41
2.5
 42
1.0
 43
10.0
 44
1.0
 45
0.0
 46
0.0
 47
0.1
 48
0.1
140
3.5
141
0.0
142
0.0
143
0.0393701
144
1.0
145
0.0
146
0.71
147
1.5
 71
     0
 72
     0
 73
     0
 74
     0
 75
     1
 76
     1
 77
     1
 78
     8
170
     0
171
     2
172
     1
173
     0
174
     0
175
     0
176
   256
177
   256
178
     2
  0
DIMSTYLE
  2
AM_ISO$SH
 70
     0
  3

  4
"
  5

  6
GENAXEH
  7

 40
1.0
 41
2.5
 42
1.0
 43
10.0
 44
1.0
 45
0.0
 46
0.0
 47
0.1
 48
0.1
140
3.5
141
0.0
142
0.0
143
0.0393701
144
2.0
145
0.0
146
0.71
147
1.5
 71
     0
 72
     0
 73
     0
 74
     0
 75
     1
 76
     1
 77
     1
 78
     8
170
     0
171
     2
172
     1
173
     1
174
     0
175
     0
176
   256
177
   256
178
     2
  0
ENDTAB
  0
ENDSEC
  0
SECTION
  2
BLOCKS
  0
BLOCK
  8
0
  2
$MODEL_SPACE
 70
     0
 10
0.0
 20
0.0
 30
0.0
  3
$MODEL_SPACE
  1

  0
ENDBLK
  5
1D3
  8
0
  0
BLOCK
 67
     1
  8
0
  2
$PAPER_SPACE
 70
     0
 10
0.0
 20
0.0
 30
0.0
  3
$PAPER_SPACE
  1

  0
ENDBLK
  5
1D1
 67
     1
  8
0
  0
BLOCK
  8
0
  2
GENAXEH
 70
     0
 10
0.0
 20
0.0
 30
0.0
  3
GENAXEH
  1

  0
LINE
  5
264
  8
0
 10
-1.0
 20
0.0
 30
0.0
 11
1.0
 21
0.0
 31
0.0
  0
ENDBLK
  5
266
  8
0
  0
BLOCK
  8
0
  2
_OPEN30
 70
     0
 10
0.0
 20
0.0
 30
0.0
  3
_OPEN30
  1

  0
LINE
  5
2FA
  8
0
  6
BYBLOCK
 62
     0
 10
-1.0
 20
0.26794919
 30
0.0
 11
0.0
 21
0.0
 31
0.0
  0
LINE
  5
2FB
  8
0
  6
BYBLOCK
 62
     0
 10
0.0
 20
0.0
 30
0.0
 11
-1.0
 21
-0.26794919
 31
0.0
  0
LINE
  5
2FC
  8
0
  6
BYBLOCK
 62
     0
 10
0.0
 20
0.0
 30
0.0
 11
-1.0
 21
0.0
 31
0.0
  0
ENDBLK
  5
2FE
  8
0
  0
BLOCK
  8
0
  2
MYPLIST0
 70
     2
 10
0.0
 20
0.0
 30
0.0
  3
MYPLIST0
  1

  0
LINE
  5
346
  8
SYS-BUHIN0
  6
CONTINUOUS
 62
     4
 10
-170.0
 20
7.0
 30
0.0
 11
0.0
 21
7.0
 31
0.0
  0
LINE
  5
347
  8
SYS-BUHIN0
  6
CONTINUOUS
 62
     4
 10
-170.0
 20
-0.0000000000030695
 30
0.0
 11
0.0
 21
-0.0000000000001137
 31
0.0
  0
LINE
  5
348
  8
SYS-BUHIN0
  6
CONTINUOUS
 62
     4
 10
-170.0
 20
7.0
 30
0.0
 11
-170.0
 21
0.0
 31
0.0
  0
LINE
  5
349
  8
SYS-BUHIN0
  6
CONTINUOUS
 62
     4
 10
0.0
 20
7.0
 30
0.0
 11
0.0
 21
0.0
 31
0.0
  0
LINE
  5
34A
  8
SYS-BUHIN0
  6
CONTINUOUS
 62
     4
 10
-161.0
 20
7.0
 30
0.0
 11
-161.0
 21
0.0
 31
0.0
  0
LINE
  5
34B
  8
SYS-BUHIN0
  6
CONTINUOUS
 62
     4
 10
-99.0
 20
7.0
 30
0.0
 11
-99.0
 21
0.0
 31
0.0
  0
LINE
  5
34C
  8
SYS-BUHIN0
  6
CONTINUOUS
 62
     4
 10
-72.0
 20
7.0
 30
0.0
 11
-72.0
 21
0.0
 31
0.0
  0
LINE
  5
34D
  8
SYS-BUHIN0
  6
CONTINUOUS
 62
     4
 10
-63.0
 20
7.0
 30
0.0
 11
-63.0
 21
0.0
 31
0.0
  0
LINE
  5
34E
  8
SYS-BUHIN0
  6
CONTINUOUS
 62
     4
 10
-16.0
 20
7.0
 30
0.0
 11
-16.0
 21
0.0
 31
0.0
  0
TEXT
  5
34F
  8
SYS-BUHIN0
  6
CONTINUOUS
 62
     7
 10
-13.61264708219346
 20
0.6000000119208835
 30
0.0
 40
1.1000000000000001
  1
PARTS NO.
 41
1.3
  0
TEXT
  5
350
  8
SYS-BUHIN0
  6
CONTINUOUS
 62
     7
 10
-14.3642941911601802
 20
3.0691472933651762
 30
0.0
 40
2.2000000000000002
  1
部品コード
  0
TEXT
  5
351
  8
SYS-BUHIN0
  6
CONTINUOUS
 62
     7
 10
-43.8524548079375265
 20
0.6000000119208835
 30
0.0
 40
1.1000000000000001
  1
REMARKS
 41
1.3
  0
TEXT
  5
352
  8
SYS-BUHIN0
  6
CONTINUOUS
 62
     7
 10
-47.3700002431869507
 20
2.7500000476836699
 30
0.0
 40
2.7999999999999989
  1
備    考
  0
TEXT
  5
353
  8
SYS-BUHIN0
  6
CONTINUOUS
 62
     7
 10
-69.144963642251696
 20
0.6000000119208835
 30
0.0
 40
1.1000000000000001
  1
UNIT
  0
TEXT
  5
354
  8
SYS-BUHIN0
  6
CONTINUOUS
 62
     7
 10
-70.2722623709344134
 20
2.6949072988287521
 30
0.0
 40
2.7999999999999989
  1
数量
  0
TEXT
  5
355
  8
SYS-BUHIN0
  6
CONTINUOUS
 62
     7
 10
-90.5592343834632629
 20
0.6000000119208835
 30
0.0
 40
1.1000000000000001
  1
MATERIAL
 41
1.3
  0
TEXT
  5
357
  8
SYS-BUHIN0
  6
CONTINUOUS
 62
     7
 10
-138.9093619295485951
 20
0.6000000119208835
 30
0.0
 40
1.1000000000000001
  1
  DESCRIPTION
 41
1.3
  0
TEXT
  5
358
  8
SYS-BUHIN0
  6
CONTINUOUS
 62
     7
 10
-142.0050003230572031
 20
2.7500000476836699
 30
0.0
 40
2.7999999999999989
  1
 部  品  名
  0
TEXT
  5
359
  8
SYS-BUHIN0
  6
CONTINUOUS
 62
     7
 10
-166.6340487395731884
 20
0.6000000119208835
 30
0.0
 40
1.1000000000000001
  1
NO.
  0
TEXT
  5
35A
  8
SYS-BUHIN0
  6
CONTINUOUS
 62
     7
 10
-168.2900000810622885
 20
2.7500000476836699
 30
0.0
 40
2.7999999999999989
  1
項番
  0
ATTDEF
  5
35B
  8
AM_0
 62
     7
 10
-168.7900000810622885
 20
3.5
 30
0.0
 40
3.1000000000000001
  1

  3

  2
ITEM
 70
     1
1001
ACDBATTR
1070
     0
1070
     1
  0
TEXT
  5
C0B
  8
AM_BOR
 62
     7
 10
-91.7700001597404338
 20
2.7000000476837149
 30
0.0
 40
2.7999999999999989
  1
材　　質
  0
ENDBLK
  5
35C
  8
0
  0
BLOCK
  8
0
  2
MYPLIST1
 70
     2
 10
0.0
 20
0.0
 30
0.0
  3
MYPLIST1
  1

  0
LINE
  5
393
  8
SYS-BUHIN0
  6
CONTINUOUS
 62
     4
 10
-170.0
 20
6.0
 30
0.0
 11
0.0
 21
6.0
 31
0.0
  0
LINE
  5
394
  8
SYS-BUHIN0
  6
CONTINUOUS
 62
     4
 10
-170.0
 20
0.0
 30
0.0
 11
-170.0
 21
6.0
 31
0.0
  0
LINE
  5
395
  8
SYS-BUHIN0
  6
CONTINUOUS
 62
     4
 10
-161.0
 20
0.0
 30
0.0
 11
-161.0
 21
6.0
 31
0.0
  0
LINE
  5
396
  8
SYS-BUHIN0
  6
CONTINUOUS
 62
     4
 10
-99.0
 20
0.0
 30
0.0
 11
-99.0
 21
6.0
 31
0.0
  0
LINE
  5
397
  8
SYS-BUHIN0
  6
CONTINUOUS
 62
     4
 10
-72.0
 20
0.0
 30
0.0
 11
-72.0
 21
6.0
 31
0.0
  0
LINE
  5
398
  8
SYS-BUHIN0
  6
CONTINUOUS
 62
     4
 10
-63.0
 20
0.0
 30
0.0
 11
-63.0
 21
6.0
 31
0.0
  0
LINE
  5
399
  8
SYS-BUHIN0
  6
CONTINUOUS
 62
     4
 10
-16.0
 20
0.0
 30
0.0
 11
-16.0
 21
6.0
 31
0.0
  0
LINE
  5
39A
  8
SYS-BUHIN0
  6
CONTINUOUS
 62
     4
 10
0.0
 20
0.0
 30
0.0
 11
0.0
 21
6.0
 31
0.0
  0
LINE
  5
39B
  8
SYS-BUHIN0
  6
CONTINUOUS
 62
     4
 10
-170.0
 20
0.0
 30
0.0
 11
0.0
 21
0.0
 31
0.0
  0
ATTDEF
  5
39C
  8
SYS-BUHINCODE
 10
-14.0
 20
2.5
 30
0.0
 40
1.0
  1

 11
-14.0
 21
3.0
 31
0.0
  3
部品コード
  2
PCODE
 70
     0
 74
     2
1001
ACDBATTR
1070
     0
1070
     1
  0
ATTDEF
  5
39D
  8
SYS-BUHIN0
  6
CONTINUOUS
 62
     7
 10
-61.0
 20
2.0
 30
0.0
 40
2.0
  1

 11
-61.0
 21
3.0
 31
0.0
  3
備考
  2
NOTE
 70
     0
 74
     2
1001
ACDBATTR
1070
     0
1070
     1
  0
ATTDEF
  5
39E
  8
SYS-BUHIN0
  6
CONTINUOUS
 62
     7
 10
-67.5
 20
3.0
 30
0.0
 40
2.5
  1

 72
     4
 11
-67.5
 21
3.0
 31
0.0
  3
数量
  2
QTY
 70
     0
1001
ACDBATTR
1070
     0
1070
     1
  0
ATTDEF
  5
39F
  8
SYS-BUHIN0
  6
CONTINUOUS
 62
     7
 10
-97.5959581602098751
 20
2.0
 30
0.0
 40
2.0
  1

 11
-97.5959581602098751
 21
3.0
 31
0.0
  3
材質
  2
MATERIAL
 70
     0
 74
     2
1001
ACDBATTR
1070
     0
1070
     1
  0
ATTDEF
  5
3A0
  8
SYS-BUHIN0
  6
CONTINUOUS
 62
     7
 10
-159.0
 20
1.75
 30
0.0
 40
2.5
  1

 11
-159.0
 21
3.0
 31
0.0
  3
部品名
  2
DESCR
 70
     0
 74
     2
1001
ACDBATTR
1070
     0
1070
     1
  0
ATTDEF
  5
3A1
  8
SYS-BUHIN0
  6
CONTINUOUS
 62
     7
 10
-165.5
 20
3.0
 30
0.0
 40
2.5
  1

 72
     4
 11
-165.5
 21
3.0
 31
0.0
  3
項番
  2
ITEM
 70
     0
1001
ACDBATTR
1070
     0
1070
     1
  0
ENDBLK
  5
370
  8
0
  0
BLOCK
  8
0
  2
A$C1C06296A
 70
     2
 10
0.0
 20
0.0
 30
0.0
  3
A$C1C06296A
  1

  0
LINE
  5
204C
  8
AM_BOR
 10
198.8685188039937088
 20
17.8867445779319887
 30
0.0
 11
203.2337455721774973
 21
13.5215178097486195
 31
0.0
  0
LINE
  5
204D
  8
AM_BOR
 10
198.8685188039935952
 20
17.8667153513160386
 30
0.0
 11
198.8685188039939931
 21
14.1289643611789106
 31
0.0
  0
LINE
  5
204E
  8
AM_BOR
 10
204.7045172738833969
 20
17.8667153264694107
 30
0.0
 11
204.7045172738839085
 21
14.1811288456255493
 31
0.0
  0
LINE
  5
204F
  8
AM_BOR
 10
204.2042888336073077
 20
17.7930102901758609
 30
0.0
 11
204.204288833606995
 21
14.6986103577410798
 31
0.0
  0
LINE
  5
2050
  8
AM_BOR
 10
199.3687472442697981
 20
17.1760524653333491
 30
0.0
 11
199.3687472442705939
 21
14.1978003551034107
 31
0.0
  0
LINE
  5
2051
  8
AM_BOR
 10
200.4375646203926919
 20
18.4653345709555303
 30
0.0
 11
204.2042888336073077
 21
14.6986103577405203
 31
0.0
  0
LINE
  5
2052
  8
AM_BOR
 10
199.3687472442697128
 20
17.1760524653325497
 30
0.0
 11
203.0271328720340875
 21
13.5176668375685196
 31
0.0
  0
ARC
  5
2053
  8
AM_BOR
 10
198.3682903686870134
 20
17.8667153513160493
 30
0.0
 40
0.500228440276212
 50
0.0
 51
50.265515568291427
  0
ARC
  5
2054
  8
AM_BOR
 10
198.3682903438408118
 20
14.1289643611789195
 30
0.0
 40
0.500228440276212
 50
304.6975967840527915
 51
0.0
  0
ARC
  5
2055
  8
AM_BOR
 10
205.2047457340366918
 20
17.8667153264694107
 30
0.0
 40
0.500228440276212
 50
127.0284887689632995
 51
180.0000050089562933
  0
ARC
  5
2056
  8
AM_BOR
 10
203.5373175699668877
 20
17.7930102901758183
 30
0.0
 40
0.6669712537016159
 50
0.0
 51
74.7148235688661515
  0
ARC
  5
2057
  8
AM_BOR
 10
200.0357184979716862
 20
14.1978003551033893
 30
0.0
 40
0.6669712537016159
 50
180.0000050089562933
 51
256.4857883914604031
  0
LINE
  5
2058
  8
AM_BOR
 10
210.9573727773361895
 20
15.9934456649946792
 30
0.0
 11
210.9224749062998967
 21
16.211434571273589
 31
0.0
  0
LINE
  5
2059
  8
AM_BOR
 10
210.9224749062994135
 20
16.2114345712734114
 30
0.0
 11
210.8180468870608024
 21
16.4277644503503701
 31
0.0
  0
LINE
  5
205A
  8
AM_BOR
 10
210.8180468870604045
 20
16.4277644503503701
 30
0.0
 11
210.6448834799014946
 21
16.6407889012216685
 31
0.0
  0
LINE
  5
205B
  8
AM_BOR
 10
210.6448834799012957
 20
16.6407889012216188
 30
0.0
 11
210.4043025629098054
 21
16.8488866791887588
 31
0.0
  0
LINE
  5
205C
  8
AM_BOR
 10
210.4043025629094927
 20
16.8488866791890004
 30
0.0
 11
210.098135102129703
 21
17.0504740345086887
 31
0.0
  0
LINE
  5
205D
  8
AM_BOR
 10
210.0981351021299872
 20
17.0504740345085501
 30
0.0
 11
209.7287112168075964
 21
17.2440167656851386
 31
0.0
  0
LINE
  5
205E
  8
AM_BOR
 10
209.7287112168071133
 20
17.2440167656852097
 30
0.0
 11
209.2988424457736869
 21
17.4280418956699883
 31
0.0
  0
LINE
  5
205F
  8
AM_BOR
 10
209.2988424457736869
 20
17.4280418956700807
 30
0.0
 11
208.8118003499388919
 21
17.6011488821063686
 31
0.0
  0
LINE
  5
2060
  8
AM_BOR
 10
208.8118003499388919
 20
17.6011488821064397
 30
0.0
 11
208.2712916137359116
 21
17.7620202763029695
 31
0.0
  0
LINE
  5
2061
  8
AM_BOR
 10
208.2712916137361105
 20
17.7620202763030903
 30
0.0
 11
207.681429835015507
 21
17.9094317498130806
 31
0.0
  0
LINE
  5
2062
  8
AM_BOR
 10
207.6814298350153081
 20
17.9094317498129705
 30
0.0
 11
207.0467042180816861
 21
18.0422614123133584
 31
0.0
  0
LINE
  5
2063
  8
AM_BOR
 10
207.0467042180816861
 20
18.0422614123134402
 30
0.0
 11
206.371945408137293
 21
18.1594983498679703
 31
0.0
  0
LINE
  5
2064
  8
AM_BOR
 10
206.371945408137492
 20
18.1594983498678815
 30
0.0
 11
205.6622887271568061
 21
18.2602503185922984
 31
0.0
  0
LINE
  5
2065
  8
AM_BOR
 10
205.6622887271566071
 20
18.2602503185923695
 30
0.0
 11
205.022423745999788
 21
18.3325341603967402
 31
0.0
  0
LINE
  5
2066
  8
AM_BOR
 10
205.0224237459993901
 20
18.3325341603967793
 30
0.0
 11
204.923135090983692
 21
18.3437505351688195
 31
0.0
  0
LINE
  5
2067
  8
AM_BOR
 10
204.923135090983692
 20
18.3437505351687484
 30
0.0
 11
204.1601099051040933
 21
18.409363512530259
 31
0.0
  0
LINE
  5
2068
  8
AM_BOR
 10
204.1601099051048038
 20
18.409363512530259
 30
0.0
 11
203.713146860105013
 21
18.4363878729324711
 31
0.0
  0
LINE
  5
2069
  8
AM_BOR
 10
200.437564620392493
 20
18.4653345709555694
 30
0.0
 11
200.1940158259679094
 21
18.4565898963008799
 31
0.0
  0
LINE
  5
206A
  8
AM_BOR
 10
200.1940158259679947
 20
18.4565898963009012
 30
0.0
 11
199.4129261727725861
 21
18.4093635125303088
 31
0.0
  0
LINE
  5
206B
  8
AM_BOR
 10
199.4129261727725861
 20
18.4093635125302484
 30
0.0
 11
198.6499009868929875
 21
18.3437505351687591
 31
0.0
  0
LINE
  5
206C
  8
AM_BOR
 10
198.550612373156298
 20
18.3325341650599789
 30
0.0
 11
197.9107473507208965
 21
18.2602503185924689
 31
0.0
  0
LINE
  5
206D
  8
AM_BOR
 10
198.6499009868929875
 20
18.3437505351687911
 30
0.0
 11
198.550612373156298
 21
18.3325341650599185
 31
0.0
  0
LINE
  5
206E
  8
AM_BOR
 10
197.9107473507212092
 20
18.2602503185924299
 30
0.0
 11
197.2010906697404948
 21
18.1594983498680413
 31
0.0
  0
LINE
  5
206F
  8
AM_BOR
 10
197.2010906697404096
 20
18.1594983498680911
 30
0.0
 11
196.5263318597957891
 21
18.042261412313529
 31
0.0
  0
LINE
  5
2070
  8
AM_BOR
 10
196.5263318597959028
 20
18.0422614123135894
 30
0.0
 11
195.8916062428623945
 21
17.9094317498132192
 31
0.0
  0
LINE
  5
2071
  8
AM_BOR
 10
195.8916062428617124
 20
17.9094317498130202
 30
0.0
 11
195.3017444641411942
 21
17.7620202763030584
 31
0.0
  0
LINE
  5
2072
  8
AM_BOR
 10
195.3017444641409952
 20
17.7620202763031614
 30
0.0
 11
194.7612357279377875
 21
17.6011488821066102
 31
0.0
  0
LINE
  5
2073
  8
AM_BOR
 10
194.7612357279377875
 20
17.6011488821065605
 30
0.0
 11
194.2741936321029925
 21
17.4280418956701517
 31
0.0
  0
LINE
  5
2074
  8
AM_BOR
 10
194.2741936321033904
 20
17.4280418956701517
 30
0.0
 11
193.8443248610695946
 21
17.2440167656852594
 31
0.0
  0
LINE
  5
2075
  8
AM_BOR
 10
193.8443248610695946
 20
17.2440167656852097
 30
0.0
 11
193.4749009757472038
 21
17.0504740345086496
 31
0.0
  0
LINE
  5
2076
  8
AM_BOR
 10
193.4749009757472038
 20
17.0504740345086709
 30
0.0
 11
193.1687335149671867
 21
16.8488866791889293
 31
0.0
  0
LINE
  5
2077
  8
AM_BOR
 10
193.1687335149673004
 20
16.8488866791889507
 30
0.0
 11
192.9281525979749858
 21
16.6407889012216188
 31
0.0
  0
LINE
  5
2078
  8
AM_BOR
 10
192.9281525979752985
 20
16.6407889012218106
 30
0.0
 11
192.7549891908163886
 21
16.4277644503504199
 31
0.0
  0
LINE
  5
2079
  8
AM_BOR
 10
192.7549891908163886
 20
16.4277644503503488
 30
0.0
 11
192.6505611715776922
 21
16.2114345712734789
 31
0.0
  0
LINE
  5
207A
  8
AM_BOR
 10
192.6505611715778912
 20
16.2114345712737311
 30
0.0
 11
192.6156633005415131
 21
15.9934456649946792
 31
0.0
  0
LINE
  5
207B
  8
AM_BOR
 10
192.6156633005406889
 20
15.9934456649946402
 30
0.0
 11
192.6505611715772091
 21
15.7754567587157908
 31
0.0
  0
LINE
  5
207C
  8
AM_BOR
 10
192.6505611715776922
 20
15.7754567587159293
 30
0.0
 11
192.7549891908163033
 21
15.5591268796391304
 31
0.0
  0
LINE
  5
207D
  8
AM_BOR
 10
192.7549891908163886
 20
15.5591268796390292
 30
0.0
 11
192.9281525979752985
 21
15.3461024287676402
 31
0.0
  0
LINE
  5
207E
  8
AM_BOR
 10
192.9281525979750995
 20
15.3461024287676899
 30
0.0
 11
193.1687335149671867
 21
15.1380046508005002
 31
0.0
  0
LINE
  5
207F
  8
AM_BOR
 10
193.1687335149669025
 20
15.1380046508005002
 30
0.0
 11
193.4749009757468912
 21
14.9364172954808101
 31
0.0
  0
LINE
  5
2080
  8
AM_BOR
 10
193.4749009757472891
 20
14.9364172954807106
 30
0.0
 11
193.8443248610695946
 21
14.7428745643040795
 31
0.0
  0
LINE
  5
2081
  8
AM_BOR
 10
193.8443248610695093
 20
14.7428745643041701
 30
0.0
 11
194.2741936321027083
 21
14.5588494343193506
 31
0.0
  0
LINE
  5
2082
  8
AM_BOR
 10
194.2741936321031915
 20
14.5588494343194395
 30
0.0
 11
194.7612357279379012
 21
14.3857424478829596
 31
0.0
  0
LINE
  5
2083
  8
AM_BOR
 10
194.7612357279377875
 20
14.3857424478827696
 30
0.0
 11
195.3017444641409952
 21
14.2248710536861704
 31
0.0
  0
LINE
  5
2084
  8
AM_BOR
 10
195.3017444641409952
 20
14.2248710536863108
 30
0.0
 11
195.8916062428619966
 21
14.0774595801763507
 31
0.0
  0
LINE
  5
2085
  8
AM_BOR
 10
195.8916062428619114
 20
14.0774595801762192
 30
0.0
 11
196.5263318597957891
 21
13.9446299176757904
 31
0.0
  0
LINE
  5
2086
  8
AM_BOR
 10
196.5263318597953912
 20
13.9446299176758206
 30
0.0
 11
197.201090669739699
 21
13.8273929801213207
 31
0.0
  0
LINE
  5
2087
  8
AM_BOR
 10
197.2010906697404948
 20
13.8273929801213296
 30
0.0
 11
197.9107473507208965
 21
13.7266410113970494
 31
0.0
  0
LINE
  5
2088
  8
AM_BOR
 10
197.9107473507204986
 20
13.7266410113971098
 30
0.0
 11
198.5412166771806994
 21
13.6554185716662193
 31
0.0
  0
LINE
  5
2089
  8
AM_BOR
 10
198.5412166771799889
 20
13.6554185716662495
 30
0.0
 11
198.6499009868925896
 21
13.6431407948207308
 31
0.0
  0
LINE
  5
208A
  8
AM_BOR
 10
198.6499009868929022
 20
13.6431407948206793
 30
0.0
 11
199.4129261727725861
 21
13.57752781745919
 31
0.0
  0
LINE
  5
208B
  8
AM_BOR
 10
199.4129261727725861
 20
13.5775278174592007
 30
0.0
 11
199.8798563250743996
 21
13.5492962022068202
 31
0.0
  0
LINE
  5
208C
  8
AM_BOR
 10
203.0271328720324959
 20
13.5176668375699904
 30
0.0
 11
203.379020251909111
 21
13.5303014336886491
 31
0.0
  0
LINE
  5
208D
  8
AM_BOR
 10
203.3790202519091963
 20
13.5303014336885994
 30
0.0
 11
204.1601099051044059
 21
13.57752781745919
 31
0.0
  0
LINE
  5
208E
  8
AM_BOR
 10
204.7045172738839938
 20
13.6243417221955792
 30
0.0
 11
204.9231350909844025
 21
13.6431407948207504
 31
0.0
  0
LINE
  5
208F
  8
AM_BOR
 10
204.1601099051044059
 20
13.5775278174591705
 30
0.0
 11
204.7045172738837948
 21
13.6243417221955099
 31
0.0
  0
LINE
  5
2090
  8
AM_BOR
 10
204.9231350909840899
 20
13.6431407948207593
 30
0.0
 11
205.6622887271566924
 21
13.7266410113971506
 31
0.0
  0
LINE
  5
2091
  8
AM_BOR
 10
205.6622887271566071
 20
13.7266410113971098
 30
0.0
 11
206.3719454081370941
 21
13.8273929801214006
 31
0.0
  0
LINE
  5
2092
  8
AM_BOR
 10
206.371945408137492
 20
13.8273929801214503
 30
0.0
 11
207.0467042180819135
 21
13.9446299176759396
 31
0.0
  0
LINE
  5
2093
  8
AM_BOR
 10
207.0467042180816861
 20
13.9446299176759698
 30
0.0
 11
207.6814298350155923
 21
14.0774595801763702
 31
0.0
  0
LINE
  5
2094
  8
AM_BOR
 10
207.681429835015507
 20
14.0774595801762903
 30
0.0
 11
208.2712916137361105
 21
14.2248710536862504
 31
0.0
  0
LINE
  5
2095
  8
AM_BOR
 10
208.2712916137361958
 20
14.2248710536862895
 30
0.0
 11
208.8118003499392898
 21
14.3857424478828904
 31
0.0
  0
LINE
  5
2096
  8
AM_BOR
 10
208.8118003499392898
 20
14.3857424478829206
 30
0.0
 11
209.2988424457741132
 21
14.5588494343193506
 31
0.0
  0
LINE
  5
2097
  8
AM_BOR
 10
209.2988424457739995
 20
14.5588494343193204
 30
0.0
 11
209.7287112168075112
 21
14.7428745643042198
 31
0.0
  0
LINE
  5
2098
  8
AM_BOR
 10
209.7287112168071133
 20
14.7428745643041506
 30
0.0
 11
210.098135102129703
 21
14.9364172954808296
 31
0.0
  0
LINE
  5
2099
  8
AM_BOR
 10
210.0981351021299872
 20
14.9364172954808101
 30
0.0
 11
210.4043025629098906
 21
15.1380046508003598
 31
0.0
  0
LINE
  5
209A
  8
AM_BOR
 10
210.4043025629100043
 20
15.1380046508005499
 30
0.0
 11
210.6448834799020062
 21
15.3461024287677308
 31
0.0
  0
LINE
  5
209B
  8
AM_BOR
 10
210.6448834799016936
 20
15.3461024287678303
 30
0.0
 11
210.8180468870608024
 21
15.5591268796390292
 31
0.0
  0
LINE
  5
209C
  8
AM_BOR
 10
210.8180468870606887
 20
15.5591268796390594
 30
0.0
 11
210.9224749062989872
 21
15.7754567587158601
 31
0.0
  0
LINE
  5
209D
  8
AM_BOR
 10
210.9224749062998114
 20
15.7754567587157908
 30
0.0
 11
210.9573727773361895
 21
15.9934456649946206
 31
0.0
  0
LINE
  5
209E
  8
AM_BOR
 10
199.1051424870479138
 20
18.3828970152541906
 30
0.0
 11
203.9247425107741094
 21
13.5632969915274995
 31
0.0
  0
ARC
  5
209F
  8
AM_BOR
 10
205.2047457141601967
 20
14.1811288456255493
 30
0.0
 40
0.500228440276212
 50
180.0
 51
244.5184856857075033
  0
LINE
  5
20A0
  8
AM_BOR
 10
199.3652192817665139
 20
18.405261169360589
 30
0.0
 11
204.1903520906298866
 21
13.5801283604962197
 31
0.0
  0
LINE
  5
20A1
  8
AM_BOR
 10
199.6304084355469968
 20
18.4225129644057191
 30
0.0
 11
204.4504288853489982
 21
13.6024925146027709
 31
0.0
  0
LINE
  5
20A2
  8
AM_BOR
 10
199.8967460324556953
 20
18.4386163163227188
 30
0.0
 11
204.7077689502328894
 21
13.6275933985446098
 31
0.0
  0
LINE
  5
20A3
  8
AM_BOR
 10
200.1630836293643085
 20
18.4547196682397612
 30
0.0
 11
204.9488987968830997
 21
13.66890450072008
 31
0.0
  0
LINE
  5
20A4
  8
AM_BOR
 10
198.8450656923284043
 20
18.3605328611475898
 30
0.0
 11
203.6584049138650983
 21
13.5471936396104091
 31
0.0
  0
LINE
  5
20A5
  8
AM_BOR
 10
198.7943784573330959
 20
18.1287791473180704
 30
0.0
 11
203.3920673169571103
 21
13.5310902876933596
 31
0.0
  0
LINE
  5
20A6
  8
AM_BOR
 10
199.0183057366432138
 20
18.3754298728270093
 30
0.0
 11
199.0183057366432138
 21
13.6114614571624397
 31
0.0
  0
LINE
  5
20A7
  8
AM_BOR
 10
199.2180216468426011
 20
18.3926035595376796
 30
0.0
 11
199.2180216468426011
 21
13.5942877704517908
 31
0.0
  0
LINE
  5
20A8
  8
AM_BOR
 10
204.5547303412338067
 20
18.3754298728269987
 30
0.0
 11
204.5547303412338067
 21
13.6114614571624504
 31
0.0
  0
LINE
  5
20A9
  8
AM_BOR
 10
204.35501443103459
 20
18.3926035595376405
 30
0.0
 11
204.35501443103459
 21
13.5942877704517908
 31
0.0
  0
LINE
  5
20AA
  8
AM_BOR
 62
     4
 10
-0.0000001316067255
 20
15.0000001731112906
 30
0.0
 11
190.4999998683931892
 21
15.0000001731112906
 31
0.0
  0
LINE
  5
20AB
  8
AM_BOR
 62
     4
 10
276.4999998683932745
 20
28.0000001731112889
 30
0.0
 11
276.4999998683932745
 21
0.000000173111296
 31
0.0
  0
LINE
  5
20AC
  8
AM_BOR
 62
     4
 10
-0.0000001316067255
 20
15.0000001731112906
 30
0.0
 11
-0.0000001316067255
 21
0.000000173111296
 31
0.0
  0
LINE
  5
20AD
  8
AM_BOR
 62
     4
 10
-0.0000001316067255
 20
28.0000001731112889
 30
0.0
 11
276.4999998683932745
 21
28.0000001731112889
 31
0.0
  0
LINE
  5
20AE
  8
AM_BOR
 62
     4
 10
15.9999998683932692
 20
15.0000001731112906
 30
0.0
 11
15.9999998683932692
 21
0.000000173111296
 31
0.0
  0
TEXT
  5
20AF
  8
AM_BOR
 62
     4
 10
215.1799998683933097
 20
10.0000001731112906
 30
0.0
 40
1.5
  1
NAKANISHI　INDUSTRIAL CO., LTD.
 41
1.5
  0
TEXT
  5
20B0
  8
AM_BOR
 62
     3
 10
213.1999998683932915
 20
13.5000001731112906
 30
0.0
 40
5.5
  1
中西産業株式会社
 41
1.1999999999999991
  0
TEXT
  5
20B1
  8
AM_BOR
 62
     4
 10
196.1927879374059955
 20
10.0000001731112906
 30
0.0
 40
1.5
  1
Nakanishi
 41
1.1999999999999991
  0
TEXT
  5
20B2
  8
AM_BOR
 62
     7
 10
98.104999768257457
 20
15.6500001850322192
 30
0.0
 40
1.0
  1
FINISH
 41
1.6000000000000001
  0
TEXT
  5
20B3
  8
AM_BOR
 62
     7
 10
96.9799997086527981
 20
17.7000002207950082
 30
0.0
 40
2.7999999999999989
  1
仕　　上
  0
TEXT
  5
20B4
  8
AM_BOR
 62
     7
 10
3.1549997801784002
 20
15.6500001850322192
 30
0.0
 40
1.0
  1
MATERIAL
 41
1.6000000000000001
  0
TEXT
  5
20B5
  8
AM_BOR
 62
     7
 10
1.729999708652826
 20
17.7000002207950082
 30
0.0
 40
2.7999999999999989
  1
材　　質
  0
LINE
  5
20B6
  8
AM_BOR
 62
     4
 10
190.4999998683931892
 20
28.0000001731112889
 30
0.0
 11
190.4999998683931892
 21
0.000000173111296
 31
0.0
  0
LINE
  5
20B7
  8
AM_BOR
 62
     4
 10
-0.0000001316067255
 20
28.0000001731112889
 30
0.0
 11
-0.0000001316067255
 21
15.0000001731112906
 31
0.0
  0
LINE
  5
20B8
  8
AM_BOR
 62
     4
 10
-0.0000001316067255
 20
21.5000001731112889
 30
0.0
 11
190.4999998683931892
 21
21.5000001731112889
 31
0.0
  0
LINE
  5
20B9
  8
AM_BOR
 62
     4
 10
15.9999998683932692
 20
28.0000001731112889
 30
0.0
 11
15.9999998683932692
 21
15.0000001731112906
 31
0.0
  0
TEXT
  5
20BA
  8
AM_BOR
 62
     7
 10
98.104999768257457
 20
22.1500001850322192
 30
0.0
 40
1.0
  1
ART. NO.
 41
1.6000000000000001
  0
TEXT
  5
20BB
  8
AM_BOR
 62
     7
 10
96.9799997086526844
 20
24.2000002207950082
 30
0.0
 40
2.7999999999999989
  1
品　　番
  0
TEXT
  5
20BC
  8
AM_BOR
 62
     7
 10
3.1549997801784002
 20
22.1500001850322192
 30
0.0
 40
1.0
  1
ARTICLE
 41
1.6000000000000001
  0
TEXT
  5
20BD
  8
AM_BOR
 62
     7
 10
1.7299997086527119
 20
24.2000002207950082
 30
0.0
 40
2.7999999999999989
  1
品　　名
  0
LINE
  5
20BE
  8
AM_BOR
 62
     4
 10
-0.0000001316067255
 20
15.0000001731112906
 30
0.0
 11
-0.0000001316067255
 21
0.0000001731112924
 31
0.0
  0
LINE
  5
20BF
  8
AM_BOR
 62
     4
 10
95.2499998683932461
 20
28.0000001731112889
 30
0.0
 11
95.2499998683932461
 21
0.000000173111296
 31
0.0
  0
TEXT
  5
20C0
  8
AM_BOR
 62
     7
 10
3.1549997801784002
 20
9.1500001850322192
 30
0.0
 40
1.0
  1
REMARKS
 41
1.6000000000000001
  0
TEXT
  5
20C1
  8
AM_BOR
 62
     7
 10
1.7299997086527119
 20
11.20000022079501
 30
0.0
 40
2.7999999999999989
  1
備　　考
  0
LINE
  5
20C2
  8
AM_BOR
 62
     4
 10
111.2499998683932034
 20
28.0000001731112889
 30
0.0
 11
111.2499998683932034
 21
0.000000173111296
 31
0.0
  0
LINE
  5
20C3
  8
AM_BOR
 62
     4
 10
-0.0000001316067255
 20
0.000000173111296
 30
0.0
 11
276.4999998683932745
 21
0.000000173111296
 31
0.0
  0
TEXT
  5
20C4
  8
AM_BOR
 62
     7
 10
98.404999780178386
 20
9.1500001850322157
 30
0.0
 40
1.0
  1
SETS
 41
1.6000000000000001
  0
TEXT
  5
20C5
  8
AM_BOR
 62
     7
 10
96.9799997086526844
 20
11.20000022079501
 30
0.0
 40
2.7999999999999989
  1
セット品
  0
ATTDEF
  5
20C6
  8
AM_BOR
 62
     7
 10
114.3107095753831004
 20
0.5000001731112853
 30
0.0
 40
3.0
  1

 11
114.3107095753831004
 21
2.0000001731112849
 31
0.0
  3
セット
  2
SETS｛20｝
 70
     0
 74
     2
1001
ACADANNOTATIVE
1000
AnnotativeData
1002
{
1070
     1
1070
     0
1002
}
1001
ACDBATTR
1070
     0
1070
     1
  0
ATTDEF
  5
20CA
  8
AM_BOR
 62
     7
 10
19.0607095753831608
 20
0.5000001731112889
 30
0.0
 40
3.0
  1

 11
19.0607095753831608
 21
2.000000173111288
 31
0.0
  3
備　　考
  2
REMARKS｛20｝
 70
     0
 74
     2
1001
ACADANNOTATIVE
1000
AnnotativeData
1002
{
1070
     1
1070
     0
1002
}
1001
ACDBATTR
1070
     0
1070
     1
  0
ATTDEF
  5
20CE
  8
AM_BOR
 62
     7
 10
114.3107095753831004
 20
5.5000001731112853
 30
0.0
 40
3.0
  1

 11
114.3107095753831004
 21
7.0000001731112853
 31
0.0
  3
セット
  2
SETS｛20｝
 70
     0
 74
     2
1001
ACADANNOTATIVE
1000
AnnotativeData
1002
{
1070
     1
1070
     0
1002
}
1001
ACDBATTR
1070
     0
1070
     1
  0
ATTDEF
  5
20D2
  8
AM_BOR
 62
     7
 10
19.0607095753831608
 20
5.500000173111288
 30
0.0
 40
3.0
  1

 11
19.0607095753831608
 21
7.000000173111288
 31
0.0
  3
備　　考
  2
REMARKS｛20｝
 70
     0
 74
     2
1001
ACADANNOTATIVE
1000
AnnotativeData
1002
{
1070
     1
1070
     0
1002
}
1001
ACDBATTR
1070
     0
1070
     1
  0
ATTDEF
  5
20D6
  8
AM_BOR
 62
     7
 10
114.3107095753831004
 20
10.50000017311128
 30
0.0
 40
3.0
  1

 11
114.3107095753831004
 21
12.00000017311128
 31
0.0
  3
セット
  2
SETS｛20｝
 70
     0
 74
     2
1001
ACADANNOTATIVE
1000
AnnotativeData
1002
{
1070
     1
1070
     0
1002
}
1001
ACDBATTR
1070
     0
1070
     1
  0
ATTDEF
  5
20DA
  8
AM_BOR
 62
     7
 10
19.0607095753831608
 20
10.5000001731112906
 30
0.0
 40
3.0
  1

 11
19.0607095753831608
 21
12.0000001731112906
 31
0.0
  3
備　　考
  2
REMARKS｛20｝
 70
     0
 74
     2
1001
ACADANNOTATIVE
1000
AnnotativeData
1002
{
1070
     1
1070
     0
1002
}
1001
ACDBATTR
1070
     0
1070
     1
  0
ATTDEF
  5
20DE
  8
AM_BOR
 62
     7
 10
114.2499998683932034
 20
23.5000001731112889
 30
0.0
 40
3.0
  1

 11
114.2499998683932034
 21
25.0000001731112889
 31
0.0
  3
品    番
  2
ART_NO｛20｝
 70
     0
 74
     2
1001
ACADANNOTATIVE
1000
AnnotativeData
1002
{
1070
     1
1070
     0
1002
}
1001
ACDBATTR
1070
     0
1070
     1
  0
ATTDEF
  5
20E2
  8
AM_BOR
 62
     7
 10
18.9999998683932709
 20
23.5000001731112889
 30
0.0
 40
3.0
  1

 11
18.9999998683932709
 21
25.0000001731112889
 31
0.0
  3
品    名
  2
ARTICLE｛20｝
 70
     0
 74
     2
1001
ACADANNOTATIVE
1000
AnnotativeData
1002
{
1070
     1
1070
     0
1002
}
1001
ACDBATTR
1070
     0
1070
     1
  0
ATTDEF
  5
20E6
  8
AM_BOR
 62
     7
 10
114.2499998683932034
 20
17.0000001731112889
 30
0.0
 40
3.0
  1

 11
114.2499998683932034
 21
18.5000001731112889
 31
0.0
  3
仕上
  2
FINISH｛20｝
 70
     0
 74
     2
1001
ACADANNOTATIVE
1000
AnnotativeData
1002
{
1070
     1
1070
     0
1002
}
1001
ACDBATTR
1070
     0
1070
     1
  0
ATTDEF
  5
20EA
  8
AM_BOR
 62
     7
 10
18.9999998683932709
 20
17.0000001731112889
 30
0.0
 40
3.0
  1

 11
18.9999998683932709
 21
18.5000001731112889
 31
0.0
  3
材　　質
  2
MATERIAK｛20｝
 70
     0
 74
     2
1001
ACADANNOTATIVE
1000
AnnotativeData
1002
{
1070
     1
1070
     0
1002
}
1001
ACDBATTR
1070
     0
1070
     1
  0
ENDBLK
  5
20F1
  8
0
  0
BLOCK
  8
0
  2
_ACMFILLEDHALF
 70
     0
 10
0.0
 20
0.0
 30
0.0
  3
_ACMFILLEDHALF
  1

  0
TRACE
  5
42C9
  8
0
 62
     0
 10
-0.8
 20
0.0
 30
0.0
 11
-1.0
 21
0.166666666
 31
0.0
 12
0.0
 22
0.0
 32
0.0
 13
0.0
 23
0.0
 33
0.0
  0
LINE
  5
42CA
  8
0
 62
     0
 10
-1.0
 20
0.0
 30
0.0
 11
-0.8
 21
0.0
 31
0.0
  0
ENDBLK
  5
42C8
  8
0
  0
BLOCK
  8
0
  2
_ACMFILLED
 70
     0
 10
0.0
 20
0.0
 30
0.0
  3
_ACMFILLED
  1

  0
TRACE
  5
42D5
  8
0
 62
     0
 10
-1.0
 20
-0.166666666
 30
0.0
 11
-1.0
 21
0.166666666
 31
0.0
 12
0.0
 22
0.0
 32
0.0
 13
0.0
 23
0.0
 33
0.0
  0
ENDBLK
  5
42D4
  8
0
  0
BLOCK
  8
0
  2
_ACMOPEN15
 70
     0
 10
0.0
 20
0.0
 30
0.0
  3
_ACMOPEN15
  1

  0
LINE
  5
42E1
  8
0
 62
     0
 10
-1.0
 20
0.0
 30
0.0
 11
0.0
 21
0.0
 31
0.0
  0
LINE
  5
42E2
  8
0
 62
     0
 10
-1.0
 20
-0.131652497
 30
0.0
 11
0.0
 21
0.0
 31
0.0
  0
LINE
  5
42E3
  8
0
 62
     0
 10
0.0
 20
0.0
 30
0.0
 11
-1.0
 21
0.131652497
 31
0.0
  0
ENDBLK
  5
42E0
  8
0
  0
BLOCK
  8
0
  2
_ACMFILLED15
 70
     0
 10
0.0
 20
0.0
 30
0.0
  3
_ACMFILLED15
  1

  0
TRACE
  5
42F1
  8
0
 62
     0
 10
-1.0
 20
-0.131652497
 30
0.0
 11
-1.0
 21
0.131652497
 31
0.0
 12
0.0
 22
0.0
 32
0.0
 13
0.0
 23
0.0
 33
0.0
  0
ENDBLK
  5
42F0
  8
0
  0
BLOCK
  8
0
  2
*D9
 70
     1
 10
0.0
 20
0.0
 30
0.0
  3
*D9
  1

  0
LINE
  5
68B0
  8
AM_5
  6
CONTINUOUS
 62
     7
 10
133.6005759644993987
 20
69.0797085859817059
 30
0.0
 11
119.6005759644993987
 21
69.0797085859817059
 31
0.0
  0
LINE
  5
68B1
  8
AM_5
  6
CONTINUOUS
 62
     7
 10
139.3505759644993134
 20
84.0797085859819049
 30
0.0
 11
119.6005759644993987
 21
84.0797085859819049
 31
0.0
  0
LINE
  5
68B2
  8
AM_5
  6
CONTINUOUS
 62
     7
 10
120.6005759644993987
 20
71.5797085859817059
 30
0.0
 11
120.6005759644993987
 21
81.5797085859819049
 31
0.0
  0
INSERT
  5
68B3
  8
AM_5
 62
     7
  2
_OPEN30
 10
120.6005759644993987
 20
69.0797085859817059
 30
0.0
 41
2.5
 42
2.5
 43
2.5
 50
270.0
  0
INSERT
  5
68B4
  8
AM_5
 62
     7
  2
_OPEN30
 10
120.6005759644993987
 20
84.0797085859819049
 30
0.0
 41
2.5
 42
2.5
 43
2.5
 50
90.0
  0
INSERT
  5
68B5
  8
0
  2
*U36
 10
0.0
 20
0.0
 30
0.0
  0
POINT
  5
68B6
  8
DEFPOINTS
 62
     0
 10
134.6005759644993987
 20
69.0797085859817059
 30
0.0
  0
POINT
  5
68B7
  8
DEFPOINTS
 62
     0
 10
140.3505759644993134
 20
84.0797085859819049
 30
0.0
  0
POINT
  5
68B8
  8
DEFPOINTS
 62
     0
 10
120.6005759644993987
 20
84.0797085859819049
 30
0.0
  0
ENDBLK
  5
639A
  8
0
  0
BLOCK
  8
0
  2
*D10
 70
     1
 10
0.0
 20
0.0
 30
0.0
  3
*D10
  1

  0
LINE
  5
6990
  8
AM_5
  6
CONTINUOUS
 62
     7
 10
166.3505759644993987
 20
114.0797085859818054
 30
0.0
 11
119.6005759644993987
 21
114.0797085859818054
 31
0.0
  0
LINE
  5
6991
  8
AM_5
  6
CONTINUOUS
 62
     7
 10
139.3505759644993134
 20
84.0797085859819049
 30
0.0
 11
119.6005759644993987
 21
84.0797085859819049
 31
0.0
  0
LINE
  5
6992
  8
AM_5
  6
CONTINUOUS
 62
     7
 10
120.6005759644993987
 20
111.5797085859818054
 30
0.0
 11
120.6005759644993987
 21
86.5797085859819049
 31
0.0
  0
INSERT
  5
6993
  8
AM_5
 62
     7
  2
_OPEN30
 10
120.6005759644993987
 20
114.0797085859818054
 30
0.0
 41
2.5
 42
2.5
 43
2.5
 50
90.0
  0
INSERT
  5
6994
  8
AM_5
 62
     7
  2
_OPEN30
 10
120.6005759644993987
 20
84.0797085859819049
 30
0.0
 41
2.5
 42
2.5
 43
2.5
 50
270.0
  0
INSERT
  5
6995
  8
0
  2
*U53
 10
0.0
 20
0.0
 30
0.0
  0
POINT
  5
6996
  8
DEFPOINTS
 62
     0
 10
167.3505759644993987
 20
114.0797085859818054
 30
0.0
  0
POINT
  5
6997
  8
DEFPOINTS
 62
     0
 10
140.3505759644993134
 20
84.0797085859819049
 30
0.0
  0
POINT
  5
6998
  8
DEFPOINTS
 62
     0
 10
120.6005759644993987
 20
84.0797085859819049
 30
0.0
  0
ENDBLK
  5
63CD
  8
0
  0
BLOCK
  8
0
  2
*D11
 70
     1
 10
0.0
 20
0.0
 30
0.0
  3
*D11
  1

  0
LINE
  5
68C2
  8
AM_5
  6
CONTINUOUS
 62
     7
 10
139.3505759644993134
 20
144.0797085859817912
 30
0.0
 11
119.6005759644992992
 21
144.0797085859817912
 31
0.0
  0
LINE
  5
68C3
  8
AM_5
  6
CONTINUOUS
 62
     7
 10
166.3505759644993987
 20
114.0797085859818054
 30
0.0
 11
119.6005759644992992
 21
114.0797085859818054
 31
0.0
  0
LINE
  5
68C4
  8
AM_5
  6
CONTINUOUS
 62
     7
 10
120.6005759644992992
 20
141.5797085859817912
 30
0.0
 11
120.6005759644992992
 21
116.5797085859818054
 31
0.0
  0
INSERT
  5
68C5
  8
AM_5
 62
     7
  2
_OPEN30
 10
120.6005759644992992
 20
144.0797085859817912
 30
0.0
 41
2.5
 42
2.5
 43
2.5
 50
90.0
  0
INSERT
  5
68C6
  8
AM_5
 62
     7
  2
_OPEN30
 10
120.6005759644992992
 20
114.0797085859818054
 30
0.0
 41
2.5
 42
2.5
 43
2.5
 50
270.0
  0
INSERT
  5
68C7
  8
0
  2
*U37
 10
0.0
 20
0.0
 30
0.0
  0
POINT
  5
68C8
  8
DEFPOINTS
 62
     0
 10
140.3505759644993134
 20
144.0797085859817912
 30
0.0
  0
POINT
  5
68C9
  8
DEFPOINTS
 62
     0
 10
167.3505759644993987
 20
114.0797085859818054
 30
0.0
  0
POINT
  5
68CA
  8
DEFPOINTS
 62
     0
 10
120.6005759644992992
 20
114.0797085859818054
 30
0.0
  0
ENDBLK
  5
63EE
  8
0
  0
BLOCK
  8
0
  2
*D12
 70
     1
 10
0.0
 20
0.0
 30
0.0
  3
*D12
  1

  0
LINE
  5
6999
  8
AM_5
  6
CONTINUOUS
 62
     7
 10
166.3505759644993987
 20
174.0797085859817912
 30
0.0
 11
119.6005759644992992
 21
174.0797085859817912
 31
0.0
  0
LINE
  5
699A
  8
AM_5
  6
CONTINUOUS
 62
     7
 10
139.3505759644993134
 20
144.0797085859817912
 30
0.0
 11
119.6005759644992992
 21
144.0797085859817912
 31
0.0
  0
LINE
  5
699B
  8
AM_5
  6
CONTINUOUS
 62
     7
 10
120.6005759644992992
 20
171.5797085859817912
 30
0.0
 11
120.6005759644992992
 21
146.5797085859817912
 31
0.0
  0
INSERT
  5
699C
  8
AM_5
 62
     7
  2
_OPEN30
 10
120.6005759644992992
 20
174.0797085859817912
 30
0.0
 41
2.5
 42
2.5
 43
2.5
 50
90.0
  0
INSERT
  5
699D
  8
AM_5
 62
     7
  2
_OPEN30
 10
120.6005759644992992
 20
144.0797085859817912
 30
0.0
 41
2.5
 42
2.5
 43
2.5
 50
270.0
  0
INSERT
  5
699E
  8
0
  2
*U54
 10
0.0
 20
0.0
 30
0.0
  0
POINT
  5
699F
  8
DEFPOINTS
 62
     0
 10
167.3505759644993987
 20
174.0797085859817912
 30
0.0
  0
POINT
  5
69A0
  8
DEFPOINTS
 62
     0
 10
140.3505759644993134
 20
144.0797085859817912
 30
0.0
  0
POINT
  5
69A1
  8
DEFPOINTS
 62
     0
 10
120.6005759644992992
 20
144.0797085859817912
 30
0.0
  0
ENDBLK
  5
640F
  8
0
  0
BLOCK
  8
0
  2
*D13
 70
     1
 10
0.0
 20
0.0
 30
0.0
  3
*D13
  1

  0
LINE
  5
68D4
  8
AM_5
  6
CONTINUOUS
 62
     7
 10
139.3505759644993134
 20
204.0797085859817912
 30
0.0
 11
119.6005759644991997
 21
204.0797085859817912
 31
0.0
  0
LINE
  5
68D5
  8
AM_5
  6
CONTINUOUS
 62
     7
 10
166.3505759644993987
 20
174.0797085859817912
 30
0.0
 11
119.6005759644991997
 21
174.0797085859817912
 31
0.0
  0
LINE
  5
68D6
  8
AM_5
  6
CONTINUOUS
 62
     7
 10
120.6005759644991997
 20
201.5797085859817912
 30
0.0
 11
120.6005759644991997
 21
176.5797085859817912
 31
0.0
  0
INSERT
  5
68D7
  8
AM_5
 62
     7
  2
_OPEN30
 10
120.6005759644991997
 20
204.0797085859817912
 30
0.0
 41
2.5
 42
2.5
 43
2.5
 50
90.0
  0
INSERT
  5
68D8
  8
AM_5
 62
     7
  2
_OPEN30
 10
120.6005759644991997
 20
174.0797085859817912
 30
0.0
 41
2.5
 42
2.5
 43
2.5
 50
270.0
  0
INSERT
  5
68D9
  8
0
  2
*U38
 10
0.0
 20
0.0
 30
0.0
  0
POINT
  5
68DA
  8
DEFPOINTS
 62
     0
 10
140.3505759644993134
 20
204.0797085859817912
 30
0.0
  0
POINT
  5
68DB
  8
DEFPOINTS
 62
     0
 10
167.3505759644993987
 20
174.0797085859817912
 30
0.0
  0
POINT
  5
68DC
  8
DEFPOINTS
 62
     0
 10
120.6005759644991997
 20
174.0797085859817912
 30
0.0
  0
ENDBLK
  5
6430
  8
0
  0
BLOCK
  8
0
  2
*D14
 70
     1
 10
0.0
 20
0.0
 30
0.0
  3
*D14
  1

  0
LINE
  5
68DD
  8
AM_5
  6
CONTINUOUS
 62
     7
 10
166.3505759644993987
 20
234.0797085859817912
 30
0.0
 11
119.6005759644991997
 21
234.0797085859817912
 31
0.0
  0
LINE
  5
68DE
  8
AM_5
  6
CONTINUOUS
 62
     7
 10
139.3505759644993134
 20
204.0797085859817912
 30
0.0
 11
119.6005759644991997
 21
204.0797085859817912
 31
0.0
  0
LINE
  5
68DF
  8
AM_5
  6
CONTINUOUS
 62
     7
 10
120.6005759644991997
 20
231.5797085859817912
 30
0.0
 11
120.6005759644991997
 21
206.5797085859817912
 31
0.0
  0
INSERT
  5
68E0
  8
AM_5
 62
     7
  2
_OPEN30
 10
120.6005759644991997
 20
234.0797085859817912
 30
0.0
 41
2.5
 42
2.5
 43
2.5
 50
90.0
  0
INSERT
  5
68E1
  8
AM_5
 62
     7
  2
_OPEN30
 10
120.6005759644991997
 20
204.0797085859817912
 30
0.0
 41
2.5
 42
2.5
 43
2.5
 50
270.0
  0
INSERT
  5
68E2
  8
0
  2
*U39
 10
0.0
 20
0.0
 30
0.0
  0
POINT
  5
68E3
  8
DEFPOINTS
 62
     0
 10
167.3505759644993987
 20
234.0797085859817912
 30
0.0
  0
POINT
  5
68E4
  8
DEFPOINTS
 62
     0
 10
140.3505759644993134
 20
204.0797085859817912
 30
0.0
  0
POINT
  5
68E5
  8
DEFPOINTS
 62
     0
 10
120.6005759644991997
 20
204.0797085859817912
 30
0.0
  0
ENDBLK
  5
6451
  8
0
  0
BLOCK
  8
0
  2
*D15
 70
     1
 10
0.0
 20
0.0
 30
0.0
  3
*D15
  1

  0
LINE
  5
69A2
  8
AM_5
  6
CONTINUOUS
 62
     7
 10
139.3505759644993134
 20
264.0797085859817912
 30
0.0
 11
119.6005759644991002
 21
264.0797085859817912
 31
0.0
  0
LINE
  5
69A3
  8
AM_5
  6
CONTINUOUS
 62
     7
 10
166.3505759644993987
 20
234.0797085859819049
 30
0.0
 11
119.6005759644991002
 21
234.0797085859819049
 31
0.0
  0
LINE
  5
69A4
  8
AM_5
  6
CONTINUOUS
 62
     7
 10
120.6005759644991002
 20
261.5797085859817912
 30
0.0
 11
120.6005759644991002
 21
236.5797085859819049
 31
0.0
  0
INSERT
  5
69A5
  8
AM_5
 62
     7
  2
_OPEN30
 10
120.6005759644991002
 20
264.0797085859817912
 30
0.0
 41
2.5
 42
2.5
 43
2.5
 50
90.0
  0
INSERT
  5
69A6
  8
AM_5
 62
     7
  2
_OPEN30
 10
120.6005759644991002
 20
234.0797085859819049
 30
0.0
 41
2.5
 42
2.5
 43
2.5
 50
270.0
  0
INSERT
  5
69A7
  8
0
  2
*U55
 10
0.0
 20
0.0
 30
0.0
  0
POINT
  5
69A8
  8
DEFPOINTS
 62
     0
 10
140.3505759644993134
 20
264.0797085859817912
 30
0.0
  0
POINT
  5
69A9
  8
DEFPOINTS
 62
     0
 10
167.3505759644993987
 20
234.0797085859819049
 30
0.0
  0
POINT
  5
69AA
  8
DEFPOINTS
 62
     0
 10
120.6005759644991002
 20
234.0797085859819049
 30
0.0
  0
ENDBLK
  5
6472
  8
0
  0
BLOCK
  8
0
  2
*D16
 70
     1
 10
0.0
 20
0.0
 30
0.0
  3
*D16
  1

  0
LINE
  5
68EF
  8
AM_5
  6
CONTINUOUS
 62
     7
 10
133.6005759644993987
 20
279.0797085859816775
 30
0.0
 11
119.6005759644991002
 21
279.0797085859817912
 31
0.0
  0
LINE
  5
68F0
  8
AM_5
  6
CONTINUOUS
 62
     7
 10
139.3505759644993134
 20
264.0797085859816775
 30
0.0
 11
119.6005759644991002
 21
264.0797085859817912
 31
0.0
  0
LINE
  5
68F1
  8
AM_5
  6
CONTINUOUS
 62
     7
 10
120.6005759644991002
 20
276.5797085859817912
 30
0.0
 11
120.6005759644991002
 21
266.5797085859817912
 31
0.0
  0
INSERT
  5
68F2
  8
AM_5
 62
     7
  2
_OPEN30
 10
120.6005759644991002
 20
279.0797085859817912
 30
0.0
 41
2.5
 42
2.5
 43
2.5
 50
90.0
  0
INSERT
  5
68F3
  8
AM_5
 62
     7
  2
_OPEN30
 10
120.6005759644991002
 20
264.0797085859817912
 30
0.0
 41
2.5
 42
2.5
 43
2.5
 50
270.0
  0
INSERT
  5
68F4
  8
0
  2
*U40
 10
0.0
 20
0.0
 30
0.0
  0
POINT
  5
68F5
  8
DEFPOINTS
 62
     0
 10
134.6005759644993987
 20
279.0797085859816775
 30
0.0
  0
POINT
  5
68F6
  8
DEFPOINTS
 62
     0
 10
140.3505759644993134
 20
264.0797085859816775
 30
0.0
  0
POINT
  5
68F7
  8
DEFPOINTS
 62
     0
 10
120.6005759644991002
 20
264.0797085859817912
 30
0.0
  0
ENDBLK
  5
6493
  8
0
  0
BLOCK
  8
0
  2
*D17
 70
     1
 10
0.0
 20
0.0
 30
0.0
  3
*D17
  1

  0
LINE
  5
68F8
  8
AM_5
  6
CONTINUOUS
 62
     7
 10
133.6005759644993987
 20
279.0797085859817912
 30
0.0
 11
112.6005759644992992
 21
279.0797085859817912
 31
0.0
  0
LINE
  5
68F9
  8
AM_5
  6
CONTINUOUS
 62
     7
 10
133.6005759644993987
 20
69.0797085859817486
 30
0.0
 11
112.6005759644992992
 21
69.0797085859817486
 31
0.0
  0
LINE
  5
68FA
  8
AM_5
  6
CONTINUOUS
 62
     7
 10
113.6005759644992992
 20
276.5797085859817912
 30
0.0
 11
113.6005759644992992
 21
71.5797085859817486
 31
0.0
  0
INSERT
  5
68FB
  8
AM_5
 62
     7
  2
_OPEN30
 10
113.6005759644992992
 20
279.0797085859817912
 30
0.0
 41
2.5
 42
2.5
 43
2.5
 50
90.0
  0
INSERT
  5
68FC
  8
AM_5
 62
     7
  2
_OPEN30
 10
113.6005759644992992
 20
69.0797085859817486
 30
0.0
 41
2.5
 42
2.5
 43
2.5
 50
270.0
  0
INSERT
  5
68FD
  8
0
  2
*U41
 10
0.0
 20
0.0
 30
0.0
  0
POINT
  5
68FE
  8
DEFPOINTS
 62
     0
 10
134.6005759644993987
 20
279.0797085859817912
 30
0.0
  0
POINT
  5
68FF
  8
DEFPOINTS
 62
     0
 10
134.6005759644993987
 20
69.0797085859817486
 30
0.0
  0
POINT
  5
6900
  8
DEFPOINTS
 62
     0
 10
113.6005759644992992
 20
69.0797085859817486
 30
0.0
  0
ENDBLK
  5
64B4
  8
0
  0
BLOCK
  8
0
  2
*D18
 70
     1
 10
0.0
 20
0.0
 30
0.0
  3
*D18
  1

  0
LINE
  5
6986
  8
AM_5
  6
CONTINUOUS
 62
     7
 10
237.6005759645956914
 20
280.0797085859817912
 30
0.0
 11
237.6005759645956914
 21
307.0020005750604923
 31
0.0
  0
LINE
  5
6987
  8
AM_5
  6
CONTINUOUS
 62
     7
 10
207.6005759644995123
 20
280.0797085859816775
 30
0.0
 11
207.6005759644995123
 21
307.0020005750604923
 31
0.0
  0
LINE
  5
6988
  8
AM_5
  6
CONTINUOUS
 62
     7
 10
210.1005759644995123
 20
306.0020005750604923
 30
0.0
 11
235.1005759645956914
 21
306.0020005750604923
 31
0.0
  0
LINE
  5
6989
  8
AM_5
  6
CONTINUOUS
 62
     7
 10
237.6005759645956914
 20
306.0020005750604923
 30
0.0
 11
257.0453507611608757
 21
306.0020005750604923
 31
0.0
  0
INSERT
  5
698A
  8
AM_5
 62
     7
  2
_OPEN30
 10
207.6005759644995123
 20
306.0020005750604923
 30
0.0
 41
2.5
 42
2.5
 43
2.5
 50
180.0
  0
INSERT
  5
698B
  8
AM_5
 62
     7
  2
_OPEN30
 10
237.6005759645956914
 20
306.0020005750604923
 30
0.0
 41
2.5
 42
2.5
 43
2.5
  0
INSERT
  5
698C
  8
0
  2
*U52
 10
0.0
 20
0.0
 30
0.0
  0
POINT
  5
698D
  8
DEFPOINTS
 62
     0
 10
237.6005759645956914
 20
279.0797085859817912
 30
0.0
  0
POINT
  5
698E
  8
DEFPOINTS
 62
     0
 10
207.6005759644995123
 20
279.0797085859816775
 30
0.0
  0
POINT
  5
698F
  8
DEFPOINTS
 62
     0
 10
207.6005759644995123
 20
306.0020005750604923
 30
0.0
  0
ENDBLK
  5
64DE
  8
0
  0
BLOCK
  8
0
  2
*D19
 70
     1
 10
0.0
 20
0.0
 30
0.0
  3
*D19
  1

  0
LINE
  5
690B
  8
AM_5
  6
CONTINUOUS
 62
     7
 10
134.6005759644993987
 20
280.0797085859817912
 30
0.0
 11
134.6005759644993987
 21
314.0020005750604923
 31
0.0
  0
LINE
  5
690C
  8
AM_5
  6
CONTINUOUS
 62
     7
 10
152.6005759644993987
 20
277.3297085859817912
 30
0.0
 11
152.6005759644993987
 21
314.0020005750604923
 31
0.0
  0
LINE
  5
690D
  8
AM_5
  6
CONTINUOUS
 62
     7
 10
137.1005759644993987
 20
313.0020005750604923
 30
0.0
 11
150.1005759644993987
 21
313.0020005750604923
 31
0.0
  0
INSERT
  5
690E
  8
AM_5
 62
     7
  2
_OPEN30
 10
134.6005759644993987
 20
313.0020005750604923
 30
0.0
 41
2.5
 42
2.5
 43
2.5
 50
180.0
  0
INSERT
  5
690F
  8
AM_5
 62
     7
  2
_OPEN30
 10
152.6005759644993987
 20
313.0020005750604923
 30
0.0
 41
2.5
 42
2.5
 43
2.5
  0
INSERT
  5
6910
  8
0
  2
*U42
 10
0.0
 20
0.0
 30
0.0
  0
POINT
  5
6911
  8
DEFPOINTS
 62
     0
 10
134.6005759644993987
 20
279.0797085859817912
 30
0.0
  0
POINT
  5
6912
  8
DEFPOINTS
 62
     0
 10
152.6005759644993987
 20
276.3297085859817912
 30
0.0
  0
POINT
  5
6913
  8
DEFPOINTS
 62
     0
 10
152.6005759644993987
 20
313.0020005750604923
 30
0.0
  0
ENDBLK
  5
6524
  8
0
  0
BLOCK
  8
0
  2
*D20
 70
     1
 10
0.0
 20
0.0
 30
0.0
  3
*D20
  1

  0
LINE
  5
6914
  8
AM_5
  6
CONTINUOUS
 62
     7
 10
179.6005759644993987
 20
247.3297085859817912
 30
0.0
 11
179.6005759644993987
 21
314.0020005750603787
 31
0.0
  0
LINE
  5
6915
  8
AM_5
  6
CONTINUOUS
 62
     7
 10
152.6005759644993987
 20
277.3297085859816775
 30
0.0
 11
152.6005759644993987
 21
314.0020005750603787
 31
0.0
  0
LINE
  5
6916
  8
AM_5
  6
CONTINUOUS
 62
     7
 10
177.1005759644993987
 20
313.0020005750603787
 30
0.0
 11
155.1005759644993987
 21
313.0020005750603787
 31
0.0
  0
INSERT
  5
6917
  8
AM_5
 62
     7
  2
_OPEN30
 10
179.6005759644993987
 20
313.0020005750603787
 30
0.0
 41
2.5
 42
2.5
 43
2.5
  0
INSERT
  5
6918
  8
AM_5
 62
     7
  2
_OPEN30
 10
152.6005759644993987
 20
313.0020005750603787
 30
0.0
 41
2.5
 42
2.5
 43
2.5
 50
180.0
  0
INSERT
  5
6919
  8
0
  2
*U43
 10
0.0
 20
0.0
 30
0.0
  0
POINT
  5
691A
  8
DEFPOINTS
 62
     0
 10
179.6005759644993987
 20
246.3297085859817912
 30
0.0
  0
POINT
  5
691B
  8
DEFPOINTS
 62
     0
 10
152.6005759644993987
 20
276.3297085859817912
 30
0.0
  0
POINT
  5
691C
  8
DEFPOINTS
 62
     0
 10
152.6005759644993987
 20
313.0020005750603787
 30
0.0
  0
ENDBLK
  5
6557
  8
0
  0
BLOCK
  8
0
  2
*D21
 70
     1
 10
0.0
 20
0.0
 30
0.0
  3
*D21
  1

  0
LINE
  5
691D
  8
AM_5
  6
CONTINUOUS
 62
     7
 10
222.6005759644993987
 20
287.0797085859817912
 30
0.0
 11
222.6005759644993987
 21
314.0020005750604923
 31
0.0
  0
LINE
  5
691E
  8
AM_5
  6
CONTINUOUS
 62
     7
 10
179.6005759644993987
 20
247.3297085859817912
 30
0.0
 11
179.6005759644993987
 21
314.0020005750604923
 31
0.0
  0
LINE
  5
691F
  8
AM_5
  6
CONTINUOUS
 62
     7
 10
220.1005759644993987
 20
313.0020005750604923
 30
0.0
 11
182.1005759644993987
 21
313.0020005750604923
 31
0.0
  0
INSERT
  5
6920
  8
AM_5
 62
     7
  2
_OPEN30
 10
222.6005759644993987
 20
313.0020005750604923
 30
0.0
 41
2.5
 42
2.5
 43
2.5
  0
INSERT
  5
6921
  8
AM_5
 62
     7
  2
_OPEN30
 10
179.6005759644993987
 20
313.0020005750604923
 30
0.0
 41
2.5
 42
2.5
 43
2.5
 50
180.0
  0
INSERT
  5
6922
  8
0
  2
*U44
 10
0.0
 20
0.0
 30
0.0
  0
POINT
  5
6923
  8
DEFPOINTS
 62
     0
 10
222.6005759644993987
 20
286.0797085859816775
 30
0.0
  0
POINT
  5
6924
  8
DEFPOINTS
 62
     0
 10
179.6005759644993987
 20
246.3297085859817912
 30
0.0
  0
POINT
  5
6925
  8
DEFPOINTS
 62
     0
 10
179.6005759644993987
 20
313.0020005750604923
 30
0.0
  0
ENDBLK
  5
6578
  8
0
  0
BLOCK
  8
0
  2
*D22
 70
     1
 10
0.0
 20
0.0
 30
0.0
  3
*D22
  1

  0
LINE
  5
6926
  8
AM_5
  6
CONTINUOUS
 62
     7
 10
134.6005759644993987
 20
280.0797085859817912
 30
0.0
 11
134.6005759644993987
 21
321.0020005750604923
 31
0.0
  0
LINE
  5
6927
  8
AM_5
  6
CONTINUOUS
 62
     7
 10
222.6005759644993987
 20
287.0797085859817912
 30
0.0
 11
222.6005759644993987
 21
321.0020005750604923
 31
0.0
  0
LINE
  5
6928
  8
AM_5
  6
CONTINUOUS
 62
     7
 10
137.1005759644993987
 20
320.0020005750604923
 30
0.0
 11
220.1005759644993987
 21
320.0020005750604923
 31
0.0
  0
INSERT
  5
6929
  8
AM_5
 62
     7
  2
_OPEN30
 10
134.6005759644993987
 20
320.0020005750604923
 30
0.0
 41
2.5
 42
2.5
 43
2.5
 50
180.0
  0
INSERT
  5
692A
  8
AM_5
 62
     7
  2
_OPEN30
 10
222.6005759644993987
 20
320.0020005750604923
 30
0.0
 41
2.5
 42
2.5
 43
2.5
  0
INSERT
  5
692B
  8
0
  2
*U45
 10
0.0
 20
0.0
 30
0.0
  0
POINT
  5
692C
  8
DEFPOINTS
 62
     0
 10
134.6005759644993987
 20
279.0797085859817912
 30
0.0
  0
POINT
  5
692D
  8
DEFPOINTS
 62
     0
 10
222.6005759644993987
 20
286.0797085859816775
 30
0.0
  0
POINT
  5
692E
  8
DEFPOINTS
 62
     0
 10
222.6005759644993987
 20
320.0020005750604923
 30
0.0
  0
ENDBLK
  5
6599
  8
0
  0
BLOCK
  8
0
  2
*D23
 70
     1
 10
0.0
 20
0.0
 30
0.0
  3
*D23
  1

  0
LINE
  5
69AB
  8
AM_5
  6
CONTINUOUS
 62
     7
 10
302.6005759644993987
 20
280.0797085859816775
 30
0.0
 11
302.6005759644993987
 21
321.002000575060606
 31
0.0
  0
LINE
  5
69AC
  8
AM_5
  6
CONTINUOUS
 62
     7
 10
222.6005759644993987
 20
287.0797085859817912
 30
0.0
 11
222.6005759644993987
 21
321.002000575060606
 31
0.0
  0
LINE
  5
69AD
  8
AM_5
  6
CONTINUOUS
 62
     7
 10
300.100575964499285
 20
320.002000575060606
 30
0.0
 11
225.1005759644993987
 21
320.002000575060606
 31
0.0
  0
INSERT
  5
69AE
  8
AM_5
 62
     7
  2
_OPEN30
 10
302.6005759644993987
 20
320.002000575060606
 30
0.0
 41
2.5
 42
2.5
 43
2.5
  0
INSERT
  5
69AF
  8
AM_5
 62
     7
  2
_OPEN30
 10
222.6005759644993987
 20
320.002000575060606
 30
0.0
 41
2.5
 42
2.5
 43
2.5
 50
180.0
  0
INSERT
  5
69B0
  8
0
  2
*U56
 10
0.0
 20
0.0
 30
0.0
  0
POINT
  5
69B1
  8
DEFPOINTS
 62
     0
 10
302.6005759644993987
 20
279.0797085859816775
 30
0.0
  0
POINT
  5
69B2
  8
DEFPOINTS
 62
     0
 10
222.6005759644993987
 20
286.0797085859816775
 30
0.0
  0
POINT
  5
69B3
  8
DEFPOINTS
 62
     0
 10
222.6005759644993987
 20
320.002000575060606
 30
0.0
  0
ENDBLK
  5
65CC
  8
0
  0
BLOCK
  8
0
  2
*D24
 70
     1
 10
0.0
 20
0.0
 30
0.0
  3
*D24
  1

  0
LINE
  5
6938
  8
AM_5
  6
CONTINUOUS
 62
     7
 10
134.6005759644993987
 20
280.0797085859817912
 30
0.0
 11
134.6005759644993987
 21
328.0020005750604923
 31
0.0
  0
LINE
  5
6939
  8
AM_5
  6
CONTINUOUS
 62
     7
 10
302.600575964499285
 20
280.0797085859817912
 30
0.0
 11
302.600575964499285
 21
328.0020005750604923
 31
0.0
  0
LINE
  5
693A
  8
AM_5
  6
CONTINUOUS
 62
     7
 10
137.1005759644993987
 20
327.0020005750604923
 30
0.0
 11
300.100575964499285
 21
327.0020005750604923
 31
0.0
  0
INSERT
  5
693B
  8
AM_5
 62
     7
  2
_OPEN30
 10
134.6005759644993987
 20
327.0020005750604923
 30
0.0
 41
2.5
 42
2.5
 43
2.5
 50
180.0
  0
INSERT
  5
693C
  8
AM_5
 62
     7
  2
_OPEN30
 10
302.600575964499285
 20
327.0020005750604923
 30
0.0
 41
2.5
 42
2.5
 43
2.5
  0
INSERT
  5
693D
  8
0
  2
*U46
 10
0.0
 20
0.0
 30
0.0
  0
POINT
  5
693E
  8
DEFPOINTS
 62
     0
 10
134.6005759644993987
 20
279.0797085859817912
 30
0.0
  0
POINT
  5
693F
  8
DEFPOINTS
 62
     0
 10
302.600575964499285
 20
279.0797085859817912
 30
0.0
  0
POINT
  5
6940
  8
DEFPOINTS
 62
     0
 10
302.600575964499285
 20
327.0020005750604923
 30
0.0
  0
ENDBLK
  5
65ED
  8
0
  0
BLOCK
  8
0
  2
*D25
 70
     1
 10
0.0
 20
0.0
 30
0.0
  3
*D25
  1

  0
LINE
  5
6BA5
  8
AM_5
  6
CONTINUOUS
 62
     7
 10
133.6005759644995123
 20
438.4954871074072003
 30
0.0
 11
118.5653747703849064
 21
438.4954871074072003
 31
0.0
  0
LINE
  5
6BA6
  8
AM_5
  6
CONTINUOUS
 62
     7
 10
133.6005759644995123
 20
436.4954871074073139
 30
0.0
 11
118.5653747703849064
 21
436.4954871074072003
 31
0.0
  0
LINE
  5
6BA7
  8
AM_5
  6
CONTINUOUS
 62
     7
 10
119.5653747703849064
 20
433.9954871074072003
 30
0.0
 11
119.5653747703849064
 21
431.4954871074072003
 31
0.0
  0
LINE
  5
6BA8
  8
AM_5
  6
CONTINUOUS
 62
     7
 10
119.5653747703849064
 20
440.9954871074072003
 30
0.0
 11
119.5653747703849064
 21
447.4954871074072003
 31
0.0
  0
LINE
  5
6BA9
  8
AM_5
  6
CONTINUOUS
 62
     7
 10
119.5653747703849064
 20
436.4954871074072003
 30
0.0
 11
119.5653747703849064
 21
438.4954871074072003
 31
0.0
  0
INSERT
  5
6BAA
  8
AM_5
 62
     7
  2
GENDOT
 10
119.5653747703849064
 20
436.4954871074072003
 30
0.0
 41
2.5
 42
2.5
 43
2.5
 50
90.0
  0
INSERT
  5
6BAB
  8
AM_5
 62
     7
  2
_OPEN30
 10
119.5653747703849064
 20
438.4954871074072003
 30
0.0
 41
2.5
 42
2.5
 43
2.5
 50
270.0
  0
TEXT
  8
AM_5
  40
3
  5
6C1A
  62
7
  72
0
  71
0
 10
117.065
 20
441.595
 30
0.000000
  1
2
  0
POINT
  5
6BAD
  8
DEFPOINTS
 62
     0
 10
134.6005759644995123
 20
438.4954871074072003
 30
0.0
  0
POINT
  5
6BAE
  8
DEFPOINTS
 62
     0
 10
134.6005759644995123
 20
436.4954871074073139
 30
0.0
  0
POINT
  5
6BAF
  8
DEFPOINTS
 62
     0
 10
119.5653747703849064
 20
436.4954871074072003
 30
0.0
  0
ENDBLK
  5
6617
  8
0
  0
BLOCK
  8
0
  2
*D26
 70
     1
 10
0.0
 20
0.0
 30
0.0
  3
*D26
  1

  0
LINE
  5
6BB0
  8
AM_5
  6
CONTINUOUS
 62
     7
 10
133.6005759644995123
 20
436.4954871074073139
 30
0.0
 11
118.5653747703849064
 21
436.4954871074072003
 31
0.0
  0
LINE
  5
6BB1
  8
AM_5
  6
CONTINUOUS
 62
     7
 10
133.6005759644995123
 20
432.4954871074073139
 30
0.0
 11
118.5653747703849064
 21
432.4954871074072003
 31
0.0
  0
LINE
  5
6BB2
  8
AM_5
  6
CONTINUOUS
 62
     7
 10
119.5653747703849064
 20
438.9954871074072003
 30
0.0
 11
119.5653747703849064
 21
441.4954871074072003
 31
0.0
  0
LINE
  5
6BB3
  8
AM_5
  6
CONTINUOUS
 62
     7
 10
119.5653747703849064
 20
429.9954871074072003
 30
0.0
 11
119.5653747703849064
 21
421.560570248323927
 31
0.0
  0
LINE
  5
6BB4
  8
AM_5
  6
CONTINUOUS
 62
     7
 10
119.5653747703849064
 20
436.4954871074072003
 30
0.0
 11
119.5653747703849064
 21
432.4954871074072003
 31
0.0
  0
INSERT
  5
6BB5
  8
AM_5
 62
     7
  2
GENDOT
 10
119.5653747703849064
 20
436.4954871074072003
 30
0.0
 41
2.5
 42
2.5
 43
2.5
 50
270.0
  0
INSERT
  5
6BB6
  8
AM_5
 62
     7
  2
_OPEN30
 10
119.5653747703849064
 20
432.4954871074072003
 30
0.0
 41
2.5
 42
2.5
 43
2.5
 50
90.0
  0
TEXT
  8
AM_5
  40
3
  5
6C1B
  62
7
  72
0
  71
0
 10
117.065
 20
419.732
 30
0.000000
  1
4
  0
POINT
  5
6BB8
  8
DEFPOINTS
 62
     0
 10
134.6005759644995123
 20
436.4954871074073139
 30
0.0
  0
POINT
  5
6BB9
  8
DEFPOINTS
 62
     0
 10
134.6005759644995123
 20
432.4954871074073139
 30
0.0
  0
POINT
  5
6BBA
  8
DEFPOINTS
 62
     0
 10
119.5653747703849064
 20
432.4954871074072003
 30
0.0
  0
ENDBLK
  5
6654
  8
0
  0
BLOCK
  8
0
  2
GENDOT
 70
     0
 10
0.0
 20
0.0
 30
0.0
  3
GENDOT
  1

  0
LINE
  5
666E
  8
0
 10
0.0
 20
0.0
 30
0.0
 11
-1.0
 21
0.0
 31
0.0
  0
POLYLINE
  5
666F
  8
0
 66
     1
 10
0.0
 20
0.0
 30
0.0
 70
     1
 40
0.25
 41
0.25
  0
VERTEX
  5
6BBB
  8
0
 10
-0.125
 20
0.0
 30
0.0
 42
1.0
  0
VERTEX
  5
6BBC
  8
0
 10
0.125
 20
0.0
 30
0.0
 42
1.0
  0
SEQEND
  5
6BBD
  8
0
  0
ENDBLK
  5
6671
  8
0
  0
BLOCK
  8
0
  2
*D28
 70
     1
 10
0.0
 20
0.0
 30
0.0
  3
*D28
  1

  0
LINE
  5
6957
  8
AM_5
  6
CONTINUOUS
 62
     7
 10
221.6005759644995976
 20
390.4954871074068024
 30
0.0
 11
111.5653747703849064
 21
390.4954871074068024
 31
0.0
  0
LINE
  5
6958
  8
AM_5
  6
CONTINUOUS
 62
     7
 10
133.6005759644993987
 20
438.4954871074069729
 30
0.0
 11
111.5653747703849064
 21
438.4954871074070866
 31
0.0
  0
LINE
  5
6959
  8
AM_5
  6
CONTINUOUS
 62
     7
 10
112.5653747703849064
 20
392.9954871074068024
 30
0.0
 11
112.5653747703849064
 21
435.9954871074069729
 31
0.0
  0
INSERT
  5
695A
  8
AM_5
 62
     7
  2
_OPEN30
 10
112.5653747703849064
 20
390.4954871074068024
 30
0.0
 41
2.5
 42
2.5
 43
2.5
 50
270.0
  0
INSERT
  5
695B
  8
AM_5
 62
     7
  2
_OPEN30
 10
112.5653747703849064
 20
438.4954871074070866
 30
0.0
 41
2.5
 42
2.5
 43
2.5
 50
90.0
  0
INSERT
  5
695C
  8
0
  2
*U47
 10
0.0
 20
0.0
 30
0.0
  0
POINT
  5
695D
  8
DEFPOINTS
 62
     0
 10
222.6005759644995976
 20
390.4954871074068024
 30
0.0
  0
POINT
  5
695E
  8
DEFPOINTS
 62
     0
 10
134.6005759644993987
 20
438.4954871074069729
 30
0.0
  0
POINT
  5
695F
  8
DEFPOINTS
 62
     0
 10
112.5653747703849064
 20
438.4954871074070866
 30
0.0
  0
ENDBLK
  5
66B7
  8
0
  0
BLOCK
  8
0
  2
*D29
 70
     1
 10
0.0
 20
0.0
 30
0.0
  3
*D29
  1

  0
LINE
  5
6960
  8
AM_5
  6
CONTINUOUS
 62
     7
 10
303.6005759644992281
 20
390.4954871074068024
 30
0.0
 11
336.7101565633810765
 21
390.4954871074068024
 31
0.0
  0
LINE
  5
6961
  8
AM_5
  6
CONTINUOUS
 62
     7
 10
303.6005759644991144
 20
394.495487107406916
 30
0.0
 11
336.7101565633810765
 21
394.495487107406916
 31
0.0
  0
LINE
  5
6962
  8
AM_5
  6
CONTINUOUS
 62
     7
 10
335.7101565633810765
 20
396.995487107406916
 30
0.0
 11
335.7101565633810765
 21
399.495487107406916
 31
0.0
  0
LINE
  5
6963
  8
AM_5
  6
CONTINUOUS
 62
     7
 10
335.7101565633810765
 20
387.9954871074068024
 30
0.0
 11
335.7101565633810765
 21
381.3526299645495214
 31
0.0
  0
LINE
  5
6964
  8
AM_5
  6
CONTINUOUS
 62
     7
 10
335.7101565633810765
 20
394.495487107406916
 30
0.0
 11
335.7101565633810765
 21
390.4954871074068024
 31
0.0
  0
INSERT
  5
6965
  8
AM_5
 62
     7
  2
_OPEN30
 10
335.7101565633810765
 20
394.495487107406916
 30
0.0
 41
2.5
 42
2.5
 43
2.5
 50
270.0
  0
INSERT
  5
6966
  8
AM_5
 62
     7
  2
_OPEN30
 10
335.7101565633810765
 20
390.4954871074068024
 30
0.0
 41
2.5
 42
2.5
 43
2.5
 50
90.0
  0
INSERT
  5
6967
  8
0
  2
*U48
 10
0.0
 20
0.0
 30
0.0
  0
POINT
  5
6968
  8
DEFPOINTS
 62
     0
 10
302.6005759644992281
 20
390.4954871074068024
 30
0.0
  0
POINT
  5
6969
  8
DEFPOINTS
 62
     0
 10
302.6005759644990007
 20
394.495487107406916
 30
0.0
  0
POINT
  5
696A
  8
DEFPOINTS
 62
     0
 10
335.7101565633810765
 20
394.495487107406916
 30
0.0
  0
ENDBLK
  5
66E1
  8
0
  0
BLOCK
  8
0
  2
*D30
 70
     1
 10
0.0
 20
0.0
 30
0.0
  3
*D30
  1

  0
LINE
  5
696B
  8
AM_5
  6
CONTINUOUS
 62
     7
 10
303.6005759644991144
 20
394.495487107406916
 30
0.0
 11
336.7101565633810765
 21
394.495487107406916
 31
0.0
  0
LINE
  5
696C
  8
AM_5
  6
CONTINUOUS
 62
     7
 10
250.6005759644995123
 20
416.4954871074066887
 30
0.0
 11
336.7101565633810765
 21
416.4954871074066887
 31
0.0
  0
LINE
  5
696D
  8
AM_5
  6
CONTINUOUS
 62
     7
 10
335.7101565633810765
 20
396.995487107406916
 30
0.0
 11
335.7101565633810765
 21
413.9954871074066887
 31
0.0
  0
INSERT
  5
696E
  8
AM_5
 62
     7
  2
_OPEN30
 10
335.7101565633810765
 20
394.495487107406916
 30
0.0
 41
2.5
 42
2.5
 43
2.5
 50
270.0
  0
INSERT
  5
696F
  8
AM_5
 62
     7
  2
_OPEN30
 10
335.7101565633810765
 20
416.4954871074066887
 30
0.0
 41
2.5
 42
2.5
 43
2.5
 50
90.0
  0
INSERT
  5
6970
  8
0
  2
*U49
 10
0.0
 20
0.0
 30
0.0
  0
POINT
  5
6971
  8
DEFPOINTS
 62
     0
 10
302.6005759644990007
 20
394.495487107406916
 30
0.0
  0
POINT
  5
6972
  8
DEFPOINTS
 62
     0
 10
249.6005759644995976
 20
416.4954871074066887
 30
0.0
  0
POINT
  5
6973
  8
DEFPOINTS
 62
     0
 10
335.7101565633810765
 20
416.4954871074066887
 30
0.0
  0
ENDBLK
  5
671E
  8
0
  0
BLOCK
  8
0
  2
*D31
 70
     1
 10
0.0
 20
0.0
 30
0.0
  3
*D31
  1

  0
LINE
  5
6974
  8
AM_5
  6
CONTINUOUS
 62
     7
 10
303.6005759644991144
 20
390.4954871074068024
 30
0.0
 11
343.7101565633814175
 21
390.4954871074068024
 31
0.0
  0
LINE
  5
6975
  8
AM_5
  6
CONTINUOUS
 62
     7
 10
250.6005759644993987
 20
416.4954871074066887
 30
0.0
 11
343.7101565633814175
 21
416.4954871074066887
 31
0.0
  0
LINE
  5
6976
  8
AM_5
  6
CONTINUOUS
 62
     7
 10
342.7101565633814175
 20
392.9954871074068024
 30
0.0
 11
342.7101565633814175
 21
413.9954871074066887
 31
0.0
  0
INSERT
  5
6977
  8
AM_5
 62
     7
  2
_OPEN30
 10
342.7101565633814175
 20
390.4954871074068024
 30
0.0
 41
2.5
 42
2.5
 43
2.5
 50
270.0
  0
INSERT
  5
6978
  8
AM_5
 62
     7
  2
_OPEN30
 10
342.7101565633814175
 20
416.4954871074066887
 30
0.0
 41
2.5
 42
2.5
 43
2.5
 50
90.0
  0
INSERT
  5
6979
  8
0
  2
*U50
 10
0.0
 20
0.0
 30
0.0
  0
POINT
  5
697A
  8
DEFPOINTS
 62
     0
 10
302.6005759644990007
 20
390.4954871074068024
 30
0.0
  0
POINT
  5
697B
  8
DEFPOINTS
 62
     0
 10
249.6005759644993987
 20
416.4954871074066887
 30
0.0
  0
POINT
  5
697C
  8
DEFPOINTS
 62
     0
 10
342.7101565633814175
 20
416.4954871074066887
 30
0.0
  0
ENDBLK
  5
6755
  8
0
  0
BLOCK
  8
0
  2
*D32
 70
     1
 10
0.0
 20
0.0
 30
0.0
  3
*D32
  1

  0
LINE
  5
697D
  8
AM_5
  6
CONTINUOUS
 62
     7
 10
255.6005759644993987
 20
494.4954871074070866
 30
0.0
 11
255.6005759644993987
 21
504.5513628569810862
 31
0.0
  0
LINE
  5
697E
  8
AM_5
  6
CONTINUOUS
 62
     7
 10
222.6005759644993987
 20
426.4954871074066887
 30
0.0
 11
222.6005759644993987
 21
504.5513628569810862
 31
0.0
  0
LINE
  5
697F
  8
AM_5
  6
CONTINUOUS
 62
     7
 10
253.1005759644993987
 20
503.5513628569810862
 30
0.0
 11
225.1005759644993987
 21
503.5513628569810862
 31
0.0
  0
INSERT
  5
6980
  8
AM_5
 62
     7
  2
_OPEN30
 10
255.6005759644993987
 20
503.5513628569810862
 30
0.0
 41
2.5
 42
2.5
 43
2.5
  0
INSERT
  5
6981
  8
AM_5
 62
     7
  2
_OPEN30
 10
222.6005759644993987
 20
503.5513628569810862
 30
0.0
 41
2.5
 42
2.5
 43
2.5
 50
180.0
  0
INSERT
  5
6982
  8
0
  2
*U51
 10
0.0
 20
0.0
 30
0.0
  0
POINT
  5
6983
  8
DEFPOINTS
 62
     0
 10
255.6005759644993987
 20
493.4954871074070866
 30
0.0
  0
POINT
  5
6984
  8
DEFPOINTS
 62
     0
 10
222.6005759644993987
 20
425.4954871074066887
 30
0.0
  0
POINT
  5
6985
  8
DEFPOINTS
 62
     0
 10
222.6005759644993987
 20
503.5513628569810862
 30
0.0
  0
ENDBLK
  5
677F
  8
0
  0
BLOCK
  8
0
  2
*S33
 70
     1
 10
0.0
 20
0.0
 30
0.0
  3
*S33
  1

  0
LINE
  5
6A30
  8
AM_5
  6
CONTINUOUS
 62
     7
 10
210.3858053514464928
 20
44.0712034865557811
 30
0.0
 11
177.9933053514465087
 21
44.0712034865557811
 31
0.0
  0
LINE
  5
6A31
  8
AM_5
  6
CONTINUOUS
 62
     7
 10
177.9933053514465087
 20
44.0712034865557811
 30
0.0
 11
158.8434067945428012
 21
74.243573001949926
 31
0.0
  0
LINE
  5
6A32
  8
AM_5
  6
CONTINUOUS
 62
     7
 10
158.8434067945428012
 20
74.243573001949926
 30
0.0
 11
157.1554310765482114
 21
76.9031289753148002
 31
0.0
  0
LINE
  5
6A33
  8
AM_5
  6
CONTINUOUS
 62
     7
 10
159.1935439793475098
 20
74.4657992200992851
 30
0.0
 11
157.1554310765482114
 21
76.9031289753148002
 31
0.0
  0
LINE
  5
6A34
  8
AM_5
  6
CONTINUOUS
 62
     7
 10
157.1554310765482114
 20
76.9031289753148002
 30
0.0
 11
158.4932696097380074
 21
74.0213467838005812
 31
0.0
  0
INSERT
  5
6A35
  8
0
  2
*U57
 10
0.0
 20
0.0
 30
0.0
  0
ENDBLK
  5
6A37
  8
0
  0
BLOCK
  8
0
  2
*S34
 70
     1
 10
0.0
 20
0.0
 30
0.0
  3
*S34
  1

  0
LINE
  5
6A3A
  8
AM_5
  6
CONTINUOUS
 62
     7
 10
82.1778976120069586
 20
456.9738057932738116
 30
0.0
 11
124.7541574545266059
 21
456.9738057932738116
 31
0.0
  0
LINE
  5
6A3B
  8
AM_5
  6
CONTINUOUS
 62
     7
 10
124.7541574545266059
 20
456.9738057932738116
 30
0.0
 11
137.0871824988830951
 21
440.2460257066817917
 31
0.0
  0
LINE
  5
6A3C
  8
AM_5
  6
CONTINUOUS
 62
     7
 10
137.0871824988830951
 20
440.2460257066817917
 30
0.0
 11
138.9564757475014005
 21
437.7106277594808716
 31
0.0
  0
LINE
  5
6A3D
  8
AM_5
  6
CONTINUOUS
 62
     7
 10
136.753391028245403
 20
439.9999285828758957
 30
0.0
 11
138.9564757475014005
 21
437.7106277594808716
 31
0.0
  0
LINE
  5
6A3E
  8
AM_5
  6
CONTINUOUS
 62
     7
 10
138.9564757475014005
 20
437.7106277594808716
 30
0.0
 11
137.420973969520702
 21
440.492122830487574
 31
0.0
  0
INSERT
  5
6A3F
  8
0
  2
*U58
 10
0.0
 20
0.0
 30
0.0
  0
ENDBLK
  5
6A41
  8
0
  0
BLOCK
  8
0
  2
*U36
 70
     1
 10
0.0
 20
0.0
 30
0.0
  3
*U36
  1

  0
TEXT
  5
6BBF
  8
AM_5
 62
     7
 10
119.6005759644993987
 20
74.4368514431246808
 30
0.0
 40
3.0
  1
15
 50
90.0
  0
ENDBLK
  5
6BC1
  8
0
  0
BLOCK
  8
0
  2
*U37
 70
     1
 10
0.0
 20
0.0
 30
0.0
  3
*U37
  1

  0
TEXT
  5
6BC3
  8
AM_5
 62
     7
 10
119.6005759644992992
 20
126.6511371574104032
 30
0.0
 40
3.0
  1
30
 50
90.0
  0
ENDBLK
  5
6BC5
  8
0
  0
BLOCK
  8
0
  2
*U38
 70
     1
 10
0.0
 20
0.0
 30
0.0
  3
*U38
  1

  0
TEXT
  5
6BC7
  8
AM_5
 62
     7
 10
119.6005759644991997
 20
186.6511371574104032
 30
0.0
 40
3.0
  1
30
 50
90.0
  0
ENDBLK
  5
6BC9
  8
0
  0
BLOCK
  8
0
  2
*U39
 70
     1
 10
0.0
 20
0.0
 30
0.0
  3
*U39
  1

  0
TEXT
  5
6BCB
  8
AM_5
 62
     7
 10
119.6005759644991002
 20
216.6511371574104032
 30
0.0
 40
3.0
  1
30
 50
90.0
  0
ENDBLK
  5
6BCD
  8
0
  0
BLOCK
  8
0
  2
*U40
 70
     1
 10
0.0
 20
0.0
 30
0.0
  3
*U40
  1

  0
TEXT
  5
6BCF
  8
AM_5
 62
     7
 10
119.6005759644990007
 20
269.436851443124624
 30
0.0
 40
3.0
  1
15
 50
90.0
  0
ENDBLK
  5
6BD1
  8
0
  0
BLOCK
  8
0
  2
*U41
 70
     1
 10
0.0
 20
0.0
 30
0.0
  3
*U41
  1

  0
TEXT
  5
6BD3
  8
AM_5
 62
     7
 10
112.6005759644992992
 20
170.5082800145532076
 30
0.0
 40
3.0
  1
210
 50
90.0
  0
ENDBLK
  5
6BD5
  8
0
  0
BLOCK
  8
0
  2
*U42
 70
     1
 10
0.0
 20
0.0
 30
0.0
  3
*U42
  1

  0
TEXT
  5
6BD7
  8
AM_5
 62
     7
 10
141.457718821642203
 20
314.0020005750604923
 30
0.0
 40
3.0
  1
18
  0
ENDBLK
  5
6BD9
  8
0
  0
BLOCK
  8
0
  2
*U43
 70
     1
 10
0.0
 20
0.0
 30
0.0
  3
*U43
  1

  0
TEXT
  5
6BDB
  8
AM_5
 62
     7
 10
163.6720045359280107
 20
314.0020005750603787
 30
0.0
 40
3.0
  1
27
  0
ENDBLK
  5
6BDD
  8
0
  0
BLOCK
  8
0
  2
*U44
 70
     1
 10
0.0
 20
0.0
 30
0.0
  3
*U44
  1

  0
TEXT
  5
6BDF
  8
AM_5
 62
     7
 10
198.6720045359280107
 20
314.0020005750604923
 30
0.0
 40
3.0
  1
43
  0
ENDBLK
  5
6BE1
  8
0
  0
BLOCK
  8
0
  2
*U45
 70
     1
 10
0.0
 20
0.0
 30
0.0
  3
*U45
  1

  0
TEXT
  5
6BE3
  8
AM_5
 62
     7
 10
176.1720045359280107
 20
321.0020005750604923
 30
0.0
 40
3.0
  1
88
  0
ENDBLK
  5
6BE5
  8
0
  0
BLOCK
  8
0
  2
*U46
 70
     1
 10
0.0
 20
0.0
 30
0.0
  3
*U46
  1

  0
TEXT
  5
6BE7
  8
AM_5
 62
     7
 10
215.0291473930707866
 20
328.0020005750604923
 30
0.0
 40
3.0
  1
168
  0
ENDBLK
  5
6BE9
  8
0
  0
BLOCK
  8
0
  2
*U47
 70
     1
 10
0.0
 20
0.0
 30
0.0
  3
*U47
  1

  0
TEXT
  5
6BEB
  8
AM_5
 62
     7
 10
111.5653747703848069
 20
412.0669156788355281
 30
0.0
 40
3.0
  1
48
 50
90.0
  0
ENDBLK
  5
6BED
  8
0
  0
BLOCK
  8
0
  2
*U48
 70
     1
 10
0.0
 20
0.0
 30
0.0
  3
*U48
  1

  0
TEXT
  5
6BEF
  8
AM_5
 62
     7
 10
334.7101565633810196
 20
382.352629964549692
 30
0.0
 40
3.0
  1
4
 50
90.0
  0
ENDBLK
  5
6BF1
  8
0
  0
BLOCK
  8
0
  2
*U49
 70
     1
 10
0.0
 20
0.0
 30
0.0
  3
*U49
  1

  0
TEXT
  5
6BF3
  8
AM_5
 62
     7
 10
334.7101565633810196
 20
403.0669156788354144
 30
0.0
 40
3.0
  1
22
 50
90.0
  0
ENDBLK
  5
6BF5
  8
0
  0
BLOCK
  8
0
  2
*U50
 70
     1
 10
0.0
 20
0.0
 30
0.0
  3
*U50
  1

  0
TEXT
  5
6BF7
  8
AM_5
 62
     7
 10
341.7101565633813038
 20
401.1383442502639127
 30
0.0
 40
3.0
  1
26
 50
90.0
  0
ENDBLK
  5
6BF9
  8
0
  0
BLOCK
  8
0
  2
*U51
 70
     1
 10
0.0
 20
0.0
 30
0.0
  3
*U51
  1

  0
TEXT
  5
6BFB
  8
AM_5
 62
     7
 10
236.6720045359280107
 20
504.5513628569810862
 30
0.0
 40
3.0
  1
33
  0
ENDBLK
  5
6BFD
  8
0
  0
BLOCK
  8
0
  2
*U52
 70
     1
 10
0.0
 20
0.0
 30
0.0
  3
*U52
  1

  0
TEXT
  5
6BFF
  8
AM_5
 62
     7
 10
244.6167793325894877
 20
308.0020005750604923
 30
0.0
 40
3.0
  1
(\U+220530)
  0
ENDBLK
  5
6C01
  8
0
  0
BLOCK
  8
0
  2
*U53
 70
     1
 10
0.0
 20
0.0
 30
0.0
  3
*U53
  1

  0
TEXT
  5
6C03
  8
AM_5
 62
     7
 10
119.6005759644993987
 20
96.6511371574104601
 30
0.0
 40
3.0
  1
30
 50
90.0
  0
ENDBLK
  5
6C05
  8
0
  0
BLOCK
  8
0
  2
*U54
 70
     1
 10
0.0
 20
0.0
 30
0.0
  3
*U54
  1

  0
TEXT
  5
6C07
  8
AM_5
 62
     7
 10
119.6005759644992992
 20
156.6511371574104032
 30
0.0
 40
3.0
  1
30
 50
90.0
  0
ENDBLK
  5
6C09
  8
0
  0
BLOCK
  8
0
  2
*U55
 70
     1
 10
0.0
 20
0.0
 30
0.0
  3
*U55
  1

  0
TEXT
  5
6C0B
  8
AM_5
 62
     7
 10
119.6005759644991002
 20
246.6511371574104032
 30
0.0
 40
3.0
  1
30
 50
90.0
  0
ENDBLK
  5
6C0D
  8
0
  0
BLOCK
  8
0
  2
*U56
 70
     1
 10
0.0
 20
0.0
 30
0.0
  3
*U56
  1

  0
TEXT
  5
6C0F
  8
AM_5
 62
     7
 10
260.1720045359280107
 20
321.002000575060606
 30
0.0
 40
3.0
  1
80
  0
ENDBLK
  5
6C11
  8
0
  0
BLOCK
  8
0
  2
*U57
 70
     1
 10
0.0
 20
0.0
 30
0.0
  3
*U57
  1

  0
TEXT
  5
6C13
  8
AM_5
 62
     7
 10
180.6708053514464893
 20
45.6462034865557769
 30
0.0
 40
3.149999999999999
  1
7-\U+22058.5×\U+220517皿孔
  7
ACJISTS
  0
ENDBLK
  5
6C15
  8
0
  0
BLOCK
  8
0
  2
*U58
 70
     1
 10
0.0
 20
0.0
 30
0.0
  3
*U58
  1

  0
TEXT
  5
6C17
  8
AM_5
 62
     7
 10
81.7578976120069569
 20
458.7063057932738275
 30
0.0
 40
3.149999999999999
  1
スペーサー(セット部品)
  7
ACJISTS
  0
ENDBLK
  5
6C19
  8
0
  0
ENDSEC
  0
SECTION
  2
ENTITIES
  0
INSERT
  5
20F2
  8
0
 66
     1
  2
A$C1C06296A
 10
135.5000001316064981
 20
8.9999998268887005
 30
0.0
  0
ATTRIB
  5
20F3
  8
AM_BOR
 62
     7
 10
249.8107097069895985
 20
9.4999999999999893
 30
0.0
 40
3.0
  1

 11
249.8107097069895985
 21
10.9999999999999893
 31
0.0
  2
SETS｛20｝
 70
     0
 74
     2
1001
ACDBATTR
1070
     0
1070
     1
  0
ATTRIB
  5
20F4
  8
AM_BOR
 62
     7
 10
154.5607097069895985
 20
9.4999999999999893
 30
0.0
 40
3.0
  1

 11
154.5607097069895985
 21
10.9999999999999893
 31
0.0
  2
REMARKS｛20｝
 70
     0
 74
     2
1001
ACDBATTR
1070
     0
1070
     1
  0
ATTRIB
  5
20F5
  8
AM_BOR
 62
     7
 10
249.8107097069895985
 20
14.4999999999999893
 30
0.0
 40
3.0
  1
スペーサー（1枚）
 11
249.8107097069895985
 21
15.9999999999999893
 31
0.0
  2
SETS｛20｝
 70
     0
 74
     2
1001
ACDBATTR
1070
     0
1070
     1
  0
ATTRIB
  5
20F6
  8
AM_BOR
 62
     7
 10
154.5607097069895985
 20
14.4999999999999893
 30
0.0
 40
3.0
  1

 11
154.5607097069895985
 21
15.9999999999999893
 31
0.0
  2
REMARKS｛20｝
 70
     0
 74
     2
1001
ACDBATTR
1070
     0
1070
     1
  0
ATTRIB
  5
20F7
  8
AM_BOR
 62
     7
 10
249.8107097069895985
 20
19.4999999999999893
 30
0.0
 40
3.0
  1
M8×25　皿小ねじ（7本）
 11
249.8107097069895985
 21
20.9999999999999893
 31
0.0
  2
SETS｛20｝
 70
     0
 74
     2
1001
ACDBATTR
1070
     0
1070
     1
  0
ATTRIB
  5
20F8
  8
AM_BOR
 62
     7
 10
154.5607097069895985
 20
19.4999999999999893
 30
0.0
 40
3.0
  1

 11
154.5607097069895985
 21
20.9999999999999893
 31
0.0
  2
REMARKS｛20｝
 70
     0
 74
     2
1001
ACDBATTR
1070
     0
1070
     1
  0
ATTRIB
  5
20F9
  8
AM_BOR
 62
     7
 10
249.7499999999996874
 20
32.4999999999999929
 30
0.0
 40
3.0
  1
MH-5000-60
 11
249.7499999999996874
 21
33.9999999999999929
 31
0.0
  2
ART_NO｛20｝
 70
     0
 74
     2
1001
ACDBATTR
1070
     0
1070
     1
  0
ATTRIB
  5
20FA
  8
AM_BOR
 62
     7
 10
154.4999999999996874
 20
32.4999999999999929
 30
0.0
 40
3.0
  1
大型3管丁番
 11
154.4999999999996874
 21
33.9999999999999929
 31
0.0
  2
ARTICLE｛20｝
 70
     0
 74
     2
1001
ACDBATTR
1070
     0
1070
     1
  0
ATTRIB
  5
20FB
  8
AM_BOR
 62
     7
 10
249.7499999999996874
 20
25.9999999999999893
 30
0.0
 40
3.0
  1
ヘアライン
 11
249.7499999999996874
 21
27.4999999999999893
 31
0.0
  2
FINISH｛20｝
 70
     0
 74
     2
1001
ACDBATTR
1070
     0
1070
     1
  0
ATTRIB
  5
20FC
  8
AM_BOR
 62
     7
 10
154.4999999999996874
 20
25.9999999999999893
 30
0.0
 40
3.0
  1
ステンレス
 11
154.4999999999996874
 21
27.4999999999999893
 31
0.0
  2
MATERIAK｛20｝
 70
     0
 74
     2
1001
ACDBATTR
1070
     0
1070
     1
  0
SEQEND
  5
20FD
  8
0
  0
LINE
  5
327A
  8
0
 10
411.9999999999997158
 20
9.0
 30
0.0
 11
411.9999999999997158
 21
546.7000000000000455
 31
0.0
  0
LINE
  5
4283
  8
0
 10
411.9999999999997158
 20
9.0
 30
0.0
 11
11.4999999999997708
 21
9.0
 31
0.0
  0
LINE
  5
6117
  8
0
 10
134.6005759644993987
 20
69.0797085859817059
 30
0.0
 11
134.6005759644993987
 21
279.0797085859816775
 31
0.0
  0
LINE
  5
6118
  8
0
 10
208.6005759644993987
 20
283.0797085859816775
 30
0.0
 11
236.6005759644993987
 21
283.0797085859816775
 31
0.0
  0
LINE
  5
6119
  8
0
 10
208.6005759644995976
 20
65.0797085859818338
 30
0.0
 11
236.6005759644993987
 21
65.0797085859817059
 31
0.0
  0
LINE
  5
611A
  8
0
 10
207.6005759644993987
 20
69.0797085859817912
 30
0.0
 11
207.6005759644993987
 21
279.0797085859816775
 31
0.0
  0
LINE
  5
611B
  8
0
 10
208.6005759644993987
 20
279.0797085859816775
 30
0.0
 11
208.6005759644993987
 21
283.0797085859816775
 31
0.0
  0
LINE
  5
611C
  8
0
 10
236.6005759644993987
 20
279.0797085859816775
 30
0.0
 11
236.6005759644993987
 21
283.0797085859816775
 31
0.0
  0
LINE
  5
611D
  8
0
 10
208.6005759644995976
 20
69.0797085859817912
 30
0.0
 11
208.6005759644995976
 21
65.0797085859818338
 31
0.0
  0
LINE
  5
611E
  8
0
 10
236.6005759644993987
 20
69.0797085859818196
 30
0.0
 11
236.6005759644993987
 21
65.0797085859817059
 31
0.0
  0
CIRCLE
  5
611F
  8
0
 10
152.6005759644993987
 20
84.0797085859819049
 30
0.0
 40
4.25
  0
CIRCLE
  5
6120
  8
0
 10
152.6005759644993987
 20
84.0797085859819049
 30
0.0
 40
8.5
  0
CIRCLE
  5
6121
  8
0
 10
152.6005759644993987
 20
144.0797085859817912
 30
0.0
 40
4.25
  0
CIRCLE
  5
6122
  8
0
 10
152.6005759644993987
 20
144.0797085859817912
 30
0.0
 40
8.5
  0
CIRCLE
  5
6123
  8
0
 10
152.6005759644993987
 20
204.0797085859817912
 30
0.0
 40
4.25
  0
CIRCLE
  5
6124
  8
0
 10
152.6005759644993987
 20
204.0797085859817912
 30
0.0
 40
8.5
  0
CIRCLE
  5
6125
  8
0
 10
152.6005759644993987
 20
264.0797085859817912
 30
0.0
 40
4.25
  0
CIRCLE
  5
6126
  8
0
 10
152.6005759644993987
 20
264.0797085859817912
 30
0.0
 40
8.5
  0
CIRCLE
  5
6127
  8
0
 10
179.6005759644993987
 20
234.0797085859817912
 30
0.0
 40
4.25
  0
CIRCLE
  5
6128
  8
0
 10
179.6005759644993987
 20
234.0797085859817912
 30
0.0
 40
8.5
  0
CIRCLE
  5
6129
  8
0
 10
179.6005759644993987
 20
174.0797085859817912
 30
0.0
 40
4.25
  0
CIRCLE
  5
612A
  8
0
 10
179.6005759644993987
 20
174.0797085859817912
 30
0.0
 40
8.5
  0
CIRCLE
  5
612B
  8
0
 10
179.6005759644993987
 20
114.0797085859818054
 30
0.0
 40
4.25
  0
CIRCLE
  5
612C
  8
0
 10
179.6005759644993987
 20
114.0797085859818054
 30
0.0
 40
8.5
  0
LINE
  5
612D
  8
0
 10
237.6005759644993987
 20
119.0797085859818054
 30
0.0
 11
237.6005759644993987
 21
229.0797085859817912
 31
0.0
  0
LINE
  5
612E
  8
AM_7
 10
164.8505759644993987
 20
84.0797085859819049
 30
0.0
 11
140.3505759644993134
 21
84.0797085859819049
 31
0.0
  0
LINE
  5
612F
  8
AM_7
 10
152.6005759644993987
 20
96.3297085859819049
 30
0.0
 11
152.6005759644993987
 21
71.8297085859819049
 31
0.0
  0
LINE
  5
6130
  8
AM_7
 10
191.8505759644993987
 20
114.0797085859818054
 30
0.0
 11
167.3505759644993987
 21
114.0797085859818054
 31
0.0
  0
LINE
  5
6131
  8
AM_7
 10
179.6005759644993987
 20
126.3297085859818054
 30
0.0
 11
179.6005759644993987
 21
101.8297085859819049
 31
0.0
  0
LINE
  5
6132
  8
AM_7
 10
164.8505759644993987
 20
144.0797085859817912
 30
0.0
 11
140.3505759644993134
 21
144.0797085859817912
 31
0.0
  0
LINE
  5
6133
  8
AM_7
 10
152.6005759644993987
 20
156.3297085859817912
 30
0.0
 11
152.6005759644993987
 21
131.8297085859817912
 31
0.0
  0
LINE
  5
6134
  8
AM_7
 10
191.8505759644993987
 20
174.0797085859817912
 30
0.0
 11
167.3505759644993987
 21
174.0797085859817912
 31
0.0
  0
LINE
  5
6135
  8
AM_7
 10
179.6005759644993987
 20
186.3297085859817912
 30
0.0
 11
179.6005759644993987
 21
161.8297085859817912
 31
0.0
  0
LINE
  5
6136
  8
AM_7
 10
164.8505759644993987
 20
204.0797085859817912
 30
0.0
 11
140.3505759644993134
 21
204.0797085859817912
 31
0.0
  0
LINE
  5
6137
  8
AM_7
 10
152.6005759644993987
 20
216.3297085859817912
 30
0.0
 11
152.6005759644993987
 21
191.8297085859817912
 31
0.0
  0
LINE
  5
6138
  8
AM_7
 10
191.8505759644993987
 20
234.0797085859817912
 30
0.0
 11
167.3505759644993987
 21
234.0797085859817912
 31
0.0
  0
LINE
  5
6139
  8
AM_7
 10
179.6005759644993987
 20
246.3297085859817912
 30
0.0
 11
179.6005759644993987
 21
221.8297085859817912
 31
0.0
  0
LINE
  5
613A
  8
AM_7
 10
164.8505759644993987
 20
264.0797085859817912
 30
0.0
 11
140.3505759644993134
 21
264.0797085859817912
 31
0.0
  0
LINE
  5
613B
  8
AM_7
 10
152.6005759644993987
 20
276.3297085859817912
 30
0.0
 11
152.6005759644993987
 21
251.8297085859817912
 31
0.0
  0
LINE
  5
6146
  8
0
 10
239.6005759644993987
 20
119.0797085859818054
 30
0.0
 11
239.6005759644993987
 21
229.0797085859817912
 31
0.0
  0
LINE
  5
6147
  8
0
 10
302.6005759644993987
 20
69.0797085859817912
 30
0.0
 11
302.6005759644993987
 21
279.0797085859816775
 31
0.0
  0
LINE
  5
6148
  8
0
 10
134.6005759644993987
 20
279.0797085859817912
 30
0.0
 11
302.600575964499285
 21
279.0797085859817912
 31
0.0
  0
LINE
  5
6149
  8
0
 10
134.6005759644993987
 20
69.0797085859817486
 30
0.0
 11
302.6005759644993987
 21
69.0797085859818765
 31
0.0
  0
LINE
  5
614A
  8
AM_7
 10
222.6005759644993987
 20
62.0797085859817628
 30
0.0
 11
222.6005759644993987
 21
286.0797085859816775
 31
0.0
  0
LINE
  5
614F
  8
0
 10
207.6005759644993987
 20
119.0797085859818054
 30
0.0
 11
239.6005759644993987
 21
119.0797085859818054
 31
0.0
  0
LINE
  5
6150
  8
0
 10
207.6005759644993134
 20
229.0797085859819049
 30
0.0
 11
239.6005759644993987
 21
229.0797085859817912
 31
0.0
  0
LINE
  5
6151
  8
0
 10
207.6005759644993987
 20
226.5797085859819049
 30
0.0
 11
237.6005759644993987
 21
226.5797085859817912
 31
0.0
  0
LINE
  5
6152
  8
0
 10
207.6005759644993987
 20
224.5797085859819049
 30
0.0
 11
237.6005759644993987
 21
224.5797085859817912
 31
0.0
  0
LINE
  5
6153
  8
0
 10
207.6005759644993987
 20
222.0797085859819049
 30
0.0
 11
237.6005759644993987
 21
222.0797085859817912
 31
0.0
  0
LINE
  5
6154
  8
0
 10
207.6005759644993987
 20
126.0797085859818054
 30
0.0
 11
237.6005759644993987
 21
126.0797085859818054
 31
0.0
  0
LINE
  5
6155
  8
0
 10
207.6005759644993987
 20
123.5797085859818054
 30
0.0
 11
237.6005759644993987
 21
123.5797085859818054
 31
0.0
  0
LINE
  5
6156
  8
0
 10
207.6005759644993987
 20
121.5797085859818054
 30
0.0
 11
237.6005759644993987
 21
121.5797085859818054
 31
0.0
  0
LINE
  5
615C
  8
AM_7
 10
242.6005759644995976
 20
405.4954871074070866
 30
0.0
 11
202.6005759644995976
 21
405.4954871074070866
 31
0.0
  0
LINE
  5
615D
  8
AM_7
 10
222.6005759644993987
 20
385.4954871074068024
 30
0.0
 11
222.6005759644993987
 21
425.4954871074066887
 31
0.0
  0
LINE
  5
615E
  8
0
 10
134.6005759644995123
 20
432.4954871074069729
 30
0.0
 11
134.6005759644995123
 21
438.4954871074070866
 31
0.0
  0
CIRCLE
  5
615F
  8
0
 10
222.6005759644995976
 20
405.4954871074066887
 30
0.0
 40
15.0
  0
LINE
  5
6160
  8
0
 10
207.6005759644993987
 20
405.4954871074070866
 30
0.0
 11
207.6005759644993987
 21
432.4954871074069729
 31
0.0
  0
LINE
  5
6161
  8
0
 10
211.6005759644993987
 20
415.6935261345926165
 30
0.0
 11
211.6005759644993987
 21
432.4954871074069729
 31
0.0
  0
ARC
  5
6162
  8
0
 10
207.6005759644995976
 20
432.4954871074066887
 30
0.0
 40
4.0
 50
359.9999999999996021
 51
90.0
  0
LINE
  5
6163
  8
0
 10
302.6005759644990007
 20
390.4954871074068024
 30
0.0
 11
222.6005759644993987
 21
390.4954871074068024
 31
0.0
  0
LINE
  5
6164
  8
0
 10
134.6005759644993987
 20
436.4954871074069729
 30
0.0
 11
209.6005759644990007
 21
436.4954871074069729
 31
0.0
  0
LINE
  5
6165
  8
0
 10
134.6005759644993987
 20
438.4954871074070866
 30
0.0
 11
209.6005759644990007
 21
438.4954871074070866
 31
0.0
  0
LINE
  5
6166
  8
0
 10
134.6005759644993987
 20
432.4954871074069729
 30
0.0
 11
207.6005759644993987
 21
432.4954871074069729
 31
0.0
  0
LINE
  5
6167
  8
0
 10
207.6005759644993987
 20
417.4954871074070866
 30
0.0
 11
211.6005759644993987
 21
417.4954871074070866
 31
0.0
  0
LINE
  5
6168
  8
AM_7
 10
152.6005759644995123
 20
429.3851743797289942
 30
0.0
 11
152.6005759644995123
 21
442.6048191226601034
 31
0.0
  0
LINE
  5
6169
  8
0
 10
209.6005759644993987
 20
436.4954871074068024
 30
0.0
 11
209.6005759644993987
 21
438.495487107406916
 31
0.0
  0
LINE
  5
616A
  8
AM_7
 10
179.6005759644993987
 20
429.3851743797289942
 30
0.0
 11
179.6005759644993987
 21
442.6048191226601034
 31
0.0
  0
LINE
  5
616B
  8
AM_1
 10
249.600575964499086
 20
493.4954871074070866
 30
0.0
 11
255.600575964499086
 21
493.4954871074070866
 31
0.0
  0
LINE
  5
616C
  8
AM_1
 10
222.6005759644993987
 20
420.4954871074066887
 30
0.0
 11
249.6005759644993987
 21
420.4954871074066887
 31
0.0
  0
LINE
  5
616D
  8
AM_1
 10
232.7986149916850991
 20
416.4954871074066887
 30
0.0
 11
249.6005759644995976
 21
416.4954871074066887
 31
0.0
  0
ARC
  5
616E
  8
AM_1
 10
249.6005759644993987
 20
420.4954871074069729
 30
0.0
 40
4.0
 50
270.0
 51
359.9999999999996021
  0
LINE
  5
616F
  8
AM_1
 10
253.6005759644991997
 20
493.4954871074069729
 30
0.0
 11
253.6005759644991997
 21
418.4954871074073139
 31
0.0
  0
LINE
  5
6170
  8
AM_1
 10
249.600575964499086
 20
493.4954871074069729
 30
0.0
 11
249.6005759644991997
 21
420.4954871074070866
 31
0.0
  0
LINE
  5
6171
  8
AM_1
 10
234.6005759644993134
 20
420.4954871074066887
 30
0.0
 11
234.6005759644993134
 21
416.4954871074066887
 31
0.0
  0
LINE
  5
6172
  8
AM_1
 10
246.4902632368215052
 20
475.4954871074070866
 30
0.0
 11
277.5220161842116227
 21
475.4954871074070866
 31
0.0
  0
LINE
  5
6173
  8
AM_1
 10
246.4902632368215052
 20
448.4954871074069729
 30
0.0
 11
277.5220161842116227
 21
448.4954871074069729
 31
0.0
  0
LINE
  5
6174
  8
AM_1
 10
254.8005759644991883
 20
471.4954871074070866
 30
0.0
 11
274.6005759644992281
 21
471.4954871074070866
 31
0.0
  0
LINE
  5
6175
  8
AM_1
 10
254.8005759644991883
 20
479.4954871074070866
 30
0.0
 11
274.6005759644992281
 21
479.4954871074070866
 31
0.0
  0
LINE
  5
6176
  8
AM_1
 10
254.8005759644991883
 20
479.4954871074070866
 30
0.0
 11
254.8005759644991883
 21
471.4954871074070866
 31
0.0
  0
LINE
  5
6177
  8
AM_1
 10
253.6005759644993987
 20
418.4954871074073139
 30
0.0
 11
255.6005759645003081
 21
418.4954871074086213
 31
0.0
  0
LINE
  5
6178
  8
AM_1
 10
254.8005759644989894
 20
479.4954871074066887
 30
0.0
 11
249.6005759644991997
 21
482.4954871074066887
 31
0.0
  0
LINE
  5
6179
  8
AM_1
 10
254.8005759644991883
 20
471.4954871074070866
 30
0.0
 11
249.6005759644993987
 21
468.4954871074070866
 31
0.0
  0
LINE
  5
617A
  8
AM_1
 10
274.6005759644992281
 20
479.4954871074070866
 30
0.0
 11
274.6005759644992281
 21
471.4954871074070866
 31
0.0
  0
LINE
  5
617B
  8
AM_1
 10
254.8005759644991883
 20
444.4954871074069729
 30
0.0
 11
274.6005759644992281
 21
444.4954871074069729
 31
0.0
  0
LINE
  5
617C
  8
AM_1
 10
254.8005759644991883
 20
452.4954871074069729
 30
0.0
 11
274.6005759644992281
 21
452.4954871074069729
 31
0.0
  0
LINE
  5
617D
  8
AM_1
 10
254.8005759644991883
 20
452.4954871074069729
 30
0.0
 11
254.8005759644991883
 21
444.4954871074069729
 31
0.0
  0
LINE
  5
617E
  8
AM_1
 10
254.8005759644991883
 20
452.4954871074066887
 30
0.0
 11
249.6005759644991997
 21
455.495487107406916
 31
0.0
  0
LINE
  5
617F
  8
AM_1
 10
254.8005759644991883
 20
444.4954871074069729
 30
0.0
 11
249.6005759644993987
 21
441.4954871074070866
 31
0.0
  0
LINE
  5
6180
  8
AM_1
 10
274.6005759644992281
 20
452.4954871074069729
 30
0.0
 11
274.6005759644992281
 21
444.4954871074069729
 31
0.0
  0
LINE
  5
6181
  8
0
 10
232.7986149916854117
 20
394.4954871074070866
 30
0.0
 11
302.6005759644990007
 21
394.4954871074070866
 31
0.0
  0
LINE
  5
6182
  8
0
 10
302.6005759644992281
 20
390.4954871074068024
 30
0.0
 11
302.6005759644992281
 21
394.4954871074068024
 31
0.0
  0
LINE
  5
6183
  8
AM_1
 10
255.6005759644991997
 20
418.4954871074085077
 30
0.0
 11
255.6005759644991997
 21
493.4954871074070866
 31
0.0
  0
CIRCLE
  5
6184
  8
0
 10
222.6005759644993987
 20
405.4954871074070866
 30
0.0
 40
14.0
  0
LINE
  5
618D
  8
AM_1
 10
257.2005759644990803
 20
523.8986043439900868
 30
0.0
 11
257.2005759644990803
 21
405.8954871074067796
 31
0.0
  0
LINE
  5
618E
  8
AM_1
 10
304.0005759644989212
 20
405.8954871074071207
 30
0.0
 11
257.2005759644989098
 21
405.8954871074071207
 31
0.0
  0
LINE
  5
618F
  8
AM_1
 10
254.2005759644490013
 20
397.6954871074078142
 30
0.0
 11
321.710155563381079
 21
397.6954871074078142
 31
0.0
  0
LINE
  5
6190
  8
AM_1
 10
252.6005759644488933
 20
354.082928745511083
 30
0.0
 11
252.6005759644488933
 21
397.6954871074070752
 31
0.0
  0
LINE
  5
6191
  8
AM_1
 10
254.2005759644490013
 20
354.082928745511083
 30
0.0
 11
254.2005759644490013
 21
397.6954871074078142
 31
0.0
  0
LINE
  5
6192
  8
AM_1
 10
305.6005759644988871
 20
523.0425012893181247
 30
0.0
 11
305.6005759644988871
 21
405.8954871074071775
 31
0.0
  0
LINE
  5
6193
  8
AM_1
 10
304.0005759644989212
 20
523.0425012893181247
 30
0.0
 11
304.0005759644989212
 21
405.8954871074071207
 31
0.0
  0
LINE
  5
6194
  8
AM_1
 10
254.2005759644488876
 20
399.2954871074069843
 30
0.0
 11
309.6005759644991144
 21
399.2954871074069843
 31
0.0
  0
ARC
  5
6195
  8
AM_1
 10
254.2005759644488876
 20
397.6954871074070752
 30
0.0
 40
1.6000000000000001
 50
90.0
 51
180.0
  0
ARC
  5
6196
  8
AM_1
 10
257.2005759644994214
 20
405.8954871074071207
 30
0.0
 40
1.6000000000000001
 50
180.0
 51
270.0
  0
ARC
  5
6197
  8
AM_1
 10
304.000575964498978
 20
405.8954871074071775
 30
0.0
 40
1.6000000000000001
 50
270.0
 51
0.0
  0
LINE
  5
6198
  8
AM_1
 10
304.000575964498978
 20
404.2954871074069843
 30
0.0
 11
257.2005759644994214
 21
404.2954871074069843
 31
0.0
  0
LINE
  5
6199
  8
AM_1
 10
301.7005759644989098
 20
408.1954871074070752
 30
0.0
 11
259.5005759644988075
 21
408.1954871074070752
 31
0.0
  0
LINE
  5
619A
  8
AM_1
 10
259.5005759644988075
 20
425.8954871074071207
 30
0.0
 11
259.5005759644988075
 21
408.1954871074070752
 31
0.0
  0
LINE
  5
619B
  8
AM_1
 10
301.7005759644989098
 20
425.8954871074071207
 30
0.0
 11
301.7005759644989098
 21
408.1954871074070752
 31
0.0
  0
LINE
  5
619C
  8
AM_1
 10
259.5005759644988075
 20
425.8954871074071207
 30
0.0
 11
257.2005759644989098
 21
425.8954871074071207
 31
0.0
  0
LINE
  5
619D
  8
AM_1
 10
304.0005759644989212
 20
425.8954871074071207
 30
0.0
 11
301.7005759644989098
 21
425.8954871074071207
 31
0.0
  0
ARC
  5
619E
  8
AM_1
 10
259.5005759644988075
 20
408.1954871074070752
 30
0.0
 40
2.2999999999999989
 50
180.0
 51
270.0
  0
ARC
  5
619F
  8
AM_1
 10
301.7005759644989098
 20
408.1954871074070752
 30
0.0
 40
2.2999999999999989
 50
270.0
 51
0.0
  0
LINE
  5
61A0
  8
AM_1
 10
255.6005759644993987
 20
405.8954871074071207
 30
0.0
 11
255.6005759644993987
 21
523.8986043439896321
 31
0.0
  0
LINE
  5
61A1
  8
AM_1
 10
261.7005759644989098
 20
493.495487107405495
 30
0.0
 11
261.7005759644987961
 21
433.4954871074070866
 31
0.0
  0
LINE
  5
61A2
  8
AM_1
 10
257.2005759644989098
 20
433.4954871074070866
 30
0.0
 11
261.7005759644987961
 21
433.4954871074070866
 31
0.0
  0
LINE
  5
61A3
  8
AM_1
 10
257.2005759644989098
 20
493.4954871074053813
 30
0.0
 11
261.700575964499194
 21
493.4954871074053813
 31
0.0
  0
LINE
  5
61A4
  8
AM_1
 10
309.6005759644988871
 20
416.6954871074070752
 30
0.0
 11
309.6005759644988871
 21
399.2954871074069843
 31
0.0
  0
LINE
  5
61A5
  8
AM_1
 10
311.2005759644989098
 20
416.6954871074070752
 30
0.0
 11
311.2005759644989098
 21
399.2954871074077801
 31
0.0
  0
LINE
  5
61A6
  8
AM_1
 10
311.2005759644989098
 20
418.2954871074069843
 30
0.0
 11
321.710155563381079
 21
418.2954871074069843
 31
0.0
  0
LINE
  5
61A7
  8
AM_1
 10
311.2005759644990803
 20
416.6954871074070752
 30
0.0
 11
321.710155563381079
 21
416.6954871074070752
 31
0.0
  0
ARC
  5
61A8
  8
AM_1
 10
311.2005759644989098
 20
416.6954871074070752
 30
0.0
 40
1.6000000000000001
 50
90.0
 51
180.0
  0
ARC
  5
61A9
  8
AM_1
 10
309.6005759644988871
 20
399.2954871074077801
 30
0.0
 40
1.6000000000000001
 50
270.0
 51
0.0
  0
LINE
  5
61AA
  8
AM_1
 10
302.6005759644990007
 20
394.495487107406916
 30
0.0
 11
321.710155563381079
 21
394.495487107406916
 31
0.0
  0
ARC
  5
61AB
  8
AM_1
 10
258.7005759644490013
 20
393.1954871074078142
 30
0.0
 40
4.5
 50
90.0
 51
180.0
  0
LINE
  5
61AC
  8
AM_1
 10
257.5005759644490126
 20
374.2954871074069843
 30
0.0
 11
257.5005759644490126
 21
390.4954871074068024
 31
0.0
  0
LINE
  5
61AD
  8
AM_1
 10
254.2005759644488876
 20
374.2954871074069843
 30
0.0
 11
257.5005759644490126
 21
374.2954871074069843
 31
0.0
  0
LINE
  5
61AE
  8
AM_4
 10
247.7395616305043973
 20
523.8986043439896321
 30
0.0
 11
316.9283607306938961
 21
523.8986043439896321
 31
0.0
  0
INSERT
  5
6395
  8
AM_5
  2
*S33
 10
0.0
 20
0.0
 30
0.0
  0
DIMENSION
  5
6397
  8
AM_5
  2
*D9
 10
120.6005759644993987
 20
84.0797085859819049
 30
0.0
 11
118.1005759644993987
 21
76.5797085859818196
 31
0.0
 70
     0
 13
134.6005759644993987
 23
69.0797085859817059
 33
0.0
 14
140.3505759644993134
 24
84.0797085859819049
 34
0.0
 50
90.0
1001
ACAD_DSTYLE_DIMINSPECT
1070
   396
1000
100%
1070
   395
1000

1070
   394
1070
    33
1070
   393
1070
     0
1001
ACAD
1000
DSTYLE
1002
{
1070
   174
1070
     1
1002
}
  0
DIMENSION
  5
63CA
  8
AM_5
  2
*D10
 10
120.6005759644993987
 20
84.0797085859819049
 30
0.0
 11
118.1005759644992992
 21
99.0797085859819049
 31
0.0
 70
     0
 13
167.3505759644993987
 23
114.0797085859818054
 33
0.0
 14
140.3505759644993134
 24
84.0797085859819049
 34
0.0
 50
90.0
1001
ACAD
1000
DSTYLE
1002
{
1070
   174
1070
     1
1002
}
1001
ACAD_DSTYLE_DIMINSPECT
1070
   396
1000
100%
1070
   395
1000

1070
   394
1070
    33
1070
   393
1070
     0
  0
DIMENSION
  5
63EB
  8
AM_5
  2
*D11
 10
120.6005759644992992
 20
114.0797085859818054
 30
0.0
 11
118.1005759644992992
 21
129.0797085859817912
 31
0.0
 70
     0
 13
140.3505759644993134
 23
144.0797085859817912
 33
0.0
 14
167.3505759644993987
 24
114.0797085859818054
 34
0.0
 50
90.0
1001
ACAD
1000
DSTYLE
1002
{
1070
   174
1070
     1
1002
}
1001
ACAD_DSTYLE_DIMINSPECT
1070
   396
1000
100%
1070
   395
1000

1070
   394
1070
    33
1070
   393
1070
     0
  0
DIMENSION
  5
640C
  8
AM_5
  2
*D12
 10
120.6005759644992992
 20
144.0797085859817912
 30
0.0
 11
118.1005759644992992
 21
159.0797085859817912
 31
0.0
 70
     0
 13
167.3505759644993987
 23
174.0797085859817912
 33
0.0
 14
140.3505759644993134
 24
144.0797085859817912
 34
0.0
 50
90.0
1001
ACAD
1000
DSTYLE
1002
{
1070
   174
1070
     1
1002
}
1001
ACAD_DSTYLE_DIMINSPECT
1070
   396
1000
100%
1070
   395
1000

1070
   394
1070
    33
1070
   393
1070
     0
  0
DIMENSION
  5
642D
  8
AM_5
  2
*D13
 10
120.6005759644991997
 20
174.0797085859817912
 30
0.0
 11
118.1005759644991997
 21
189.0797085859817912
 31
0.0
 70
     0
 13
140.3505759644993134
 23
204.0797085859817912
 33
0.0
 14
167.3505759644993987
 24
174.0797085859817912
 34
0.0
 50
90.0
1001
ACAD
1000
DSTYLE
1002
{
1070
   174
1070
     1
1002
}
1001
ACAD_DSTYLE_DIMINSPECT
1070
   396
1000
100%
1070
   395
1000

1070
   394
1070
    33
1070
   393
1070
     0
  0
DIMENSION
  5
644E
  8
AM_5
  2
*D14
 10
120.6005759644991997
 20
204.0797085859817912
 30
0.0
 11
118.1005759644991002
 21
219.0797085859819049
 31
0.0
 70
     0
 13
167.3505759644993987
 23
234.0797085859817912
 33
0.0
 14
140.3505759644993134
 24
204.0797085859817912
 34
0.0
 50
90.0
1001
ACAD
1000
DSTYLE
1002
{
1070
   174
1070
     1
1002
}
1001
ACAD_DSTYLE_DIMINSPECT
1070
   396
1000
100%
1070
   395
1000

1070
   394
1070
    33
1070
   393
1070
     0
  0
DIMENSION
  5
646F
  8
AM_5
  2
*D15
 10
120.6005759644991002
 20
234.0797085859819049
 30
0.0
 11
118.1005759644991002
 21
249.0797085859819049
 31
0.0
 70
     0
 13
140.3505759644993134
 23
264.0797085859817912
 33
0.0
 14
167.3505759644993987
 24
234.0797085859819049
 34
0.0
 50
90.0
1001
ACAD
1000
DSTYLE
1002
{
1070
   174
1070
     1
1002
}
1001
ACAD_DSTYLE_DIMINSPECT
1070
   396
1000
100%
1070
   395
1000

1070
   394
1070
    33
1070
   393
1070
     0
  0
DIMENSION
  5
6490
  8
AM_5
  2
*D16
 10
120.6005759644991002
 20
264.0797085859817912
 30
0.0
 11
118.1005759644991002
 21
271.5797085859817912
 31
0.0
 70
     0
 13
134.6005759644993987
 23
279.0797085859816775
 33
0.0
 14
140.3505759644993134
 24
264.0797085859816775
 34
0.0
 50
90.0
1001
ACAD
1000
DSTYLE
1002
{
1070
   174
1070
     1
1002
}
1001
ACAD_DSTYLE_DIMINSPECT
1070
   396
1000
100%
1070
   395
1000

1070
   394
1070
    33
1070
   393
1070
     0
  0
DIMENSION
  5
64B1
  8
AM_5
  2
*D17
 10
113.6005759644992992
 20
69.0797085859817486
 30
0.0
 11
111.1005759644992992
 21
174.0797085859817912
 31
0.0
 70
     0
 13
134.6005759644993987
 23
279.0797085859817912
 33
0.0
 14
134.6005759644993987
 24
69.0797085859817486
 34
0.0
 50
90.0
1001
ACAD_DSTYLE_DIMINSPECT
1070
   396
1000
100%
1070
   395
1000

1070
   394
1070
    33
1070
   393
1070
     0
  0
DIMENSION
  5
64DB
  8
AM_5
  2
*D18
 10
207.6005759644995123
 20
306.0020005750604923
 30
0.0
 11
250.3310650468752954
 21
306.0020005750604923
 31
0.0
 70
   128
  1
(%%c<>)
 13
237.6005759645956914
 23
279.0797085859817912
 33
0.0
 14
207.6005759644995123
 24
279.0797085859816775
 34
0.0
1001
ACAD_DSTYLE_DIMINSPECT
1070
   396
1000
100%
1070
   395
1000

1070
   394
1070
    33
1070
   393
1070
     0
  0
DIMENSION
  5
6521
  8
AM_5
  2
*D19
 10
152.6005759644993987
 20
313.0020005750604923
 30
0.0
 11
143.6005759644993987
 21
315.5020005750604923
 31
0.0
 70
     0
 13
134.6005759644993987
 23
279.0797085859817912
 33
0.0
 14
152.6005759644993987
 24
276.3297085859817912
 34
0.0
 50
0.0000000000000114
1001
ACAD_DSTYLE_DIMINSPECT
1070
   396
1000
100%
1070
   395
1000

1070
   394
1070
    33
1070
   393
1070
     0
1001
ACAD
1000
DSTYLE
1002
{
1070
   174
1070
     1
1002
}
  0
DIMENSION
  5
6554
  8
AM_5
  2
*D20
 10
152.6005759644993987
 20
313.0020005750603787
 30
0.0
 11
166.1005759644993987
 21
315.5020005750603787
 31
0.0
 70
     0
 13
179.6005759644993987
 23
246.3297085859817912
 33
0.0
 14
152.6005759644993987
 24
276.3297085859817912
 34
0.0
1001
ACAD
1000
DSTYLE
1002
{
1070
   174
1070
     1
1002
}
1001
ACAD_DSTYLE_DIMINSPECT
1070
   396
1000
100%
1070
   395
1000

1070
   394
1070
    33
1070
   393
1070
     0
  0
DIMENSION
  5
6575
  8
AM_5
  2
*D21
 10
179.6005759644993987
 20
313.0020005750604923
 30
0.0
 11
201.1005759644993987
 21
315.5020005750604923
 31
0.0
 70
     0
 13
222.6005759644993987
 23
286.0797085859816775
 33
0.0
 14
179.6005759644993987
 24
246.3297085859817912
 34
0.0
1001
ACAD
1000
DSTYLE
1002
{
1070
   174
1070
     1
1002
}
1001
ACAD_DSTYLE_DIMINSPECT
1070
   396
1000
100%
1070
   395
1000

1070
   394
1070
    33
1070
   393
1070
     0
  0
DIMENSION
  5
6596
  8
AM_5
  2
*D22
 10
222.6005759644993987
 20
320.0020005750604923
 30
0.0
 11
178.6005759644993987
 21
322.5020005750604923
 31
0.0
 70
     0
 13
134.6005759644993987
 23
279.0797085859817912
 33
0.0
 14
222.6005759644993987
 24
286.0797085859816775
 34
0.0
 50
0.0000000000000114
1001
ACAD_DSTYLE_DIMINSPECT
1070
   396
1000
100%
1070
   395
1000

1070
   394
1070
    33
1070
   393
1070
     0
1001
ACAD
1000
DSTYLE
1002
{
1070
   174
1070
     1
1002
}
  0
DIMENSION
  5
65C9
  8
AM_5
  2
*D23
 10
222.6005759644993987
 20
320.002000575060606
 30
0.0
 11
262.6005759644993987
 21
322.502000575060606
 31
0.0
 70
     0
 13
302.6005759644993987
 23
279.0797085859816775
 33
0.0
 14
222.6005759644993987
 24
286.0797085859816775
 34
0.0
1001
ACAD
1000
DSTYLE
1002
{
1070
   174
1070
     1
1002
}
1001
ACAD_DSTYLE_DIMINSPECT
1070
   396
1000
100%
1070
   395
1000

1070
   394
1070
    33
1070
   393
1070
     0
  0
DIMENSION
  5
65EA
  8
AM_5
  2
*D24
 10
302.600575964499285
 20
327.0020005750604923
 30
0.0
 11
218.6005759644993134
 21
329.5020005750604923
 31
0.0
 70
     0
 13
134.6005759644993987
 23
279.0797085859817912
 33
0.0
 14
302.600575964499285
 24
279.0797085859817912
 34
0.0
 50
0.0000000000000114
1001
ACAD_DSTYLE_DIMINSPECT
1070
   396
1000
100%
1070
   395
1000

1070
   394
1070
    33
1070
   393
1070
     0
  0
DIMENSION
  5
6614
  8
AM_5
  2
*D25
 10
119.5653747703849064
 20
436.4954871074072003
 30
0.0
 11
119.5653747703850058
 21
445.4954871074070866
 31
0.0
 70
   128
 13
134.6005759644995123
 23
438.4954871074070866
 33
0.0
 14
134.6005759644995123
 24
436.4954871074069729
 34
0.0
 50
90.0
1001
ACAD_DSTYLE_DIMINSPECT
1070
   396
1000
100%
1070
   395
1000

1070
   394
1070
    33
1070
   393
1070
     0
1001
ACAD
1000
DSTYLE
1002
{
1070
   173
1070
     1
1070
   174
1070
     1
1070
     6
1000
OPEN30
1070
     7
1000
GENDOT
1002
}
  0
DIMENSION
  5
6651
  8
AM_5
  2
*D26
 10
119.5653747703849064
 20
432.4954871074072003
 30
0.0
 11
119.5653747703850058
 21
423.6319988197524253
 31
0.0
 70
   128
 13
134.6005759644995123
 23
436.4954871074069729
 33
0.0
 14
134.6005759644993987
 24
432.4954871074069729
 34
0.0
 50
90.0
1001
ACAD_DSTYLE_DIMINSPECT
1070
   396
1000
100%
1070
   395
1000

1070
   394
1070
    33
1070
   393
1070
     0
1001
ACAD
1000
DSTYLE
1002
{
1070
   173
1070
     1
1070
   174
1070
     1
1070
     6
1000
GENDOT
1070
     7
1000
OPEN30
1002
}
  0
DIMENSION
  5
66B4
  8
AM_5
  2
*D28
 10
112.5653747703849064
 20
438.4954871074070866
 30
0.0
 11
110.0653747703848069
 21
414.495487107406916
 31
0.0
 70
     0
 13
222.6005759644995976
 23
390.4954871074068024
 33
0.0
 14
134.6005759644993987
 24
438.4954871074069729
 34
0.0
 50
90.0
1001
ACAD_DSTYLE_DIMINSPECT
1070
   396
1000
100%
1070
   395
1000

1070
   394
1070
    33
1070
   393
1070
     0
  0
DIMENSION
  5
66DE
  8
AM_5
  2
*D29
 10
335.7101565633810765
 20
394.495487107406916
 30
0.0
 11
335.7101565633810196
 21
383.4240585359781903
 31
0.0
 70
   128
 13
302.6005759644992281
 23
390.4954871074068024
 33
0.0
 14
302.6005759644990007
 24
394.495487107406916
 34
0.0
 50
90.0
1001
ACAD_DSTYLE_DIMINSPECT
1070
   396
1000
100%
1070
   395
1000

1070
   394
1070
    33
1070
   393
1070
     0
1001
ACAD
1000
DSTYLE
1002
{
1070
   174
1070
     1
1002
}
  0
DIMENSION
  5
671B
  8
AM_5
  2
*D30
 10
335.7101565633810765
 20
416.4954871074066887
 30
0.0
 11
333.2101565633810196
 21
405.495487107406916
 31
0.0
 70
     0
 13
302.6005759644990007
 23
394.495487107406916
 33
0.0
 14
249.6005759644995976
 24
416.4954871074066887
 34
0.0
 50
90.0
1001
ACAD
1000
DSTYLE
1002
{
1070
   174
1070
     1
1002
}
1001
ACAD_DSTYLE_DIMINSPECT
1070
   396
1000
100%
1070
   395
1000

1070
   394
1070
    33
1070
   393
1070
     0
  0
DIMENSION
  5
6752
  8
AM_5
  2
*D31
 10
342.7101565633814175
 20
416.4954871074066887
 30
0.0
 11
340.2101565633813038
 21
403.4954871074066887
 31
0.0
 70
     0
 13
302.6005759644990007
 23
390.4954871074068024
 33
0.0
 14
249.6005759644993987
 24
416.4954871074066887
 34
0.0
 50
90.0
1001
ACAD_DSTYLE_DIMINSPECT
1070
   396
1000
100%
1070
   395
1000

1070
   394
1070
    33
1070
   393
1070
     0
  0
DIMENSION
  5
677C
  8
AM_5
  2
*D32
 10
222.6005759644993987
 20
503.5513628569810862
 30
0.0
 11
239.1005759644993987
 21
506.0513628569809725
 31
0.0
 70
     0
 13
255.6005759644993987
 23
493.4954871074070866
 33
0.0
 14
222.6005759644993987
 24
425.4954871074066887
 34
0.0
1001
ACAD_DSTYLE_DIMINSPECT
1070
   396
1000
100%
1070
   395
1000

1070
   394
1070
    33
1070
   393
1070
     0
  0
INSERT
  5
67A6
  8
AM_5
  2
*S34
 10
0.0
 20
0.0
 30
0.0
  0
LINE
  5
68AE
  8
0
 10
11.4999999999997708
 20
9.0
 30
0.0
 11
11.4999999999997708
 21
546.7000000000000455
 31
0.0
  0
LINE
  5
68AF
  8
0
 10
411.9999999999997158
 20
546.7000000000000455
 30
0.0
 11
11.4999999999997708
 21
546.7000000000000455
 31
0.0
  0
VIEWPORT
  5
95A
 67
     1
  8
0
  6
CONTINUOUS
 10
128.5
 20
97.5
 30
0.0
 40
386.7385514018691879
 41
222.1800000000000068
 68
     1
 69
     1
1001
ACAD
1000
MVIEW
1002
{
1070
    16
1010
0.0
1020
0.0
1030
0.0
1010
0.0
1020
0.0
1030
1.0
1040
0.0
1040
222.1800000000000068
1040
128.5
1040
97.5
1040
50.0
1040
0.0
1040
0.0
1070
     0
1070
   100
1070
     1
1070
     1
1070
     0
1070
     0
1070
     0
1070
     0
1040
0.0
1040
0.0
1040
0.0
1040
10.0
1040
10.0
1040
10.0
1040
10.0
1070
     0
1002
{
1002
}
1002
}
1001
GENIUS_GENODEF_13
1002
{
1000
HIER
1070
     0
1002
}
1002
{
1000
MANEDIT
1070
     0
1002
}
1002
{
1000
NOSEL
1070
     0
1002
}
1002
{
1000
BEHIND
1070
     0
1002
}
1002
{
1000
OTHER
1070
     0
1002
}
1002
{
1000
REACTOR
1002
}
1001
GENIUS_GENOBJ-N-SDF_13
1002
{
1000
OWNER
1000
GEN
1002
}
1001
GENIUS_GENSCREG_15
1000
PF
1040
1.0
1000
DF
1040
1.0
1000
MIN
1011
-64.8692757009345655
1021
0.0
1031
0.0
1021
-13.5899999999999999
1031
0.0
1000
MAX
1011
321.8692757009346224
1021
0.0
1031
0.0
1021
208.5900000000000034
1031
0.0
1000
FLAGS
1070
     4
  0
ENDSEC
  0
EOF
