  0
SECTION
  2
HEADER
  9
$ACADVER
  1
AC1009
  9
$INSBASE
 10
0.0
 20
0.0
 30
0.0
  9
$EXTMIN
 10
24.99411070820134
 20
8.995799884918938
 30
-0.0000000000000129
  9
$EXTMAX
 10
412.00591181978558
 20
285.00421618155281
 30
0.0000000000000023
  9
$LIMMIN
 10
24.999999999999979
 20
8.9999999999999964
  9
$LIMMAX
 10
411.99999999999989
 20
284.99999999999989
  9
$ORTHOMODE
 70
     1
  9
$REGENMODE
 70
     1
  9
$FILLMODE
 70
     1
  9
$QTEXTMODE
 70
     0
  9
$MIRRTEXT
 70
     1
  9
$DRAGMODE
 70
     2
  9
$LTSCALE
 40
5.0
  9
$OSMODE
 70
    39
  9
$ATTMODE
 70
     1
  9
$TEXTSIZE
 40
3.0
  9
$TRACEWID
 40
0.05
  9
$TEXTSTYLE
  7
STANDARD
  9
$CLAYER
  8
0
  9
$CELTYPE
  6
BYLAYER
  9
$CECOLOR
 62
   256
  9
$DIMSCALE
 40
1.0
  9
$DIMASZ
 40
2.5
  9
$DIMEXO
 40
1.0
  9
$DIMDLI
 40
7.0
  9
$DIMRND
 40
0.0
  9
$DIMDLE
 40
0.0
  9
$DIMEXE
 40
1.0
  9
$DIMTP
 40
0.1
  9
$DIMTM
 40
0.1
  9
$DIMTXT
 40
3.0
  9
$DIMCEN
 40
0.0
  9
$DIMTSZ
 40
0.0
  9
$DIMTOL
 70
     0
  9
$DIMLIM
 70
     0
  9
$DIMTIH
 70
     0
  9
$DIMTOH
 70
     0
  9
$DIMSE1
 70
     0
  9
$DIMSE2
 70
     0
  9
$DIMTAD
 70
     3
  9
$DIMZIN
 70
     8
  9
$DIMBLK
  1
OPEN30
  9
$DIMASO
 70
     1
  9
$DIMSHO
 70
     1
  9
$DIMPOST
  1

  9
$DIMAPOST
  1
"
  9
$DIMALT
 70
     0
  9
$DIMALTD
 70
     2
  9
$DIMALTF
 40
0.0393701
  9
$DIMLFAC
 40
1.0
  9
$DIMTOFL
 70
     1
  9
$DIMTVP
 40
0.0
  9
$DIMTIX
 70
     0
  9
$DIMSOXD
 70
     0
  9
$DIMSAH
 70
     0
  9
$DIMBLK1
  1

  9
$DIMBLK2
  1

  9
$DIMSTYLE
  2
AM_JIS
  9
$DIMCLRD
 70
     7
  9
$DIMCLRE
 70
     7
  9
$DIMCLRT
 70
     7
  9
$DIMTFAC
 40
0.71
  9
$DIMGAP
 40
1.0
  9
$LUNITS
 70
     2
  9
$LUPREC
 70
     4
  9
$SKETCHINC
 40
0.1
  9
$FILLETRAD
 40
0.0
  9
$AUNITS
 70
     0
  9
$AUPREC
 70
     0
  9
$MENU
  1
acad
  9
$ELEVATION
 40
0.0
  9
$PELEVATION
 40
0.0
  9
$THICKNESS
 40
0.0
  9
$LIMCHECK
 70
     0
  9
$BLIPMODE
 70
     0
  9
$CHAMFERA
 40
0.0
  9
$CHAMFERB
 40
0.0
  9
$SKPOLY
 70
     0
  9
$TDCREATE
 40
2455755.6568701151
  9
$TDUPDATE
 40
2457136.7269115392
  9
$TDINDWG
 40
0.2901482407
  9
$TDUSRTIMER
 40
0.2901480556
  9
$USRTIMER
 70
     1
  9
$ANGBASE
 50
0.0
  9
$ANGDIR
 70
     0
  9
$PDMODE
 70
     0
  9
$PDSIZE
 40
0.0
  9
$PLINEWID
 40
0.0
  9
$COORDS
 70
     1
  9
$SPLFRAME
 70
     0
  9
$SPLINETYPE
 70
     6
  9
$SPLINESEGS
 70
     8
  9
$ATTDIA
 70
     1
  9
$ATTREQ
 70
     1
  9
$HANDLING
 70
     1
  9
$HANDSEED
  5
A51F
  9
$SURFTAB1
 70
     6
  9
$SURFTAB2
 70
     6
  9
$SURFTYPE
 70
     6
  9
$SURFU
 70
     6
  9
$SURFV
 70
     6
  9
$UCSNAME
  2

  9
$UCSORG
 10
0.0
 20
0.0
 30
0.0
  9
$UCSXDIR
 10
1.0
 20
0.0
 30
0.0
  9
$UCSYDIR
 10
0.0
 20
1.0
 30
0.0
  9
$PUCSNAME
  2

  9
$PUCSORG
 10
0.0
 20
0.0
 30
0.0
  9
$PUCSXDIR
 10
1.0
 20
0.0
 30
0.0
  9
$PUCSYDIR
 10
0.0
 20
1.0
 30
0.0
  9
$USERI1
 70
     0
  9
$USERI2
 70
     0
  9
$USERI3
 70
     0
  9
$USERI4
 70
     0
  9
$USERI5
 70
     0
  9
$USERR1
 40
0.0
  9
$USERR2
 40
0.0
  9
$USERR3
 40
0.0
  9
$USERR4
 40
0.0
  9
$USERR5
 40
0.0
  9
$WORLDVIEW
 70
     1
  9
$SHADEDGE
 70
     3
  9
$SHADEDIF
 70
    70
  9
$TILEMODE
 70
     1
  9
$MAXACTVP
 70
    16
  9
$PLIMCHECK
 70
     0
  9
$PEXTMIN
 10
1.0000000000000000E+020
 20
1.0000000000000000E+020
 30
1.0000000000000000E+020
  9
$PEXTMAX
 10
-1.0000000000000000E+020
 20
-1.0000000000000000E+020
 30
-1.0000000000000000E+020
  9
$PLIMMIN
 10
-20.0
 20
-7.5
  9
$PLIMMAX
 10
277.0
 20
202.5
  9
$UNITMODE
 70
     0
  9
$VISRETAIN
 70
     0
  9
$PLINEGEN
 70
     1
  9
$PSLTSCALE
 70
     0
  0
ENDSEC
  0
SECTION
  2
TABLES
  0
TABLE
  2
VPORT
 70
     1
  0
VPORT
  2
*ACTIVE
 70
     0
 10
0.0
 20
0.0
 11
1.0
 21
1.0
 12
218.50001126399351
 22
147.0000080332359
 13
0.0
 23
0.0
 14
2.5
 24
2.5
 15
10.0
 25
10.0
 16
0.0
 26
0.0
 36
1.0
 17
0.0
 27
0.0
 37
0.0
 40
278.34884785712649
 41
2.1619718309859151
 42
50.0
 43
0.0
 44
0.0
 50
0.0
 51
0.0
 71
     0
 72
   100
 73
     1
 74
     3
 75
     0
 76
     0
 77
     0
 78
     1
  0
ENDTAB
  0
TABLE
  2
LTYPE
 70
    22
  0
LTYPE
  2
CONTINUOUS
 70
     0
  3
Solid line (NEC CAE2D for Win R7.2 : 2008.02.20
 72
    65
 73
     0
 40
0.0
  0
LTYPE
  2
HIDDEN
 70
     0
  3
Hidden __ __ __ __ __ __ __ __ __ __ __ __ __ _
 72
    65
 73
     2
 40
0.375
 49
0.25
 49
-0.125
  0
LTYPE
  2
PHANTOM2
 70
     0
  3
Phantom (.5x) ___ _ _ ___ _ _ ___ _ _ ___ _ _
 72
    65
 73
     6
 40
1.25
 49
0.625
 49
-0.125
 49
0.125
 49
-0.125
 49
0.125
 49
-0.125
  0
LTYPE
  2
CENTER
 70
     0
  3
Center ____ _ ____ _ ____ _ ____ _ ____ _ ____
 72
    65
 73
     4
 40
2.0
 49
1.25
 49
-0.25
 49
0.25
 49
-0.25
  0
LTYPE
  2
CENTER2
 70
     0
  3
Center (.5x) ___ _ ___ _ ___ _ ___ _ ___ _ ___
 72
    65
 73
     4
 40
1.125
 49
0.75
 49
-0.125
 49
0.125
 49
-0.125
  0
LTYPE
  2
HIDDEN2
 70
     0
  3
Hidden (.5x) _ _ _ _ _ _ _ _ _ _ _ _ _ _ _ _ _
 72
    65
 73
     2
 40
0.1875
 49
0.125
 49
-0.0625
  0
LTYPE
  2
ACANSTGB
 70
     0
  3
__ . . __ . .
 72
    65
 73
     6
 40
0.35433070866
 49
0.15748031496
 49
-0.03937007874
 49
0.03937007874
 49
-0.03937007874
 49
0.03937007874
 49
-0.03937007874
  0
LTYPE
  2
ACANSTGL
 70
     0
  3
_ _ _ _ _
 72
    65
 73
     2
 40
0.11811023622
 49
0.07874015748
 49
-0.03937007874
  0
LTYPE
  2
ACJISWELD
 70
     0
  3
_ _ _ _ _
 72
    65
 73
     2
 40
2.0
 49
2.0
 49
-1.0
  0
LTYPE
  2
ACJISTGB
 70
     0
  3
__ . . __ . .
 72
    65
 73
     6
 40
9.0
 49
4.0
 49
-1.0
 49
1.0
 49
-1.0
 49
1.0
 49
-1.0
  0
LTYPE
  2
ACJISTGL
 70
     0
  3
_ _ _ _ _
 72
    65
 73
     2
 40
3.0
 49
2.0
 49
-1.0
  0
LTYPE
  2
ACISOWELD
 70
     0
  3
_ _ _ _ _
 72
    65
 73
     2
 40
2.0
 49
2.0
 49
-1.0
  0
LTYPE
  2
ACISOTGB
 70
     0
  3
__ . . __ . .
 72
    65
 73
     6
 40
9.0
 49
4.0
 49
-1.0
 49
1.0
 49
-1.0
 49
1.0
 49
-1.0
  0
LTYPE
  2
ACISOTGL
 70
     0
  3
_ _ _ _ _
 72
    65
 73
     2
 40
3.0
 49
2.0
 49
-1.0
  0
LTYPE
  2
AM_ISO02W050
 70
     0
  3
__ __ __ __ __ __ __ __ __ __ __ __ __ __ __
 72
    65
 73
     2
 40
7.5
 49
6.0
 49
-1.5
  0
LTYPE
  2
AM_ISO08W050
 70
     0
  3
____ . ____ . ____ . ____ . ____ . ____ . ____
 72
    65
 73
     4
 40
18.0
 49
12.0
 49
-1.5
 49
3.0
 49
-1.5
  0
LTYPE
  2
AM_ISO09W050
 70
     0
  3
_____ . . _____ . . _____ . . ____ .. ____
 72
    65
 73
     6
 40
22.5
 49
12.0
 49
-1.5
 49
3.0
 49
-1.5
 49
3.0
 49
-1.5
  0
LTYPE
  2
AMCONSTR
 70
     0
  3
_______________________
 72
    65
 73
     2
 40
9999.0
 49
9999.0
 49
0.0
  0
LTYPE
  2
AM_ISO08W050X2
 70
     0
  3
__ . __ . __ . __ . __ . __
 72
    65
 73
     4
 40
9.0
 49
6.0
 49
-0.75
 49
1.5
 49
-0.75
  0
LTYPE
  2
AM_ISO02W050X2
 70
     0
  3
 _ _ _ _ _ _ _ _ _ _ _ _
 72
    65
 73
     2
 40
3.75
 49
3.0
 49
-0.75
  0
LTYPE
  2
AMZIGZAG
 70
     0
  3
/\/-/\/-/\/-/\/-/\/-/\/
 72
    65
 73
     2
 40
11.0001
 49
0.0001
 49
-11.0
  0
LTYPE
  2
PHANTOM
 70
     0
  3
____ _ _ ____ _ _ ____ _ _ ____ _ _ ____
 72
    65
 73
     6
 40
2.5
 49
1.25
 49
-0.25
 49
0.25
 49
-0.25
 49
0.25
 49
-0.25
  0
ENDTAB
  0
TABLE
  2
LAYER
 70
    21
  0
LAYER
  2
0
 70
     0
 62
     3
  6
CONTINUOUS
  0
LAYER
  2
SYS-BUHIN0
 70
     0
 62
     7
  6
CONTINUOUS
  0
LAYER
  2
AM_0
 70
     0
 62
     3
  6
CONTINUOUS
  0
LAYER
  2
DEFPOINTS
 70
     0
 62
     7
  6
CONTINUOUS
  0
LAYER
  2
AM_5
 70
     0
 62
     7
  6
CONTINUOUS
  0
LAYER
  2
AM_BOR
 70
     0
 62
     7
  6
CONTINUOUS
  0
LAYER
  2
SYS-BUHINCODE
 70
     0
 62
     7
  6
CONTINUOUS
  0
LAYER
  2
AM_7
 70
     0
 62
     4
  6
CENTER
  0
LAYER
  2
AM_3
 70
     0
 62
     7
  6
HIDDEN
  0
LAYER
  2
AM_12
 70
     0
 62
   253
  6
CONTINUOUS
  0
LAYER
  2
AM_PAREF
 70
     0
 62
     4
  6
CONTINUOUS
  0
LAYER
  2
AM_6
 70
     0
 62
     7
  6
CONTINUOUS
  0
LAYER
  2
AM_8
 70
     0
 62
   253
  6
CONTINUOUS
  0
LAYER
  2
AM_4
 70
     0
 62
     6
  6
CONTINUOUS
  0
LAYER
  2
AM_10
 70
     0
 62
     7
  6
CONTINUOUS
  0
LAYER
  2
AM_CL
 70
     0
 62
     1
  6
CONTINUOUS
  0
LAYER
  2
AM_2
 70
     0
 62
     5
  6
PHANTOM2
  0
LAYER
  2
AM_1N
 70
     0
 62
    14
  6
CONTINUOUS
  0
LAYER
  2
AM_1
 70
     0
 62
    14
  6
PHANTOM2
  0
LAYER
  2
AM_9
 70
     0
 62
    -7
  6
CONTINUOUS
  0
LAYER
  2
SYS-TEISEI0
 70
     0
 62
     7
  6
CONTINUOUS
  0
ENDTAB
  0
TABLE
  2
STYLE
 70
    14
  0
STYLE
  2
STANDARD
 70
     0
 40
0.0
 41
1.0
 50
0.0
 71
     0
 42
3.0
  3
dim.shx
  4
extfont.shx
  0
STYLE
  2
KNJYOKO
 70
     0
 40
0.0
 41
1.0
 50
0.0
 71
     0
 42
3.099999904632567
  3
TXT.shx
  4
extfont.shx
  0
STYLE
  2
ACANSTS
 70
     0
 40
1.0
 41
1.0
 50
0.0
 71
     0
 42
0.2
  3
romans.shx
  4
extfont.shx
  0
STYLE
  2
ACANSGDT
 70
     0
 40
0.0
 41
1.0
 50
0.0
 71
     0
 42
0.2
  3
amgdt.shx
  4

  0
STYLE
  2
ACJISTS
 70
     0
 40
1.0
 41
1.0
 50
0.0
 71
     0
 42
0.2
  3
isocp.shx
  4
extfont.shx
  0
STYLE
  2
ACJISGDT
 70
     0
 40
0.0
 41
1.0
 50
0.0
 71
     0
 42
0.2
  3
amgdt.shx
  4

  0
STYLE
  2
MINNTYOU
 70
     0
 40
0.0
 41
1.0
 50
0.0
 71
     0
 42
3.0
  3
txt
  4

  0
STYLE
  2
R寸法
 70
     0
 40
2.0
 41
1.0
 50
0.0
 71
     0
 42
3.0
  3
dim.shx
  4
extfont.shx
  0
STYLE
  2
ANKTATE
 70
     4
 40
0.0
 41
1.0
 50
0.0
 71
     0
 42
3.099999904632567
  3
TXT
  4

  0
STYLE
  2
KNJTATE
 70
     4
 40
0.0
 41
1.0
 50
0.0
 71
     0
 42
3.099999904632567
  3
TXT
  4
BIGFONT
  0
STYLE
  2
ACISOTS
 70
     0
 40
1.0
 41
1.0
 50
0.0
 71
     0
 42
2.5
  3
isocp.shx
  4
extfont.shx
  0
STYLE
  2
ACISOGDT
 70
     0
 40
0.0
 41
1.0
 50
0.0
 71
     0
 42
2.5
  3
amgdt.shx
  4

  0
STYLE
  2

 70
     1
 40
0.0
 41
1.0
 50
0.0
 71
     0
 42
3.0
  3
genltshp.shx
  4

  0
ENDTAB
  0
TABLE
  2
VIEW
 70
     7
  0
VIEW
  2
AM_VIEW1
 70
     0
 40
137.99999999999989
 10
151.8531375166888
 20
215.99999999999989
 41
253.70627503337769
 11
0.0
 21
0.0
 31
1.0
 12
0.0
 22
0.0
 32
0.0
 42
50.0
 43
0.0
 44
0.0
 50
0.0
 71
     0
  0
VIEW
  2
AM_VIEW2
 70
     0
 40
137.99999999999989
 10
285.146862483311
 20
215.99999999999989
 41
253.70627503337769
 11
0.0
 21
0.0
 31
1.0
 12
0.0
 22
0.0
 32
0.0
 42
50.0
 43
0.0
 44
0.0
 50
0.0
 71
     0
  0
VIEW
  2
AM_VIEW3
 70
     0
 40
137.99999999999989
 10
151.8531375166888
 20
77.999999999999972
 41
253.70627503337769
 11
0.0
 21
0.0
 31
1.0
 12
0.0
 22
0.0
 32
0.0
 42
50.0
 43
0.0
 44
0.0
 50
0.0
 71
     0
  0
VIEW
  2
AM_VIEW4
 70
     0
 40
137.99999999999989
 10
285.146862483311
 20
77.999999999999972
 41
253.70627503337769
 11
0.0
 21
0.0
 31
1.0
 12
0.0
 22
0.0
 32
0.0
 42
50.0
 43
0.0
 44
0.0
 50
0.0
 71
     0
  0
VIEW
  2
AM_VIEW5
 70
     0
 40
137.99999999999989
 10
218.49999999999989
 20
146.99999999999989
 41
253.70627503337769
 11
0.0
 21
0.0
 31
1.0
 12
0.0
 22
0.0
 32
0.0
 42
50.0
 43
0.0
 44
0.0
 50
0.0
 71
     0
  0
VIEW
  2
AM_VIEW6
 70
     0
 40
275.99723999999992
 10
218.49999999999989
 20
146.99999999999989
 41
507.4074759412548
 11
0.0
 21
0.0
 31
1.0
 12
0.0
 22
0.0
 32
0.0
 42
50.0
 43
0.0
 44
0.0
 50
0.0
 71
     0
  0
ENDTAB
  0
TABLE
  2
UCS
 70
     0
  0
ENDTAB
  0
TABLE
  2
APPID
 70
    60
  0
APPID
  2
ACAD
 70
     0
  0
APPID
  2
ACADANNOTATIVE
 70
     0
  0
APPID
  2
ACAD_MLEADERVER
 70
     0
  0
APPID
  2
MCAD_NO_VIS
 70
     0
  0
APPID
  2
ACAD_TEMP_GRAPHIC
 70
     0
  0
APPID
  2
AD_DRAW
 70
     0
  0
APPID
  2
ACATTRIBSERVICES
 70
     0
  0
APPID
  2
DESIGNERASSEMBLIES
 70
     0
  0
APPID
  2
ACADM_DIM_EDIT
 70
     0
  0
APPID
  2
AMDT_DM_ADJ
 70
     0
  0
APPID
  2
ACADANNOPO
 70
     0
  0
APPID
  2
ACAECLAYERSTANDARD
 70
     0
  0
APPID
  2
ACDBDYNAMICBLOCKGUID
 70
     0
  0
APPID
  2
ACDBBLOCKREPETAG
 70
     0
  0
APPID
  2
ACAUTHENVIRON
 70
     0
  0
APPID
  2
ACDBDYNAMICBLOCKTRUENAME
 70
     0
  0
APPID
  2
GENIUS_GENREC_14
 70
     0
  0
APPID
  2
GENIUS_GENOBJ-N-REC_13
 70
     0
  0
APPID
  2
GENIUS_GENODEF_13
 70
     0
  0
APPID
  2
ACAD_EXEMPT_FROM_CAD_STANDARDS
 70
     0
  0
APPID
  2
GENIUS_GENOBJ-N-CEN_13
 70
     0
  0
APPID
  2
GENIUS_GENCEN_19
 70
     0
  0
APPID
  2
ACAD_DSTYLE_DIMINSPECT
 70
     0
  0
APPID
  2
DCO15
 70
     0
  0
APPID
  2
ACAD_PSEXT
 70
     0
  0
APPID
  2
GENIUS_GENBH_13
 70
     0
  0
APPID
  2
GENIUS_GENOENT_13
 70
     0
  0
APPID
  2
GENIUS_GENOLIS_13
 70
     0
  0
APPID
  2
GENIUS_GENOBJ-NBEHI-BHF_13
 70
     0
  0
APPID
  2
GENIUS_GENOREF_13
 70
     0
  0
APPID
  2
GENIUS_GENOBJ-NBEHI-BHB_13
 70
     0
  0
APPID
  2
AMG_2DHIDE
 70
     0
  0
APPID
  2
AMG_2DSTRUCT_BTR
 70
     0
  0
APPID
  2
GENIUS_AMGTXT_16
 70
     0
  0
APPID
  2
GENIUS_GENOBJ-N-HTC_13
 70
     0
  0
APPID
  2
GENIUS_GENHATCH_13
 70
     0
  0
APPID
  2
GEVID1208849169
 70
     0
  0
APPID
  2
GEVDC
 70
     0
  0
APPID
  2
ACADM_2DVIEW_IGN_NOTIFY
 70
     0
  0
APPID
  2
GEVID1208849170
 70
     0
  0
APPID
  2
GEVID1208849171
 70
     0
  0
APPID
  2
GEVRADREF
 70
     0
  0
APPID
  2
ACAD_DSTYLE_DIMJAG
 70
     0
  0
APPID
  2
ACAD_DSTYLE_DIMTALN
 70
     0
  0
APPID
  2
GENIUS_GENDTOL_13
 70
     0
  0
APPID
  2
GENIUS_GENTRA_14
 70
     0
  0
APPID
  2
GENIUS_GENOBJ-N-TIT_13
 70
     0
  0
APPID
  2
GENIUS_GENTITLE_13
 70
     0
  0
APPID
  2
GENIUS_GENSCREG_15
 70
     0
  0
APPID
  2
GENIUS_GENOBJ-N-SDF_13
 70
     0
  0
APPID
  2
ACAD_DSTYLE_DIMRADIAL_EXTENSION
 70
     0
  0
APPID
  2
GENIUS_GENOBJ-N-FIL_13
 70
     0
  0
APPID
  2
GENIUS_GENOBJ-N-CRS_13
 70
     0
  0
APPID
  2
GENIUS_GENDIMSH_14
 70
     0
  0
APPID
  2
ACAD_DSTYLE_DIMANGULAR_EXT
 70
     0
  0
APPID
  2
ACAD_NAV_VCDISPLAY
 70
     0
  0
APPID
  2
ACAD_DSTYLE_DIMBREAK
 70
     0
  0
APPID
  2
GENIUS_GENSCREG_13
 70
     0
  0
APPID
  2
CONTENTBLOCKICON
 70
     0
  0
APPID
  2
AcDbAttr
 70
     0
  0
ENDTAB
  0
TABLE
  2
DIMSTYLE
 70
    26
  0
DIMSTYLE
  2
STANDARD
 70
     0
  3

  4

  5

  6

  7

 40
1.0
 41
1.0
 42
0.8
 43
0.38
 44
1.0
 45
0.0
 46
0.0
 47
0.0
 48
0.0
140
3.1000000000000001
141
0.09
142
0.0
143
25.399999999999999
144
1.0
145
0.5
146
1.0
147
0.09
 71
     0
 72
     0
 73
     0
 74
     0
 75
     0
 76
     0
 77
     1
 78
     0
170
     0
171
     2
172
     0
173
     0
174
     0
175
     0
176
     0
177
     0
178
     0
  0
DIMSTYLE
  2
AM_ANSI
 70
     0
  3

  4
mm
  5

  6

  7

 40
1.0
 41
0.1
 42
0.05
 43
0.5
 44
0.1
 45
0.0
 46
0.0
 47
0.1
 48
0.1
140
0.12
141
0.0
142
0.0
143
25.399999999999999
144
1.0
145
0.0
146
0.71
147
0.06
 71
     0
 72
     0
 73
     1
 74
     1
 75
     0
 76
     0
 77
     0
 78
     7
170
     0
171
     2
172
     0
173
     0
174
     0
175
     0
176
   256
177
   256
178
     2
  0
DIMSTYLE
  2
AM_ANSI$3
 70
     0
  3

  4
mm
  5

  6

  7

 40
1.0
 41
0.1
 42
0.05
 43
0.5
 44
0.1
 45
0.0
 46
0.0
 47
0.1
 48
0.1
140
0.12
141
0.0
142
0.0
143
25.399999999999999
144
1.0
145
0.0
146
0.71
147
0.06
 71
     0
 72
     0
 73
     1
 74
     1
 75
     0
 76
     0
 77
     0
 78
     7
170
     0
171
     2
172
     0
173
     0
174
     0
175
     0
176
   256
177
   256
178
     2
  0
DIMSTYLE
  2
AM_ANSI$4
 70
     0
  3

  4
mm
  5

  6

  7

 40
1.0
 41
0.1
 42
0.05
 43
0.5
 44
0.1
 45
0.0
 46
0.0
 47
0.1
 48
0.1
140
0.12
141
0.0
142
0.0
143
25.399999999999999
144
1.0
145
0.0
146
0.71
147
0.06
 71
     0
 72
     0
 73
     1
 74
     1
 75
     0
 76
     0
 77
     0
 78
     7
170
     0
171
     2
172
     0
173
     0
174
     0
175
     0
176
   256
177
   256
178
     2
  0
DIMSTYLE
  2
AM_ANSI$7
 70
     0
  3

  4
mm
  5

  6

  7

 40
1.0
 41
0.1
 42
0.05
 43
0.5
 44
0.1
 45
0.0
 46
0.0
 47
0.1
 48
0.1
140
0.24
141
0.0
142
0.0
143
25.399999999999999
144
1.0
145
0.0
146
0.71
147
0.06
 71
     0
 72
     0
 73
     1
 74
     1
 75
     0
 76
     0
 77
     0
 78
     7
170
     0
171
     2
172
     0
173
     0
174
     0
175
     0
176
   256
177
   256
178
     2
  0
DIMSTYLE
  2
AM_ANSI$SF
 70
     0
  3

  4
mm
  5

  6

  7

 40
1.0
 41
0.1
 42
0.05
 43
0.5
 44
0.1
 45
0.0
 46
0.0
 47
0.1
 48
0.1
140
0.12
141
0.0
142
0.0
143
25.399999999999999
144
1.0
145
0.0
146
0.71
147
0.06
 71
     0
 72
     0
 73
     1
 74
     1
 75
     1
 76
     1
 77
     0
 78
     7
170
     0
171
     2
172
     0
173
     0
174
     0
175
     0
176
   256
177
   256
178
     2
  0
DIMSTYLE
  2
AM_ANSI$SH
 70
     0
  3

  4
mm
  5

  6
GENAXEH
  7

 40
1.0
 41
0.1
 42
0.05
 43
0.5
 44
0.1
 45
0.0
 46
0.0
 47
0.1
 48
0.1
140
0.12
141
0.0
142
0.0
143
25.399999999999999
144
1.0
145
0.0
146
0.71
147
0.06
 71
     0
 72
     0
 73
     1
 74
     1
 75
     1
 76
     1
 77
     0
 78
     7
170
     0
171
     2
172
     0
173
     1
174
     0
175
     0
176
   256
177
   256
178
     2
  0
DIMSTYLE
  2
AM_JIS
 70
     0
  3

  4
"
  5
OPEN30
  6

  7

 40
1.0
 41
2.5
 42
1.0
 43
7.0
 44
1.0
 45
0.0
 46
0.0
 47
0.1
 48
0.1
140
3.0
141
0.0
142
0.0
143
0.0393701
144
1.0
145
0.0
146
0.71
147
1.0
 71
     0
 72
     0
 73
     0
 74
     0
 75
     0
 76
     0
 77
     3
 78
     8
170
     0
171
     2
172
     1
173
     0
174
     0
175
     0
176
     7
177
     7
178
     7
  0
DIMSTYLE
  2
AM_JIS$3
 70
     0
  3

  4
"
  5
OPEN30
  6

  7

 40
1.0
 41
2.5
 42
1.0
 43
10.0
 44
1.0
 45
0.0
 46
0.0
 47
0.1
 48
0.1
140
3.0
141
0.0
142
0.0
143
0.0393701
144
1.0
145
0.0
146
0.71
147
1.0
 71
     0
 72
     0
 73
     0
 74
     1
 75
     0
 76
     0
 77
     3
 78
     8
170
     0
171
     2
172
     0
173
     0
174
     0
175
     0
176
     7
177
     7
178
     7
  0
DIMSTYLE
  2
AM_JIS$4
 70
     0
  3

  4
"
  5
OPEN30
  6

  7

 40
1.0
 41
2.5
 42
1.0
 43
10.0
 44
1.0
 45
0.0
 46
0.0
 47
0.1
 48
0.1
140
2.0
141
0.0
142
0.0
143
0.0393701
144
1.0
145
0.0
146
0.71
147
1.0
 71
     0
 72
     0
 73
     0
 74
     0
 75
     0
 76
     0
 77
     3
 78
     8
170
     0
171
     2
172
     0
173
     0
174
     0
175
     0
176
     7
177
     7
178
     7
  0
DIMSTYLE
  2
AM_JIS$6
 70
     0
  3

  4
"
  5
OPEN30
  6

  7

 40
1.0
 41
2.5
 42
1.0
 43
10.0
 44
1.0
 45
0.0
 46
0.0
 47
0.1
 48
0.1
140
3.0
141
0.0
142
0.0
143
0.0393701
144
1.0
145
0.0
146
0.71
147
1.0
 71
     0
 72
     0
 73
     0
 74
     0
 75
     0
 76
     0
 77
     0
 78
     8
170
     0
171
     2
172
     1
173
     0
174
     0
175
     0
176
   256
177
     7
178
     7
  0
DIMSTYLE
  2
AM_JIS$7
 70
     0
  3

  4
"
  5
OPEN30
  6

  7

 40
1.0
 41
2.5
 42
1.0
 43
10.0
 44
1.0
 45
0.0
 46
0.0
 47
0.1
 48
0.1
140
3.0
141
0.0
142
0.0
143
0.0393701
144
1.0
145
0.0
146
0.71
147
1.0
 71
     0
 72
     0
 73
     0
 74
     0
 75
     0
 76
     0
 77
     3
 78
     8
170
     0
171
     2
172
     1
173
     0
174
     0
175
     0
176
     7
177
   256
178
     7
  0
DIMSTYLE
  2
AM_JIS$SF
 70
     0
  3

  4
"
  5
OPEN30
  6

  7

 40
1.0
 41
2.5
 42
1.0
 43
7.0
 44
1.0
 45
0.0
 46
0.0
 47
0.1
 48
0.1
140
3.0
141
0.0
142
0.0
143
0.0393701
144
1.0
145
0.0
146
0.71
147
1.0
 71
     0
 72
     0
 73
     0
 74
     0
 75
     1
 76
     1
 77
     3
 78
     8
170
     0
171
     2
172
     1
173
     0
174
     0
175
     0
176
     7
177
   256
178
     7
  0
DIMSTYLE
  2
AM_JIS$SH
 70
     0
  3

  4
"
  5

  6
GENAXEH
  7
OPEN30
 40
1.0
 41
2.5
 42
1.0
 43
7.0
 44
1.0
 45
0.0
 46
0.0
 47
0.1
 48
0.1
140
3.0
141
0.0
142
0.0
143
0.0393701
144
2.0
145
0.0
146
0.71
147
1.0
 71
     0
 72
     0
 73
     0
 74
     0
 75
     1
 76
     1
 77
     3
 78
     8
170
     0
171
     2
172
     1
173
     1
174
     0
175
     0
176
     7
177
   256
178
     7
  0
DIMSTYLE
  2
AM_JIS$2
 70
     0
  3

  4
"
  5
OPEN30
  6

  7

 40
1.0
 41
2.5
 42
1.0
 43
7.0
 44
1.0
 45
0.0
 46
0.0
 47
0.1
 48
0.1
140
3.0
141
0.0
142
0.0
143
0.0393701
144
1.0
145
0.0
146
0.71
147
1.0
 71
     0
 72
     0
 73
     0
 74
     0
 75
     0
 76
     0
 77
     3
 78
     8
170
     0
171
     2
172
     1
173
     0
174
     0
175
     0
176
     7
177
     7
178
     7
  0
DIMSTYLE
  2
AM_JIS$0
 70
     0
  3

  4
"
  5
OPEN30
  6

  7

 40
1.0
 41
2.5
 42
1.0
 43
7.0
 44
1.0
 45
0.0
 46
0.0
 47
0.1
 48
0.1
140
3.0
141
0.0
142
0.0
143
0.0393701
144
1.0
145
0.0
146
0.71
147
1.0
 71
     0
 72
     0
 73
     0
 74
     0
 75
     0
 76
     0
 77
     3
 78
     8
170
     0
171
     2
172
     1
173
     0
174
     0
175
     0
176
     7
177
     7
178
     7
  0
DIMSTYLE
  2
STANDARD$0
 70
     0
  3

  4

  5

  6

  7

 40
1.0
 41
1.0
 42
0.8
 43
0.38
 44
1.0
 45
0.0
 46
0.0
 47
0.0
 48
0.0
140
3.1000000000000001
141
0.09
142
0.0
143
25.399999999999999
144
1.0
145
0.5
146
1.0
147
0.09
 71
     0
 72
     0
 73
     0
 74
     0
 75
     0
 76
     0
 77
     1
 78
     0
170
     0
171
     2
172
     0
173
     0
174
     0
175
     0
176
     0
177
     0
178
     0
  0
DIMSTYLE
  2
ANNOTATIVE
 70
     0
  3

  4

  5

  6

  7

 40
1.0
 41
0.18
 42
0.0625
 43
0.38
 44
0.18
 45
0.0
 46
0.0
 47
0.0
 48
0.0
140
0.18
141
0.09
142
0.0
143
25.399999999999999
144
1.0
145
0.0
146
1.0
147
0.09
 71
     0
 72
     0
 73
     1
 74
     1
 75
     0
 76
     0
 77
     0
 78
     0
170
     0
171
     2
172
     0
173
     0
174
     0
175
     0
176
     0
177
     0
178
     0
  0
DIMSTYLE
  2
AM_ISO
 70
     0
  3

  4
"
  5

  6

  7

 40
1.0
 41
2.5
 42
1.0
 43
10.0
 44
1.0
 45
0.0
 46
0.0
 47
0.1
 48
0.1
140
3.5
141
0.0
142
0.0
143
0.0393701
144
1.0
145
0.0
146
0.71
147
1.5
 71
     0
 72
     0
 73
     0
 74
     0
 75
     0
 76
     0
 77
     1
 78
     8
170
     0
171
     2
172
     1
173
     0
174
     0
175
     0
176
   256
177
   256
178
     2
  0
DIMSTYLE
  2
AM_ISO$3
 70
     0
  3

  4
"
  5

  6

  7

 40
1.0
 41
2.5
 42
1.0
 43
10.0
 44
1.0
 45
0.0
 46
0.0
 47
0.1
 48
0.1
140
3.5
141
0.0
142
0.0
143
0.0393701
144
1.0
145
0.0
146
0.71
147
1.5
 71
     0
 72
     0
 73
     0
 74
     1
 75
     0
 76
     0
 77
     1
 78
     8
170
     0
171
     2
172
     0
173
     0
174
     0
175
     0
176
   256
177
   256
178
     2
  0
DIMSTYLE
  2
AM_ISO$4
 70
     0
  3

  4
"
  5

  6

  7

 40
1.0
 41
2.5
 42
1.0
 43
10.0
 44
1.0
 45
0.0
 46
0.0
 47
0.1
 48
0.1
140
3.5
141
0.0
142
0.0
143
0.0393701
144
1.0
145
0.0
146
0.71
147
1.5
 71
     0
 72
     0
 73
     0
 74
     1
 75
     0
 76
     0
 77
     1
 78
     8
170
     0
171
     2
172
     0
173
     0
174
     0
175
     0
176
   256
177
   256
178
     2
  0
DIMSTYLE
  2
AM_ISO$6
 70
     0
  3

  4
"
  5

  6

  7

 40
1.0
 41
2.5
 42
1.0
 43
10.0
 44
1.0
 45
0.0
 46
0.0
 47
0.1
 48
0.1
140
3.5
141
0.0
142
0.0
143
0.0393701
144
1.0
145
0.0
146
0.71
147
1.5
 71
     0
 72
     0
 73
     0
 74
     0
 75
     0
 76
     0
 77
     0
 78
     8
170
     0
171
     2
172
     1
173
     0
174
     0
175
     0
176
   256
177
   256
178
     2
  0
DIMSTYLE
  2
AM_ISO$7
 70
     0
  3

  4
"
  5

  6

  7

 40
1.0
 41
2.5
 42
1.0
 43
10.0
 44
1.0
 45
0.0
 46
0.0
 47
0.1
 48
0.1
140
5.0
141
0.0
142
0.0
143
0.0393701
144
1.0
145
0.0
146
0.71
147
1.5
 71
     0
 72
     0
 73
     0
 74
     0
 75
     0
 76
     0
 77
     1
 78
     8
170
     0
171
     2
172
     1
173
     0
174
     0
175
     0
176
   256
177
   256
178
     2
  0
DIMSTYLE
  2
AM_ISO$SF
 70
     0
  3

  4
"
  5

  6

  7

 40
1.0
 41
2.5
 42
1.0
 43
10.0
 44
1.0
 45
0.0
 46
0.0
 47
0.1
 48
0.1
140
3.5
141
0.0
142
0.0
143
0.0393701
144
1.0
145
0.0
146
0.71
147
1.5
 71
     0
 72
     0
 73
     0
 74
     0
 75
     1
 76
     1
 77
     1
 78
     8
170
     0
171
     2
172
     1
173
     0
174
     0
175
     0
176
   256
177
   256
178
     2
  0
DIMSTYLE
  2
AM_ISO$SH
 70
     0
  3

  4
"
  5

  6
GENAXEH
  7

 40
1.0
 41
2.5
 42
1.0
 43
10.0
 44
1.0
 45
0.0
 46
0.0
 47
0.1
 48
0.1
140
3.5
141
0.0
142
0.0
143
0.0393701
144
2.0
145
0.0
146
0.71
147
1.5
 71
     0
 72
     0
 73
     0
 74
     0
 75
     1
 76
     1
 77
     1
 78
     8
170
     0
171
     2
172
     1
173
     1
174
     0
175
     0
176
   256
177
   256
178
     2
  0
ENDTAB
  0
ENDSEC
  0
SECTION
  2
BLOCKS
  0
BLOCK
  8
0
  2
$MODEL_SPACE
 70
     0
 10
0.0
 20
0.0
 30
0.0
  3
$MODEL_SPACE
  1

  0
ENDBLK
  5
1D3
  8
0
  0
BLOCK
 67
     1
  8
0
  2
$PAPER_SPACE
 70
     0
 10
0.0
 20
0.0
 30
0.0
  3
$PAPER_SPACE
  1

  0
ENDBLK
  5
1D1
 67
     1
  8
0
  0
BLOCK
  8
0
  2
GENAXEH
 70
     0
 10
0.0
 20
0.0
 30
0.0
  3
GENAXEH
  1

  0
LINE
  5
264
  8
0
 10
-1.0
 20
0.0
 30
0.0
 11
1.0
 21
0.0
 31
0.0
  0
ENDBLK
  5
266
  8
0
  0
BLOCK
  8
0
  2
_OPEN30
 70
     0
 10
0.0
 20
0.0
 30
0.0
  3
_OPEN30
  1

  0
LINE
  5
2FA
  8
0
  6
BYBLOCK
 62
     0
 10
-1.0
 20
0.26794919
 30
0.0
 11
0.0
 21
0.0
 31
0.0
  0
LINE
  5
2FB
  8
0
  6
BYBLOCK
 62
     0
 10
0.0
 20
0.0
 30
0.0
 11
-1.0
 21
-0.26794919
 31
0.0
  0
LINE
  5
2FC
  8
0
  6
BYBLOCK
 62
     0
 10
0.0
 20
0.0
 30
0.0
 11
-1.0
 21
0.0
 31
0.0
  0
ENDBLK
  5
2FE
  8
0
  0
BLOCK
  8
0
  2
MYPLIST0
 70
     2
 10
0.0
 20
0.0
 30
0.0
  3
MYPLIST0
  1

  0
LINE
  5
346
  8
SYS-BUHIN0
  6
CONTINUOUS
 62
     4
 10
-170.0
 20
7.0
 30
0.0
 11
0.0
 21
7.0
 31
0.0
  0
LINE
  5
347
  8
SYS-BUHIN0
  6
CONTINUOUS
 62
     4
 10
-170.0
 20
-0.0000000000030695
 30
0.0
 11
0.0
 21
-0.0000000000001137
 31
0.0
  0
LINE
  5
348
  8
SYS-BUHIN0
  6
CONTINUOUS
 62
     4
 10
-170.0
 20
7.0
 30
0.0
 11
-170.0
 21
0.0
 31
0.0
  0
LINE
  5
349
  8
SYS-BUHIN0
  6
CONTINUOUS
 62
     4
 10
0.0
 20
7.0
 30
0.0
 11
0.0
 21
0.0
 31
0.0
  0
LINE
  5
34A
  8
SYS-BUHIN0
  6
CONTINUOUS
 62
     4
 10
-161.0
 20
7.0
 30
0.0
 11
-161.0
 21
0.0
 31
0.0
  0
LINE
  5
34B
  8
SYS-BUHIN0
  6
CONTINUOUS
 62
     4
 10
-99.0
 20
7.0
 30
0.0
 11
-99.0
 21
0.0
 31
0.0
  0
LINE
  5
34C
  8
SYS-BUHIN0
  6
CONTINUOUS
 62
     4
 10
-72.0
 20
7.0
 30
0.0
 11
-72.0
 21
0.0
 31
0.0
  0
LINE
  5
34D
  8
SYS-BUHIN0
  6
CONTINUOUS
 62
     4
 10
-63.0
 20
7.0
 30
0.0
 11
-63.0
 21
0.0
 31
0.0
  0
LINE
  5
34E
  8
SYS-BUHIN0
  6
CONTINUOUS
 62
     4
 10
-16.0
 20
7.0
 30
0.0
 11
-16.0
 21
0.0
 31
0.0
  0
TEXT
  5
34F
  8
SYS-BUHIN0
  6
CONTINUOUS
 62
     7
 10
-13.61264708219346
 20
0.6000000119208835
 30
0.0
 40
1.1000000000000001
  1
PARTS NO.
 41
1.3
  0
TEXT
  5
350
  8
SYS-BUHIN0
  6
CONTINUOUS
 62
     7
 10
-14.36429419116018
 20
3.0691472933651762
 30
0.0
 40
2.2000000000000002
  1
部品コード
  0
TEXT
  5
351
  8
SYS-BUHIN0
  6
CONTINUOUS
 62
     7
 10
-43.852454807937526
 20
0.6000000119208835
 30
0.0
 40
1.1000000000000001
  1
REMARKS
 41
1.3
  0
TEXT
  5
352
  8
SYS-BUHIN0
  6
CONTINUOUS
 62
     7
 10
-47.370000243186951
 20
2.7500000476836699
 30
0.0
 40
2.7999999999999989
  1
備    考
  0
TEXT
  5
353
  8
SYS-BUHIN0
  6
CONTINUOUS
 62
     7
 10
-69.144963642251696
 20
0.6000000119208835
 30
0.0
 40
1.1000000000000001
  1
UNIT
  0
TEXT
  5
354
  8
SYS-BUHIN0
  6
CONTINUOUS
 62
     7
 10
-70.272262370934413
 20
2.6949072988287521
 30
0.0
 40
2.7999999999999989
  1
数量
  0
TEXT
  5
355
  8
SYS-BUHIN0
  6
CONTINUOUS
 62
     7
 10
-90.559234383463263
 20
0.6000000119208835
 30
0.0
 40
1.1000000000000001
  1
MATERIAL
 41
1.3
  0
TEXT
  5
357
  8
SYS-BUHIN0
  6
CONTINUOUS
 62
     7
 10
-138.9093619295486
 20
0.6000000119208835
 30
0.0
 40
1.1000000000000001
  1
  DESCRIPTION
 41
1.3
  0
TEXT
  5
358
  8
SYS-BUHIN0
  6
CONTINUOUS
 62
     7
 10
-142.0050003230572
 20
2.7500000476836699
 30
0.0
 40
2.7999999999999989
  1
 部  品  名
  0
TEXT
  5
359
  8
SYS-BUHIN0
  6
CONTINUOUS
 62
     7
 10
-166.63404873957319
 20
0.6000000119208835
 30
0.0
 40
1.1000000000000001
  1
NO.
  0
TEXT
  5
35A
  8
SYS-BUHIN0
  6
CONTINUOUS
 62
     7
 10
-168.29000008106229
 20
2.7500000476836699
 30
0.0
 40
2.7999999999999989
  1
項番
  0
ATTDEF
  5
35B
  8
AM_0
 62
     7
 10
-168.79000008106229
 20
3.5
 30
0.0
 40
3.1000000000000001
  1

  3

  2
ITEM
 70
     1
1001
AcDbAttr
1070
     0
1070
     1
  0
TEXT
  5
C0B
  8
AM_BOR
 62
     7
 10
-91.770000159740434
 20
2.7000000476837149
 30
0.0
 40
2.7999999999999989
  1
材　　質
  0
ENDBLK
  5
35C
  8
0
  0
BLOCK
  8
0
  2
MYPLIST1
 70
     2
 10
0.0
 20
0.0
 30
0.0
  3
MYPLIST1
  1

  0
LINE
  5
393
  8
SYS-BUHIN0
  6
CONTINUOUS
 62
     4
 10
-170.0
 20
6.0
 30
0.0
 11
0.0
 21
6.0
 31
0.0
  0
LINE
  5
394
  8
SYS-BUHIN0
  6
CONTINUOUS
 62
     4
 10
-170.0
 20
0.0
 30
0.0
 11
-170.0
 21
6.0
 31
0.0
  0
LINE
  5
395
  8
SYS-BUHIN0
  6
CONTINUOUS
 62
     4
 10
-161.0
 20
0.0
 30
0.0
 11
-161.0
 21
6.0
 31
0.0
  0
LINE
  5
396
  8
SYS-BUHIN0
  6
CONTINUOUS
 62
     4
 10
-99.0
 20
0.0
 30
0.0
 11
-99.0
 21
6.0
 31
0.0
  0
LINE
  5
397
  8
SYS-BUHIN0
  6
CONTINUOUS
 62
     4
 10
-72.0
 20
0.0
 30
0.0
 11
-72.0
 21
6.0
 31
0.0
  0
LINE
  5
398
  8
SYS-BUHIN0
  6
CONTINUOUS
 62
     4
 10
-63.0
 20
0.0
 30
0.0
 11
-63.0
 21
6.0
 31
0.0
  0
LINE
  5
399
  8
SYS-BUHIN0
  6
CONTINUOUS
 62
     4
 10
-16.0
 20
0.0
 30
0.0
 11
-16.0
 21
6.0
 31
0.0
  0
LINE
  5
39A
  8
SYS-BUHIN0
  6
CONTINUOUS
 62
     4
 10
0.0
 20
0.0
 30
0.0
 11
0.0
 21
6.0
 31
0.0
  0
LINE
  5
39B
  8
SYS-BUHIN0
  6
CONTINUOUS
 62
     4
 10
-170.0
 20
0.0
 30
0.0
 11
0.0
 21
0.0
 31
0.0
  0
ATTDEF
  5
39C
  8
SYS-BUHINCODE
 10
-14.0
 20
2.5
 30
0.0
 40
1.0
  1

 11
-14.0
 21
3.0
 31
0.0
  3
部品コード
  2
PCODE
 70
     0
 74
     2
1001
AcDbAttr
1070
     0
1070
     1
  0
ATTDEF
  5
39D
  8
SYS-BUHIN0
  6
CONTINUOUS
 62
     7
 10
-61.0
 20
2.0
 30
0.0
 40
2.0
  1

 11
-61.0
 21
3.0
 31
0.0
  3
備考
  2
NOTE
 70
     0
 74
     2
1001
AcDbAttr
1070
     0
1070
     1
  0
ATTDEF
  5
39E
  8
SYS-BUHIN0
  6
CONTINUOUS
 62
     7
 10
-67.5
 20
3.0
 30
0.0
 40
2.5
  1

 72
     4
 11
-67.5
 21
3.0
 31
0.0
  3
数量
  2
QTY
 70
     0
1001
AcDbAttr
1070
     0
1070
     1
  0
ATTDEF
  5
39F
  8
SYS-BUHIN0
  6
CONTINUOUS
 62
     7
 10
-97.595958160209875
 20
2.0
 30
0.0
 40
2.0
  1

 11
-97.595958160209875
 21
3.0
 31
0.0
  3
材質
  2
MATERIAL
 70
     0
 74
     2
1001
AcDbAttr
1070
     0
1070
     1
  0
ATTDEF
  5
3A0
  8
SYS-BUHIN0
  6
CONTINUOUS
 62
     7
 10
-159.0
 20
1.75
 30
0.0
 40
2.5
  1

 11
-159.0
 21
3.0
 31
0.0
  3
部品名
  2
DESCR
 70
     0
 74
     2
1001
AcDbAttr
1070
     0
1070
     1
  0
ATTDEF
  5
3A1
  8
SYS-BUHIN0
  6
CONTINUOUS
 62
     7
 10
-165.5
 20
3.0
 30
0.0
 40
2.5
  1

 72
     4
 11
-165.5
 21
3.0
 31
0.0
  3
項番
  2
ITEM
 70
     0
1001
AcDbAttr
1070
     0
1070
     1
  0
ENDBLK
  5
370
  8
0
  0
BLOCK
  8
0
  2
A$C1C06296A
 70
     2
 10
0.0
 20
0.0
 30
0.0
  3
A$C1C06296A
  1

  0
LINE
  5
204C
  8
AM_BOR
 10
198.86851880399371
 20
17.886744577931989
 30
0.0
 11
203.2337455721775
 21
13.521517809748619
 31
0.0
  0
LINE
  5
204D
  8
AM_BOR
 10
198.8685188039936
 20
17.866715351316039
 30
0.0
 11
198.86851880399399
 21
14.128964361178911
 31
0.0
  0
LINE
  5
204E
  8
AM_BOR
 10
204.7045172738834
 20
17.866715326469411
 30
0.0
 11
204.70451727388391
 21
14.181128845625549
 31
0.0
  0
LINE
  5
204F
  8
AM_BOR
 10
204.20428883360731
 20
17.793010290175861
 30
0.0
 11
204.204288833607
 21
14.69861035774108
 31
0.0
  0
LINE
  5
2050
  8
AM_BOR
 10
199.3687472442698
 20
17.176052465333349
 30
0.0
 11
199.36874724427059
 21
14.197800355103411
 31
0.0
  0
LINE
  5
2051
  8
AM_BOR
 10
200.43756462039269
 20
18.46533457095553
 30
0.0
 11
204.20428883360731
 21
14.69861035774052
 31
0.0
  0
LINE
  5
2052
  8
AM_BOR
 10
199.36874724426971
 20
17.17605246533255
 30
0.0
 11
203.02713287203409
 21
13.51766683756852
 31
0.0
  0
ARC
  5
2053
  8
AM_BOR
 10
198.36829036868701
 20
17.866715351316049
 30
0.0
 40
0.5002284402762121
 50
0.0
 51
50.265515568291427
  0
ARC
  5
2054
  8
AM_BOR
 10
198.36829034384081
 20
14.12896436117892
 30
0.0
 40
0.5002284402762121
 50
304.69759678405279
 51
0.0
  0
ARC
  5
2055
  8
AM_BOR
 10
205.20474573403669
 20
17.866715326469411
 30
0.0
 40
0.5002284402762121
 50
127.0284887689633
 51
180.00000500895629
  0
ARC
  5
2056
  8
AM_BOR
 10
203.53731756996689
 20
17.793010290175818
 30
0.0
 40
0.6669712537016159
 50
0.0
 51
74.714823568866152
  0
ARC
  5
2057
  8
AM_BOR
 10
200.03571849797169
 20
14.197800355103389
 30
0.0
 40
0.6669712537016159
 50
180.00000500895629
 51
256.4857883914604
  0
LINE
  5
2058
  8
AM_BOR
 10
210.95737277733619
 20
15.993445664994679
 30
0.0
 11
210.9224749062999
 21
16.211434571273589
 31
0.0
  0
LINE
  5
2059
  8
AM_BOR
 10
210.92247490629941
 20
16.211434571273411
 30
0.0
 11
210.8180468870608
 21
16.42776445035037
 31
0.0
  0
LINE
  5
205A
  8
AM_BOR
 10
210.8180468870604
 20
16.42776445035037
 30
0.0
 11
210.64488347990149
 21
16.640788901221669
 31
0.0
  0
LINE
  5
205B
  8
AM_BOR
 10
210.6448834799013
 20
16.640788901221619
 30
0.0
 11
210.40430256290981
 21
16.848886679188759
 31
0.0
  0
LINE
  5
205C
  8
AM_BOR
 10
210.40430256290949
 20
16.848886679189
 30
0.0
 11
210.0981351021297
 21
17.050474034508689
 31
0.0
  0
LINE
  5
205D
  8
AM_BOR
 10
210.09813510212999
 20
17.05047403450855
 30
0.0
 11
209.7287112168076
 21
17.244016765685139
 31
0.0
  0
LINE
  5
205E
  8
AM_BOR
 10
209.72871121680711
 20
17.24401676568521
 30
0.0
 11
209.29884244577369
 21
17.428041895669988
 31
0.0
  0
LINE
  5
205F
  8
AM_BOR
 10
209.29884244577369
 20
17.428041895670081
 30
0.0
 11
208.81180034993889
 21
17.601148882106369
 31
0.0
  0
LINE
  5
2060
  8
AM_BOR
 10
208.81180034993889
 20
17.60114888210644
 30
0.0
 11
208.27129161373591
 21
17.76202027630297
 31
0.0
  0
LINE
  5
2061
  8
AM_BOR
 10
208.27129161373611
 20
17.76202027630309
 30
0.0
 11
207.68142983501551
 21
17.909431749813081
 31
0.0
  0
LINE
  5
2062
  8
AM_BOR
 10
207.68142983501531
 20
17.90943174981297
 30
0.0
 11
207.04670421808169
 21
18.042261412313358
 31
0.0
  0
LINE
  5
2063
  8
AM_BOR
 10
207.04670421808169
 20
18.04226141231344
 30
0.0
 11
206.37194540813729
 21
18.15949834986797
 31
0.0
  0
LINE
  5
2064
  8
AM_BOR
 10
206.37194540813749
 20
18.159498349867881
 30
0.0
 11
205.66228872715681
 21
18.260250318592298
 31
0.0
  0
LINE
  5
2065
  8
AM_BOR
 10
205.66228872715661
 20
18.260250318592369
 30
0.0
 11
205.02242374599979
 21
18.33253416039674
 31
0.0
  0
LINE
  5
2066
  8
AM_BOR
 10
205.02242374599939
 20
18.332534160396779
 30
0.0
 11
204.92313509098369
 21
18.343750535168819
 31
0.0
  0
LINE
  5
2067
  8
AM_BOR
 10
204.92313509098369
 20
18.343750535168748
 30
0.0
 11
204.16010990510409
 21
18.409363512530259
 31
0.0
  0
LINE
  5
2068
  8
AM_BOR
 10
204.1601099051048
 20
18.409363512530259
 30
0.0
 11
203.71314686010501
 21
18.436387872932471
 31
0.0
  0
LINE
  5
2069
  8
AM_BOR
 10
200.43756462039249
 20
18.465334570955569
 30
0.0
 11
200.19401582596791
 21
18.45658989630088
 31
0.0
  0
LINE
  5
206A
  8
AM_BOR
 10
200.19401582596799
 20
18.456589896300901
 30
0.0
 11
199.41292617277259
 21
18.409363512530309
 31
0.0
  0
LINE
  5
206B
  8
AM_BOR
 10
199.41292617277259
 20
18.409363512530248
 30
0.0
 11
198.64990098689299
 21
18.343750535168759
 31
0.0
  0
LINE
  5
206C
  8
AM_BOR
 10
198.5506123731563
 20
18.332534165059979
 30
0.0
 11
197.9107473507209
 21
18.260250318592469
 31
0.0
  0
LINE
  5
206D
  8
AM_BOR
 10
198.64990098689299
 20
18.343750535168791
 30
0.0
 11
198.5506123731563
 21
18.332534165059919
 31
0.0
  0
LINE
  5
206E
  8
AM_BOR
 10
197.91074735072121
 20
18.26025031859243
 30
0.0
 11
197.20109066974049
 21
18.159498349868041
 31
0.0
  0
LINE
  5
206F
  8
AM_BOR
 10
197.20109066974041
 20
18.159498349868091
 30
0.0
 11
196.52633185979579
 21
18.042261412313529
 31
0.0
  0
LINE
  5
2070
  8
AM_BOR
 10
196.5263318597959
 20
18.042261412313589
 30
0.0
 11
195.89160624286239
 21
17.909431749813219
 31
0.0
  0
LINE
  5
2071
  8
AM_BOR
 10
195.89160624286171
 20
17.90943174981302
 30
0.0
 11
195.30174446414119
 21
17.762020276303058
 31
0.0
  0
LINE
  5
2072
  8
AM_BOR
 10
195.301744464141
 20
17.762020276303161
 30
0.0
 11
194.76123572793779
 21
17.60114888210661
 31
0.0
  0
LINE
  5
2073
  8
AM_BOR
 10
194.76123572793779
 20
17.60114888210656
 30
0.0
 11
194.27419363210299
 21
17.428041895670152
 31
0.0
  0
LINE
  5
2074
  8
AM_BOR
 10
194.27419363210339
 20
17.428041895670152
 30
0.0
 11
193.84432486106959
 21
17.244016765685259
 31
0.0
  0
LINE
  5
2075
  8
AM_BOR
 10
193.84432486106959
 20
17.24401676568521
 30
0.0
 11
193.4749009757472
 21
17.05047403450865
 31
0.0
  0
LINE
  5
2076
  8
AM_BOR
 10
193.4749009757472
 20
17.050474034508671
 30
0.0
 11
193.16873351496719
 21
16.848886679188929
 31
0.0
  0
LINE
  5
2077
  8
AM_BOR
 10
193.1687335149673
 20
16.848886679188951
 30
0.0
 11
192.92815259797499
 21
16.640788901221619
 31
0.0
  0
LINE
  5
2078
  8
AM_BOR
 10
192.9281525979753
 20
16.640788901221811
 30
0.0
 11
192.75498919081639
 21
16.42776445035042
 31
0.0
  0
LINE
  5
2079
  8
AM_BOR
 10
192.75498919081639
 20
16.427764450350349
 30
0.0
 11
192.65056117157769
 21
16.211434571273479
 31
0.0
  0
LINE
  5
207A
  8
AM_BOR
 10
192.65056117157789
 20
16.211434571273731
 30
0.0
 11
192.61566330054151
 21
15.993445664994679
 31
0.0
  0
LINE
  5
207B
  8
AM_BOR
 10
192.61566330054069
 20
15.99344566499464
 30
0.0
 11
192.65056117157721
 21
15.775456758715791
 31
0.0
  0
LINE
  5
207C
  8
AM_BOR
 10
192.65056117157769
 20
15.775456758715929
 30
0.0
 11
192.7549891908163
 21
15.55912687963913
 31
0.0
  0
LINE
  5
207D
  8
AM_BOR
 10
192.75498919081639
 20
15.559126879639029
 30
0.0
 11
192.9281525979753
 21
15.34610242876764
 31
0.0
  0
LINE
  5
207E
  8
AM_BOR
 10
192.9281525979751
 20
15.34610242876769
 30
0.0
 11
193.16873351496719
 21
15.1380046508005
 31
0.0
  0
LINE
  5
207F
  8
AM_BOR
 10
193.1687335149669
 20
15.1380046508005
 30
0.0
 11
193.47490097574689
 21
14.93641729548081
 31
0.0
  0
LINE
  5
2080
  8
AM_BOR
 10
193.47490097574729
 20
14.936417295480711
 30
0.0
 11
193.84432486106959
 21
14.742874564304079
 31
0.0
  0
LINE
  5
2081
  8
AM_BOR
 10
193.84432486106951
 20
14.74287456430417
 30
0.0
 11
194.27419363210271
 21
14.558849434319351
 31
0.0
  0
LINE
  5
2082
  8
AM_BOR
 10
194.27419363210319
 20
14.558849434319439
 30
0.0
 11
194.7612357279379
 21
14.38574244788296
 31
0.0
  0
LINE
  5
2083
  8
AM_BOR
 10
194.76123572793779
 20
14.38574244788277
 30
0.0
 11
195.301744464141
 21
14.22487105368617
 31
0.0
  0
LINE
  5
2084
  8
AM_BOR
 10
195.301744464141
 20
14.224871053686311
 30
0.0
 11
195.891606242862
 21
14.077459580176351
 31
0.0
  0
LINE
  5
2085
  8
AM_BOR
 10
195.89160624286191
 20
14.077459580176219
 30
0.0
 11
196.52633185979579
 21
13.94462991767579
 31
0.0
  0
LINE
  5
2086
  8
AM_BOR
 10
196.52633185979539
 20
13.944629917675821
 30
0.0
 11
197.2010906697397
 21
13.827392980121321
 31
0.0
  0
LINE
  5
2087
  8
AM_BOR
 10
197.20109066974049
 20
13.82739298012133
 30
0.0
 11
197.9107473507209
 21
13.726641011397049
 31
0.0
  0
LINE
  5
2088
  8
AM_BOR
 10
197.9107473507205
 20
13.72664101139711
 30
0.0
 11
198.5412166771807
 21
13.655418571666219
 31
0.0
  0
LINE
  5
2089
  8
AM_BOR
 10
198.54121667717999
 20
13.65541857166625
 30
0.0
 11
198.64990098689259
 21
13.643140794820731
 31
0.0
  0
LINE
  5
208A
  8
AM_BOR
 10
198.6499009868929
 20
13.643140794820679
 30
0.0
 11
199.41292617277259
 21
13.57752781745919
 31
0.0
  0
LINE
  5
208B
  8
AM_BOR
 10
199.41292617277259
 20
13.577527817459201
 30
0.0
 11
199.8798563250744
 21
13.54929620220682
 31
0.0
  0
LINE
  5
208C
  8
AM_BOR
 10
203.0271328720325
 20
13.51766683756999
 30
0.0
 11
203.37902025190911
 21
13.530301433688649
 31
0.0
  0
LINE
  5
208D
  8
AM_BOR
 10
203.3790202519092
 20
13.530301433688599
 30
0.0
 11
204.16010990510441
 21
13.57752781745919
 31
0.0
  0
LINE
  5
208E
  8
AM_BOR
 10
204.70451727388399
 20
13.624341722195579
 30
0.0
 11
204.9231350909844
 21
13.64314079482075
 31
0.0
  0
LINE
  5
208F
  8
AM_BOR
 10
204.16010990510441
 20
13.57752781745917
 30
0.0
 11
204.70451727388379
 21
13.62434172219551
 31
0.0
  0
LINE
  5
2090
  8
AM_BOR
 10
204.92313509098409
 20
13.643140794820759
 30
0.0
 11
205.66228872715669
 21
13.726641011397151
 31
0.0
  0
LINE
  5
2091
  8
AM_BOR
 10
205.66228872715661
 20
13.72664101139711
 30
0.0
 11
206.37194540813709
 21
13.827392980121401
 31
0.0
  0
LINE
  5
2092
  8
AM_BOR
 10
206.37194540813749
 20
13.82739298012145
 30
0.0
 11
207.04670421808191
 21
13.94462991767594
 31
0.0
  0
LINE
  5
2093
  8
AM_BOR
 10
207.04670421808169
 20
13.94462991767597
 30
0.0
 11
207.68142983501559
 21
14.07745958017637
 31
0.0
  0
LINE
  5
2094
  8
AM_BOR
 10
207.68142983501551
 20
14.07745958017629
 30
0.0
 11
208.27129161373611
 21
14.22487105368625
 31
0.0
  0
LINE
  5
2095
  8
AM_BOR
 10
208.2712916137362
 20
14.224871053686289
 30
0.0
 11
208.81180034993929
 21
14.38574244788289
 31
0.0
  0
LINE
  5
2096
  8
AM_BOR
 10
208.81180034993929
 20
14.385742447882921
 30
0.0
 11
209.29884244577411
 21
14.558849434319351
 31
0.0
  0
LINE
  5
2097
  8
AM_BOR
 10
209.298842445774
 20
14.55884943431932
 30
0.0
 11
209.72871121680751
 21
14.74287456430422
 31
0.0
  0
LINE
  5
2098
  8
AM_BOR
 10
209.72871121680711
 20
14.742874564304151
 30
0.0
 11
210.0981351021297
 21
14.93641729548083
 31
0.0
  0
LINE
  5
2099
  8
AM_BOR
 10
210.09813510212999
 20
14.93641729548081
 30
0.0
 11
210.40430256290989
 21
15.13800465080036
 31
0.0
  0
LINE
  5
209A
  8
AM_BOR
 10
210.40430256291
 20
15.13800465080055
 30
0.0
 11
210.64488347990201
 21
15.346102428767731
 31
0.0
  0
LINE
  5
209B
  8
AM_BOR
 10
210.64488347990169
 20
15.34610242876783
 30
0.0
 11
210.8180468870608
 21
15.559126879639029
 31
0.0
  0
LINE
  5
209C
  8
AM_BOR
 10
210.81804688706069
 20
15.559126879639059
 30
0.0
 11
210.92247490629899
 21
15.77545675871586
 31
0.0
  0
LINE
  5
209D
  8
AM_BOR
 10
210.92247490629981
 20
15.775456758715791
 30
0.0
 11
210.95737277733619
 21
15.993445664994621
 31
0.0
  0
LINE
  5
209E
  8
AM_BOR
 10
199.10514248704791
 20
18.382897015254191
 30
0.0
 11
203.92474251077411
 21
13.563296991527499
 31
0.0
  0
ARC
  5
209F
  8
AM_BOR
 10
205.2047457141602
 20
14.181128845625549
 30
0.0
 40
0.5002284402762121
 50
180.0
 51
244.5184856857075
  0
LINE
  5
20A0
  8
AM_BOR
 10
199.36521928176651
 20
18.405261169360589
 30
0.0
 11
204.19035209062989
 21
13.58012836049622
 31
0.0
  0
LINE
  5
20A1
  8
AM_BOR
 10
199.630408435547
 20
18.422512964405719
 30
0.0
 11
204.450428885349
 21
13.602492514602771
 31
0.0
  0
LINE
  5
20A2
  8
AM_BOR
 10
199.8967460324557
 20
18.438616316322719
 30
0.0
 11
204.70776895023289
 21
13.62759339854461
 31
0.0
  0
LINE
  5
20A3
  8
AM_BOR
 10
200.16308362936431
 20
18.454719668239761
 30
0.0
 11
204.9488987968831
 21
13.66890450072008
 31
0.0
  0
LINE
  5
20A4
  8
AM_BOR
 10
198.8450656923284
 20
18.36053286114759
 30
0.0
 11
203.6584049138651
 21
13.547193639610409
 31
0.0
  0
LINE
  5
20A5
  8
AM_BOR
 10
198.7943784573331
 20
18.12877914731807
 30
0.0
 11
203.39206731695711
 21
13.53109028769336
 31
0.0
  0
LINE
  5
20A6
  8
AM_BOR
 10
199.01830573664321
 20
18.375429872827009
 30
0.0
 11
199.01830573664321
 21
13.61146145716244
 31
0.0
  0
LINE
  5
20A7
  8
AM_BOR
 10
199.2180216468426
 20
18.39260355953768
 30
0.0
 11
199.2180216468426
 21
13.594287770451791
 31
0.0
  0
LINE
  5
20A8
  8
AM_BOR
 10
204.55473034123381
 20
18.375429872826999
 30
0.0
 11
204.55473034123381
 21
13.61146145716245
 31
0.0
  0
LINE
  5
20A9
  8
AM_BOR
 10
204.35501443103459
 20
18.39260355953764
 30
0.0
 11
204.35501443103459
 21
13.594287770451791
 31
0.0
  0
LINE
  5
20AA
  8
AM_BOR
 62
     4
 10
-0.0000001316067255
 20
15.000000173111291
 30
0.0
 11
190.49999986839319
 21
15.000000173111291
 31
0.0
  0
LINE
  5
20AB
  8
AM_BOR
 62
     4
 10
276.49999986839327
 20
28.000000173111289
 30
0.0
 11
276.49999986839327
 21
0.000000173111296
 31
0.0
  0
LINE
  5
20AC
  8
AM_BOR
 62
     4
 10
-0.0000001316067255
 20
15.000000173111291
 30
0.0
 11
-0.0000001316067255
 21
0.000000173111296
 31
0.0
  0
LINE
  5
20AD
  8
AM_BOR
 62
     4
 10
-0.0000001316067255
 20
28.000000173111289
 30
0.0
 11
276.49999986839327
 21
28.000000173111289
 31
0.0
  0
LINE
  5
20AE
  8
AM_BOR
 62
     4
 10
15.999999868393269
 20
15.000000173111291
 30
0.0
 11
15.999999868393269
 21
0.000000173111296
 31
0.0
  0
TEXT
  5
20AF
  8
AM_BOR
 62
     4
 10
215.17999986839331
 20
10.000000173111291
 30
0.0
 40
1.5
  1
NAKANISHI　INDUSTRIAL CO., LTD.
 41
1.5
  0
TEXT
  5
20B0
  8
AM_BOR
 62
     3
 10
213.19999986839329
 20
13.500000173111291
 30
0.0
 40
5.5
  1
中西産業株式会社
 41
1.1999999999999991
  0
TEXT
  5
20B1
  8
AM_BOR
 62
     4
 10
196.192787937406
 20
10.000000173111291
 30
0.0
 40
1.5
  1
Nakanishi
 41
1.1999999999999991
  0
TEXT
  5
20B2
  8
AM_BOR
 62
     7
 10
98.104999768257457
 20
15.650000185032219
 30
0.0
 40
1.0
  1
FINISH
 41
1.6000000000000001
  0
TEXT
  5
20B3
  8
AM_BOR
 62
     7
 10
96.979999708652798
 20
17.700000220795008
 30
0.0
 40
2.7999999999999989
  1
仕　　上
  0
TEXT
  5
20B4
  8
AM_BOR
 62
     7
 10
3.1549997801784002
 20
15.650000185032219
 30
0.0
 40
1.0
  1
MATERIAL
 41
1.6000000000000001
  0
TEXT
  5
20B5
  8
AM_BOR
 62
     7
 10
1.729999708652826
 20
17.700000220795008
 30
0.0
 40
2.7999999999999989
  1
材　　質
  0
LINE
  5
20B6
  8
AM_BOR
 62
     4
 10
190.49999986839319
 20
28.000000173111289
 30
0.0
 11
190.49999986839319
 21
0.000000173111296
 31
0.0
  0
LINE
  5
20B7
  8
AM_BOR
 62
     4
 10
-0.0000001316067255
 20
28.000000173111289
 30
0.0
 11
-0.0000001316067255
 21
15.000000173111291
 31
0.0
  0
LINE
  5
20B8
  8
AM_BOR
 62
     4
 10
-0.0000001316067255
 20
21.500000173111289
 30
0.0
 11
190.49999986839319
 21
21.500000173111289
 31
0.0
  0
LINE
  5
20B9
  8
AM_BOR
 62
     4
 10
15.999999868393269
 20
28.000000173111289
 30
0.0
 11
15.999999868393269
 21
15.000000173111291
 31
0.0
  0
TEXT
  5
20BA
  8
AM_BOR
 62
     7
 10
98.104999768257457
 20
22.150000185032219
 30
0.0
 40
1.0
  1
ART. NO.
 41
1.6000000000000001
  0
TEXT
  5
20BB
  8
AM_BOR
 62
     7
 10
96.979999708652684
 20
24.200000220795008
 30
0.0
 40
2.7999999999999989
  1
品　　番
  0
TEXT
  5
20BC
  8
AM_BOR
 62
     7
 10
3.1549997801784002
 20
22.150000185032219
 30
0.0
 40
1.0
  1
ARTICLE
 41
1.6000000000000001
  0
TEXT
  5
20BD
  8
AM_BOR
 62
     7
 10
1.7299997086527119
 20
24.200000220795008
 30
0.0
 40
2.7999999999999989
  1
品　　名
  0
LINE
  5
20BE
  8
AM_BOR
 62
     4
 10
-0.0000001316067255
 20
15.000000173111291
 30
0.0
 11
-0.0000001316067255
 21
0.0000001731112924
 31
0.0
  0
LINE
  5
20BF
  8
AM_BOR
 62
     4
 10
95.249999868393246
 20
28.000000173111289
 30
0.0
 11
95.249999868393246
 21
0.000000173111296
 31
0.0
  0
TEXT
  5
20C0
  8
AM_BOR
 62
     7
 10
3.1549997801784002
 20
9.1500001850322192
 30
0.0
 40
1.0
  1
REMARKS
 41
1.6000000000000001
  0
TEXT
  5
20C1
  8
AM_BOR
 62
     7
 10
1.7299997086527119
 20
11.20000022079501
 30
0.0
 40
2.7999999999999989
  1
備　　考
  0
LINE
  5
20C2
  8
AM_BOR
 62
     4
 10
111.2499998683932
 20
28.000000173111289
 30
0.0
 11
111.2499998683932
 21
0.000000173111296
 31
0.0
  0
LINE
  5
20C3
  8
AM_BOR
 62
     4
 10
-0.0000001316067255
 20
0.000000173111296
 30
0.0
 11
276.49999986839327
 21
0.000000173111296
 31
0.0
  0
TEXT
  5
20C4
  8
AM_BOR
 62
     7
 10
98.404999780178386
 20
9.1500001850322157
 30
0.0
 40
1.0
  1
SETS
 41
1.6000000000000001
  0
TEXT
  5
20C5
  8
AM_BOR
 62
     7
 10
96.979999708652684
 20
11.20000022079501
 30
0.0
 40
2.7999999999999989
  1
セット品
  0
ATTDEF
  5
20C6
  8
AM_BOR
 62
     7
 10
114.3107095753831
 20
0.5000001731112853
 30
0.0
 40
3.0
  1

 11
114.3107095753831
 21
2.0000001731112849
 31
0.0
  3
セット
  2
SETS｛20｝
 70
     0
 74
     2
1001
ACADANNOTATIVE
1000
AnnotativeData
1002
{
1070
     1
1070
     0
1002
}
1001
AcDbAttr
1070
     0
1070
     1
  0
ATTDEF
  5
20CA
  8
AM_BOR
 62
     7
 10
19.060709575383161
 20
0.5000001731112889
 30
0.0
 40
3.0
  1

 11
19.060709575383161
 21
2.000000173111288
 31
0.0
  3
備　　考
  2
REMARKS｛20｝
 70
     0
 74
     2
1001
ACADANNOTATIVE
1000
AnnotativeData
1002
{
1070
     1
1070
     0
1002
}
1001
AcDbAttr
1070
     0
1070
     1
  0
ATTDEF
  5
20CE
  8
AM_BOR
 62
     7
 10
114.3107095753831
 20
5.5000001731112853
 30
0.0
 40
3.0
  1

 11
114.3107095753831
 21
7.0000001731112853
 31
0.0
  3
セット
  2
SETS｛20｝
 70
     0
 74
     2
1001
ACADANNOTATIVE
1000
AnnotativeData
1002
{
1070
     1
1070
     0
1002
}
1001
AcDbAttr
1070
     0
1070
     1
  0
ATTDEF
  5
20D2
  8
AM_BOR
 62
     7
 10
19.060709575383161
 20
5.500000173111288
 30
0.0
 40
3.0
  1

 11
19.060709575383161
 21
7.000000173111288
 31
0.0
  3
備　　考
  2
REMARKS｛20｝
 70
     0
 74
     2
1001
ACADANNOTATIVE
1000
AnnotativeData
1002
{
1070
     1
1070
     0
1002
}
1001
AcDbAttr
1070
     0
1070
     1
  0
ATTDEF
  5
20D6
  8
AM_BOR
 62
     7
 10
114.3107095753831
 20
10.50000017311128
 30
0.0
 40
3.0
  1

 11
114.3107095753831
 21
12.00000017311128
 31
0.0
  3
セット
  2
SETS｛20｝
 70
     0
 74
     2
1001
ACADANNOTATIVE
1000
AnnotativeData
1002
{
1070
     1
1070
     0
1002
}
1001
AcDbAttr
1070
     0
1070
     1
  0
ATTDEF
  5
20DA
  8
AM_BOR
 62
     7
 10
19.060709575383161
 20
10.500000173111291
 30
0.0
 40
3.0
  1

 11
19.060709575383161
 21
12.000000173111291
 31
0.0
  3
備　　考
  2
REMARKS｛20｝
 70
     0
 74
     2
1001
ACADANNOTATIVE
1000
AnnotativeData
1002
{
1070
     1
1070
     0
1002
}
1001
AcDbAttr
1070
     0
1070
     1
  0
ATTDEF
  5
20DE
  8
AM_BOR
 62
     7
 10
114.2499998683932
 20
23.500000173111289
 30
0.0
 40
3.0
  1

 11
114.2499998683932
 21
25.000000173111289
 31
0.0
  3
品    番
  2
ART_NO｛20｝
 70
     0
 74
     2
1001
ACADANNOTATIVE
1000
AnnotativeData
1002
{
1070
     1
1070
     0
1002
}
1001
AcDbAttr
1070
     0
1070
     1
  0
ATTDEF
  5
20E2
  8
AM_BOR
 62
     7
 10
18.999999868393271
 20
23.500000173111289
 30
0.0
 40
3.0
  1

 11
18.999999868393271
 21
25.000000173111289
 31
0.0
  3
品    名
  2
ARTICLE｛20｝
 70
     0
 74
     2
1001
ACADANNOTATIVE
1000
AnnotativeData
1002
{
1070
     1
1070
     0
1002
}
1001
AcDbAttr
1070
     0
1070
     1
  0
ATTDEF
  5
20E6
  8
AM_BOR
 62
     7
 10
114.2499998683932
 20
17.000000173111289
 30
0.0
 40
3.0
  1

 11
114.2499998683932
 21
18.500000173111289
 31
0.0
  3
仕上
  2
FINISH｛20｝
 70
     0
 74
     2
1001
ACADANNOTATIVE
1000
AnnotativeData
1002
{
1070
     1
1070
     0
1002
}
1001
AcDbAttr
1070
     0
1070
     1
  0
ATTDEF
  5
20EA
  8
AM_BOR
 62
     7
 10
18.999999868393271
 20
17.000000173111289
 30
0.0
 40
3.0
  1

 11
18.999999868393271
 21
18.500000173111289
 31
0.0
  3
材　　質
  2
MATERIAK｛20｝
 70
     0
 74
     2
1001
ACADANNOTATIVE
1000
AnnotativeData
1002
{
1070
     1
1070
     0
1002
}
1001
AcDbAttr
1070
     0
1070
     1
  0
ENDBLK
  5
20F1
  8
0
  0
BLOCK
  8
0
  2
ZUWAKU-A3H
 70
     0
 10
0.0
 20
0.0
 30
0.0
  3
ZUWAKU-A3H
  1

  0
LINE
  5
29DD
  8
AM_BOR
 62
     3
 10
24.999999999999989
 20
284.99999999999977
 30
0.0
 11
24.999999999999979
 21
9.0
 31
0.0
  0
LINE
  5
29DE
  8
AM_BOR
 62
     3
 10
411.99999999999989
 20
284.99999999999989
 30
0.0
 11
25.0
 21
284.99999999999989
 31
0.0
  0
LINE
  5
29DF
  8
AM_BOR
 62
     3
 10
411.99999999999989
 20
284.99999999999989
 30
0.0
 11
411.99999999999989
 21
9.0
 31
0.0
  0
LINE
  5
29E0
  8
AM_BOR
 62
     3
 10
24.999999999999989
 20
8.9999999999999964
 30
0.0
 11
411.99999999999972
 21
8.9999999999999964
 31
0.0
  0
TEXT
  5
29E1
  8
SYS-TEISEI0
  6
CONTINUOUS
 62
     3
 10
144.38500001765789
 20
14.950000047683719
 30
0.0
 40
3.099999904632567
  1
 
  0
TEXT
  5
29E2
  8
SYS-TEISEI0
  6
CONTINUOUS
 62
     3
 10
169.88500004447991
 20
14.950000047683719
 30
0.0
 40
3.099999904632567
  1
 
  0
TEXT
  5
29E3
  8
SYS-TEISEI0
  6
CONTINUOUS
 62
     3
 10
229.24499995708459
 20
14.950000047683719
 30
0.0
 40
3.099999904632567
  1
 
  0
TEXT
  5
29E4
  8
SYS-TEISEI0
  6
CONTINUOUS
 62
     3
 10
236.9449999570846
 20
14.950000047683719
 30
0.0
 40
3.099999904632567
  1
 
  0
TEXT
  5
29E5
  8
SYS-TEISEI0
  6
CONTINUOUS
 62
     3
 10
144.38500001765789
 20
19.950000047683719
 30
0.0
 40
3.099999904632567
  1
 
  0
TEXT
  5
29E6
  8
SYS-TEISEI0
  6
CONTINUOUS
 62
     3
 10
169.88500004447991
 20
19.950000047683719
 30
0.0
 40
3.099999904632567
  1
 
  0
TEXT
  5
29E7
  8
SYS-TEISEI0
  6
CONTINUOUS
 62
     3
 10
229.24499995708459
 20
19.950000047683719
 30
0.0
 40
3.099999904632567
  1
 
  0
TEXT
  5
29E8
  8
SYS-TEISEI0
  6
CONTINUOUS
 62
     3
 10
236.9449999570846
 20
19.950000047683719
 30
0.0
 40
3.099999904632567
  1
 
  0
TEXT
  5
29E9
  8
SYS-TEISEI0
  6
CONTINUOUS
 62
     3
 10
144.38500001765789
 20
24.950000047683719
 30
0.0
 40
3.099999904632567
  1
 
  0
TEXT
  5
29EA
  8
SYS-TEISEI0
  6
CONTINUOUS
 62
     3
 10
169.88500004447991
 20
24.950000047683719
 30
0.0
 40
3.099999904632567
  1
 
  0
TEXT
  5
29EB
  8
SYS-TEISEI0
  6
CONTINUOUS
 62
     3
 10
229.24499995708459
 20
24.950000047683719
 30
0.0
 40
3.099999904632567
  1
 
  0
TEXT
  5
29EC
  8
SYS-TEISEI0
  6
CONTINUOUS
 62
     3
 10
236.9449999570846
 20
24.950000047683719
 30
0.0
 40
3.099999904632567
  1
 
  0
TEXT
  5
29ED
  8
AM_BOR
 10
24.999999999999989
 20
9.0
 30
0.0
 40
5.0
  1
!GENTITLE-LL
  0
TEXT
  5
29EE
  8
AM_BOR
 10
411.99999999999989
 20
9.0
 30
0.0
 40
5.0
  1
!GENTITLE-INSERT
  0
TEXT
  5
29EF
  8
AM_BOR
 10
411.99999999999989
 20
284.99999999999989
 30
0.0
 40
5.0
  1
!GENTITLE-RU
  0
TEXT
  5
29F0
  8
AM_BOR
 10
420.0
 20
297.0
 30
0.0
 40
5.0
  1
!GENTITLE-MAX
  0
ENDBLK
  5
29F2
  8
0
  0
BLOCK
  8
0
  2
_ACMFILLEDHALF
 70
     0
 10
0.0
 20
0.0
 30
0.0
  3
_ACMFILLEDHALF
  1

  0
TRACE
  5
32A5
  8
0
 62
     0
 10
-0.8
 20
0.0
 30
0.0
 11
-1.0
 21
0.166666666
 31
0.0
 12
0.0
 22
0.0
 32
0.0
 13
0.0
 23
0.0
 33
0.0
  0
LINE
  5
32A6
  8
0
 62
     0
 10
-1.0
 20
0.0
 30
0.0
 11
-0.8
 21
0.0
 31
0.0
  0
ENDBLK
  5
32A4
  8
0
  0
BLOCK
  8
0
  2
_ACMFILLED
 70
     0
 10
0.0
 20
0.0
 30
0.0
  3
_ACMFILLED
  1

  0
TRACE
  5
32B1
  8
0
 62
     0
 10
-1.0
 20
-0.166666666
 30
0.0
 11
-1.0
 21
0.166666666
 31
0.0
 12
0.0
 22
0.0
 32
0.0
 13
0.0
 23
0.0
 33
0.0
  0
ENDBLK
  5
32B0
  8
0
  0
BLOCK
  8
0
  2
_ACMOPEN15
 70
     0
 10
0.0
 20
0.0
 30
0.0
  3
_ACMOPEN15
  1

  0
LINE
  5
32BB
  8
0
 62
     0
 10
-1.0
 20
0.0
 30
0.0
 11
0.0
 21
0.0
 31
0.0
  0
LINE
  5
32BC
  8
0
 62
     0
 10
-1.0
 20
-0.131652497
 30
0.0
 11
0.0
 21
0.0
 31
0.0
  0
LINE
  5
32BD
  8
0
 62
     0
 10
0.0
 20
0.0
 30
0.0
 11
-1.0
 21
0.131652497
 31
0.0
  0
ENDBLK
  5
32BA
  8
0
  0
BLOCK
  8
0
  2
_ACMFILLED15
 70
     0
 10
0.0
 20
0.0
 30
0.0
  3
_ACMFILLED15
  1

  0
TRACE
  5
32C9
  8
0
 62
     0
 10
-1.0
 20
-0.131652497
 30
0.0
 11
-1.0
 21
0.131652497
 31
0.0
 12
0.0
 22
0.0
 32
0.0
 13
0.0
 23
0.0
 33
0.0
  0
ENDBLK
  5
32C8
  8
0
  0
BLOCK
  8
0
  2
GENDOT
 70
     0
 10
0.0
 20
0.0
 30
0.0
  3
GENDOT
  1

  0
LINE
  5
769A
  8
0
 10
0.0
 20
0.0
 30
0.0
 11
-1.0
 21
0.0
 31
0.0
  0
POLYLINE
  5
769B
  8
0
 66
     1
 10
0.0
 20
0.0
 30
0.0
 70
     1
 40
0.25
 41
0.25
  0
VERTEX
  5
A47D
  8
0
 10
-0.125
 20
0.0
 30
0.0
 42
1.0
  0
VERTEX
  5
A47E
  8
0
 10
0.125
 20
0.0
 30
0.0
 42
1.0
  0
SEQEND
  5
A47F
  8
0
  0
ENDBLK
  5
769D
  8
0
  0
BLOCK
  8
0
  2
*D14
 70
     1
 10
0.0
 20
0.0
 30
0.0
  3
*D14
  1

  0
LINE
  5
A1AF
  8
AM_5
  6
CONTINUOUS
 62
     7
 10
210.6218313856283
 20
157.49873080990281
 30
0.0
 11
210.6218313856283
 21
173.19766664955529
 31
0.0
  0
LINE
  5
A1B0
  8
AM_5
  6
CONTINUOUS
 62
     7
 10
203.1218313856283
 20
157.49873080990281
 30
0.0
 11
203.1218313856283
 21
173.19766664955529
 31
0.0
  0
LINE
  5
A1B1
  8
AM_5
  6
CONTINUOUS
 62
     7
 10
208.1218313856283
 20
172.19766664955529
 30
0.0
 11
205.6218313856283
 21
172.19766664955529
 31
0.0
  0
LINE
  5
A1B2
  8
AM_5
  6
CONTINUOUS
 62
     7
 10
203.1218313856283
 20
172.19766664955529
 30
0.0
 11
165.84753054778059
 21
172.19766664955529
 31
0.0
  0
INSERT
  5
A1B3
  8
AM_5
 62
     7
  2
_OPEN30
 10
210.6218313856283
 20
172.19766664955529
 30
0.0
 41
2.5
 42
2.5
 43
2.5
  0
INSERT
  5
A1B4
  8
AM_5
 62
     7
  2
_OPEN30
 10
203.1218313856283
 20
172.19766664955529
 30
0.0
 41
2.5
 42
2.5
 43
2.5
 50
180.0
  0
INSERT
  5
A1B5
  8
0
  2
*U39
 10
0.0
 20
0.0
 30
0.0
  0
POINT
  5
A1B6
  8
DEFPOINTS
 62
     0
 10
210.6218313856283
 20
156.49873080990281
 30
0.0
  0
POINT
  5
A1B7
  8
DEFPOINTS
 62
     0
 10
203.1218313856283
 20
156.49873080990281
 30
0.0
  0
POINT
  5
A1B8
  8
DEFPOINTS
 62
     0
 10
203.1218313856283
 20
172.19766664955529
 30
0.0
  0
ENDBLK
  5
992C
  8
0
  0
BLOCK
  8
0
  2
*D15
 70
     1
 10
0.0
 20
0.0
 30
0.0
  3
*D15
  1

  0
LINE
  5
A480
  8
AM_5
  6
CONTINUOUS
 62
     7
 10
182.3718313856283
 20
157.49873080990281
 30
0.0
 11
182.3718313856283
 21
181.784445095617
 31
0.0
  0
LINE
  5
A481
  8
AM_5
  6
CONTINUOUS
 62
     7
 10
190.3718313856283
 20
125.4987308099028
 30
0.0
 11
190.3718313856283
 21
181.784445095617
 31
0.0
  0
LINE
  5
A482
  8
AM_5
  6
CONTINUOUS
 62
     7
 10
187.8718313856283
 20
180.784445095617
 30
0.0
 11
184.8718313856283
 21
180.784445095617
 31
0.0
  0
LINE
  5
A483
  8
AM_5
  6
CONTINUOUS
 62
     7
 10
182.3718313856283
 20
180.784445095617
 30
0.0
 11
175.8718313856283
 21
180.784445095617
 31
0.0
  0
INSERT
  5
A484
  8
AM_5
 62
     7
  2
GENDOT
 10
190.3718313856283
 20
180.784445095617
 30
0.0
 41
2.5
 42
2.5
 43
2.5
  0
INSERT
  5
A485
  8
AM_5
 62
     7
  2
_OPEN30
 10
182.3718313856283
 20
180.784445095617
 30
0.0
 41
2.5
 42
2.5
 43
2.5
 50
180.0
  0
TEXT
  8
AM_5
  40
3
  5
A518
  62
7
  72
0
  71
0
 10
177.872
 20
179.384
 30
0.000000
  1
8
  0
POINT
  5
A487
  8
DEFPOINTS
 62
     0
 10
182.3718313856283
 20
156.49873080990281
 30
0.0
  0
POINT
  5
A488
  8
DEFPOINTS
 62
     0
 10
190.3718313856283
 20
124.4987308099028
 30
0.0
  0
POINT
  5
A489
  8
DEFPOINTS
 62
     0
 10
190.3718313856283
 20
180.784445095617
 30
0.0
  0
ENDBLK
  5
9991
  8
0
  0
BLOCK
  8
0
  2
*D16
 70
     1
 10
0.0
 20
0.0
 30
0.0
  3
*D16
  1

  0
LINE
  5
A48A
  8
AM_5
  6
CONTINUOUS
 62
     7
 10
192.3718313856283
 20
154.49873080990281
 30
0.0
 11
192.3718313856283
 21
181.784445095617
 31
0.0
  0
LINE
  5
A48B
  8
AM_5
  6
CONTINUOUS
 62
     7
 10
190.3718313856283
 20
125.4987308099028
 30
0.0
 11
190.3718313856283
 21
181.784445095617
 31
0.0
  0
LINE
  5
A48C
  8
AM_5
  6
CONTINUOUS
 62
     7
 10
194.8718313856283
 20
180.784445095617
 30
0.0
 11
197.3718313856283
 21
180.784445095617
 31
0.0
  0
LINE
  5
A48D
  8
AM_5
  6
CONTINUOUS
 62
     7
 10
187.8718313856283
 20
180.784445095617
 30
0.0
 11
185.3718313856283
 21
180.784445095617
 31
0.0
  0
LINE
  5
A48E
  8
AM_5
  6
CONTINUOUS
 62
     7
 10
191.3718313856283
 20
180.784445095617
 30
0.0
 11
188.2619743114499
 21
188.23287432786839
 31
0.0
  0
LINE
  5
A48F
  8
AM_5
  6
CONTINUOUS
 62
     7
 10
188.2619743114499
 20
188.23287432786839
 30
0.0
 11
184.2619743114499
 21
188.23287432786839
 31
0.0
  0
TEXT
  8
AM_5
  40
3
  5
A519
  62
7
  72
0
  71
0
 10
186.262
 20
186.833
 30
0.000000
  1
2
  0
LINE
  5
A491
  8
AM_5
  6
CONTINUOUS
 62
     7
 10
192.3718313856283
 20
180.784445095617
 30
0.0
 11
190.3718313856283
 21
180.784445095617
 31
0.0
  0
LINE
  5
A492
  8
AM_5
  6
CONTINUOUS
 62
     7
 10
192.3718313856283
 20
180.784445095617
 30
0.0
 11
190.3718313856283
 21
180.784445095617
 31
0.0
  0
INSERT
  5
A493
  8
AM_5
 62
     7
  2
_OPEN30
 10
192.3718313856283
 20
180.784445095617
 30
0.0
 41
2.5
 42
2.5
 43
2.5
 50
180.0
  0
INSERT
  5
A494
  8
AM_5
 62
     7
  2
GENDOT
 10
190.3718313856283
 20
180.784445095617
 30
0.0
 41
2.5
 42
2.5
 43
2.5
  0
POINT
  5
A495
  8
DEFPOINTS
 62
     0
 10
192.3718313856283
 20
153.49873080990281
 30
0.0
  0
POINT
  5
A496
  8
DEFPOINTS
 62
     0
 10
190.3718313856283
 20
124.4987308099028
 30
0.0
  0
POINT
  5
A497
  8
DEFPOINTS
 62
     0
 10
190.3718313856283
 20
180.784445095617
 30
0.0
  0
ENDBLK
  5
99C4
  8
0
  0
BLOCK
  8
0
  2
*D17
 70
     1
 10
0.0
 20
0.0
 30
0.0
  3
*D17
  1

  0
LINE
  5
A1D1
  8
AM_5
  6
CONTINUOUS
 62
     7
 10
206.8718313856283
 20
161.90858445811051
 30
0.0
 11
206.8718313856283
 21
181.784445095617
 31
0.0
  0
LINE
  5
A1D2
  8
AM_5
  6
CONTINUOUS
 62
     7
 10
192.3718313856283
 20
154.49873080990281
 30
0.0
 11
192.3718313856283
 21
181.784445095617
 31
0.0
  0
LINE
  5
A1D3
  8
AM_5
  6
CONTINUOUS
 62
     7
 10
204.3718313856283
 20
180.784445095617
 30
0.0
 11
194.8718313856283
 21
180.784445095617
 31
0.0
  0
INSERT
  5
A1D4
  8
AM_5
 62
     7
  2
_OPEN30
 10
206.8718313856283
 20
180.784445095617
 30
0.0
 41
2.5
 42
2.5
 43
2.5
  0
INSERT
  5
A1D5
  8
AM_5
 62
     7
  2
_OPEN30
 10
192.3718313856283
 20
180.784445095617
 30
0.0
 41
2.5
 42
2.5
 43
2.5
 50
180.0
  0
INSERT
  5
A1D6
  8
0
  2
*U40
 10
0.0
 20
0.0
 30
0.0
  0
POINT
  5
A1D7
  8
DEFPOINTS
 62
     0
 10
206.8718313856283
 20
160.90858445811051
 30
0.0
  0
POINT
  5
A1D8
  8
DEFPOINTS
 62
     0
 10
192.3718313856283
 20
153.49873080990281
 30
0.0
  0
POINT
  5
A1D9
  8
DEFPOINTS
 62
     0
 10
192.3718313856283
 20
180.784445095617
 30
0.0
  0
ENDBLK
  5
99FF
  8
0
  0
BLOCK
  8
0
  2
*D18
 70
     1
 10
0.0
 20
0.0
 30
0.0
  3
*D18
  1

  0
LINE
  5
A296
  8
AM_5
  6
CONTINUOUS
 62
     7
 10
221.3718313856283
 20
154.49873080990281
 30
0.0
 11
221.3718313856283
 21
181.784445095617
 31
0.0
  0
LINE
  5
A297
  8
AM_5
  6
CONTINUOUS
 62
     7
 10
206.8718313856283
 20
161.90858445811051
 30
0.0
 11
206.8718313856283
 21
181.784445095617
 31
0.0
  0
LINE
  5
A298
  8
AM_5
  6
CONTINUOUS
 62
     7
 10
218.8718313856283
 20
180.78444509561689
 30
0.0
 11
209.3718313856283
 21
180.78444509561689
 31
0.0
  0
INSERT
  5
A299
  8
AM_5
 62
     7
  2
_OPEN30
 10
221.3718313856283
 20
180.78444509561689
 30
0.0
 41
2.5
 42
2.5
 43
2.5
  0
INSERT
  5
A29A
  8
AM_5
 62
     7
  2
_OPEN30
 10
206.8718313856283
 20
180.78444509561689
 30
0.0
 41
2.5
 42
2.5
 43
2.5
 50
180.0
  0
INSERT
  5
A29B
  8
0
  2
*U52
 10
0.0
 20
0.0
 30
0.0
  0
POINT
  5
A29C
  8
DEFPOINTS
 62
     0
 10
221.3718313856283
 20
153.49873080990281
 30
0.0
  0
POINT
  5
A29D
  8
DEFPOINTS
 62
     0
 10
206.8718313856283
 20
160.90858445811051
 30
0.0
  0
POINT
  5
A29E
  8
DEFPOINTS
 62
     0
 10
206.8718313856283
 20
180.78444509561689
 30
0.0
  0
ENDBLK
  5
9A20
  8
0
  0
BLOCK
  8
0
  2
*D19
 70
     1
 10
0.0
 20
0.0
 30
0.0
  3
*D19
  1

  0
LINE
  5
A498
  8
AM_5
  6
CONTINUOUS
 62
     7
 10
223.3718313856283
 20
125.4987308099028
 30
0.0
 11
223.3718313856283
 21
181.784445095617
 31
0.0
  0
LINE
  5
A499
  8
AM_5
  6
CONTINUOUS
 62
     7
 10
221.3718313856283
 20
154.49873080990281
 30
0.0
 11
221.3718313856283
 21
181.784445095617
 31
0.0
  0
LINE
  5
A49A
  8
AM_5
  6
CONTINUOUS
 62
     7
 10
225.8718313856283
 20
180.784445095617
 30
0.0
 11
228.3718313856283
 21
180.784445095617
 31
0.0
  0
LINE
  5
A49B
  8
AM_5
  6
CONTINUOUS
 62
     7
 10
218.8718313856283
 20
180.784445095617
 30
0.0
 11
216.3718313856283
 21
180.784445095617
 31
0.0
  0
LINE
  5
A49C
  8
AM_5
  6
CONTINUOUS
 62
     7
 10
222.3718313856283
 20
180.784445095617
 30
0.0
 11
224.93327161763861
 21
188.23287432786839
 31
0.0
  0
LINE
  5
A49D
  8
AM_5
  6
CONTINUOUS
 62
     7
 10
224.93327161763861
 20
188.23287432786839
 30
0.0
 11
228.9332716176387
 21
188.23287432786839
 31
0.0
  0
TEXT
  8
AM_5
  40
3
  5
A51A
  62
7
  72
0
  71
0
 10
226.933
 20
186.833
 30
0.000000
  1
2
  0
LINE
  5
A49F
  8
AM_5
  6
CONTINUOUS
 62
     7
 10
223.3718313856283
 20
180.784445095617
 30
0.0
 11
221.3718313856283
 21
180.784445095617
 31
0.0
  0
LINE
  5
A4A0
  8
AM_5
  6
CONTINUOUS
 62
     7
 10
223.3718313856283
 20
180.784445095617
 30
0.0
 11
221.3718313856283
 21
180.784445095617
 31
0.0
  0
INSERT
  5
A4A1
  8
AM_5
 62
     7
  2
GENDOT
 10
223.3718313856283
 20
180.784445095617
 30
0.0
 41
2.5
 42
2.5
 43
2.5
 50
180.0
  0
INSERT
  5
A4A2
  8
AM_5
 62
     7
  2
_OPEN30
 10
221.3718313856283
 20
180.784445095617
 30
0.0
 41
2.5
 42
2.5
 43
2.5
  0
POINT
  5
A4A3
  8
DEFPOINTS
 62
     0
 10
223.3718313856283
 20
124.4987308099028
 30
0.0
  0
POINT
  5
A4A4
  8
DEFPOINTS
 62
     0
 10
221.3718313856283
 20
153.49873080990281
 30
0.0
  0
POINT
  5
A4A5
  8
DEFPOINTS
 62
     0
 10
221.3718313856283
 20
180.784445095617
 30
0.0
  0
ENDBLK
  5
9A41
  8
0
  0
BLOCK
  8
0
  2
*D20
 70
     1
 10
0.0
 20
0.0
 30
0.0
  3
*D20
  1

  0
LINE
  5
A4A6
  8
AM_5
  6
CONTINUOUS
 62
     7
 10
231.3718313856283
 20
157.49873080990281
 30
0.0
 11
231.3718313856283
 21
181.784445095617
 31
0.0
  0
LINE
  5
A4A7
  8
AM_5
  6
CONTINUOUS
 62
     7
 10
223.3718313856283
 20
125.4987308099028
 30
0.0
 11
223.3718313856283
 21
181.784445095617
 31
0.0
  0
LINE
  5
A4A8
  8
AM_5
  6
CONTINUOUS
 62
     7
 10
225.8718313856283
 20
180.784445095617
 30
0.0
 11
228.8718313856283
 21
180.784445095617
 31
0.0
  0
LINE
  5
A4A9
  8
AM_5
  6
CONTINUOUS
 62
     7
 10
231.3718313856283
 20
180.784445095617
 30
0.0
 11
239.59103592105291
 21
180.784445095617
 31
0.0
  0
INSERT
  5
A4AA
  8
AM_5
 62
     7
  2
GENDOT
 10
223.3718313856283
 20
180.784445095617
 30
0.0
 41
2.5
 42
2.5
 43
2.5
 50
180.0
  0
INSERT
  5
A4AB
  8
AM_5
 62
     7
  2
_OPEN30
 10
231.3718313856283
 20
180.784445095617
 30
0.0
 41
2.5
 42
2.5
 43
2.5
  0
TEXT
  8
AM_5
  40
3
  5
A51B
  62
7
  72
0
  71
0
 10
237.591
 20
179.384
 30
0.000000
  1
8
  0
POINT
  5
A4AD
  8
DEFPOINTS
 62
     0
 10
231.3718313856283
 20
156.49873080990281
 30
0.0
  0
POINT
  5
A4AE
  8
DEFPOINTS
 62
     0
 10
223.3718313856283
 20
124.4987308099028
 30
0.0
  0
POINT
  5
A4AF
  8
DEFPOINTS
 62
     0
 10
223.3718313856283
 20
180.784445095617
 30
0.0
  0
ENDBLK
  5
9A68
  8
0
  0
BLOCK
  8
0
  2
*D21
 70
     1
 10
0.0
 20
0.0
 30
0.0
  3
*D21
  1

  0
LINE
  5
A1FB
  8
AM_5
  6
CONTINUOUS
 62
     7
 10
182.3718313856283
 20
157.49873080990281
 30
0.0
 11
182.3718313856283
 21
195.78444509561689
 31
0.0
  0
LINE
  5
A1FC
  8
AM_5
  6
CONTINUOUS
 62
     7
 10
206.8718313856283
 20
161.90858445811051
 30
0.0
 11
206.8718313856283
 21
195.78444509561689
 31
0.0
  0
LINE
  5
A1FD
  8
AM_5
  6
CONTINUOUS
 62
     7
 10
184.8718313856283
 20
194.78444509561689
 30
0.0
 11
204.3718313856283
 21
194.78444509561689
 31
0.0
  0
INSERT
  5
A1FE
  8
AM_5
 62
     7
  2
_OPEN30
 10
182.3718313856283
 20
194.78444509561689
 30
0.0
 41
2.5
 42
2.5
 43
2.5
 50
180.0
  0
INSERT
  5
A1FF
  8
AM_5
 62
     7
  2
_OPEN30
 10
206.8718313856283
 20
194.78444509561689
 30
0.0
 41
2.5
 42
2.5
 43
2.5
  0
INSERT
  5
A200
  8
0
  2
*U41
 10
0.0
 20
0.0
 30
0.0
  0
POINT
  5
A201
  8
DEFPOINTS
 62
     0
 10
182.3718313856283
 20
156.49873080990281
 30
0.0
  0
POINT
  5
A202
  8
DEFPOINTS
 62
     0
 10
206.8718313856283
 20
160.90858445811051
 30
0.0
  0
POINT
  5
A203
  8
DEFPOINTS
 62
     0
 10
206.8718313856283
 20
194.78444509561689
 30
0.0
  0
ENDBLK
  5
9A9D
  8
0
  0
BLOCK
  8
0
  2
*D22
 70
     1
 10
0.0
 20
0.0
 30
0.0
  3
*D22
  1

  0
LINE
  5
A204
  8
AM_5
  6
CONTINUOUS
 62
     7
 10
231.3718313856283
 20
157.49873080990281
 30
0.0
 11
231.3718313856283
 21
195.784445095617
 31
0.0
  0
LINE
  5
A205
  8
AM_5
  6
CONTINUOUS
 62
     7
 10
206.8718313856283
 20
161.90858445811051
 30
0.0
 11
206.8718313856283
 21
195.784445095617
 31
0.0
  0
LINE
  5
A206
  8
AM_5
  6
CONTINUOUS
 62
     7
 10
228.8718313856283
 20
194.784445095617
 30
0.0
 11
209.3718313856283
 21
194.784445095617
 31
0.0
  0
INSERT
  5
A207
  8
AM_5
 62
     7
  2
_OPEN30
 10
231.3718313856283
 20
194.784445095617
 30
0.0
 41
2.5
 42
2.5
 43
2.5
  0
INSERT
  5
A208
  8
AM_5
 62
     7
  2
_OPEN30
 10
206.8718313856283
 20
194.784445095617
 30
0.0
 41
2.5
 42
2.5
 43
2.5
 50
180.0
  0
INSERT
  5
A209
  8
0
  2
*U42
 10
0.0
 20
0.0
 30
0.0
  0
POINT
  5
A20A
  8
DEFPOINTS
 62
     0
 10
231.3718313856283
 20
156.49873080990281
 30
0.0
  0
POINT
  5
A20B
  8
DEFPOINTS
 62
     0
 10
206.8718313856283
 20
160.90858445811051
 30
0.0
  0
POINT
  5
A20C
  8
DEFPOINTS
 62
     0
 10
206.8718313856283
 20
194.784445095617
 30
0.0
  0
ENDBLK
  5
9AD0
  8
0
  0
BLOCK
  8
0
  2
*D23
 70
     1
 10
0.0
 20
0.0
 30
0.0
  3
*D23
  1

  0
LINE
  5
A20D
  8
AM_5
  6
CONTINUOUS
 62
     7
 10
182.3718313856283
 20
157.49873080990281
 30
0.0
 11
182.3718313856283
 21
202.78444509561689
 31
0.0
  0
LINE
  5
A20E
  8
AM_5
  6
CONTINUOUS
 62
     7
 10
231.3718313856283
 20
157.49873080990281
 30
0.0
 11
231.3718313856283
 21
202.78444509561689
 31
0.0
  0
LINE
  5
A20F
  8
AM_5
  6
CONTINUOUS
 62
     7
 10
184.8718313856283
 20
201.78444509561689
 30
0.0
 11
228.8718313856283
 21
201.78444509561689
 31
0.0
  0
INSERT
  5
A210
  8
AM_5
 62
     7
  2
_OPEN30
 10
182.3718313856283
 20
201.78444509561689
 30
0.0
 41
2.5
 42
2.5
 43
2.5
 50
180.0
  0
INSERT
  5
A211
  8
AM_5
 62
     7
  2
_OPEN30
 10
231.3718313856283
 20
201.78444509561689
 30
0.0
 41
2.5
 42
2.5
 43
2.5
  0
INSERT
  5
A212
  8
0
  2
*U43
 10
0.0
 20
0.0
 30
0.0
  0
POINT
  5
A213
  8
DEFPOINTS
 62
     0
 10
182.3718313856283
 20
156.49873080990281
 30
0.0
  0
POINT
  5
A214
  8
DEFPOINTS
 62
     0
 10
231.3718313856283
 20
156.49873080990281
 30
0.0
  0
POINT
  5
A215
  8
DEFPOINTS
 62
     0
 10
231.3718313856283
 20
201.78444509561689
 30
0.0
  0
ENDBLK
  5
9AF1
  8
0
  0
BLOCK
  8
0
  2
*D24
 70
     1
 10
0.0
 20
0.0
 30
0.0
  3
*D24
  1

  0
LINE
  5
A216
  8
AM_5
  6
CONTINUOUS
 62
     7
 10
181.3718313856283
 20
156.49873080990281
 30
0.0
 11
152.7604063008007
 21
156.49873080990281
 31
0.0
  0
LINE
  5
A217
  8
AM_5
  6
CONTINUOUS
 62
     7
 10
185.3718313856283
 20
147.49873080990281
 30
0.0
 11
152.7604063008007
 21
147.49873080990281
 31
0.0
  0
LINE
  5
A218
  8
AM_5
  6
CONTINUOUS
 62
     7
 10
153.7604063008007
 20
153.99873080990281
 30
0.0
 11
153.7604063008007
 21
149.99873080990281
 31
0.0
  0
INSERT
  5
A219
  8
AM_5
 62
     7
  2
_OPEN30
 10
153.7604063008007
 20
156.49873080990281
 30
0.0
 41
2.5
 42
2.5
 43
2.5
 50
90.0
  0
INSERT
  5
A21A
  8
AM_5
 62
     7
  2
_OPEN30
 10
153.7604063008007
 20
147.49873080990281
 30
0.0
 41
2.5
 42
2.5
 43
2.5
 50
270.0
  0
INSERT
  5
A21B
  8
0
  2
*U44
 10
0.0
 20
0.0
 30
0.0
  0
POINT
  5
A21C
  8
DEFPOINTS
 62
     0
 10
182.3718313856283
 20
156.49873080990281
 30
0.0
  0
POINT
  5
A21D
  8
DEFPOINTS
 62
     0
 10
186.3718313856283
 20
147.49873080990281
 30
0.0
  0
POINT
  5
A21E
  8
DEFPOINTS
 62
     0
 10
153.7604063008007
 20
147.49873080990281
 30
0.0
  0
ENDBLK
  5
9B1B
  8
0
  0
BLOCK
  8
0
  2
*D25
 70
     1
 10
0.0
 20
0.0
 30
0.0
  3
*D25
  1

  0
LINE
  5
A2AD
  8
AM_5
  6
CONTINUOUS
 62
     7
 10
185.3718313856283
 20
147.49873080990281
 30
0.0
 11
152.7604063008007
 21
147.49873080990281
 31
0.0
  0
LINE
  5
A2AE
  8
AM_5
  6
CONTINUOUS
 62
     7
 10
183.3718313856283
 20
118.4987308099028
 30
0.0
 11
152.7604063008007
 21
118.4987308099028
 31
0.0
  0
LINE
  5
A2AF
  8
AM_5
  6
CONTINUOUS
 62
     7
 10
153.7604063008007
 20
144.99873080990281
 30
0.0
 11
153.7604063008007
 21
120.9987308099028
 31
0.0
  0
INSERT
  5
A2B0
  8
AM_5
 62
     7
  2
_OPEN30
 10
153.7604063008007
 20
147.49873080990281
 30
0.0
 41
2.5
 42
2.5
 43
2.5
 50
90.0
  0
INSERT
  5
A2B1
  8
AM_5
 62
     7
  2
_OPEN30
 10
153.7604063008007
 20
118.4987308099028
 30
0.0
 41
2.5
 42
2.5
 43
2.5
 50
270.0
  0
INSERT
  5
A2B2
  8
0
  2
*U53
 10
0.0
 20
0.0
 30
0.0
  0
POINT
  5
A2B3
  8
DEFPOINTS
 62
     0
 10
186.3718313856283
 20
147.49873080990281
 30
0.0
  0
POINT
  5
A2B4
  8
DEFPOINTS
 62
     0
 10
184.3718313856283
 20
118.4987308099028
 30
0.0
  0
POINT
  5
A2B5
  8
DEFPOINTS
 62
     0
 10
153.7604063008007
 20
118.4987308099028
 30
0.0
  0
ENDBLK
  5
9B4E
  8
0
  0
BLOCK
  8
0
  2
*D26
 70
     1
 10
0.0
 20
0.0
 30
0.0
  3
*D26
  1

  0
LINE
  5
A2B6
  8
AM_5
  6
CONTINUOUS
 62
     7
 10
183.3718313856283
 20
118.4987308099028
 30
0.0
 11
152.7604063008007
 21
118.4987308099028
 31
0.0
  0
LINE
  5
A2B7
  8
AM_5
  6
CONTINUOUS
 62
     7
 10
185.3718313856283
 20
89.498730809902881
 30
0.0
 11
152.7604063008007
 21
89.498730809902895
 31
0.0
  0
LINE
  5
A2B8
  8
AM_5
  6
CONTINUOUS
 62
     7
 10
153.7604063008007
 20
115.9987308099028
 30
0.0
 11
153.7604063008007
 21
91.998730809902895
 31
0.0
  0
INSERT
  5
A2B9
  8
AM_5
 62
     7
  2
_OPEN30
 10
153.7604063008007
 20
118.4987308099028
 30
0.0
 41
2.5
 42
2.5
 43
2.5
 50
90.0
  0
INSERT
  5
A2BA
  8
AM_5
 62
     7
  2
_OPEN30
 10
153.7604063008007
 20
89.498730809902895
 30
0.0
 41
2.5
 42
2.5
 43
2.5
 50
270.0
  0
INSERT
  5
A2BB
  8
0
  2
*U54
 10
0.0
 20
0.0
 30
0.0
  0
POINT
  5
A2BC
  8
DEFPOINTS
 62
     0
 10
184.3718313856283
 20
118.4987308099028
 30
0.0
  0
POINT
  5
A2BD
  8
DEFPOINTS
 62
     0
 10
186.3718313856283
 20
89.498730809902881
 30
0.0
  0
POINT
  5
A2BE
  8
DEFPOINTS
 62
     0
 10
153.7604063008007
 20
89.498730809902895
 30
0.0
  0
ENDBLK
  5
9B6F
  8
0
  0
BLOCK
  8
0
  2
*D27
 70
     1
 10
0.0
 20
0.0
 30
0.0
  3
*D27
  1

  0
LINE
  5
A231
  8
AM_5
  6
CONTINUOUS
 62
     7
 10
185.3718313856283
 20
89.498730809902881
 30
0.0
 11
152.7604063008007
 21
89.498730809902895
 31
0.0
  0
LINE
  5
A232
  8
AM_5
  6
CONTINUOUS
 62
     7
 10
181.37183138562821
 20
80.498730809902867
 30
0.0
 11
152.7604063008007
 21
80.498730809902867
 31
0.0
  0
LINE
  5
A233
  8
AM_5
  6
CONTINUOUS
 62
     7
 10
153.7604063008007
 20
86.998730809902895
 30
0.0
 11
153.7604063008007
 21
82.998730809902867
 31
0.0
  0
INSERT
  5
A234
  8
AM_5
 62
     7
  2
_OPEN30
 10
153.7604063008007
 20
89.498730809902895
 30
0.0
 41
2.5
 42
2.5
 43
2.5
 50
90.0
  0
INSERT
  5
A235
  8
AM_5
 62
     7
  2
_OPEN30
 10
153.7604063008007
 20
80.498730809902867
 30
0.0
 41
2.5
 42
2.5
 43
2.5
 50
270.0
  0
INSERT
  5
A236
  8
0
  2
*U45
 10
0.0
 20
0.0
 30
0.0
  0
POINT
  5
A237
  8
DEFPOINTS
 62
     0
 10
186.3718313856283
 20
89.498730809902881
 30
0.0
  0
POINT
  5
A238
  8
DEFPOINTS
 62
     0
 10
182.37183138562821
 20
80.498730809902867
 30
0.0
  0
POINT
  5
A239
  8
DEFPOINTS
 62
     0
 10
153.7604063008007
 20
80.498730809902867
 30
0.0
  0
ENDBLK
  5
9B90
  8
0
  0
BLOCK
  8
0
  2
*D28
 70
     1
 10
0.0
 20
0.0
 30
0.0
  3
*D28
  1

  0
LINE
  5
A23A
  8
AM_5
  6
CONTINUOUS
 62
     7
 10
232.3718313856283
 20
156.49873080990281
 30
0.0
 11
253.49944937395179
 21
156.49873080990281
 31
0.0
  0
LINE
  5
A23B
  8
AM_5
  6
CONTINUOUS
 62
     7
 10
228.3718313856283
 20
147.49873080990281
 30
0.0
 11
253.49944937395179
 21
147.49873080990281
 31
0.0
  0
LINE
  5
A23C
  8
AM_5
  6
CONTINUOUS
 62
     7
 10
252.4994493739519
 20
153.99873080990281
 30
0.0
 11
252.4994493739519
 21
149.99873080990281
 31
0.0
  0
INSERT
  5
A23D
  8
AM_5
 62
     7
  2
_OPEN30
 10
252.4994493739519
 20
156.49873080990281
 30
0.0
 41
2.5
 42
2.5
 43
2.5
 50
90.0
  0
INSERT
  5
A23E
  8
AM_5
 62
     7
  2
_OPEN30
 10
252.4994493739519
 20
147.49873080990281
 30
0.0
 41
2.5
 42
2.5
 43
2.5
 50
270.0
  0
INSERT
  5
A23F
  8
0
  2
*U46
 10
0.0
 20
0.0
 30
0.0
  0
POINT
  5
A240
  8
DEFPOINTS
 62
     0
 10
231.3718313856283
 20
156.49873080990281
 30
0.0
  0
POINT
  5
A241
  8
DEFPOINTS
 62
     0
 10
227.3718313856283
 20
147.49873080990281
 30
0.0
  0
POINT
  5
A242
  8
DEFPOINTS
 62
     0
 10
252.4994493739519
 20
147.49873080990281
 30
0.0
  0
ENDBLK
  5
9BB1
  8
0
  0
BLOCK
  8
0
  2
*D29
 70
     1
 10
0.0
 20
0.0
 30
0.0
  3
*D29
  1

  0
LINE
  5
A243
  8
AM_5
  6
CONTINUOUS
 62
     7
 10
230.3718313856283
 20
118.4987308099028
 30
0.0
 11
253.49944937395179
 21
118.4987308099028
 31
0.0
  0
LINE
  5
A244
  8
AM_5
  6
CONTINUOUS
 62
     7
 10
228.3718313856283
 20
147.49873080990281
 30
0.0
 11
253.49944937395179
 21
147.49873080990281
 31
0.0
  0
LINE
  5
A245
  8
AM_5
  6
CONTINUOUS
 62
     7
 10
252.4994493739519
 20
120.9987308099028
 30
0.0
 11
252.4994493739519
 21
144.99873080990281
 31
0.0
  0
INSERT
  5
A246
  8
AM_5
 62
     7
  2
_OPEN30
 10
252.4994493739519
 20
118.4987308099028
 30
0.0
 41
2.5
 42
2.5
 43
2.5
 50
270.0
  0
INSERT
  5
A247
  8
AM_5
 62
     7
  2
_OPEN30
 10
252.4994493739519
 20
147.49873080990281
 30
0.0
 41
2.5
 42
2.5
 43
2.5
 50
90.0
  0
INSERT
  5
A248
  8
0
  2
*U47
 10
0.0
 20
0.0
 30
0.0
  0
POINT
  5
A249
  8
DEFPOINTS
 62
     0
 10
229.3718313856283
 20
118.4987308099028
 30
0.0
  0
POINT
  5
A24A
  8
DEFPOINTS
 62
     0
 10
227.3718313856283
 20
147.49873080990281
 30
0.0
  0
POINT
  5
A24B
  8
DEFPOINTS
 62
     0
 10
252.4994493739519
 20
147.49873080990281
 30
0.0
  0
ENDBLK
  5
9BE4
  8
0
  0
BLOCK
  8
0
  2
*D30
 70
     1
 10
0.0
 20
0.0
 30
0.0
  3
*D30
  1

  0
LINE
  5
A24C
  8
AM_5
  6
CONTINUOUS
 62
     7
 10
228.3718313856283
 20
89.498730809902881
 30
0.0
 11
253.4994493739519
 21
89.498730809902881
 31
0.0
  0
LINE
  5
A24D
  8
AM_5
  6
CONTINUOUS
 62
     7
 10
230.3718313856283
 20
118.4987308099028
 30
0.0
 11
253.4994493739519
 21
118.4987308099028
 31
0.0
  0
LINE
  5
A24E
  8
AM_5
  6
CONTINUOUS
 62
     7
 10
252.4994493739519
 20
91.998730809902881
 30
0.0
 11
252.4994493739519
 21
115.9987308099028
 31
0.0
  0
INSERT
  5
A24F
  8
AM_5
 62
     7
  2
_OPEN30
 10
252.4994493739519
 20
89.498730809902881
 30
0.0
 41
2.5
 42
2.5
 43
2.5
 50
270.0
  0
INSERT
  5
A250
  8
AM_5
 62
     7
  2
_OPEN30
 10
252.4994493739519
 20
118.4987308099028
 30
0.0
 41
2.5
 42
2.5
 43
2.5
 50
90.0
  0
INSERT
  5
A251
  8
0
  2
*U48
 10
0.0
 20
0.0
 30
0.0
  0
POINT
  5
A252
  8
DEFPOINTS
 62
     0
 10
227.3718313856283
 20
89.498730809902881
 30
0.0
  0
POINT
  5
A253
  8
DEFPOINTS
 62
     0
 10
229.3718313856283
 20
118.4987308099028
 30
0.0
  0
POINT
  5
A254
  8
DEFPOINTS
 62
     0
 10
252.4994493739519
 20
118.4987308099028
 30
0.0
  0
ENDBLK
  5
9C05
  8
0
  0
BLOCK
  8
0
  2
*D31
 70
     1
 10
0.0
 20
0.0
 30
0.0
  3
*D31
  1

  0
LINE
  5
A255
  8
AM_5
  6
CONTINUOUS
 62
     7
 10
232.3718313856283
 20
80.498730809902867
 30
0.0
 11
253.4994493739519
 21
80.498730809902867
 31
0.0
  0
LINE
  5
A256
  8
AM_5
  6
CONTINUOUS
 62
     7
 10
228.3718313856283
 20
89.498730809902881
 30
0.0
 11
253.4994493739519
 21
89.498730809902881
 31
0.0
  0
LINE
  5
A257
  8
AM_5
  6
CONTINUOUS
 62
     7
 10
252.4994493739519
 20
82.998730809902867
 30
0.0
 11
252.4994493739519
 21
86.998730809902881
 31
0.0
  0
INSERT
  5
A258
  8
AM_5
 62
     7
  2
_OPEN30
 10
252.4994493739519
 20
80.498730809902867
 30
0.0
 41
2.5
 42
2.5
 43
2.5
 50
270.0
  0
INSERT
  5
A259
  8
AM_5
 62
     7
  2
_OPEN30
 10
252.4994493739519
 20
89.498730809902881
 30
0.0
 41
2.5
 42
2.5
 43
2.5
 50
90.0
  0
INSERT
  5
A25A
  8
0
  2
*U49
 10
0.0
 20
0.0
 30
0.0
  0
POINT
  5
A25B
  8
DEFPOINTS
 62
     0
 10
231.3718313856283
 20
80.498730809902867
 30
0.0
  0
POINT
  5
A25C
  8
DEFPOINTS
 62
     0
 10
227.3718313856283
 20
89.498730809902881
 30
0.0
  0
POINT
  5
A25D
  8
DEFPOINTS
 62
     0
 10
252.4994493739519
 20
89.498730809902881
 30
0.0
  0
ENDBLK
  5
9C26
  8
0
  0
BLOCK
  8
0
  2
*D32
 70
     1
 10
0.0
 20
0.0
 30
0.0
  3
*D32
  1

  0
LINE
  5
A25E
  8
AM_5
  6
CONTINUOUS
 62
     7
 10
232.3718313856283
 20
156.49873080990281
 30
0.0
 11
260.4994493739519
 21
156.49873080990281
 31
0.0
  0
LINE
  5
A25F
  8
AM_5
  6
CONTINUOUS
 62
     7
 10
232.3718313856283
 20
80.498730809902867
 30
0.0
 11
260.4994493739519
 21
80.498730809902867
 31
0.0
  0
LINE
  5
A260
  8
AM_5
  6
CONTINUOUS
 62
     7
 10
259.49944937395202
 20
153.99873080990281
 30
0.0
 11
259.4994493739519
 21
82.998730809902867
 31
0.0
  0
INSERT
  5
A261
  8
AM_5
 62
     7
  2
_OPEN30
 10
259.49944937395202
 20
156.49873080990281
 30
0.0
 41
2.5
 42
2.5
 43
2.5
 50
90.0
  0
INSERT
  5
A262
  8
AM_5
 62
     7
  2
_OPEN30
 10
259.4994493739519
 20
80.498730809902867
 30
0.0
 41
2.5
 42
2.5
 43
2.5
 50
270.0
  0
INSERT
  5
A263
  8
0
  2
*U50
 10
0.0
 20
0.0
 30
0.0
  0
POINT
  5
A264
  8
DEFPOINTS
 62
     0
 10
231.3718313856283
 20
156.49873080990281
 30
0.0
  0
POINT
  5
A265
  8
DEFPOINTS
 62
     0
 10
231.3718313856283
 20
80.498730809902867
 30
0.0
  0
POINT
  5
A266
  8
DEFPOINTS
 62
     0
 10
259.4994493739519
 20
80.498730809902867
 30
0.0
  0
ENDBLK
  5
9C47
  8
0
  0
BLOCK
  8
0
  2
*D33
 70
     1
 10
0.0
 20
0.0
 30
0.0
  3
*D33
  1

  0
LINE
  5
A4B0
  8
AM_5
  6
CONTINUOUS
 62
     7
 10
181.37183138562821
 20
246.34486472876711
 30
0.0
 11
164.87183038562819
 21
246.34486472876711
 31
0.0
  0
LINE
  5
A4B1
  8
AM_5
  6
CONTINUOUS
 62
     7
 10
181.37183138562821
 20
244.84486472876711
 30
0.0
 11
164.87183038562819
 21
244.84486472876711
 31
0.0
  0
LINE
  5
A4B2
  8
AM_5
  6
CONTINUOUS
 62
     7
 10
165.87183038562819
 20
242.34486472876711
 30
0.0
 11
165.87183038562819
 21
239.84486472876711
 31
0.0
  0
LINE
  5
A4B3
  8
AM_5
  6
CONTINUOUS
 62
     7
 10
165.87183038562819
 20
248.84486472876711
 30
0.0
 11
165.87183038562819
 21
260.08681912155748
 31
0.0
  0
LINE
  5
A4B4
  8
AM_5
  6
CONTINUOUS
 62
     7
 10
165.87183038562819
 20
244.84486472876711
 30
0.0
 11
165.87183038562819
 21
246.34486472876711
 31
0.0
  0
INSERT
  5
A4B5
  8
AM_5
 62
     7
  2
GENDOT
 10
165.87183038562819
 20
244.84486472876711
 30
0.0
 41
2.5
 42
2.5
 43
2.5
 50
90.0
  0
INSERT
  5
A4B6
  8
AM_5
 62
     7
  2
_OPEN30
 10
165.87183038562819
 20
246.34486472876711
 30
0.0
 41
2.5
 42
2.5
 43
2.5
 50
270.0
  0
TEXT
  8
AM_5
  40
3
  5
A51C
  62
7
  72
0
  71
0
 10
163.372
 20
252.330
 30
0.000000
  1
1.5
  0
POINT
  5
A4B8
  8
DEFPOINTS
 62
     0
 10
182.37183138562821
 20
246.34486472876711
 30
0.0
  0
POINT
  5
A4B9
  8
DEFPOINTS
 62
     0
 10
182.37183138562821
 20
244.84486472876711
 30
0.0
  0
POINT
  5
A4BA
  8
DEFPOINTS
 62
     0
 10
165.87183038562819
 20
244.84486472876711
 30
0.0
  0
ENDBLK
  5
9C78
  8
0
  0
BLOCK
  8
0
  2
*D34
 70
     1
 10
0.0
 20
0.0
 30
0.0
  3
*D34
  1

  0
LINE
  5
A4BB
  8
AM_5
  6
CONTINUOUS
 62
     7
 10
181.37183138562821
 20
244.84486472876711
 30
0.0
 11
164.8882120284363
 21
244.84486472876711
 31
0.0
  0
LINE
  5
A4BC
  8
AM_5
  6
CONTINUOUS
 62
     7
 10
181.37183138562821
 20
242.84486472876711
 30
0.0
 11
164.8882120284363
 21
242.84486472876711
 31
0.0
  0
LINE
  5
A4BD
  8
AM_5
  6
CONTINUOUS
 62
     7
 10
165.8882120284363
 20
247.34486472876711
 30
0.0
 11
165.8882120284363
 21
249.84486472876711
 31
0.0
  0
LINE
  5
A4BE
  8
AM_5
  6
CONTINUOUS
 62
     7
 10
165.8882120284363
 20
240.34486472876711
 30
0.0
 11
165.8882120284363
 21
237.84486472876711
 31
0.0
  0
LINE
  5
A4BF
  8
AM_5
  6
CONTINUOUS
 62
     7
 10
165.8882120284363
 20
243.84486472876711
 30
0.0
 11
157.38882940288499
 21
234.57574849094419
 31
0.0
  0
LINE
  5
A4C0
  8
AM_5
  6
CONTINUOUS
 62
     7
 10
157.38882940288499
 20
234.57574849094419
 30
0.0
 11
157.38882940288499
 21
230.57574849094419
 31
0.0
  0
TEXT
  8
AM_5
  40
3
  5
A51D
  62
7
  72
0
  71
0
 10
154.889
 20
228.676
 30
0.000000
  1
2
  0
LINE
  5
A4C2
  8
AM_5
  6
CONTINUOUS
 62
     7
 10
165.8882120284363
 20
244.84486472876711
 30
0.0
 11
165.8882120284363
 21
242.84486472876711
 31
0.0
  0
LINE
  5
A4C3
  8
AM_5
  6
CONTINUOUS
 62
     7
 10
165.8882120284363
 20
244.84486472876711
 30
0.0
 11
165.8882120284363
 21
242.84486472876711
 31
0.0
  0
INSERT
  5
A4C4
  8
AM_5
 62
     7
  2
GENDOT
 10
165.8882120284363
 20
244.84486472876711
 30
0.0
 41
2.5
 42
2.5
 43
2.5
 50
270.0
  0
INSERT
  5
A4C5
  8
AM_5
 62
     7
  2
GENDOT
 10
165.8882120284363
 20
242.84486472876711
 30
0.0
 41
2.5
 42
2.5
 43
2.5
 50
90.0
  0
POINT
  5
A4C6
  8
DEFPOINTS
 62
     0
 10
182.37183138562821
 20
244.84486472876711
 30
0.0
  0
POINT
  5
A4C7
  8
DEFPOINTS
 62
     0
 10
182.37183138562821
 20
242.84486472876711
 30
0.0
  0
POINT
  5
A4C8
  8
DEFPOINTS
 62
     0
 10
165.8882120284363
 20
242.84486472876711
 30
0.0
  0
ENDBLK
  5
9CB5
  8
0
  0
BLOCK
  8
0
  2
*D35
 70
     1
 10
0.0
 20
0.0
 30
0.0
  3
*D35
  1

  0
LINE
  5
A4C9
  8
AM_5
  6
CONTINUOUS
 62
     7
 10
181.37183138562821
 20
242.84486472876711
 30
0.0
 11
164.87183038562819
 21
242.84486472876711
 31
0.0
  0
LINE
  5
A4CA
  8
AM_5
  6
CONTINUOUS
 62
     7
 10
181.37183138562821
 20
241.34486472876711
 30
0.0
 11
164.87183038562819
 21
241.34486472876711
 31
0.0
  0
LINE
  5
A4CB
  8
AM_5
  6
CONTINUOUS
 62
     7
 10
165.87183038562819
 20
245.34486472876711
 30
0.0
 11
165.87183038562819
 21
247.84486472876711
 31
0.0
  0
LINE
  5
A4CC
  8
AM_5
  6
CONTINUOUS
 62
     7
 10
165.87183038562819
 20
238.84486472876711
 30
0.0
 11
165.87183038562819
 21
228.63057901448141
 31
0.0
  0
LINE
  5
A4CD
  8
AM_5
  6
CONTINUOUS
 62
     7
 10
165.87183038562819
 20
242.84486472876711
 30
0.0
 11
165.87183038562819
 21
241.34486472876711
 31
0.0
  0
INSERT
  5
A4CE
  8
AM_5
 62
     7
  2
GENDOT
 10
165.87183038562819
 20
242.84486472876711
 30
0.0
 41
2.5
 42
2.5
 43
2.5
 50
270.0
  0
INSERT
  5
A4CF
  8
AM_5
 62
     7
  2
_OPEN30
 10
165.87183038562819
 20
241.34486472876711
 30
0.0
 41
2.5
 42
2.5
 43
2.5
 50
90.0
  0
TEXT
  8
AM_5
  40
3
  5
A51E
  62
7
  72
0
  71
0
 10
163.372
 20
228.588
 30
0.000000
  1
1.5
  0
POINT
  5
A4D1
  8
DEFPOINTS
 62
     0
 10
182.37183138562821
 20
242.84486472876711
 30
0.0
  0
POINT
  5
A4D2
  8
DEFPOINTS
 62
     0
 10
182.37183138562821
 20
241.34486472876711
 30
0.0
  0
POINT
  5
A4D3
  8
DEFPOINTS
 62
     0
 10
165.87183038562819
 20
241.34486472876711
 30
0.0
  0
ENDBLK
  5
9CF2
  8
0
  0
BLOCK
  8
0
  2
*D36
 70
     1
 10
0.0
 20
0.0
 30
0.0
  3
*D36
  1

  0
LINE
  5
A28B
  8
AM_5
  6
CONTINUOUS
 62
     7
 10
181.37183138562821
 20
241.34486472876711
 30
0.0
 11
147.78189958461761
 21
241.34486472876711
 31
0.0
  0
LINE
  5
A28C
  8
AM_5
  6
CONTINUOUS
 62
     7
 10
181.37183138562821
 20
246.34486472876711
 30
0.0
 11
147.78189958461761
 21
246.34486472876711
 31
0.0
  0
LINE
  5
A28D
  8
AM_5
  6
CONTINUOUS
 62
     7
 10
148.78189958461761
 20
238.84486472876711
 30
0.0
 11
148.78189958461761
 21
236.34486472876711
 31
0.0
  0
LINE
  5
A28E
  8
AM_5
  6
CONTINUOUS
 62
     7
 10
148.78189958461761
 20
248.84486472876711
 30
0.0
 11
148.78189958461761
 21
251.34486472876711
 31
0.0
  0
LINE
  5
A28F
  8
AM_5
  6
CONTINUOUS
 62
     7
 10
148.78189958461761
 20
241.34486472876711
 30
0.0
 11
148.78189958461761
 21
246.34486472876711
 31
0.0
  0
INSERT
  5
A290
  8
AM_5
 62
     7
  2
_OPEN30
 10
148.78189958461761
 20
241.34486472876711
 30
0.0
 41
2.5
 42
2.5
 43
2.5
 50
90.0
  0
INSERT
  5
A291
  8
AM_5
 62
     7
  2
_OPEN30
 10
148.78189958461761
 20
246.34486472876711
 30
0.0
 41
2.5
 42
2.5
 43
2.5
 50
270.0
  0
INSERT
  5
A292
  8
0
  2
*U51
 10
0.0
 20
0.0
 30
0.0
  0
POINT
  5
A293
  8
DEFPOINTS
 62
     0
 10
182.37183138562821
 20
241.34486472876711
 30
0.0
  0
POINT
  5
A294
  8
DEFPOINTS
 62
     0
 10
182.37183138562821
 20
246.34486472876711
 30
0.0
  0
POINT
  5
A295
  8
DEFPOINTS
 62
     0
 10
148.78189958461761
 20
246.34486472876711
 30
0.0
  0
ENDBLK
  5
9D5E
  8
0
  0
BLOCK
  8
0
  2
*S38
 70
     1
 10
0.0
 20
0.0
 30
0.0
  3
*S38
  1

  0
LINE
  5
A41B
  8
AM_5
  6
CONTINUOUS
 62
     7
 10
146.15564880982191
 20
67.822772193953426
 30
0.0
 11
177.16165274682979
 21
67.822772193953426
 31
0.0
  0
LINE
  5
A41C
  8
AM_5
  6
CONTINUOUS
 62
     7
 10
177.16165274682979
 20
67.822772193953426
 30
0.0
 11
188.40847187171499
 21
83.850564615156685
 31
0.0
  0
LINE
  5
A41D
  8
AM_5
  6
CONTINUOUS
 62
     7
 10
188.40847187171499
 20
83.850564615156685
 30
0.0
 11
190.21783164980579
 21
86.429075269279949
 31
0.0
  0
LINE
  5
A41E
  8
AM_5
  6
CONTINUOUS
 62
     7
 10
188.74793923787149
 20
83.612357882399664
 30
0.0
 11
190.21783164980579
 21
86.429075269279949
 31
0.0
  0
LINE
  5
A41F
  8
AM_5
  6
CONTINUOUS
 62
     7
 10
190.21783164980579
 20
86.429075269279949
 30
0.0
 11
188.06900450555861
 21
84.088771347913706
 31
0.0
  0
INSERT
  5
A420
  8
0
  2
*U55
 10
0.0
 20
0.0
 30
0.0
  0
ENDBLK
  5
A422
  8
0
  0
BLOCK
  8
0
  2
*U39
 70
     1
 10
0.0
 20
0.0
 30
0.0
  3
*U39
  1

  0
TEXT
  5
A4D5
  8
AM_5
 62
     7
 10
166.84753054778059
 20
174.19766664955529
 30
0.0
 40
3.0
  1
(\U+22057.5)
  0
ENDBLK
  5
A4D7
  8
0
  0
BLOCK
  8
0
  2
*U40
 70
     1
 10
0.0
 20
0.0
 30
0.0
  3
*U40
  1

  0
TEXT
  5
A4D9
  8
AM_5
 62
     7
 10
195.33611709991399
 20
181.784445095617
 30
0.0
 40
3.0
  1
14.5
  0
ENDBLK
  5
A4DB
  8
0
  0
BLOCK
  8
0
  2
*U41
 70
     1
 10
0.0
 20
0.0
 30
0.0
  3
*U41
  1

  0
TEXT
  5
A4DD
  8
AM_5
 62
     7
 10
190.05040281419971
 20
195.78444509561689
 30
0.0
 40
3.0
  1
24.5
  0
ENDBLK
  5
A4DF
  8
0
  0
BLOCK
  8
0
  2
*U42
 70
     1
 10
0.0
 20
0.0
 30
0.0
  3
*U42
  1

  0
TEXT
  5
A4E1
  8
AM_5
 62
     7
 10
214.55040281419971
 20
195.784445095617
 30
0.0
 40
3.0
  1
24.5
  0
ENDBLK
  5
A4E3
  8
0
  0
BLOCK
  8
0
  2
*U43
 70
     1
 10
0.0
 20
0.0
 30
0.0
  3
*U43
  1

  0
TEXT
  5
A4E5
  8
AM_5
 62
     7
 10
204.51468852848541
 20
202.78444509561689
 30
0.0
 40
3.0
  1
49
  0
ENDBLK
  5
A4E7
  8
0
  0
BLOCK
  8
0
  2
*U44
 70
     1
 10
0.0
 20
0.0
 30
0.0
  3
*U44
  1

  0
TEXT
  5
A4E9
  8
AM_5
 62
     7
 10
152.76040630080061
 20
151.07015938133139
 30
0.0
 40
3.0
  1
9
 50
90.0
  0
ENDBLK
  5
A4EB
  8
0
  0
BLOCK
  8
0
  2
*U45
 70
     1
 10
0.0
 20
0.0
 30
0.0
  3
*U45
  1

  0
TEXT
  5
A4ED
  8
AM_5
 62
     7
 10
152.7604063008007
 20
84.070159381331464
 30
0.0
 40
3.0
  1
9
 50
90.0
  0
ENDBLK
  5
A4EF
  8
0
  0
BLOCK
  8
0
  2
*U46
 70
     1
 10
0.0
 20
0.0
 30
0.0
  3
*U46
  1

  0
TEXT
  5
A4F1
  8
AM_5
 62
     7
 10
251.49944937395179
 20
151.07015938133139
 30
0.0
 40
3.0
  1
9
 50
90.0
  0
ENDBLK
  5
A4F3
  8
0
  0
BLOCK
  8
0
  2
*U47
 70
     1
 10
0.0
 20
0.0
 30
0.0
  3
*U47
  1

  0
TEXT
  5
A4F5
  8
AM_5
 62
     7
 10
251.49944937395179
 20
130.64158795275989
 30
0.0
 40
3.0
  1
29
 50
90.0
  0
ENDBLK
  5
A4F7
  8
0
  0
BLOCK
  8
0
  2
*U48
 70
     1
 10
0.0
 20
0.0
 30
0.0
  3
*U48
  1

  0
TEXT
  5
A4F9
  8
AM_5
 62
     7
 10
251.49944937395179
 20
101.64158795276001
 30
0.0
 40
3.0
  1
29
 50
90.0
  0
ENDBLK
  5
A4FB
  8
0
  0
BLOCK
  8
0
  2
*U49
 70
     1
 10
0.0
 20
0.0
 30
0.0
  3
*U49
  1

  0
TEXT
  5
A4FD
  8
AM_5
 62
     7
 10
251.4994493739519
 20
84.070159381331464
 30
0.0
 40
3.0
  1
9
 50
90.0
  0
ENDBLK
  5
A4FF
  8
0
  0
BLOCK
  8
0
  2
*U50
 70
     1
 10
0.0
 20
0.0
 30
0.0
  3
*U50
  1

  0
TEXT
  5
A501
  8
AM_5
 62
     7
 10
258.4994493739519
 20
116.14158795276001
 30
0.0
 40
3.0
  1
76
 50
90.0
  0
ENDBLK
  5
A503
  8
0
  0
BLOCK
  8
0
  2
*U51
 70
     1
 10
0.0
 20
0.0
 30
0.0
  3
*U51
  1

  0
TEXT
  5
A505
  8
AM_5
 62
     7
 10
147.78189958461749
 20
242.84486472876711
 30
0.0
 40
3.0
  1
5
 50
90.0
  0
ENDBLK
  5
A507
  8
0
  0
BLOCK
  8
0
  2
*U52
 70
     1
 10
0.0
 20
0.0
 30
0.0
  3
*U52
  1

  0
TEXT
  5
A509
  8
AM_5
 62
     7
 10
209.83611709991399
 20
181.784445095617
 30
0.0
 40
3.0
  1
14.5
  0
ENDBLK
  5
A50B
  8
0
  0
BLOCK
  8
0
  2
*U53
 70
     1
 10
0.0
 20
0.0
 30
0.0
  3
*U53
  1

  0
TEXT
  5
A50D
  8
AM_5
 62
     7
 10
152.7604063008007
 20
130.64158795275989
 30
0.0
 40
3.0
  1
29
 50
90.0
  0
ENDBLK
  5
A50F
  8
0
  0
BLOCK
  8
0
  2
*U54
 70
     1
 10
0.0
 20
0.0
 30
0.0
  3
*U54
  1

  0
TEXT
  5
A511
  8
AM_5
 62
     7
 10
152.76040630080061
 20
101.64158795276001
 30
0.0
 40
3.0
  1
29
 50
90.0
  0
ENDBLK
  5
A513
  8
0
  0
BLOCK
  8
0
  2
*U55
 70
     1
 10
0.0
 20
0.0
 30
0.0
  3
*U55
  1

  0
TEXT
  5
A515
  8
AM_5
 62
     7
 10
145.8716527468298
 20
69.397772193953429
 30
0.0
 40
3.149999999999999
  1
6-\U+22055\U+00D7\U+22057.5皿孔
  7
ACJISTS
  0
ENDBLK
  5
A517
  8
0
  0
ENDSEC
  0
SECTION
  2
ENTITIES
  0
INSERT
  5
1BB5
  8
0
  2
ZUWAKU-A3H
 10
0.0
 20
0.0
 30
0.0
1001
GENIUS_GENOREF_13
1005
1C93
1001
GENIUS_GENOBJ-N-SDF_13
1002
{
1000
OWNER
1000
GEN
1002
}
1001
GENIUS_GENODEF_13
1002
{
1000
HIER
1070
     0
1002
}
1002
{
1000
MANEDIT
1070
     0
1002
}
1002
{
1000
NOSEL
1070
     0
1002
}
1002
{
1000
BEHIND
1070
     0
1002
}
1002
{
1000
OTHER
1070
     0
1002
}
1002
{
1000
REACTOR
1002
}
1001
GENIUS_GENSCREG_13
1040
1.0
1040
1.0
1011
24.999999999999979
1021
0.0
1031
0.0
1021
8.9999999999999964
1031
0.0
1011
411.99999999999989
1021
0.0
1031
0.0
1021
284.99999999999989
1031
0.0
1070
     3
  0
POINT
  5
1C93
  8
0
 10
0.0
 20
0.0
 30
0.0
1001
GENIUS_GENOBJ-N-TIT_13
1002
{
1000
OWNER
1000
GEN
1002
}
1001
GENIUS_GENODEF_13
1002
{
1000
HIER
1070
     1
1002
}
1002
{
1000
MANEDIT
1070
     1
1002
}
1002
{
1000
NOSEL
1070
     0
1002
}
1002
{
1000
BEHIND
1070
     0
1002
}
1002
{
1000
OTHER
1070
     0
1002
}
1002
{
1000
REACTOR
1002
}
1001
GENIUS_GENOLIS_13
1002
{
1000
ENT
1005
1BB5
1005
2A9C
1002
}
1001
GENIUS_GENTITLE_13
1002
{
1000
BORDER
1000
C:\Program Files\Autodesk\ACADM 2008\Acadm\gen\Dwg\Format\ZUWAKU-A3H
1002
}
1002
{
1000
TITLE
1000
C:\Program Files\Autodesk\ACADM 2008\Acadm\gen\Dwg\Title\N_Title
1002
}
1002
{
1000
ADDITIONAL1
1000

1002
}
1002
{
1000
ADDITIONAL2
1000

1002
}
1002
{
1000
SCALE
1000
1:1
1002
}
1002
{
1000
TITLESTD
1000
JIS
1002
}
1002
{
1000
HRA
1005
1BB5
1002
}
1002
{
1000
HTIT
1005
2A9C
1002
}
1002
{
1000
GENIUSID
1005
1C93
1002
}
1002
{
1000
INVTXTID
1005
0
1002
}
1002
{
1000
UNCHG
1002
{
1000
GEN-TITLE-SIZ
1000
GEN-TITLE-SCA
1002
}
1002
}
1001
GENIUS_GENOENT_13
1002
{
1000
MYREF
1005
1C93
1002
}
1002
{
1000
GRP
1005
0
1002
}
  0
INSERT
  5
20F2
  8
0
 66
     1
  2
A$C1C06296A
 10
135.5000001316065
 20
8.9999998268887005
 30
0.0
  0
ATTRIB
  5
20F3
  8
AM_BOR
 62
     7
 10
249.8107097069896
 20
9.4999999999999893
 30
0.0
 40
3.0
  1

 11
249.8107097069896
 21
10.999999999999989
 31
0.0
  2
SETS｛20｝
 70
     0
 74
     2
1001
AcDbAttr
1070
     0
1070
     1
  0
ATTRIB
  5
20F4
  8
AM_BOR
 62
     7
 10
154.5607097069896
 20
9.4999999999999893
 30
0.0
 40
3.0
  1

 11
154.5607097069896
 21
10.999999999999989
 31
0.0
  2
REMARKS｛20｝
 70
     0
 74
     2
1001
AcDbAttr
1070
     0
1070
     1
  0
ATTRIB
  5
20F5
  8
AM_BOR
 62
     7
 10
249.8107097069896
 20
14.499999999999989
 30
0.0
 40
3.0
  1

 11
249.8107097069896
 21
15.999999999999989
 31
0.0
  2
SETS｛20｝
 70
     0
 74
     2
1001
AcDbAttr
1070
     0
1070
     1
  0
ATTRIB
  5
20F6
  8
AM_BOR
 62
     7
 10
154.5607097069896
 20
14.499999999999989
 30
0.0
 40
3.0
  1

 11
154.5607097069896
 21
15.999999999999989
 31
0.0
  2
REMARKS｛20｝
 70
     0
 74
     2
1001
AcDbAttr
1070
     0
1070
     1
  0
ATTRIB
  5
20F7
  8
AM_BOR
 62
     7
 10
249.8107097069896
 20
19.499999999999989
 30
0.0
 40
3.0
  1

 11
249.8107097069896
 21
20.999999999999989
 31
0.0
  2
SETS｛20｝
 70
     0
 74
     2
1001
AcDbAttr
1070
     0
1070
     1
  0
ATTRIB
  5
20F8
  8
AM_BOR
 62
     7
 10
154.5607097069896
 20
19.499999999999989
 30
0.0
 40
3.0
  1

 11
154.5607097069896
 21
20.999999999999989
 31
0.0
  2
REMARKS｛20｝
 70
     0
 74
     2
1001
AcDbAttr
1070
     0
1070
     1
  0
ATTRIB
  5
20F9
  8
AM_BOR
 62
     7
 10
249.74999999999969
 20
32.499999999999993
 30
0.0
 40
3.0
  1
5K-76-1.5t
 11
249.74999999999969
 21
33.999999999999993
 31
0.0
  2
ART_NO｛20｝
 70
     0
 74
     2
1001
AcDbAttr
1070
     0
1070
     1
  0
ATTRIB
  5
20FA
  8
AM_BOR
 62
     7
 10
154.49999999999969
 20
32.499999999999993
 30
0.0
 40
3.0
  1
5管丁番
 11
154.49999999999969
 21
33.999999999999993
 31
0.0
  2
ARTICLE｛20｝
 70
     0
 74
     2
1001
AcDbAttr
1070
     0
1070
     1
  0
ATTRIB
  5
20FB
  8
AM_BOR
 62
     7
 10
249.74999999999969
 20
25.999999999999989
 30
0.0
 40
3.0
  1
ヘアライン
 11
249.74999999999969
 21
27.499999999999989
 31
0.0
  2
FINISH｛20｝
 70
     0
 74
     2
1001
AcDbAttr
1070
     0
1070
     1
  0
ATTRIB
  5
20FC
  8
AM_BOR
 62
     7
 10
154.49999999999969
 20
25.999999999999989
 30
0.0
 40
3.0
  1
ステンレス（リングは樹脂）
 11
154.49999999999969
 21
27.499999999999989
 31
0.0
  2
MATERIAK｛20｝
 70
     0
 74
     2
1001
AcDbAttr
1070
     0
1070
     1
  0
SEQEND
  5
20FD
  8
0
  0
LINE
  5
96DC
  8
0
 10
231.3718313856283
 20
80.498730809902867
 30
0.0
 11
231.3718313856283
 21
156.49873080990281
 31
0.0
  0
LINE
  5
96DD
  8
0
 10
231.3718313856283
 20
156.49873080990281
 30
0.0
 11
211.42183138562831
 21
156.49873080990281
 31
0.0
  0
LINE
  5
96DE
  8
0
 10
210.6218313856283
 20
156.49873080990281
 30
0.0
 11
182.3718313856283
 21
156.49873080990281
 31
0.0
  0
LINE
  5
96DF
  8
0
 10
182.3718313856283
 20
156.49873080990281
 30
0.0
 11
182.3718313856283
 21
80.498730809902867
 31
0.0
  0
LINE
  5
96E0
  8
0
 10
182.3718313856283
 20
80.498730809902867
 30
0.0
 11
210.6218313856283
 21
80.498730809902867
 31
0.0
  0
LINE
  5
96E1
  8
0
 10
211.42183138562831
 20
80.498730809902867
 30
0.0
 11
231.3718313856283
 21
80.498730809902867
 31
0.0
  0
LINE
  5
96E2
  8
AM_7
 10
206.8718313856283
 20
76.051443776623117
 30
0.0
 11
206.8718313856283
 21
160.90858445811051
 31
0.0
  0
LINE
  5
96E3
  8
AM_7
 10
215.3718313856283
 20
147.49873080990281
 30
0.0
 11
227.3718313856283
 21
147.49873080990281
 31
0.0
  0
LINE
  5
96E4
  8
AM_7
 10
221.3718313856283
 20
153.49873080990281
 30
0.0
 11
221.3718313856283
 21
141.49873080990281
 31
0.0
  0
LINE
  5
96E5
  8
AM_7
 10
217.3718313856283
 20
118.4987308099028
 30
0.0
 11
229.3718313856283
 21
118.4987308099028
 31
0.0
  0
LINE
  5
96E6
  8
AM_7
 10
223.3718313856283
 20
124.4987308099028
 30
0.0
 11
223.3718313856283
 21
112.4987308099028
 31
0.0
  0
LINE
  5
96E7
  8
AM_7
 10
215.3718313856283
 20
89.498730809902881
 30
0.0
 11
227.3718313856283
 21
89.498730809902881
 31
0.0
  0
LINE
  5
96E8
  8
AM_7
 10
221.3718313856283
 20
95.498730809902909
 30
0.0
 11
221.3718313856283
 21
83.498730809902852
 31
0.0
  0
LINE
  5
96E9
  8
AM_7
 10
198.3718313856283
 20
147.49873080990281
 30
0.0
 11
186.3718313856283
 21
147.49873080990281
 31
0.0
  0
LINE
  5
96EA
  8
AM_7
 10
192.3718313856283
 20
153.49873080990281
 30
0.0
 11
192.3718313856283
 21
141.49873080990281
 31
0.0
  0
LINE
  5
96EB
  8
AM_7
 10
196.3718313856283
 20
118.4987308099028
 30
0.0
 11
184.3718313856283
 21
118.4987308099028
 31
0.0
  0
LINE
  5
96EC
  8
AM_7
 10
190.3718313856283
 20
124.4987308099028
 30
0.0
 11
190.3718313856283
 21
112.4987308099028
 31
0.0
  0
LINE
  5
96ED
  8
AM_7
 10
198.3718313856283
 20
89.498730809902881
 30
0.0
 11
186.3718313856283
 21
89.498730809902881
 31
0.0
  0
LINE
  5
96EE
  8
AM_7
 10
192.3718313856283
 20
95.498730809902909
 30
0.0
 11
192.3718313856283
 21
83.498730809902852
 31
0.0
  0
LINE
  5
96EF
  8
AM_7
 10
206.87183138562821
 20
235.9182635865605
 30
0.0
 11
206.87183138562821
 21
251.77146587097371
 31
0.0
  0
LINE
  5
96F0
  8
AM_7
 10
223.3718313856283
 20
241.8930143052367
 30
0.0
 11
223.3718313856283
 21
249.78381916902691
 31
0.0
  0
LINE
  5
96F1
  8
AM_7
 10
192.37183138562821
 20
238.07352140092109
 30
0.0
 11
192.37183138562821
 21
249.78381916902691
 31
0.0
  0
LINE
  5
96F2
  8
AM_7
 10
190.37183138562821
 20
238.07352140092109
 30
0.0
 11
190.37183138562821
 21
249.78381916902691
 31
0.0
  0
CIRCLE
  5
96F3
  8
0
 10
221.3718313856283
 20
147.49873080990281
 30
0.0
 40
2.5
  0
CIRCLE
  5
96F4
  8
0
 10
223.3718313856283
 20
118.4987308099029
 30
0.0
 40
2.5
  0
CIRCLE
  5
96F5
  8
0
 10
221.3718313856283
 20
89.498730809902909
 30
0.0
 40
2.5
  0
CIRCLE
  5
96F6
  8
0
 10
192.37183138562821
 20
89.498730809902881
 30
0.0
 40
2.5
  0
CIRCLE
  5
96F7
  8
0
 10
190.37183138562821
 20
118.4987308099029
 30
0.0
 40
2.5
  0
CIRCLE
  5
96F8
  8
0
 10
192.37183138562821
 20
147.49873080990281
 30
0.0
 40
3.75
  0
CIRCLE
  5
96F9
  8
0
 10
190.37183138562821
 20
118.4987308099029
 30
0.0
 40
3.75
  0
CIRCLE
  5
96FA
  8
0
 10
192.37183138562821
 20
89.498730809902881
 30
0.0
 40
3.75
  0
CIRCLE
  5
96FB
  8
0
 10
221.3718313856283
 20
89.498730809902909
 30
0.0
 40
3.75
  0
CIRCLE
  5
96FC
  8
0
 10
223.3718313856283
 20
118.4987308099029
 30
0.0
 40
3.75
  0
CIRCLE
  5
96FD
  8
0
 10
221.3718313856283
 20
147.49873080990281
 30
0.0
 40
3.75
  0
LINE
  5
96FE
  8
0
 10
210.6218313856283
 20
80.498730809902867
 30
0.0
 11
210.6218313856283
 21
156.49873080990281
 31
0.0
  0
LINE
  5
96FF
  8
0
 10
203.1218313856283
 20
80.498730809902867
 30
0.0
 11
203.1218313856283
 21
156.49873080990281
 31
0.0
  0
LINE
  5
9700
  8
0
 10
210.6218313856283
 20
142.8487308099028
 30
0.0
 11
202.32183138562829
 21
142.8487308099028
 31
0.0
  0
LINE
  5
9701
  8
0
 10
211.42183138562831
 20
140.8487308099028
 30
0.0
 11
203.1218313856283
 21
140.8487308099028
 31
0.0
  0
LINE
  5
9702
  8
0
 10
211.42183138562831
 20
127.3487308099028
 30
0.0
 11
203.1218313856283
 21
127.3487308099028
 31
0.0
  0
LINE
  5
9703
  8
0
 10
210.6218313856283
 20
125.3487308099028
 30
0.0
 11
202.32183138562829
 21
125.3487308099028
 31
0.0
  0
LINE
  5
9704
  8
0
 10
210.6218313856283
 20
111.6487308099029
 30
0.0
 11
202.32183138562829
 21
111.6487308099029
 31
0.0
  0
LINE
  5
9705
  8
0
 10
211.42183138562831
 20
109.6487308099029
 30
0.0
 11
203.1218313856283
 21
109.6487308099029
 31
0.0
  0
LINE
  5
9706
  8
0
 10
211.42183138562831
 20
96.148730809902915
 30
0.0
 11
203.1218313856283
 21
96.148730809902915
 31
0.0
  0
LINE
  5
9707
  8
0
 10
210.6218313856283
 20
94.148730809902901
 30
0.0
 11
202.32183138562829
 21
94.148730809902901
 31
0.0
  0
LINE
  5
9708
  8
AM_7
 10
200.86772630295459
 20
243.84486472876711
 30
0.0
 11
212.8759364683018
 21
243.84486472876711
 31
0.0
  0
ARC
  5
9709
  8
0
 10
206.87183138562821
 20
243.84486472876711
 30
0.0
 40
3.75
 50
164.53399004657939
 51
111.4038876924236
  0
LINE
  5
970B
  8
0
 10
182.37183138562821
 20
244.84486472876711
 30
0.0
 11
202.97414266252781
 21
244.84486472876711
 31
0.0
  0
LINE
  5
970C
  8
0
 10
210.48603945932851
 20
244.84486472876711
 30
0.0
 11
231.3718313856283
 21
244.84486472876711
 31
0.0
  0
LINE
  5
970D
  8
0
 10
182.37183138562821
 20
246.34486472876711
 30
0.0
 11
202.97414266252781
 21
246.34486472876711
 31
0.0
  0
LINE
  5
970E
  8
0
 10
209.66691635750291
 20
246.34486472876711
 30
0.0
 11
231.3718313856283
 21
246.34486472876711
 31
0.0
  0
LINE
  5
970F
  8
AM_1N
 10
182.37183138562821
 20
242.84486472876711
 30
0.0
 11
203.257623311928
 21
242.84486472876711
 31
0.0
  0
LINE
  5
9710
  8
AM_1N
 10
182.37183138562821
 20
241.34486472876711
 30
0.0
 11
204.07674641375351
 21
241.34486472876711
 31
0.0
  0
LINE
  5
9711
  8
0
 10
231.3718313856283
 20
244.84486472876711
 30
0.0
 11
231.3718313856283
 21
246.34486472876711
 31
0.0
  0
LINE
  5
9712
  8
0
 10
182.37183138562821
 20
244.84486472876711
 30
0.0
 11
182.37183138562821
 21
246.34486472876711
 31
0.0
  0
LINE
  5
9713
  8
AM_1N
 10
182.37183138562821
 20
242.84486472876711
 30
0.0
 11
182.37183138562821
 21
241.34486472876711
 31
0.0
  0
LINE
  5
9714
  8
0
 10
211.42183138562831
 20
244.84486472876711
 30
0.0
 11
211.42183138562831
 21
246.34486472876711
 31
0.0
  0
ARC
  5
971C
  8
0
 10
206.7468313856283
 20
83.418254221063535
 30
0.0
 40
4.1369617308185651
 50
224.88748268989079
 51
315.11251731010913
  0
ARC
  5
971D
  8
0
 10
206.7468313856283
 20
153.57920739874211
 30
0.0
 40
4.1369617308177791
 50
44.887482689902797
 51
135.11251731009719
  0
LINE
  5
971F
  8
0
 10
211.42183138562831
 20
80.498730809902867
 30
0.0
 11
211.42183138562831
 21
96.148730809902915
 31
0.0
  0
LINE
  5
9720
  8
0
 10
202.32183138562829
 20
94.148730809902901
 30
0.0
 11
202.32183138562829
 21
111.6487308099029
 31
0.0
  0
LINE
  5
9721
  8
0
 10
202.32183138562829
 20
125.3487308099028
 30
0.0
 11
202.32183138562829
 21
142.8487308099028
 31
0.0
  0
LINE
  5
9722
  8
0
 10
211.42183138562831
 20
109.6487308099029
 30
0.0
 11
211.42183138562831
 21
127.3487308099028
 31
0.0
  0
LINE
  5
9723
  8
0
 10
211.42183138562831
 20
140.8487308099028
 30
0.0
 11
211.42183138562831
 21
156.49873080990281
 31
0.0
  0
CIRCLE
  5
9724
  8
0
 10
192.37183138562821
 20
147.49873080990281
 30
0.0
 40
2.5
  0
LINE
  5
9726
  8
AM_7
 10
221.37183138561801
 20
241.8930143052367
 30
0.0
 11
221.37183138561801
 21
249.78381916902691
 31
0.0
  0
CIRCLE
  5
9732
  8
0
 10
206.87183138562821
 20
243.84486472876711
 30
0.0
 40
2.25
  0
LINE
  5
9733
  8
0
 10
203.5215526002159
 20
244.94831814518301
 30
0.0
 11
206.0507164790962
 21
245.93968460414331
 31
0.0
  0
LINE
  5
9734
  8
0
 10
202.97414266252781
 20
246.34486472876711
 30
0.0
 11
205.50330654140811
 21
247.33623118772741
 31
0.0
  0
LINE
  5
9735
  8
0
 10
204.70330654140801
 20
244.4448647287671
 30
0.0
 11
203.257623311928
 21
244.84486472876711
 31
0.0
  0
ARC
  5
9736
  8
0
 10
202.97414266252781
 20
246.34486472876711
 30
0.0
 40
1.5
 50
270.0
 51
291.40388769242361
  0
DIMENSION
  5
9929
  8
AM_5
  2
*D14
 10
203.1218313856283
 20
172.19766664955529
 30
0.0
 11
173.27610197635201
 21
172.19766664955529
 31
0.0
 70
   128
  1
(%%c<>)
 13
210.6218313856283
 23
156.49873080990281
 33
0.0
 14
203.1218313856283
 24
156.49873080990281
 34
0.0
1001
ACAD_DSTYLE_DIMINSPECT
1070
   396
1000
100%
1070
   395
1000

1070
   394
1070
    33
1070
   393
1070
     0
  0
DIMENSION
  5
998E
  8
AM_5
  2
*D15
 10
190.3718313856283
 20
180.784445095617
 30
0.0
 11
177.8718313856283
 21
180.784445095617
 31
0.0
 70
   128
 13
182.3718313856283
 23
156.49873080990281
 33
0.0
 14
190.3718313856283
 24
124.4987308099028
 34
0.0
1001
ACAD_DSTYLE_DIMINSPECT
1070
   396
1000
100%
1070
   395
1000

1070
   394
1070
    33
1070
   393
1070
     0
1001
ACAD
1000
DSTYLE
1002
{
1070
   173
1070
     1
1070
   174
1070
     1
1070
     6
1000
OPEN30
1070
     7
1000
GENDOT
1002
}
  0
DIMENSION
  5
99C1
  8
AM_5
  2
*D16
 10
190.3718313856283
 20
180.784445095617
 30
0.0
 11
187.2619743114499
 21
188.23287432786839
 31
0.0
 70
   128
 13
192.3718313856283
 23
153.49873080990281
 33
0.0
 14
190.3718313856283
 24
124.4987308099028
 34
0.0
1001
ACAD_DSTYLE_DIMINSPECT
1070
   396
1000
100%
1070
   395
1000

1070
   394
1070
    33
1070
   393
1070
     0
1001
ACAD
1000
DSTYLE
1002
{
1070
   287
1070
     4
1070
   173
1070
     1
1070
   174
1070
     1
1070
   279
1070
     1
1070
     6
1000
OPEN30
1070
     7
1000
GENDOT
1002
}
  0
DIMENSION
  5
99FC
  8
AM_5
  2
*D17
 10
192.3718313856283
 20
180.784445095617
 30
0.0
 11
199.6218313856283
 21
183.284445095617
 31
0.0
 70
     0
 13
206.8718313856283
 23
160.90858445811051
 33
0.0
 14
192.3718313856283
 24
153.49873080990281
 34
0.0
1001
ACAD
1000
DSTYLE
1002
{
1070
   174
1070
     1
1002
}
1001
ACAD_DSTYLE_DIMINSPECT
1070
   396
1000
100%
1070
   395
1000

1070
   394
1070
    33
1070
   393
1070
     0
  0
DIMENSION
  5
9A1D
  8
AM_5
  2
*D18
 10
206.8718313856283
 20
180.78444509561689
 30
0.0
 11
214.1218313856283
 21
183.284445095617
 31
0.0
 70
     0
 13
221.3718313856283
 23
153.49873080990281
 33
0.0
 14
206.8718313856283
 24
160.90858445811051
 34
0.0
1001
ACAD
1000
DSTYLE
1002
{
1070
   174
1070
     1
1002
}
1001
ACAD_DSTYLE_DIMINSPECT
1070
   396
1000
100%
1070
   395
1000

1070
   394
1070
    33
1070
   393
1070
     0
  0
DIMENSION
  5
9A3E
  8
AM_5
  2
*D19
 10
221.3718313856283
 20
180.784445095617
 30
0.0
 11
225.93327161763861
 21
188.23287432786839
 31
0.0
 70
   128
 13
223.3718313856283
 23
124.4987308099028
 33
0.0
 14
221.3718313856283
 24
153.49873080990281
 34
0.0
1001
ACAD_DSTYLE_DIMINSPECT
1070
   396
1000
100%
1070
   395
1000

1070
   394
1070
    33
1070
   393
1070
     0
1001
ACAD
1000
DSTYLE
1002
{
1070
   287
1070
     4
1070
   173
1070
     1
1070
   174
1070
     1
1070
   279
1070
     1
1070
     6
1000
GENDOT
1070
     7
1000
OPEN30
1002
}
  0
DIMENSION
  5
9A65
  8
AM_5
  2
*D20
 10
223.3718313856283
 20
180.784445095617
 30
0.0
 11
237.59103592105291
 21
180.784445095617
 31
0.0
 70
   128
 13
231.3718313856283
 23
156.49873080990281
 33
0.0
 14
223.3718313856283
 24
124.4987308099028
 34
0.0
1001
ACAD_DSTYLE_DIMINSPECT
1070
   396
1000
100%
1070
   395
1000

1070
   394
1070
    33
1070
   393
1070
     0
1001
ACAD
1000
DSTYLE
1002
{
1070
   173
1070
     1
1070
   174
1070
     1
1070
     6
1000
OPEN30
1070
     7
1000
GENDOT
1002
}
  0
DIMENSION
  5
9A9A
  8
AM_5
  2
*D21
 10
206.8718313856283
 20
194.78444509561689
 30
0.0
 11
194.6218313856283
 21
197.28444509561689
 31
0.0
 70
     0
 13
182.3718313856283
 23
156.49873080990281
 33
0.0
 14
206.8718313856283
 24
160.90858445811051
 34
0.0
1001
ACAD_DSTYLE_DIMINSPECT
1070
   396
1000
100%
1070
   395
1000

1070
   394
1070
    33
1070
   393
1070
     0
1001
ACAD
1000
DSTYLE
1002
{
1070
   174
1070
     1
1002
}
  0
DIMENSION
  5
9ACD
  8
AM_5
  2
*D22
 10
206.8718313856283
 20
194.784445095617
 30
0.0
 11
219.1218313856283
 21
197.284445095617
 31
0.0
 70
     0
 13
231.3718313856283
 23
156.49873080990281
 33
0.0
 14
206.8718313856283
 24
160.90858445811051
 34
0.0
1001
ACAD
1000
DSTYLE
1002
{
1070
   174
1070
     1
1002
}
1001
ACAD_DSTYLE_DIMINSPECT
1070
   396
1000
100%
1070
   395
1000

1070
   394
1070
    33
1070
   393
1070
     0
  0
DIMENSION
  5
9AEE
  8
AM_5
  2
*D23
 10
231.3718313856283
 20
201.78444509561689
 30
0.0
 11
206.8718313856283
 21
204.28444509561689
 31
0.0
 70
     0
 13
182.3718313856283
 23
156.49873080990281
 33
0.0
 14
231.3718313856283
 24
156.49873080990281
 34
0.0
1001
ACAD_DSTYLE_DIMINSPECT
1070
   396
1000
100%
1070
   395
1000

1070
   394
1070
    33
1070
   393
1070
     0
  0
DIMENSION
  5
9B18
  8
AM_5
  2
*D24
 10
153.7604063008007
 20
147.49873080990281
 30
0.0
 11
151.26040630080061
 21
151.99873080990281
 31
0.0
 70
     0
 13
182.3718313856283
 23
156.49873080990281
 33
0.0
 14
186.3718313856283
 24
147.49873080990281
 34
0.0
 50
90.000000000000028
1001
ACAD_DSTYLE_DIMINSPECT
1070
   396
1000
100%
1070
   395
1000

1070
   394
1070
    33
1070
   393
1070
     0
1001
ACAD
1000
DSTYLE
1002
{
1070
   174
1070
     1
1002
}
  0
DIMENSION
  5
9B4B
  8
AM_5
  2
*D25
 10
153.7604063008007
 20
118.4987308099028
 30
0.0
 11
151.2604063008007
 21
132.99873080990281
 31
0.0
 70
     0
 13
186.3718313856283
 23
147.49873080990281
 33
0.0
 14
184.3718313856283
 24
118.4987308099028
 34
0.0
 50
90.0
1001
ACAD
1000
DSTYLE
1002
{
1070
   174
1070
     1
1002
}
1001
ACAD_DSTYLE_DIMINSPECT
1070
   396
1000
100%
1070
   395
1000

1070
   394
1070
    33
1070
   393
1070
     0
  0
DIMENSION
  5
9B6C
  8
AM_5
  2
*D26
 10
153.7604063008007
 20
89.498730809902895
 30
0.0
 11
151.26040630080061
 21
103.9987308099028
 31
0.0
 70
     0
 13
184.3718313856283
 23
118.4987308099028
 33
0.0
 14
186.3718313856283
 24
89.498730809902881
 34
0.0
 50
90.0
1001
ACAD
1000
DSTYLE
1002
{
1070
   174
1070
     1
1002
}
1001
ACAD_DSTYLE_DIMINSPECT
1070
   396
1000
100%
1070
   395
1000

1070
   394
1070
    33
1070
   393
1070
     0
  0
DIMENSION
  5
9B8D
  8
AM_5
  2
*D27
 10
153.7604063008007
 20
80.498730809902867
 30
0.0
 11
151.2604063008007
 21
84.998730809902895
 31
0.0
 70
     0
 13
186.3718313856283
 23
89.498730809902881
 33
0.0
 14
182.37183138562821
 24
80.498730809902867
 34
0.0
 50
90.0
1001
ACAD
1000
DSTYLE
1002
{
1070
   174
1070
     1
1002
}
1001
ACAD_DSTYLE_DIMINSPECT
1070
   396
1000
100%
1070
   395
1000

1070
   394
1070
    33
1070
   393
1070
     0
  0
DIMENSION
  5
9BAE
  8
AM_5
  2
*D28
 10
252.4994493739519
 20
147.49873080990281
 30
0.0
 11
249.99944937395179
 21
151.99873080990281
 31
0.0
 70
     0
 13
231.3718313856283
 23
156.49873080990281
 33
0.0
 14
227.3718313856283
 24
147.49873080990281
 34
0.0
 50
90.000000000000028
1001
ACAD_DSTYLE_DIMINSPECT
1070
   396
1000
100%
1070
   395
1000

1070
   394
1070
    33
1070
   393
1070
     0
1001
ACAD
1000
DSTYLE
1002
{
1070
   174
1070
     1
1002
}
  0
DIMENSION
  5
9BE1
  8
AM_5
  2
*D29
 10
252.4994493739519
 20
147.49873080990281
 30
0.0
 11
249.99944937395179
 21
132.99873080990281
 31
0.0
 70
     0
 13
229.3718313856283
 23
118.4987308099028
 33
0.0
 14
227.3718313856283
 24
147.49873080990281
 34
0.0
 50
90.0
1001
ACAD
1000
DSTYLE
1002
{
1070
   174
1070
     1
1002
}
1001
ACAD_DSTYLE_DIMINSPECT
1070
   396
1000
100%
1070
   395
1000

1070
   394
1070
    33
1070
   393
1070
     0
  0
DIMENSION
  5
9C02
  8
AM_5
  2
*D30
 10
252.4994493739519
 20
118.4987308099028
 30
0.0
 11
249.9994493739519
 21
103.9987308099028
 31
0.0
 70
     0
 13
227.3718313856283
 23
89.498730809902881
 33
0.0
 14
229.3718313856283
 24
118.4987308099028
 34
0.0
 50
90.0
1001
ACAD
1000
DSTYLE
1002
{
1070
   174
1070
     1
1002
}
1001
ACAD_DSTYLE_DIMINSPECT
1070
   396
1000
100%
1070
   395
1000

1070
   394
1070
    33
1070
   393
1070
     0
  0
DIMENSION
  5
9C23
  8
AM_5
  2
*D31
 10
252.4994493739519
 20
89.498730809902881
 30
0.0
 11
249.9994493739519
 21
84.998730809902895
 31
0.0
 70
     0
 13
231.3718313856283
 23
80.498730809902867
 33
0.0
 14
227.3718313856283
 24
89.498730809902881
 34
0.0
 50
90.0
1001
ACAD
1000
DSTYLE
1002
{
1070
   174
1070
     1
1002
}
1001
ACAD_DSTYLE_DIMINSPECT
1070
   396
1000
100%
1070
   395
1000

1070
   394
1070
    33
1070
   393
1070
     0
  0
DIMENSION
  5
9C44
  8
AM_5
  2
*D32
 10
259.4994493739519
 20
80.498730809902867
 30
0.0
 11
256.9994493739519
 21
118.4987308099028
 31
0.0
 70
     0
 13
231.3718313856283
 23
156.49873080990281
 33
0.0
 14
231.3718313856283
 24
80.498730809902867
 34
0.0
 50
90.000000000000028
1001
ACAD_DSTYLE_DIMINSPECT
1070
   396
1000
100%
1070
   395
1000

1070
   394
1070
    33
1070
   393
1070
     0
  0
INSERT
  5
9C73
  8
AM_5
  2
*S38
 10
0.0
 20
0.0
 30
0.0
  0
DIMENSION
  5
9C75
  8
AM_5
  2
*D33
 10
165.87183038562819
 20
244.84486472876711
 30
0.0
 11
165.87183038562819
 21
256.22967626441471
 31
0.0
 70
   128
 13
182.37183138562821
 23
246.34486472876711
 33
0.0
 14
182.37183138562821
 24
244.84486472876711
 34
0.0
 50
90.000000000000028
1001
ACAD_DSTYLE_DIMINSPECT
1070
   396
1000
100%
1070
   395
1000

1070
   394
1070
    33
1070
   393
1070
     0
1001
ACAD
1000
DSTYLE
1002
{
1070
   173
1070
     1
1070
   174
1070
     1
1070
     6
1000
OPEN30
1070
     7
1000
GENDOT
1002
}
  0
DIMENSION
  5
9CB2
  8
AM_5
  2
*D34
 10
165.8882120284363
 20
242.84486472876711
 30
0.0
 11
157.38882940288499
 21
233.57574849094419
 31
0.0
 70
   128
 13
182.37183138562821
 23
244.84486472876711
 33
0.0
 14
182.37183138562821
 24
242.84486472876711
 34
0.0
 50
90.0
1001
ACAD_DSTYLE_DIMINSPECT
1070
   396
1000
100%
1070
   395
1000

1070
   394
1070
    33
1070
   393
1070
     0
1001
ACAD
1000
DSTYLE
1002
{
1070
   287
1070
     4
1070
   174
1070
     1
1070
   279
1070
     1
1070
     5
1000
GENDOT
1002
}
  0
DIMENSION
  5
9CEF
  8
AM_5
  2
*D35
 10
165.87183038562819
 20
241.34486472876711
 30
0.0
 11
165.87183038562819
 21
232.48772187162419
 31
0.0
 70
   128
 13
182.37183138562821
 23
242.84486472876711
 33
0.0
 14
182.37183138562821
 24
241.34486472876711
 34
0.0
 50
90.0
1001
ACAD_DSTYLE_DIMINSPECT
1070
   396
1000
100%
1070
   395
1000

1070
   394
1070
    33
1070
   393
1070
     0
1001
ACAD
1000
DSTYLE
1002
{
1070
   173
1070
     1
1070
   174
1070
     1
1070
     6
1000
GENDOT
1070
     7
1000
OPEN30
1002
}
  0
DIMENSION
  5
9D5B
  8
AM_5
  2
*D36
 10
148.78189958461761
 20
246.34486472876711
 30
0.0
 11
146.28189958461749
 21
243.84486472876711
 31
0.0
 70
     0
 13
182.37183138562821
 23
241.34486472876711
 33
0.0
 14
182.37183138562821
 24
246.34486472876711
 34
0.0
 50
90.000000000000028
1001
ACAD_DSTYLE_DIMINSPECT
1070
   396
1000
100%
1070
   395
1000

1070
   394
1070
    33
1070
   393
1070
     0
  0
VIEWPORT
  5
95A
 67
     1
  8
0
  6
CONTINUOUS
 10
128.5
 20
97.5
 30
0.0
 40
386.73855140186919
 41
222.18000000000001
 68
     1
 69
     1
1001
ACAD
1000
MVIEW
1002
{
1070
    16
1010
0.0
1020
0.0
1030
0.0
1010
0.0
1020
0.0
1030
1.0
1040
0.0
1040
222.18000000000001
1040
128.5
1040
97.5
1040
50.0
1040
0.0
1040
0.0
1070
     0
1070
   100
1070
     1
1070
     1
1070
     0
1070
     0
1070
     0
1070
     0
1040
0.0
1040
0.0
1040
0.0
1040
10.0
1040
10.0
1040
10.0
1040
10.0
1070
     0
1002
{
1002
}
1002
}
1001
GENIUS_GENOBJ-N-SDF_13
1002
{
1000
OWNER
1000
GEN
1002
}
1001
GENIUS_GENODEF_13
1002
{
1000
HIER
1070
     0
1002
}
1002
{
1000
MANEDIT
1070
     0
1002
}
1002
{
1000
NOSEL
1070
     0
1002
}
1002
{
1000
BEHIND
1070
     0
1002
}
1002
{
1000
OTHER
1070
     0
1002
}
1002
{
1000
REACTOR
1002
}
1001
GENIUS_GENSCREG_15
1000
PF
1040
1.0
1000
DF
1040
1.0
1000
MIN
1011
-64.869275700934566
1021
0.0
1031
0.0
1021
-13.59
1031
0.0
1000
MAX
1011
321.86927570093462
1021
0.0
1031
0.0
1021
208.59
1031
0.0
1000
FLAGS
1070
     4
  0
ENDSEC
  0
EOF
