  0
SECTION
  2
HEADER
  9
$ACADVER
  1
AC1009
  9
$INSBASE
 10
0.0
 20
0.0
 30
0.0
  9
$EXTMIN
 10
24.982300946393821
 20
8.9873774191338498
 30
-0.0000000000000053
  9
$EXTMAX
 10
412.01772338375707
 20
285.01263993260233
 30
0.0000000000000099
  9
$LIMMIN
 10
24.999999999999979
 20
8.9999999999999964
  9
$LIMMAX
 10
411.99999999999989
 20
284.99999999999989
  9
$ORTHOMODE
 70
     1
  9
$REGENMODE
 70
     1
  9
$FILLMODE
 70
     1
  9
$QTEXTMODE
 70
     0
  9
$MIRRTEXT
 70
     1
  9
$DRAGMODE
 70
     2
  9
$LTSCALE
 40
5.0
  9
$OSMODE
 70
    39
  9
$ATTMODE
 70
     1
  9
$TEXTSIZE
 40
3.0
  9
$TRACEWID
 40
0.05
  9
$TEXTSTYLE
  7
STANDARD
  9
$CLAYER
  8
0
  9
$CELTYPE
  6
BYLAYER
  9
$CECOLOR
 62
   256
  9
$DIMSCALE
 40
1.0
  9
$DIMASZ
 40
2.5
  9
$DIMEXO
 40
1.0
  9
$DIMDLI
 40
7.0
  9
$DIMRND
 40
0.0
  9
$DIMDLE
 40
0.0
  9
$DIMEXE
 40
1.0
  9
$DIMTP
 40
0.1
  9
$DIMTM
 40
0.1
  9
$DIMTXT
 40
3.0
  9
$DIMCEN
 40
0.0
  9
$DIMTSZ
 40
0.0
  9
$DIMTOL
 70
     0
  9
$DIMLIM
 70
     0
  9
$DIMTIH
 70
     0
  9
$DIMTOH
 70
     0
  9
$DIMSE1
 70
     0
  9
$DIMSE2
 70
     0
  9
$DIMTAD
 70
     3
  9
$DIMZIN
 70
     8
  9
$DIMBLK
  1
OPEN30
  9
$DIMASO
 70
     1
  9
$DIMSHO
 70
     1
  9
$DIMPOST
  1

  9
$DIMAPOST
  1
"
  9
$DIMALT
 70
     0
  9
$DIMALTD
 70
     2
  9
$DIMALTF
 40
0.0393701
  9
$DIMLFAC
 40
1.0
  9
$DIMTOFL
 70
     1
  9
$DIMTVP
 40
0.0
  9
$DIMTIX
 70
     0
  9
$DIMSOXD
 70
     0
  9
$DIMSAH
 70
     0
  9
$DIMBLK1
  1

  9
$DIMBLK2
  1

  9
$DIMSTYLE
  2
AM_JIS
  9
$DIMCLRD
 70
     7
  9
$DIMCLRE
 70
     7
  9
$DIMCLRT
 70
     7
  9
$DIMTFAC
 40
0.71
  9
$DIMGAP
 40
1.0
  9
$LUNITS
 70
     2
  9
$LUPREC
 70
     4
  9
$SKETCHINC
 40
0.1
  9
$FILLETRAD
 40
0.0
  9
$AUNITS
 70
     0
  9
$AUPREC
 70
     0
  9
$MENU
  1
acad
  9
$ELEVATION
 40
0.0
  9
$PELEVATION
 40
0.0
  9
$THICKNESS
 40
0.0
  9
$LIMCHECK
 70
     0
  9
$BLIPMODE
 70
     0
  9
$CHAMFERA
 40
0.0
  9
$CHAMFERB
 40
0.0
  9
$SKPOLY
 70
     0
  9
$TDCREATE
 40
2455755.6568701151
  9
$TDUPDATE
 40
2457136.7273703702
  9
$TDINDWG
 40
0.2865309954
  9
$TDUSRTIMER
 40
0.2865308102
  9
$USRTIMER
 70
     1
  9
$ANGBASE
 50
0.0
  9
$ANGDIR
 70
     0
  9
$PDMODE
 70
     0
  9
$PDSIZE
 40
0.0
  9
$PLINEWID
 40
0.0
  9
$COORDS
 70
     1
  9
$SPLFRAME
 70
     0
  9
$SPLINETYPE
 70
     6
  9
$SPLINESEGS
 70
     8
  9
$ATTDIA
 70
     1
  9
$ATTREQ
 70
     1
  9
$HANDLING
 70
     1
  9
$HANDSEED
  5
B29F
  9
$SURFTAB1
 70
     6
  9
$SURFTAB2
 70
     6
  9
$SURFTYPE
 70
     6
  9
$SURFU
 70
     6
  9
$SURFV
 70
     6
  9
$UCSNAME
  2

  9
$UCSORG
 10
0.0
 20
0.0
 30
0.0
  9
$UCSXDIR
 10
1.0
 20
0.0
 30
0.0
  9
$UCSYDIR
 10
0.0
 20
1.0
 30
0.0
  9
$PUCSNAME
  2

  9
$PUCSORG
 10
0.0
 20
0.0
 30
0.0
  9
$PUCSXDIR
 10
1.0
 20
0.0
 30
0.0
  9
$PUCSYDIR
 10
0.0
 20
1.0
 30
0.0
  9
$USERI1
 70
     0
  9
$USERI2
 70
     0
  9
$USERI3
 70
     0
  9
$USERI4
 70
     0
  9
$USERI5
 70
     0
  9
$USERR1
 40
0.0
  9
$USERR2
 40
0.0
  9
$USERR3
 40
0.0
  9
$USERR4
 40
0.0
  9
$USERR5
 40
0.0
  9
$WORLDVIEW
 70
     1
  9
$SHADEDGE
 70
     3
  9
$SHADEDIF
 70
    70
  9
$TILEMODE
 70
     1
  9
$MAXACTVP
 70
    16
  9
$PLIMCHECK
 70
     0
  9
$PEXTMIN
 10
1.0000000000000000E+020
 20
1.0000000000000000E+020
 30
1.0000000000000000E+020
  9
$PEXTMAX
 10
-1.0000000000000000E+020
 20
-1.0000000000000000E+020
 30
-1.0000000000000000E+020
  9
$PLIMMIN
 10
-20.0
 20
-7.5
  9
$PLIMMAX
 10
277.0
 20
202.5
  9
$UNITMODE
 70
     0
  9
$VISRETAIN
 70
     0
  9
$PLINEGEN
 70
     1
  9
$PSLTSCALE
 70
     0
  0
ENDSEC
  0
SECTION
  2
TABLES
  0
TABLE
  2
VPORT
 70
     1
  0
VPORT
  2
*ACTIVE
 70
     0
 10
0.0
 20
0.0
 11
1.0
 21
1.0
 12
218.5000121650755
 22
147.00000867586809
 13
0.0
 23
0.0
 14
2.5
 24
2.5
 15
10.0
 25
10.0
 16
0.0
 26
0.0
 36
1.0
 17
0.0
 27
0.0
 37
0.0
 40
278.36583692256733
 41
2.1619718309859151
 42
50.0
 43
0.0
 44
0.0
 50
0.0
 51
0.0
 71
     0
 72
   100
 73
     1
 74
     3
 75
     0
 76
     0
 77
     0
 78
     1
  0
ENDTAB
  0
TABLE
  2
LTYPE
 70
    22
  0
LTYPE
  2
CONTINUOUS
 70
     0
  3
Solid line (NEC CAE2D for Win R7.2 : 2008.02.20
 72
    65
 73
     0
 40
0.0
  0
LTYPE
  2
HIDDEN
 70
     0
  3
Hidden __ __ __ __ __ __ __ __ __ __ __ __ __ _
 72
    65
 73
     2
 40
0.375
 49
0.25
 49
-0.125
  0
LTYPE
  2
PHANTOM2
 70
     0
  3
Phantom (.5x) ___ _ _ ___ _ _ ___ _ _ ___ _ _
 72
    65
 73
     6
 40
1.25
 49
0.625
 49
-0.125
 49
0.125
 49
-0.125
 49
0.125
 49
-0.125
  0
LTYPE
  2
CENTER
 70
     0
  3
Center ____ _ ____ _ ____ _ ____ _ ____ _ ____
 72
    65
 73
     4
 40
2.0
 49
1.25
 49
-0.25
 49
0.25
 49
-0.25
  0
LTYPE
  2
CENTER2
 70
     0
  3
Center (.5x) ___ _ ___ _ ___ _ ___ _ ___ _ ___
 72
    65
 73
     4
 40
1.125
 49
0.75
 49
-0.125
 49
0.125
 49
-0.125
  0
LTYPE
  2
HIDDEN2
 70
     0
  3
Hidden (.5x) _ _ _ _ _ _ _ _ _ _ _ _ _ _ _ _ _
 72
    65
 73
     2
 40
0.1875
 49
0.125
 49
-0.0625
  0
LTYPE
  2
ACANSTGB
 70
     0
  3
__ . . __ . .
 72
    65
 73
     6
 40
0.35433070866
 49
0.15748031496
 49
-0.03937007874
 49
0.03937007874
 49
-0.03937007874
 49
0.03937007874
 49
-0.03937007874
  0
LTYPE
  2
ACANSTGL
 70
     0
  3
_ _ _ _ _
 72
    65
 73
     2
 40
0.11811023622
 49
0.07874015748
 49
-0.03937007874
  0
LTYPE
  2
ACJISWELD
 70
     0
  3
_ _ _ _ _
 72
    65
 73
     2
 40
2.0
 49
2.0
 49
-1.0
  0
LTYPE
  2
ACJISTGB
 70
     0
  3
__ . . __ . .
 72
    65
 73
     6
 40
9.0
 49
4.0
 49
-1.0
 49
1.0
 49
-1.0
 49
1.0
 49
-1.0
  0
LTYPE
  2
ACJISTGL
 70
     0
  3
_ _ _ _ _
 72
    65
 73
     2
 40
3.0
 49
2.0
 49
-1.0
  0
LTYPE
  2
ACISOWELD
 70
     0
  3
_ _ _ _ _
 72
    65
 73
     2
 40
2.0
 49
2.0
 49
-1.0
  0
LTYPE
  2
ACISOTGB
 70
     0
  3
__ . . __ . .
 72
    65
 73
     6
 40
9.0
 49
4.0
 49
-1.0
 49
1.0
 49
-1.0
 49
1.0
 49
-1.0
  0
LTYPE
  2
ACISOTGL
 70
     0
  3
_ _ _ _ _
 72
    65
 73
     2
 40
3.0
 49
2.0
 49
-1.0
  0
LTYPE
  2
AM_ISO02W050
 70
     0
  3
__ __ __ __ __ __ __ __ __ __ __ __ __ __ __
 72
    65
 73
     2
 40
7.5
 49
6.0
 49
-1.5
  0
LTYPE
  2
AM_ISO08W050
 70
     0
  3
____ . ____ . ____ . ____ . ____ . ____ . ____
 72
    65
 73
     4
 40
18.0
 49
12.0
 49
-1.5
 49
3.0
 49
-1.5
  0
LTYPE
  2
AM_ISO09W050
 70
     0
  3
_____ . . _____ . . _____ . . ____ .. ____
 72
    65
 73
     6
 40
22.5
 49
12.0
 49
-1.5
 49
3.0
 49
-1.5
 49
3.0
 49
-1.5
  0
LTYPE
  2
AMCONSTR
 70
     0
  3
_______________________
 72
    65
 73
     2
 40
9999.0
 49
9999.0
 49
0.0
  0
LTYPE
  2
AM_ISO08W050X2
 70
     0
  3
__ . __ . __ . __ . __ . __
 72
    65
 73
     4
 40
9.0
 49
6.0
 49
-0.75
 49
1.5
 49
-0.75
  0
LTYPE
  2
AM_ISO02W050X2
 70
     0
  3
 _ _ _ _ _ _ _ _ _ _ _ _
 72
    65
 73
     2
 40
3.75
 49
3.0
 49
-0.75
  0
LTYPE
  2
AMZIGZAG
 70
     0
  3
/\/-/\/-/\/-/\/-/\/-/\/
 72
    65
 73
     2
 40
11.0001
 49
0.0001
 49
-11.0
  0
LTYPE
  2
PHANTOM
 70
     0
  3
____ _ _ ____ _ _ ____ _ _ ____ _ _ ____
 72
    65
 73
     6
 40
2.5
 49
1.25
 49
-0.25
 49
0.25
 49
-0.25
 49
0.25
 49
-0.25
  0
ENDTAB
  0
TABLE
  2
LAYER
 70
    21
  0
LAYER
  2
0
 70
     0
 62
     3
  6
CONTINUOUS
  0
LAYER
  2
SYS-BUHIN0
 70
     0
 62
     7
  6
CONTINUOUS
  0
LAYER
  2
AM_0
 70
     0
 62
     3
  6
CONTINUOUS
  0
LAYER
  2
DEFPOINTS
 70
     0
 62
     7
  6
CONTINUOUS
  0
LAYER
  2
AM_5
 70
     0
 62
     7
  6
CONTINUOUS
  0
LAYER
  2
AM_BOR
 70
     0
 62
     7
  6
CONTINUOUS
  0
LAYER
  2
SYS-BUHINCODE
 70
     0
 62
     7
  6
CONTINUOUS
  0
LAYER
  2
AM_7
 70
     0
 62
     4
  6
CENTER
  0
LAYER
  2
AM_3
 70
     0
 62
     7
  6
HIDDEN
  0
LAYER
  2
AM_12
 70
     0
 62
   253
  6
CONTINUOUS
  0
LAYER
  2
AM_PAREF
 70
     0
 62
     4
  6
CONTINUOUS
  0
LAYER
  2
AM_6
 70
     0
 62
     7
  6
CONTINUOUS
  0
LAYER
  2
AM_8
 70
     0
 62
   253
  6
CONTINUOUS
  0
LAYER
  2
AM_4
 70
     0
 62
     6
  6
CONTINUOUS
  0
LAYER
  2
AM_10
 70
     0
 62
     7
  6
CONTINUOUS
  0
LAYER
  2
AM_CL
 70
     0
 62
     1
  6
CONTINUOUS
  0
LAYER
  2
AM_2
 70
     0
 62
     5
  6
PHANTOM2
  0
LAYER
  2
AM_1N
 70
     0
 62
    14
  6
CONTINUOUS
  0
LAYER
  2
AM_1
 70
     0
 62
    14
  6
PHANTOM2
  0
LAYER
  2
AM_9
 70
     0
 62
    -7
  6
CONTINUOUS
  0
LAYER
  2
SYS-TEISEI0
 70
     0
 62
     7
  6
CONTINUOUS
  0
ENDTAB
  0
TABLE
  2
STYLE
 70
    14
  0
STYLE
  2
STANDARD
 70
     0
 40
0.0
 41
1.0
 50
0.0
 71
     0
 42
3.0
  3
dim.shx
  4
extfont.shx
  0
STYLE
  2
KNJYOKO
 70
     0
 40
0.0
 41
1.0
 50
0.0
 71
     0
 42
3.099999904632567
  3
TXT.shx
  4
extfont.shx
  0
STYLE
  2
ACANSTS
 70
     0
 40
1.0
 41
1.0
 50
0.0
 71
     0
 42
0.2
  3
romans.shx
  4
extfont.shx
  0
STYLE
  2
ACANSGDT
 70
     0
 40
0.0
 41
1.0
 50
0.0
 71
     0
 42
0.2
  3
amgdt.shx
  4

  0
STYLE
  2
ACJISTS
 70
     0
 40
1.0
 41
1.0
 50
0.0
 71
     0
 42
0.2
  3
isocp.shx
  4
extfont.shx
  0
STYLE
  2
ACJISGDT
 70
     0
 40
0.0
 41
1.0
 50
0.0
 71
     0
 42
0.2
  3
amgdt.shx
  4

  0
STYLE
  2
MINNTYOU
 70
     0
 40
0.0
 41
1.0
 50
0.0
 71
     0
 42
3.0
  3
txt
  4

  0
STYLE
  2
R寸法
 70
     0
 40
2.0
 41
1.0
 50
0.0
 71
     0
 42
3.0
  3
dim.shx
  4
extfont.shx
  0
STYLE
  2
ANKTATE
 70
     4
 40
0.0
 41
1.0
 50
0.0
 71
     0
 42
3.099999904632567
  3
TXT
  4

  0
STYLE
  2
KNJTATE
 70
     4
 40
0.0
 41
1.0
 50
0.0
 71
     0
 42
3.099999904632567
  3
TXT
  4
BIGFONT
  0
STYLE
  2
ACISOTS
 70
     0
 40
1.0
 41
1.0
 50
0.0
 71
     0
 42
2.5
  3
isocp.shx
  4
extfont.shx
  0
STYLE
  2
ACISOGDT
 70
     0
 40
0.0
 41
1.0
 50
0.0
 71
     0
 42
2.5
  3
amgdt.shx
  4

  0
STYLE
  2

 70
     1
 40
0.0
 41
1.0
 50
0.0
 71
     0
 42
3.0
  3
genltshp.shx
  4

  0
ENDTAB
  0
TABLE
  2
VIEW
 70
     7
  0
VIEW
  2
AM_VIEW1
 70
     0
 40
137.99999999999989
 10
151.8531375166888
 20
215.99999999999989
 41
253.70627503337769
 11
0.0
 21
0.0
 31
1.0
 12
0.0
 22
0.0
 32
0.0
 42
50.0
 43
0.0
 44
0.0
 50
0.0
 71
     0
  0
VIEW
  2
AM_VIEW2
 70
     0
 40
137.99999999999989
 10
285.146862483311
 20
215.99999999999989
 41
253.70627503337769
 11
0.0
 21
0.0
 31
1.0
 12
0.0
 22
0.0
 32
0.0
 42
50.0
 43
0.0
 44
0.0
 50
0.0
 71
     0
  0
VIEW
  2
AM_VIEW3
 70
     0
 40
137.99999999999989
 10
151.8531375166888
 20
77.999999999999972
 41
253.70627503337769
 11
0.0
 21
0.0
 31
1.0
 12
0.0
 22
0.0
 32
0.0
 42
50.0
 43
0.0
 44
0.0
 50
0.0
 71
     0
  0
VIEW
  2
AM_VIEW4
 70
     0
 40
137.99999999999989
 10
285.146862483311
 20
77.999999999999972
 41
253.70627503337769
 11
0.0
 21
0.0
 31
1.0
 12
0.0
 22
0.0
 32
0.0
 42
50.0
 43
0.0
 44
0.0
 50
0.0
 71
     0
  0
VIEW
  2
AM_VIEW5
 70
     0
 40
137.99999999999989
 10
218.49999999999989
 20
146.99999999999989
 41
253.70627503337769
 11
0.0
 21
0.0
 31
1.0
 12
0.0
 22
0.0
 32
0.0
 42
50.0
 43
0.0
 44
0.0
 50
0.0
 71
     0
  0
VIEW
  2
AM_VIEW6
 70
     0
 40
275.99723999999992
 10
218.49999999999989
 20
146.99999999999989
 41
507.4074759412548
 11
0.0
 21
0.0
 31
1.0
 12
0.0
 22
0.0
 32
0.0
 42
50.0
 43
0.0
 44
0.0
 50
0.0
 71
     0
  0
ENDTAB
  0
TABLE
  2
UCS
 70
     0
  0
ENDTAB
  0
TABLE
  2
APPID
 70
    60
  0
APPID
  2
ACAD
 70
     0
  0
APPID
  2
ACADANNOTATIVE
 70
     0
  0
APPID
  2
ACAD_MLEADERVER
 70
     0
  0
APPID
  2
MCAD_NO_VIS
 70
     0
  0
APPID
  2
ACAD_TEMP_GRAPHIC
 70
     0
  0
APPID
  2
AD_DRAW
 70
     0
  0
APPID
  2
ACATTRIBSERVICES
 70
     0
  0
APPID
  2
DESIGNERASSEMBLIES
 70
     0
  0
APPID
  2
ACADM_DIM_EDIT
 70
     0
  0
APPID
  2
AMDT_DM_ADJ
 70
     0
  0
APPID
  2
ACADANNOPO
 70
     0
  0
APPID
  2
ACAECLAYERSTANDARD
 70
     0
  0
APPID
  2
ACDBDYNAMICBLOCKGUID
 70
     0
  0
APPID
  2
ACDBBLOCKREPETAG
 70
     0
  0
APPID
  2
ACAUTHENVIRON
 70
     0
  0
APPID
  2
ACDBDYNAMICBLOCKTRUENAME
 70
     0
  0
APPID
  2
GENIUS_GENREC_14
 70
     0
  0
APPID
  2
GENIUS_GENOBJ-N-REC_13
 70
     0
  0
APPID
  2
GENIUS_GENODEF_13
 70
     0
  0
APPID
  2
ACAD_EXEMPT_FROM_CAD_STANDARDS
 70
     0
  0
APPID
  2
GENIUS_GENOBJ-N-CEN_13
 70
     0
  0
APPID
  2
GENIUS_GENCEN_19
 70
     0
  0
APPID
  2
ACAD_DSTYLE_DIMINSPECT
 70
     0
  0
APPID
  2
DCO15
 70
     0
  0
APPID
  2
ACAD_PSEXT
 70
     0
  0
APPID
  2
GENIUS_GENBH_13
 70
     0
  0
APPID
  2
GENIUS_GENOENT_13
 70
     0
  0
APPID
  2
GENIUS_GENOLIS_13
 70
     0
  0
APPID
  2
GENIUS_GENOBJ-NBEHI-BHF_13
 70
     0
  0
APPID
  2
GENIUS_GENOREF_13
 70
     0
  0
APPID
  2
GENIUS_GENOBJ-NBEHI-BHB_13
 70
     0
  0
APPID
  2
AMG_2DHIDE
 70
     0
  0
APPID
  2
AMG_2DSTRUCT_BTR
 70
     0
  0
APPID
  2
GENIUS_AMGTXT_16
 70
     0
  0
APPID
  2
GENIUS_GENOBJ-N-HTC_13
 70
     0
  0
APPID
  2
GENIUS_GENHATCH_13
 70
     0
  0
APPID
  2
GEVID1208849169
 70
     0
  0
APPID
  2
GEVDC
 70
     0
  0
APPID
  2
ACADM_2DVIEW_IGN_NOTIFY
 70
     0
  0
APPID
  2
GEVID1208849170
 70
     0
  0
APPID
  2
GEVID1208849171
 70
     0
  0
APPID
  2
GEVRADREF
 70
     0
  0
APPID
  2
ACAD_DSTYLE_DIMJAG
 70
     0
  0
APPID
  2
ACAD_DSTYLE_DIMTALN
 70
     0
  0
APPID
  2
GENIUS_GENDTOL_13
 70
     0
  0
APPID
  2
GENIUS_GENTRA_14
 70
     0
  0
APPID
  2
GENIUS_GENOBJ-N-TIT_13
 70
     0
  0
APPID
  2
GENIUS_GENTITLE_13
 70
     0
  0
APPID
  2
GENIUS_GENSCREG_15
 70
     0
  0
APPID
  2
GENIUS_GENOBJ-N-SDF_13
 70
     0
  0
APPID
  2
ACAD_DSTYLE_DIMRADIAL_EXTENSION
 70
     0
  0
APPID
  2
GENIUS_GENOBJ-N-FIL_13
 70
     0
  0
APPID
  2
GENIUS_GENOBJ-N-CRS_13
 70
     0
  0
APPID
  2
GENIUS_GENDIMSH_14
 70
     0
  0
APPID
  2
ACAD_DSTYLE_DIMANGULAR_EXT
 70
     0
  0
APPID
  2
ACAD_NAV_VCDISPLAY
 70
     0
  0
APPID
  2
ACAD_DSTYLE_DIMBREAK
 70
     0
  0
APPID
  2
GENIUS_GENSCREG_13
 70
     0
  0
APPID
  2
CONTENTBLOCKICON
 70
     0
  0
APPID
  2
AcDbAttr
 70
     0
  0
ENDTAB
  0
TABLE
  2
DIMSTYLE
 70
    26
  0
DIMSTYLE
  2
STANDARD
 70
     0
  3

  4

  5

  6

  7

 40
1.0
 41
1.0
 42
0.8
 43
0.38
 44
1.0
 45
0.0
 46
0.0
 47
0.0
 48
0.0
140
3.1000000000000001
141
0.09
142
0.0
143
25.399999999999999
144
1.0
145
0.5
146
1.0
147
0.09
 71
     0
 72
     0
 73
     0
 74
     0
 75
     0
 76
     0
 77
     1
 78
     0
170
     0
171
     2
172
     0
173
     0
174
     0
175
     0
176
     0
177
     0
178
     0
  0
DIMSTYLE
  2
AM_ANSI
 70
     0
  3

  4
mm
  5

  6

  7

 40
1.0
 41
0.1
 42
0.05
 43
0.5
 44
0.1
 45
0.0
 46
0.0
 47
0.1
 48
0.1
140
0.12
141
0.0
142
0.0
143
25.399999999999999
144
1.0
145
0.0
146
0.71
147
0.06
 71
     0
 72
     0
 73
     1
 74
     1
 75
     0
 76
     0
 77
     0
 78
     7
170
     0
171
     2
172
     0
173
     0
174
     0
175
     0
176
   256
177
   256
178
     2
  0
DIMSTYLE
  2
AM_ANSI$3
 70
     0
  3

  4
mm
  5

  6

  7

 40
1.0
 41
0.1
 42
0.05
 43
0.5
 44
0.1
 45
0.0
 46
0.0
 47
0.1
 48
0.1
140
0.12
141
0.0
142
0.0
143
25.399999999999999
144
1.0
145
0.0
146
0.71
147
0.06
 71
     0
 72
     0
 73
     1
 74
     1
 75
     0
 76
     0
 77
     0
 78
     7
170
     0
171
     2
172
     0
173
     0
174
     0
175
     0
176
   256
177
   256
178
     2
  0
DIMSTYLE
  2
AM_ANSI$4
 70
     0
  3

  4
mm
  5

  6

  7

 40
1.0
 41
0.1
 42
0.05
 43
0.5
 44
0.1
 45
0.0
 46
0.0
 47
0.1
 48
0.1
140
0.12
141
0.0
142
0.0
143
25.399999999999999
144
1.0
145
0.0
146
0.71
147
0.06
 71
     0
 72
     0
 73
     1
 74
     1
 75
     0
 76
     0
 77
     0
 78
     7
170
     0
171
     2
172
     0
173
     0
174
     0
175
     0
176
   256
177
   256
178
     2
  0
DIMSTYLE
  2
AM_ANSI$7
 70
     0
  3

  4
mm
  5

  6

  7

 40
1.0
 41
0.1
 42
0.05
 43
0.5
 44
0.1
 45
0.0
 46
0.0
 47
0.1
 48
0.1
140
0.24
141
0.0
142
0.0
143
25.399999999999999
144
1.0
145
0.0
146
0.71
147
0.06
 71
     0
 72
     0
 73
     1
 74
     1
 75
     0
 76
     0
 77
     0
 78
     7
170
     0
171
     2
172
     0
173
     0
174
     0
175
     0
176
   256
177
   256
178
     2
  0
DIMSTYLE
  2
AM_ANSI$SF
 70
     0
  3

  4
mm
  5

  6

  7

 40
1.0
 41
0.1
 42
0.05
 43
0.5
 44
0.1
 45
0.0
 46
0.0
 47
0.1
 48
0.1
140
0.12
141
0.0
142
0.0
143
25.399999999999999
144
1.0
145
0.0
146
0.71
147
0.06
 71
     0
 72
     0
 73
     1
 74
     1
 75
     1
 76
     1
 77
     0
 78
     7
170
     0
171
     2
172
     0
173
     0
174
     0
175
     0
176
   256
177
   256
178
     2
  0
DIMSTYLE
  2
AM_ANSI$SH
 70
     0
  3

  4
mm
  5

  6
GENAXEH
  7

 40
1.0
 41
0.1
 42
0.05
 43
0.5
 44
0.1
 45
0.0
 46
0.0
 47
0.1
 48
0.1
140
0.12
141
0.0
142
0.0
143
25.399999999999999
144
1.0
145
0.0
146
0.71
147
0.06
 71
     0
 72
     0
 73
     1
 74
     1
 75
     1
 76
     1
 77
     0
 78
     7
170
     0
171
     2
172
     0
173
     1
174
     0
175
     0
176
   256
177
   256
178
     2
  0
DIMSTYLE
  2
AM_JIS
 70
     0
  3

  4
"
  5
OPEN30
  6

  7

 40
1.0
 41
2.5
 42
1.0
 43
7.0
 44
1.0
 45
0.0
 46
0.0
 47
0.1
 48
0.1
140
3.0
141
0.0
142
0.0
143
0.0393701
144
1.0
145
0.0
146
0.71
147
1.0
 71
     0
 72
     0
 73
     0
 74
     0
 75
     0
 76
     0
 77
     3
 78
     8
170
     0
171
     2
172
     1
173
     0
174
     0
175
     0
176
     7
177
     7
178
     7
  0
DIMSTYLE
  2
AM_JIS$3
 70
     0
  3

  4
"
  5
OPEN30
  6

  7

 40
1.0
 41
2.5
 42
1.0
 43
10.0
 44
1.0
 45
0.0
 46
0.0
 47
0.1
 48
0.1
140
3.0
141
0.0
142
0.0
143
0.0393701
144
1.0
145
0.0
146
0.71
147
1.0
 71
     0
 72
     0
 73
     0
 74
     1
 75
     0
 76
     0
 77
     3
 78
     8
170
     0
171
     2
172
     0
173
     0
174
     0
175
     0
176
     7
177
     7
178
     7
  0
DIMSTYLE
  2
AM_JIS$4
 70
     0
  3

  4
"
  5
OPEN30
  6

  7

 40
1.0
 41
2.5
 42
1.0
 43
10.0
 44
1.0
 45
0.0
 46
0.0
 47
0.1
 48
0.1
140
2.0
141
0.0
142
0.0
143
0.0393701
144
1.0
145
0.0
146
0.71
147
1.0
 71
     0
 72
     0
 73
     0
 74
     0
 75
     0
 76
     0
 77
     3
 78
     8
170
     0
171
     2
172
     0
173
     0
174
     0
175
     0
176
     7
177
     7
178
     7
  0
DIMSTYLE
  2
AM_JIS$6
 70
     0
  3

  4
"
  5
OPEN30
  6

  7

 40
1.0
 41
2.5
 42
1.0
 43
10.0
 44
1.0
 45
0.0
 46
0.0
 47
0.1
 48
0.1
140
3.0
141
0.0
142
0.0
143
0.0393701
144
1.0
145
0.0
146
0.71
147
1.0
 71
     0
 72
     0
 73
     0
 74
     0
 75
     0
 76
     0
 77
     0
 78
     8
170
     0
171
     2
172
     1
173
     0
174
     0
175
     0
176
   256
177
     7
178
     7
  0
DIMSTYLE
  2
AM_JIS$7
 70
     0
  3

  4
"
  5
OPEN30
  6

  7

 40
1.0
 41
2.5
 42
1.0
 43
10.0
 44
1.0
 45
0.0
 46
0.0
 47
0.1
 48
0.1
140
3.0
141
0.0
142
0.0
143
0.0393701
144
1.0
145
0.0
146
0.71
147
1.0
 71
     0
 72
     0
 73
     0
 74
     0
 75
     0
 76
     0
 77
     3
 78
     8
170
     0
171
     2
172
     1
173
     0
174
     0
175
     0
176
     7
177
   256
178
     7
  0
DIMSTYLE
  2
AM_JIS$SF
 70
     0
  3

  4
"
  5
OPEN30
  6

  7

 40
1.0
 41
2.5
 42
1.0
 43
7.0
 44
1.0
 45
0.0
 46
0.0
 47
0.1
 48
0.1
140
3.0
141
0.0
142
0.0
143
0.0393701
144
1.0
145
0.0
146
0.71
147
1.0
 71
     0
 72
     0
 73
     0
 74
     0
 75
     1
 76
     1
 77
     3
 78
     8
170
     0
171
     2
172
     1
173
     0
174
     0
175
     0
176
     7
177
   256
178
     7
  0
DIMSTYLE
  2
AM_JIS$SH
 70
     0
  3

  4
"
  5

  6
GENAXEH
  7
OPEN30
 40
1.0
 41
2.5
 42
1.0
 43
7.0
 44
1.0
 45
0.0
 46
0.0
 47
0.1
 48
0.1
140
3.0
141
0.0
142
0.0
143
0.0393701
144
2.0
145
0.0
146
0.71
147
1.0
 71
     0
 72
     0
 73
     0
 74
     0
 75
     1
 76
     1
 77
     3
 78
     8
170
     0
171
     2
172
     1
173
     1
174
     0
175
     0
176
     7
177
   256
178
     7
  0
DIMSTYLE
  2
AM_JIS$2
 70
     0
  3

  4
"
  5
OPEN30
  6

  7

 40
1.0
 41
2.5
 42
1.0
 43
7.0
 44
1.0
 45
0.0
 46
0.0
 47
0.1
 48
0.1
140
3.0
141
0.0
142
0.0
143
0.0393701
144
1.0
145
0.0
146
0.71
147
1.0
 71
     0
 72
     0
 73
     0
 74
     0
 75
     0
 76
     0
 77
     3
 78
     8
170
     0
171
     2
172
     1
173
     0
174
     0
175
     0
176
     7
177
     7
178
     7
  0
DIMSTYLE
  2
AM_JIS$0
 70
     0
  3

  4
"
  5
OPEN30
  6

  7

 40
1.0
 41
2.5
 42
1.0
 43
7.0
 44
1.0
 45
0.0
 46
0.0
 47
0.1
 48
0.1
140
3.0
141
0.0
142
0.0
143
0.0393701
144
1.0
145
0.0
146
0.71
147
1.0
 71
     0
 72
     0
 73
     0
 74
     0
 75
     0
 76
     0
 77
     3
 78
     8
170
     0
171
     2
172
     1
173
     0
174
     0
175
     0
176
     7
177
     7
178
     7
  0
DIMSTYLE
  2
STANDARD$0
 70
     0
  3

  4

  5

  6

  7

 40
1.0
 41
1.0
 42
0.8
 43
0.38
 44
1.0
 45
0.0
 46
0.0
 47
0.0
 48
0.0
140
3.1000000000000001
141
0.09
142
0.0
143
25.399999999999999
144
1.0
145
0.5
146
1.0
147
0.09
 71
     0
 72
     0
 73
     0
 74
     0
 75
     0
 76
     0
 77
     1
 78
     0
170
     0
171
     2
172
     0
173
     0
174
     0
175
     0
176
     0
177
     0
178
     0
  0
DIMSTYLE
  2
ANNOTATIVE
 70
     0
  3

  4

  5

  6

  7

 40
1.0
 41
0.18
 42
0.0625
 43
0.38
 44
0.18
 45
0.0
 46
0.0
 47
0.0
 48
0.0
140
0.18
141
0.09
142
0.0
143
25.399999999999999
144
1.0
145
0.0
146
1.0
147
0.09
 71
     0
 72
     0
 73
     1
 74
     1
 75
     0
 76
     0
 77
     0
 78
     0
170
     0
171
     2
172
     0
173
     0
174
     0
175
     0
176
     0
177
     0
178
     0
  0
DIMSTYLE
  2
AM_ISO
 70
     0
  3

  4
"
  5

  6

  7

 40
1.0
 41
2.5
 42
1.0
 43
10.0
 44
1.0
 45
0.0
 46
0.0
 47
0.1
 48
0.1
140
3.5
141
0.0
142
0.0
143
0.0393701
144
1.0
145
0.0
146
0.71
147
1.5
 71
     0
 72
     0
 73
     0
 74
     0
 75
     0
 76
     0
 77
     1
 78
     8
170
     0
171
     2
172
     1
173
     0
174
     0
175
     0
176
   256
177
   256
178
     2
  0
DIMSTYLE
  2
AM_ISO$3
 70
     0
  3

  4
"
  5

  6

  7

 40
1.0
 41
2.5
 42
1.0
 43
10.0
 44
1.0
 45
0.0
 46
0.0
 47
0.1
 48
0.1
140
3.5
141
0.0
142
0.0
143
0.0393701
144
1.0
145
0.0
146
0.71
147
1.5
 71
     0
 72
     0
 73
     0
 74
     1
 75
     0
 76
     0
 77
     1
 78
     8
170
     0
171
     2
172
     0
173
     0
174
     0
175
     0
176
   256
177
   256
178
     2
  0
DIMSTYLE
  2
AM_ISO$4
 70
     0
  3

  4
"
  5

  6

  7

 40
1.0
 41
2.5
 42
1.0
 43
10.0
 44
1.0
 45
0.0
 46
0.0
 47
0.1
 48
0.1
140
3.5
141
0.0
142
0.0
143
0.0393701
144
1.0
145
0.0
146
0.71
147
1.5
 71
     0
 72
     0
 73
     0
 74
     1
 75
     0
 76
     0
 77
     1
 78
     8
170
     0
171
     2
172
     0
173
     0
174
     0
175
     0
176
   256
177
   256
178
     2
  0
DIMSTYLE
  2
AM_ISO$6
 70
     0
  3

  4
"
  5

  6

  7

 40
1.0
 41
2.5
 42
1.0
 43
10.0
 44
1.0
 45
0.0
 46
0.0
 47
0.1
 48
0.1
140
3.5
141
0.0
142
0.0
143
0.0393701
144
1.0
145
0.0
146
0.71
147
1.5
 71
     0
 72
     0
 73
     0
 74
     0
 75
     0
 76
     0
 77
     0
 78
     8
170
     0
171
     2
172
     1
173
     0
174
     0
175
     0
176
   256
177
   256
178
     2
  0
DIMSTYLE
  2
AM_ISO$7
 70
     0
  3

  4
"
  5

  6

  7

 40
1.0
 41
2.5
 42
1.0
 43
10.0
 44
1.0
 45
0.0
 46
0.0
 47
0.1
 48
0.1
140
5.0
141
0.0
142
0.0
143
0.0393701
144
1.0
145
0.0
146
0.71
147
1.5
 71
     0
 72
     0
 73
     0
 74
     0
 75
     0
 76
     0
 77
     1
 78
     8
170
     0
171
     2
172
     1
173
     0
174
     0
175
     0
176
   256
177
   256
178
     2
  0
DIMSTYLE
  2
AM_ISO$SF
 70
     0
  3

  4
"
  5

  6

  7

 40
1.0
 41
2.5
 42
1.0
 43
10.0
 44
1.0
 45
0.0
 46
0.0
 47
0.1
 48
0.1
140
3.5
141
0.0
142
0.0
143
0.0393701
144
1.0
145
0.0
146
0.71
147
1.5
 71
     0
 72
     0
 73
     0
 74
     0
 75
     1
 76
     1
 77
     1
 78
     8
170
     0
171
     2
172
     1
173
     0
174
     0
175
     0
176
   256
177
   256
178
     2
  0
DIMSTYLE
  2
AM_ISO$SH
 70
     0
  3

  4
"
  5

  6
GENAXEH
  7

 40
1.0
 41
2.5
 42
1.0
 43
10.0
 44
1.0
 45
0.0
 46
0.0
 47
0.1
 48
0.1
140
3.5
141
0.0
142
0.0
143
0.0393701
144
2.0
145
0.0
146
0.71
147
1.5
 71
     0
 72
     0
 73
     0
 74
     0
 75
     1
 76
     1
 77
     1
 78
     8
170
     0
171
     2
172
     1
173
     1
174
     0
175
     0
176
   256
177
   256
178
     2
  0
ENDTAB
  0
ENDSEC
  0
SECTION
  2
BLOCKS
  0
BLOCK
  8
0
  2
$MODEL_SPACE
 70
     0
 10
0.0
 20
0.0
 30
0.0
  3
$MODEL_SPACE
  1

  0
ENDBLK
  5
1D3
  8
0
  0
BLOCK
 67
     1
  8
0
  2
$PAPER_SPACE
 70
     0
 10
0.0
 20
0.0
 30
0.0
  3
$PAPER_SPACE
  1

  0
ENDBLK
  5
1D1
 67
     1
  8
0
  0
BLOCK
  8
0
  2
GENAXEH
 70
     0
 10
0.0
 20
0.0
 30
0.0
  3
GENAXEH
  1

  0
LINE
  5
264
  8
0
 10
-1.0
 20
0.0
 30
0.0
 11
1.0
 21
0.0
 31
0.0
  0
ENDBLK
  5
266
  8
0
  0
BLOCK
  8
0
  2
_OPEN30
 70
     0
 10
0.0
 20
0.0
 30
0.0
  3
_OPEN30
  1

  0
LINE
  5
2FA
  8
0
  6
BYBLOCK
 62
     0
 10
-1.0
 20
0.26794919
 30
0.0
 11
0.0
 21
0.0
 31
0.0
  0
LINE
  5
2FB
  8
0
  6
BYBLOCK
 62
     0
 10
0.0
 20
0.0
 30
0.0
 11
-1.0
 21
-0.26794919
 31
0.0
  0
LINE
  5
2FC
  8
0
  6
BYBLOCK
 62
     0
 10
0.0
 20
0.0
 30
0.0
 11
-1.0
 21
0.0
 31
0.0
  0
ENDBLK
  5
2FE
  8
0
  0
BLOCK
  8
0
  2
MYPLIST0
 70
     2
 10
0.0
 20
0.0
 30
0.0
  3
MYPLIST0
  1

  0
LINE
  5
346
  8
SYS-BUHIN0
  6
CONTINUOUS
 62
     4
 10
-170.0
 20
7.0
 30
0.0
 11
0.0
 21
7.0
 31
0.0
  0
LINE
  5
347
  8
SYS-BUHIN0
  6
CONTINUOUS
 62
     4
 10
-170.0
 20
-0.0000000000030695
 30
0.0
 11
0.0
 21
-0.0000000000001137
 31
0.0
  0
LINE
  5
348
  8
SYS-BUHIN0
  6
CONTINUOUS
 62
     4
 10
-170.0
 20
7.0
 30
0.0
 11
-170.0
 21
0.0
 31
0.0
  0
LINE
  5
349
  8
SYS-BUHIN0
  6
CONTINUOUS
 62
     4
 10
0.0
 20
7.0
 30
0.0
 11
0.0
 21
0.0
 31
0.0
  0
LINE
  5
34A
  8
SYS-BUHIN0
  6
CONTINUOUS
 62
     4
 10
-161.0
 20
7.0
 30
0.0
 11
-161.0
 21
0.0
 31
0.0
  0
LINE
  5
34B
  8
SYS-BUHIN0
  6
CONTINUOUS
 62
     4
 10
-99.0
 20
7.0
 30
0.0
 11
-99.0
 21
0.0
 31
0.0
  0
LINE
  5
34C
  8
SYS-BUHIN0
  6
CONTINUOUS
 62
     4
 10
-72.0
 20
7.0
 30
0.0
 11
-72.0
 21
0.0
 31
0.0
  0
LINE
  5
34D
  8
SYS-BUHIN0
  6
CONTINUOUS
 62
     4
 10
-63.0
 20
7.0
 30
0.0
 11
-63.0
 21
0.0
 31
0.0
  0
LINE
  5
34E
  8
SYS-BUHIN0
  6
CONTINUOUS
 62
     4
 10
-16.0
 20
7.0
 30
0.0
 11
-16.0
 21
0.0
 31
0.0
  0
TEXT
  5
34F
  8
SYS-BUHIN0
  6
CONTINUOUS
 62
     7
 10
-13.61264708219346
 20
0.6000000119208835
 30
0.0
 40
1.1000000000000001
  1
PARTS NO.
 41
1.3
  0
TEXT
  5
350
  8
SYS-BUHIN0
  6
CONTINUOUS
 62
     7
 10
-14.36429419116018
 20
3.0691472933651762
 30
0.0
 40
2.2000000000000002
  1
部品コード
  0
TEXT
  5
351
  8
SYS-BUHIN0
  6
CONTINUOUS
 62
     7
 10
-43.852454807937526
 20
0.6000000119208835
 30
0.0
 40
1.1000000000000001
  1
REMARKS
 41
1.3
  0
TEXT
  5
352
  8
SYS-BUHIN0
  6
CONTINUOUS
 62
     7
 10
-47.370000243186951
 20
2.7500000476836699
 30
0.0
 40
2.7999999999999989
  1
備    考
  0
TEXT
  5
353
  8
SYS-BUHIN0
  6
CONTINUOUS
 62
     7
 10
-69.144963642251696
 20
0.6000000119208835
 30
0.0
 40
1.1000000000000001
  1
UNIT
  0
TEXT
  5
354
  8
SYS-BUHIN0
  6
CONTINUOUS
 62
     7
 10
-70.272262370934413
 20
2.6949072988287521
 30
0.0
 40
2.7999999999999989
  1
数量
  0
TEXT
  5
355
  8
SYS-BUHIN0
  6
CONTINUOUS
 62
     7
 10
-90.559234383463263
 20
0.6000000119208835
 30
0.0
 40
1.1000000000000001
  1
MATERIAL
 41
1.3
  0
TEXT
  5
357
  8
SYS-BUHIN0
  6
CONTINUOUS
 62
     7
 10
-138.9093619295486
 20
0.6000000119208835
 30
0.0
 40
1.1000000000000001
  1
  DESCRIPTION
 41
1.3
  0
TEXT
  5
358
  8
SYS-BUHIN0
  6
CONTINUOUS
 62
     7
 10
-142.0050003230572
 20
2.7500000476836699
 30
0.0
 40
2.7999999999999989
  1
 部  品  名
  0
TEXT
  5
359
  8
SYS-BUHIN0
  6
CONTINUOUS
 62
     7
 10
-166.63404873957319
 20
0.6000000119208835
 30
0.0
 40
1.1000000000000001
  1
NO.
  0
TEXT
  5
35A
  8
SYS-BUHIN0
  6
CONTINUOUS
 62
     7
 10
-168.29000008106229
 20
2.7500000476836699
 30
0.0
 40
2.7999999999999989
  1
項番
  0
ATTDEF
  5
35B
  8
AM_0
 62
     7
 10
-168.79000008106229
 20
3.5
 30
0.0
 40
3.1000000000000001
  1

  3

  2
ITEM
 70
     1
1001
AcDbAttr
1070
     0
1070
     1
  0
TEXT
  5
C0B
  8
AM_BOR
 62
     7
 10
-91.770000159740434
 20
2.7000000476837149
 30
0.0
 40
2.7999999999999989
  1
材　　質
  0
ENDBLK
  5
35C
  8
0
  0
BLOCK
  8
0
  2
MYPLIST1
 70
     2
 10
0.0
 20
0.0
 30
0.0
  3
MYPLIST1
  1

  0
LINE
  5
393
  8
SYS-BUHIN0
  6
CONTINUOUS
 62
     4
 10
-170.0
 20
6.0
 30
0.0
 11
0.0
 21
6.0
 31
0.0
  0
LINE
  5
394
  8
SYS-BUHIN0
  6
CONTINUOUS
 62
     4
 10
-170.0
 20
0.0
 30
0.0
 11
-170.0
 21
6.0
 31
0.0
  0
LINE
  5
395
  8
SYS-BUHIN0
  6
CONTINUOUS
 62
     4
 10
-161.0
 20
0.0
 30
0.0
 11
-161.0
 21
6.0
 31
0.0
  0
LINE
  5
396
  8
SYS-BUHIN0
  6
CONTINUOUS
 62
     4
 10
-99.0
 20
0.0
 30
0.0
 11
-99.0
 21
6.0
 31
0.0
  0
LINE
  5
397
  8
SYS-BUHIN0
  6
CONTINUOUS
 62
     4
 10
-72.0
 20
0.0
 30
0.0
 11
-72.0
 21
6.0
 31
0.0
  0
LINE
  5
398
  8
SYS-BUHIN0
  6
CONTINUOUS
 62
     4
 10
-63.0
 20
0.0
 30
0.0
 11
-63.0
 21
6.0
 31
0.0
  0
LINE
  5
399
  8
SYS-BUHIN0
  6
CONTINUOUS
 62
     4
 10
-16.0
 20
0.0
 30
0.0
 11
-16.0
 21
6.0
 31
0.0
  0
LINE
  5
39A
  8
SYS-BUHIN0
  6
CONTINUOUS
 62
     4
 10
0.0
 20
0.0
 30
0.0
 11
0.0
 21
6.0
 31
0.0
  0
LINE
  5
39B
  8
SYS-BUHIN0
  6
CONTINUOUS
 62
     4
 10
-170.0
 20
0.0
 30
0.0
 11
0.0
 21
0.0
 31
0.0
  0
ATTDEF
  5
39C
  8
SYS-BUHINCODE
 10
-14.0
 20
2.5
 30
0.0
 40
1.0
  1

 11
-14.0
 21
3.0
 31
0.0
  3
部品コード
  2
PCODE
 70
     0
 74
     2
1001
AcDbAttr
1070
     0
1070
     1
  0
ATTDEF
  5
39D
  8
SYS-BUHIN0
  6
CONTINUOUS
 62
     7
 10
-61.0
 20
2.0
 30
0.0
 40
2.0
  1

 11
-61.0
 21
3.0
 31
0.0
  3
備考
  2
NOTE
 70
     0
 74
     2
1001
AcDbAttr
1070
     0
1070
     1
  0
ATTDEF
  5
39E
  8
SYS-BUHIN0
  6
CONTINUOUS
 62
     7
 10
-67.5
 20
3.0
 30
0.0
 40
2.5
  1

 72
     4
 11
-67.5
 21
3.0
 31
0.0
  3
数量
  2
QTY
 70
     0
1001
AcDbAttr
1070
     0
1070
     1
  0
ATTDEF
  5
39F
  8
SYS-BUHIN0
  6
CONTINUOUS
 62
     7
 10
-97.595958160209875
 20
2.0
 30
0.0
 40
2.0
  1

 11
-97.595958160209875
 21
3.0
 31
0.0
  3
材質
  2
MATERIAL
 70
     0
 74
     2
1001
AcDbAttr
1070
     0
1070
     1
  0
ATTDEF
  5
3A0
  8
SYS-BUHIN0
  6
CONTINUOUS
 62
     7
 10
-159.0
 20
1.75
 30
0.0
 40
2.5
  1

 11
-159.0
 21
3.0
 31
0.0
  3
部品名
  2
DESCR
 70
     0
 74
     2
1001
AcDbAttr
1070
     0
1070
     1
  0
ATTDEF
  5
3A1
  8
SYS-BUHIN0
  6
CONTINUOUS
 62
     7
 10
-165.5
 20
3.0
 30
0.0
 40
2.5
  1

 72
     4
 11
-165.5
 21
3.0
 31
0.0
  3
項番
  2
ITEM
 70
     0
1001
AcDbAttr
1070
     0
1070
     1
  0
ENDBLK
  5
370
  8
0
  0
BLOCK
  8
0
  2
A$C1C06296A
 70
     2
 10
0.0
 20
0.0
 30
0.0
  3
A$C1C06296A
  1

  0
LINE
  5
204C
  8
AM_BOR
 10
198.86851880399371
 20
17.886744577931989
 30
0.0
 11
203.2337455721775
 21
13.521517809748619
 31
0.0
  0
LINE
  5
204D
  8
AM_BOR
 10
198.8685188039936
 20
17.866715351316039
 30
0.0
 11
198.86851880399399
 21
14.128964361178911
 31
0.0
  0
LINE
  5
204E
  8
AM_BOR
 10
204.7045172738834
 20
17.866715326469411
 30
0.0
 11
204.70451727388391
 21
14.181128845625549
 31
0.0
  0
LINE
  5
204F
  8
AM_BOR
 10
204.20428883360731
 20
17.793010290175861
 30
0.0
 11
204.204288833607
 21
14.69861035774108
 31
0.0
  0
LINE
  5
2050
  8
AM_BOR
 10
199.3687472442698
 20
17.176052465333349
 30
0.0
 11
199.36874724427059
 21
14.197800355103411
 31
0.0
  0
LINE
  5
2051
  8
AM_BOR
 10
200.43756462039269
 20
18.46533457095553
 30
0.0
 11
204.20428883360731
 21
14.69861035774052
 31
0.0
  0
LINE
  5
2052
  8
AM_BOR
 10
199.36874724426971
 20
17.17605246533255
 30
0.0
 11
203.02713287203409
 21
13.51766683756852
 31
0.0
  0
ARC
  5
2053
  8
AM_BOR
 10
198.36829036868701
 20
17.866715351316049
 30
0.0
 40
0.5002284402762121
 50
0.0
 51
50.265515568291427
  0
ARC
  5
2054
  8
AM_BOR
 10
198.36829034384081
 20
14.12896436117892
 30
0.0
 40
0.5002284402762121
 50
304.69759678405279
 51
0.0
  0
ARC
  5
2055
  8
AM_BOR
 10
205.20474573403669
 20
17.866715326469411
 30
0.0
 40
0.5002284402762121
 50
127.0284887689633
 51
180.00000500895629
  0
ARC
  5
2056
  8
AM_BOR
 10
203.53731756996689
 20
17.793010290175818
 30
0.0
 40
0.6669712537016159
 50
0.0
 51
74.714823568866152
  0
ARC
  5
2057
  8
AM_BOR
 10
200.03571849797169
 20
14.197800355103389
 30
0.0
 40
0.6669712537016159
 50
180.00000500895629
 51
256.4857883914604
  0
LINE
  5
2058
  8
AM_BOR
 10
210.95737277733619
 20
15.993445664994679
 30
0.0
 11
210.9224749062999
 21
16.211434571273589
 31
0.0
  0
LINE
  5
2059
  8
AM_BOR
 10
210.92247490629941
 20
16.211434571273411
 30
0.0
 11
210.8180468870608
 21
16.42776445035037
 31
0.0
  0
LINE
  5
205A
  8
AM_BOR
 10
210.8180468870604
 20
16.42776445035037
 30
0.0
 11
210.64488347990149
 21
16.640788901221669
 31
0.0
  0
LINE
  5
205B
  8
AM_BOR
 10
210.6448834799013
 20
16.640788901221619
 30
0.0
 11
210.40430256290981
 21
16.848886679188759
 31
0.0
  0
LINE
  5
205C
  8
AM_BOR
 10
210.40430256290949
 20
16.848886679189
 30
0.0
 11
210.0981351021297
 21
17.050474034508689
 31
0.0
  0
LINE
  5
205D
  8
AM_BOR
 10
210.09813510212999
 20
17.05047403450855
 30
0.0
 11
209.7287112168076
 21
17.244016765685139
 31
0.0
  0
LINE
  5
205E
  8
AM_BOR
 10
209.72871121680711
 20
17.24401676568521
 30
0.0
 11
209.29884244577369
 21
17.428041895669988
 31
0.0
  0
LINE
  5
205F
  8
AM_BOR
 10
209.29884244577369
 20
17.428041895670081
 30
0.0
 11
208.81180034993889
 21
17.601148882106369
 31
0.0
  0
LINE
  5
2060
  8
AM_BOR
 10
208.81180034993889
 20
17.60114888210644
 30
0.0
 11
208.27129161373591
 21
17.76202027630297
 31
0.0
  0
LINE
  5
2061
  8
AM_BOR
 10
208.27129161373611
 20
17.76202027630309
 30
0.0
 11
207.68142983501551
 21
17.909431749813081
 31
0.0
  0
LINE
  5
2062
  8
AM_BOR
 10
207.68142983501531
 20
17.90943174981297
 30
0.0
 11
207.04670421808169
 21
18.042261412313358
 31
0.0
  0
LINE
  5
2063
  8
AM_BOR
 10
207.04670421808169
 20
18.04226141231344
 30
0.0
 11
206.37194540813729
 21
18.15949834986797
 31
0.0
  0
LINE
  5
2064
  8
AM_BOR
 10
206.37194540813749
 20
18.159498349867881
 30
0.0
 11
205.66228872715681
 21
18.260250318592298
 31
0.0
  0
LINE
  5
2065
  8
AM_BOR
 10
205.66228872715661
 20
18.260250318592369
 30
0.0
 11
205.02242374599979
 21
18.33253416039674
 31
0.0
  0
LINE
  5
2066
  8
AM_BOR
 10
205.02242374599939
 20
18.332534160396779
 30
0.0
 11
204.92313509098369
 21
18.343750535168819
 31
0.0
  0
LINE
  5
2067
  8
AM_BOR
 10
204.92313509098369
 20
18.343750535168748
 30
0.0
 11
204.16010990510409
 21
18.409363512530259
 31
0.0
  0
LINE
  5
2068
  8
AM_BOR
 10
204.1601099051048
 20
18.409363512530259
 30
0.0
 11
203.71314686010501
 21
18.436387872932471
 31
0.0
  0
LINE
  5
2069
  8
AM_BOR
 10
200.43756462039249
 20
18.465334570955569
 30
0.0
 11
200.19401582596791
 21
18.45658989630088
 31
0.0
  0
LINE
  5
206A
  8
AM_BOR
 10
200.19401582596799
 20
18.456589896300901
 30
0.0
 11
199.41292617277259
 21
18.409363512530309
 31
0.0
  0
LINE
  5
206B
  8
AM_BOR
 10
199.41292617277259
 20
18.409363512530248
 30
0.0
 11
198.64990098689299
 21
18.343750535168759
 31
0.0
  0
LINE
  5
206C
  8
AM_BOR
 10
198.5506123731563
 20
18.332534165059979
 30
0.0
 11
197.9107473507209
 21
18.260250318592469
 31
0.0
  0
LINE
  5
206D
  8
AM_BOR
 10
198.64990098689299
 20
18.343750535168791
 30
0.0
 11
198.5506123731563
 21
18.332534165059919
 31
0.0
  0
LINE
  5
206E
  8
AM_BOR
 10
197.91074735072121
 20
18.26025031859243
 30
0.0
 11
197.20109066974049
 21
18.159498349868041
 31
0.0
  0
LINE
  5
206F
  8
AM_BOR
 10
197.20109066974041
 20
18.159498349868091
 30
0.0
 11
196.52633185979579
 21
18.042261412313529
 31
0.0
  0
LINE
  5
2070
  8
AM_BOR
 10
196.5263318597959
 20
18.042261412313589
 30
0.0
 11
195.89160624286239
 21
17.909431749813219
 31
0.0
  0
LINE
  5
2071
  8
AM_BOR
 10
195.89160624286171
 20
17.90943174981302
 30
0.0
 11
195.30174446414119
 21
17.762020276303058
 31
0.0
  0
LINE
  5
2072
  8
AM_BOR
 10
195.301744464141
 20
17.762020276303161
 30
0.0
 11
194.76123572793779
 21
17.60114888210661
 31
0.0
  0
LINE
  5
2073
  8
AM_BOR
 10
194.76123572793779
 20
17.60114888210656
 30
0.0
 11
194.27419363210299
 21
17.428041895670152
 31
0.0
  0
LINE
  5
2074
  8
AM_BOR
 10
194.27419363210339
 20
17.428041895670152
 30
0.0
 11
193.84432486106959
 21
17.244016765685259
 31
0.0
  0
LINE
  5
2075
  8
AM_BOR
 10
193.84432486106959
 20
17.24401676568521
 30
0.0
 11
193.4749009757472
 21
17.05047403450865
 31
0.0
  0
LINE
  5
2076
  8
AM_BOR
 10
193.4749009757472
 20
17.050474034508671
 30
0.0
 11
193.16873351496719
 21
16.848886679188929
 31
0.0
  0
LINE
  5
2077
  8
AM_BOR
 10
193.1687335149673
 20
16.848886679188951
 30
0.0
 11
192.92815259797499
 21
16.640788901221619
 31
0.0
  0
LINE
  5
2078
  8
AM_BOR
 10
192.9281525979753
 20
16.640788901221811
 30
0.0
 11
192.75498919081639
 21
16.42776445035042
 31
0.0
  0
LINE
  5
2079
  8
AM_BOR
 10
192.75498919081639
 20
16.427764450350349
 30
0.0
 11
192.65056117157769
 21
16.211434571273479
 31
0.0
  0
LINE
  5
207A
  8
AM_BOR
 10
192.65056117157789
 20
16.211434571273731
 30
0.0
 11
192.61566330054151
 21
15.993445664994679
 31
0.0
  0
LINE
  5
207B
  8
AM_BOR
 10
192.61566330054069
 20
15.99344566499464
 30
0.0
 11
192.65056117157721
 21
15.775456758715791
 31
0.0
  0
LINE
  5
207C
  8
AM_BOR
 10
192.65056117157769
 20
15.775456758715929
 30
0.0
 11
192.7549891908163
 21
15.55912687963913
 31
0.0
  0
LINE
  5
207D
  8
AM_BOR
 10
192.75498919081639
 20
15.559126879639029
 30
0.0
 11
192.9281525979753
 21
15.34610242876764
 31
0.0
  0
LINE
  5
207E
  8
AM_BOR
 10
192.9281525979751
 20
15.34610242876769
 30
0.0
 11
193.16873351496719
 21
15.1380046508005
 31
0.0
  0
LINE
  5
207F
  8
AM_BOR
 10
193.1687335149669
 20
15.1380046508005
 30
0.0
 11
193.47490097574689
 21
14.93641729548081
 31
0.0
  0
LINE
  5
2080
  8
AM_BOR
 10
193.47490097574729
 20
14.936417295480711
 30
0.0
 11
193.84432486106959
 21
14.742874564304079
 31
0.0
  0
LINE
  5
2081
  8
AM_BOR
 10
193.84432486106951
 20
14.74287456430417
 30
0.0
 11
194.27419363210271
 21
14.558849434319351
 31
0.0
  0
LINE
  5
2082
  8
AM_BOR
 10
194.27419363210319
 20
14.558849434319439
 30
0.0
 11
194.7612357279379
 21
14.38574244788296
 31
0.0
  0
LINE
  5
2083
  8
AM_BOR
 10
194.76123572793779
 20
14.38574244788277
 30
0.0
 11
195.301744464141
 21
14.22487105368617
 31
0.0
  0
LINE
  5
2084
  8
AM_BOR
 10
195.301744464141
 20
14.224871053686311
 30
0.0
 11
195.891606242862
 21
14.077459580176351
 31
0.0
  0
LINE
  5
2085
  8
AM_BOR
 10
195.89160624286191
 20
14.077459580176219
 30
0.0
 11
196.52633185979579
 21
13.94462991767579
 31
0.0
  0
LINE
  5
2086
  8
AM_BOR
 10
196.52633185979539
 20
13.944629917675821
 30
0.0
 11
197.2010906697397
 21
13.827392980121321
 31
0.0
  0
LINE
  5
2087
  8
AM_BOR
 10
197.20109066974049
 20
13.82739298012133
 30
0.0
 11
197.9107473507209
 21
13.726641011397049
 31
0.0
  0
LINE
  5
2088
  8
AM_BOR
 10
197.9107473507205
 20
13.72664101139711
 30
0.0
 11
198.5412166771807
 21
13.655418571666219
 31
0.0
  0
LINE
  5
2089
  8
AM_BOR
 10
198.54121667717999
 20
13.65541857166625
 30
0.0
 11
198.64990098689259
 21
13.643140794820731
 31
0.0
  0
LINE
  5
208A
  8
AM_BOR
 10
198.6499009868929
 20
13.643140794820679
 30
0.0
 11
199.41292617277259
 21
13.57752781745919
 31
0.0
  0
LINE
  5
208B
  8
AM_BOR
 10
199.41292617277259
 20
13.577527817459201
 30
0.0
 11
199.8798563250744
 21
13.54929620220682
 31
0.0
  0
LINE
  5
208C
  8
AM_BOR
 10
203.0271328720325
 20
13.51766683756999
 30
0.0
 11
203.37902025190911
 21
13.530301433688649
 31
0.0
  0
LINE
  5
208D
  8
AM_BOR
 10
203.3790202519092
 20
13.530301433688599
 30
0.0
 11
204.16010990510441
 21
13.57752781745919
 31
0.0
  0
LINE
  5
208E
  8
AM_BOR
 10
204.70451727388399
 20
13.624341722195579
 30
0.0
 11
204.9231350909844
 21
13.64314079482075
 31
0.0
  0
LINE
  5
208F
  8
AM_BOR
 10
204.16010990510441
 20
13.57752781745917
 30
0.0
 11
204.70451727388379
 21
13.62434172219551
 31
0.0
  0
LINE
  5
2090
  8
AM_BOR
 10
204.92313509098409
 20
13.643140794820759
 30
0.0
 11
205.66228872715669
 21
13.726641011397151
 31
0.0
  0
LINE
  5
2091
  8
AM_BOR
 10
205.66228872715661
 20
13.72664101139711
 30
0.0
 11
206.37194540813709
 21
13.827392980121401
 31
0.0
  0
LINE
  5
2092
  8
AM_BOR
 10
206.37194540813749
 20
13.82739298012145
 30
0.0
 11
207.04670421808191
 21
13.94462991767594
 31
0.0
  0
LINE
  5
2093
  8
AM_BOR
 10
207.04670421808169
 20
13.94462991767597
 30
0.0
 11
207.68142983501559
 21
14.07745958017637
 31
0.0
  0
LINE
  5
2094
  8
AM_BOR
 10
207.68142983501551
 20
14.07745958017629
 30
0.0
 11
208.27129161373611
 21
14.22487105368625
 31
0.0
  0
LINE
  5
2095
  8
AM_BOR
 10
208.2712916137362
 20
14.224871053686289
 30
0.0
 11
208.81180034993929
 21
14.38574244788289
 31
0.0
  0
LINE
  5
2096
  8
AM_BOR
 10
208.81180034993929
 20
14.385742447882921
 30
0.0
 11
209.29884244577411
 21
14.558849434319351
 31
0.0
  0
LINE
  5
2097
  8
AM_BOR
 10
209.298842445774
 20
14.55884943431932
 30
0.0
 11
209.72871121680751
 21
14.74287456430422
 31
0.0
  0
LINE
  5
2098
  8
AM_BOR
 10
209.72871121680711
 20
14.742874564304151
 30
0.0
 11
210.0981351021297
 21
14.93641729548083
 31
0.0
  0
LINE
  5
2099
  8
AM_BOR
 10
210.09813510212999
 20
14.93641729548081
 30
0.0
 11
210.40430256290989
 21
15.13800465080036
 31
0.0
  0
LINE
  5
209A
  8
AM_BOR
 10
210.40430256291
 20
15.13800465080055
 30
0.0
 11
210.64488347990201
 21
15.346102428767731
 31
0.0
  0
LINE
  5
209B
  8
AM_BOR
 10
210.64488347990169
 20
15.34610242876783
 30
0.0
 11
210.8180468870608
 21
15.559126879639029
 31
0.0
  0
LINE
  5
209C
  8
AM_BOR
 10
210.81804688706069
 20
15.559126879639059
 30
0.0
 11
210.92247490629899
 21
15.77545675871586
 31
0.0
  0
LINE
  5
209D
  8
AM_BOR
 10
210.92247490629981
 20
15.775456758715791
 30
0.0
 11
210.95737277733619
 21
15.993445664994621
 31
0.0
  0
LINE
  5
209E
  8
AM_BOR
 10
199.10514248704791
 20
18.382897015254191
 30
0.0
 11
203.92474251077411
 21
13.563296991527499
 31
0.0
  0
ARC
  5
209F
  8
AM_BOR
 10
205.2047457141602
 20
14.181128845625549
 30
0.0
 40
0.5002284402762121
 50
180.0
 51
244.5184856857075
  0
LINE
  5
20A0
  8
AM_BOR
 10
199.36521928176651
 20
18.405261169360589
 30
0.0
 11
204.19035209062989
 21
13.58012836049622
 31
0.0
  0
LINE
  5
20A1
  8
AM_BOR
 10
199.630408435547
 20
18.422512964405719
 30
0.0
 11
204.450428885349
 21
13.602492514602771
 31
0.0
  0
LINE
  5
20A2
  8
AM_BOR
 10
199.8967460324557
 20
18.438616316322719
 30
0.0
 11
204.70776895023289
 21
13.62759339854461
 31
0.0
  0
LINE
  5
20A3
  8
AM_BOR
 10
200.16308362936431
 20
18.454719668239761
 30
0.0
 11
204.9488987968831
 21
13.66890450072008
 31
0.0
  0
LINE
  5
20A4
  8
AM_BOR
 10
198.8450656923284
 20
18.36053286114759
 30
0.0
 11
203.6584049138651
 21
13.547193639610409
 31
0.0
  0
LINE
  5
20A5
  8
AM_BOR
 10
198.7943784573331
 20
18.12877914731807
 30
0.0
 11
203.39206731695711
 21
13.53109028769336
 31
0.0
  0
LINE
  5
20A6
  8
AM_BOR
 10
199.01830573664321
 20
18.375429872827009
 30
0.0
 11
199.01830573664321
 21
13.61146145716244
 31
0.0
  0
LINE
  5
20A7
  8
AM_BOR
 10
199.2180216468426
 20
18.39260355953768
 30
0.0
 11
199.2180216468426
 21
13.594287770451791
 31
0.0
  0
LINE
  5
20A8
  8
AM_BOR
 10
204.55473034123381
 20
18.375429872826999
 30
0.0
 11
204.55473034123381
 21
13.61146145716245
 31
0.0
  0
LINE
  5
20A9
  8
AM_BOR
 10
204.35501443103459
 20
18.39260355953764
 30
0.0
 11
204.35501443103459
 21
13.594287770451791
 31
0.0
  0
LINE
  5
20AA
  8
AM_BOR
 62
     4
 10
-0.0000001316067255
 20
15.000000173111291
 30
0.0
 11
190.49999986839319
 21
15.000000173111291
 31
0.0
  0
LINE
  5
20AB
  8
AM_BOR
 62
     4
 10
276.49999986839327
 20
28.000000173111289
 30
0.0
 11
276.49999986839327
 21
0.000000173111296
 31
0.0
  0
LINE
  5
20AC
  8
AM_BOR
 62
     4
 10
-0.0000001316067255
 20
15.000000173111291
 30
0.0
 11
-0.0000001316067255
 21
0.000000173111296
 31
0.0
  0
LINE
  5
20AD
  8
AM_BOR
 62
     4
 10
-0.0000001316067255
 20
28.000000173111289
 30
0.0
 11
276.49999986839327
 21
28.000000173111289
 31
0.0
  0
LINE
  5
20AE
  8
AM_BOR
 62
     4
 10
15.999999868393269
 20
15.000000173111291
 30
0.0
 11
15.999999868393269
 21
0.000000173111296
 31
0.0
  0
TEXT
  5
20AF
  8
AM_BOR
 62
     4
 10
215.17999986839331
 20
10.000000173111291
 30
0.0
 40
1.5
  1
NAKANISHI　INDUSTRIAL CO., LTD.
 41
1.5
  0
TEXT
  5
20B0
  8
AM_BOR
 62
     3
 10
213.19999986839329
 20
13.500000173111291
 30
0.0
 40
5.5
  1
中西産業株式会社
 41
1.1999999999999991
  0
TEXT
  5
20B1
  8
AM_BOR
 62
     4
 10
196.192787937406
 20
10.000000173111291
 30
0.0
 40
1.5
  1
Nakanishi
 41
1.1999999999999991
  0
TEXT
  5
20B2
  8
AM_BOR
 62
     7
 10
98.104999768257457
 20
15.650000185032219
 30
0.0
 40
1.0
  1
FINISH
 41
1.6000000000000001
  0
TEXT
  5
20B3
  8
AM_BOR
 62
     7
 10
96.979999708652798
 20
17.700000220795008
 30
0.0
 40
2.7999999999999989
  1
仕　　上
  0
TEXT
  5
20B4
  8
AM_BOR
 62
     7
 10
3.1549997801784002
 20
15.650000185032219
 30
0.0
 40
1.0
  1
MATERIAL
 41
1.6000000000000001
  0
TEXT
  5
20B5
  8
AM_BOR
 62
     7
 10
1.729999708652826
 20
17.700000220795008
 30
0.0
 40
2.7999999999999989
  1
材　　質
  0
LINE
  5
20B6
  8
AM_BOR
 62
     4
 10
190.49999986839319
 20
28.000000173111289
 30
0.0
 11
190.49999986839319
 21
0.000000173111296
 31
0.0
  0
LINE
  5
20B7
  8
AM_BOR
 62
     4
 10
-0.0000001316067255
 20
28.000000173111289
 30
0.0
 11
-0.0000001316067255
 21
15.000000173111291
 31
0.0
  0
LINE
  5
20B8
  8
AM_BOR
 62
     4
 10
-0.0000001316067255
 20
21.500000173111289
 30
0.0
 11
190.49999986839319
 21
21.500000173111289
 31
0.0
  0
LINE
  5
20B9
  8
AM_BOR
 62
     4
 10
15.999999868393269
 20
28.000000173111289
 30
0.0
 11
15.999999868393269
 21
15.000000173111291
 31
0.0
  0
TEXT
  5
20BA
  8
AM_BOR
 62
     7
 10
98.104999768257457
 20
22.150000185032219
 30
0.0
 40
1.0
  1
ART. NO.
 41
1.6000000000000001
  0
TEXT
  5
20BB
  8
AM_BOR
 62
     7
 10
96.979999708652684
 20
24.200000220795008
 30
0.0
 40
2.7999999999999989
  1
品　　番
  0
TEXT
  5
20BC
  8
AM_BOR
 62
     7
 10
3.1549997801784002
 20
22.150000185032219
 30
0.0
 40
1.0
  1
ARTICLE
 41
1.6000000000000001
  0
TEXT
  5
20BD
  8
AM_BOR
 62
     7
 10
1.7299997086527119
 20
24.200000220795008
 30
0.0
 40
2.7999999999999989
  1
品　　名
  0
LINE
  5
20BE
  8
AM_BOR
 62
     4
 10
-0.0000001316067255
 20
15.000000173111291
 30
0.0
 11
-0.0000001316067255
 21
0.0000001731112924
 31
0.0
  0
LINE
  5
20BF
  8
AM_BOR
 62
     4
 10
95.249999868393246
 20
28.000000173111289
 30
0.0
 11
95.249999868393246
 21
0.000000173111296
 31
0.0
  0
TEXT
  5
20C0
  8
AM_BOR
 62
     7
 10
3.1549997801784002
 20
9.1500001850322192
 30
0.0
 40
1.0
  1
REMARKS
 41
1.6000000000000001
  0
TEXT
  5
20C1
  8
AM_BOR
 62
     7
 10
1.7299997086527119
 20
11.20000022079501
 30
0.0
 40
2.7999999999999989
  1
備　　考
  0
LINE
  5
20C2
  8
AM_BOR
 62
     4
 10
111.2499998683932
 20
28.000000173111289
 30
0.0
 11
111.2499998683932
 21
0.000000173111296
 31
0.0
  0
LINE
  5
20C3
  8
AM_BOR
 62
     4
 10
-0.0000001316067255
 20
0.000000173111296
 30
0.0
 11
276.49999986839327
 21
0.000000173111296
 31
0.0
  0
TEXT
  5
20C4
  8
AM_BOR
 62
     7
 10
98.404999780178386
 20
9.1500001850322157
 30
0.0
 40
1.0
  1
SETS
 41
1.6000000000000001
  0
TEXT
  5
20C5
  8
AM_BOR
 62
     7
 10
96.979999708652684
 20
11.20000022079501
 30
0.0
 40
2.7999999999999989
  1
セット品
  0
ATTDEF
  5
20C6
  8
AM_BOR
 62
     7
 10
114.3107095753831
 20
0.5000001731112853
 30
0.0
 40
3.0
  1

 11
114.3107095753831
 21
2.0000001731112849
 31
0.0
  3
セット
  2
SETS｛20｝
 70
     0
 74
     2
1001
ACADANNOTATIVE
1000
AnnotativeData
1002
{
1070
     1
1070
     0
1002
}
1001
AcDbAttr
1070
     0
1070
     1
  0
ATTDEF
  5
20CA
  8
AM_BOR
 62
     7
 10
19.060709575383161
 20
0.5000001731112889
 30
0.0
 40
3.0
  1

 11
19.060709575383161
 21
2.000000173111288
 31
0.0
  3
備　　考
  2
REMARKS｛20｝
 70
     0
 74
     2
1001
ACADANNOTATIVE
1000
AnnotativeData
1002
{
1070
     1
1070
     0
1002
}
1001
AcDbAttr
1070
     0
1070
     1
  0
ATTDEF
  5
20CE
  8
AM_BOR
 62
     7
 10
114.3107095753831
 20
5.5000001731112853
 30
0.0
 40
3.0
  1

 11
114.3107095753831
 21
7.0000001731112853
 31
0.0
  3
セット
  2
SETS｛20｝
 70
     0
 74
     2
1001
ACADANNOTATIVE
1000
AnnotativeData
1002
{
1070
     1
1070
     0
1002
}
1001
AcDbAttr
1070
     0
1070
     1
  0
ATTDEF
  5
20D2
  8
AM_BOR
 62
     7
 10
19.060709575383161
 20
5.500000173111288
 30
0.0
 40
3.0
  1

 11
19.060709575383161
 21
7.000000173111288
 31
0.0
  3
備　　考
  2
REMARKS｛20｝
 70
     0
 74
     2
1001
ACADANNOTATIVE
1000
AnnotativeData
1002
{
1070
     1
1070
     0
1002
}
1001
AcDbAttr
1070
     0
1070
     1
  0
ATTDEF
  5
20D6
  8
AM_BOR
 62
     7
 10
114.3107095753831
 20
10.50000017311128
 30
0.0
 40
3.0
  1

 11
114.3107095753831
 21
12.00000017311128
 31
0.0
  3
セット
  2
SETS｛20｝
 70
     0
 74
     2
1001
ACADANNOTATIVE
1000
AnnotativeData
1002
{
1070
     1
1070
     0
1002
}
1001
AcDbAttr
1070
     0
1070
     1
  0
ATTDEF
  5
20DA
  8
AM_BOR
 62
     7
 10
19.060709575383161
 20
10.500000173111291
 30
0.0
 40
3.0
  1

 11
19.060709575383161
 21
12.000000173111291
 31
0.0
  3
備　　考
  2
REMARKS｛20｝
 70
     0
 74
     2
1001
ACADANNOTATIVE
1000
AnnotativeData
1002
{
1070
     1
1070
     0
1002
}
1001
AcDbAttr
1070
     0
1070
     1
  0
ATTDEF
  5
20DE
  8
AM_BOR
 62
     7
 10
114.2499998683932
 20
23.500000173111289
 30
0.0
 40
3.0
  1

 11
114.2499998683932
 21
25.000000173111289
 31
0.0
  3
品    番
  2
ART_NO｛20｝
 70
     0
 74
     2
1001
ACADANNOTATIVE
1000
AnnotativeData
1002
{
1070
     1
1070
     0
1002
}
1001
AcDbAttr
1070
     0
1070
     1
  0
ATTDEF
  5
20E2
  8
AM_BOR
 62
     7
 10
18.999999868393271
 20
23.500000173111289
 30
0.0
 40
3.0
  1

 11
18.999999868393271
 21
25.000000173111289
 31
0.0
  3
品    名
  2
ARTICLE｛20｝
 70
     0
 74
     2
1001
ACADANNOTATIVE
1000
AnnotativeData
1002
{
1070
     1
1070
     0
1002
}
1001
AcDbAttr
1070
     0
1070
     1
  0
ATTDEF
  5
20E6
  8
AM_BOR
 62
     7
 10
114.2499998683932
 20
17.000000173111289
 30
0.0
 40
3.0
  1

 11
114.2499998683932
 21
18.500000173111289
 31
0.0
  3
仕上
  2
FINISH｛20｝
 70
     0
 74
     2
1001
ACADANNOTATIVE
1000
AnnotativeData
1002
{
1070
     1
1070
     0
1002
}
1001
AcDbAttr
1070
     0
1070
     1
  0
ATTDEF
  5
20EA
  8
AM_BOR
 62
     7
 10
18.999999868393271
 20
17.000000173111289
 30
0.0
 40
3.0
  1

 11
18.999999868393271
 21
18.500000173111289
 31
0.0
  3
材　　質
  2
MATERIAK｛20｝
 70
     0
 74
     2
1001
ACADANNOTATIVE
1000
AnnotativeData
1002
{
1070
     1
1070
     0
1002
}
1001
AcDbAttr
1070
     0
1070
     1
  0
ENDBLK
  5
20F1
  8
0
  0
BLOCK
  8
0
  2
ZUWAKU-A3H
 70
     0
 10
0.0
 20
0.0
 30
0.0
  3
ZUWAKU-A3H
  1

  0
LINE
  5
29DD
  8
AM_BOR
 62
     3
 10
24.999999999999989
 20
284.99999999999977
 30
0.0
 11
24.999999999999979
 21
9.0
 31
0.0
  0
LINE
  5
29DE
  8
AM_BOR
 62
     3
 10
411.99999999999989
 20
284.99999999999989
 30
0.0
 11
25.0
 21
284.99999999999989
 31
0.0
  0
LINE
  5
29DF
  8
AM_BOR
 62
     3
 10
411.99999999999989
 20
284.99999999999989
 30
0.0
 11
411.99999999999989
 21
9.0
 31
0.0
  0
LINE
  5
29E0
  8
AM_BOR
 62
     3
 10
24.999999999999989
 20
8.9999999999999964
 30
0.0
 11
411.99999999999972
 21
8.9999999999999964
 31
0.0
  0
TEXT
  5
29E1
  8
SYS-TEISEI0
  6
CONTINUOUS
 62
     3
 10
144.38500001765789
 20
14.950000047683719
 30
0.0
 40
3.099999904632567
  1
 
  0
TEXT
  5
29E2
  8
SYS-TEISEI0
  6
CONTINUOUS
 62
     3
 10
169.88500004447991
 20
14.950000047683719
 30
0.0
 40
3.099999904632567
  1
 
  0
TEXT
  5
29E3
  8
SYS-TEISEI0
  6
CONTINUOUS
 62
     3
 10
229.24499995708459
 20
14.950000047683719
 30
0.0
 40
3.099999904632567
  1
 
  0
TEXT
  5
29E4
  8
SYS-TEISEI0
  6
CONTINUOUS
 62
     3
 10
236.9449999570846
 20
14.950000047683719
 30
0.0
 40
3.099999904632567
  1
 
  0
TEXT
  5
29E5
  8
SYS-TEISEI0
  6
CONTINUOUS
 62
     3
 10
144.38500001765789
 20
19.950000047683719
 30
0.0
 40
3.099999904632567
  1
 
  0
TEXT
  5
29E6
  8
SYS-TEISEI0
  6
CONTINUOUS
 62
     3
 10
169.88500004447991
 20
19.950000047683719
 30
0.0
 40
3.099999904632567
  1
 
  0
TEXT
  5
29E7
  8
SYS-TEISEI0
  6
CONTINUOUS
 62
     3
 10
229.24499995708459
 20
19.950000047683719
 30
0.0
 40
3.099999904632567
  1
 
  0
TEXT
  5
29E8
  8
SYS-TEISEI0
  6
CONTINUOUS
 62
     3
 10
236.9449999570846
 20
19.950000047683719
 30
0.0
 40
3.099999904632567
  1
 
  0
TEXT
  5
29E9
  8
SYS-TEISEI0
  6
CONTINUOUS
 62
     3
 10
144.38500001765789
 20
24.950000047683719
 30
0.0
 40
3.099999904632567
  1
 
  0
TEXT
  5
29EA
  8
SYS-TEISEI0
  6
CONTINUOUS
 62
     3
 10
169.88500004447991
 20
24.950000047683719
 30
0.0
 40
3.099999904632567
  1
 
  0
TEXT
  5
29EB
  8
SYS-TEISEI0
  6
CONTINUOUS
 62
     3
 10
229.24499995708459
 20
24.950000047683719
 30
0.0
 40
3.099999904632567
  1
 
  0
TEXT
  5
29EC
  8
SYS-TEISEI0
  6
CONTINUOUS
 62
     3
 10
236.9449999570846
 20
24.950000047683719
 30
0.0
 40
3.099999904632567
  1
 
  0
TEXT
  5
29ED
  8
AM_BOR
 10
24.999999999999989
 20
9.0
 30
0.0
 40
5.0
  1
!GENTITLE-LL
  0
TEXT
  5
29EE
  8
AM_BOR
 10
411.99999999999989
 20
9.0
 30
0.0
 40
5.0
  1
!GENTITLE-INSERT
  0
TEXT
  5
29EF
  8
AM_BOR
 10
411.99999999999989
 20
284.99999999999989
 30
0.0
 40
5.0
  1
!GENTITLE-RU
  0
TEXT
  5
29F0
  8
AM_BOR
 10
420.0
 20
297.0
 30
0.0
 40
5.0
  1
!GENTITLE-MAX
  0
ENDBLK
  5
29F2
  8
0
  0
BLOCK
  8
0
  2
_ACMFILLEDHALF
 70
     0
 10
0.0
 20
0.0
 30
0.0
  3
_ACMFILLEDHALF
  1

  0
TRACE
  5
32A5
  8
0
 62
     0
 10
-0.8
 20
0.0
 30
0.0
 11
-1.0
 21
0.166666666
 31
0.0
 12
0.0
 22
0.0
 32
0.0
 13
0.0
 23
0.0
 33
0.0
  0
LINE
  5
32A6
  8
0
 62
     0
 10
-1.0
 20
0.0
 30
0.0
 11
-0.8
 21
0.0
 31
0.0
  0
ENDBLK
  5
32A4
  8
0
  0
BLOCK
  8
0
  2
_ACMFILLED
 70
     0
 10
0.0
 20
0.0
 30
0.0
  3
_ACMFILLED
  1

  0
TRACE
  5
32B1
  8
0
 62
     0
 10
-1.0
 20
-0.166666666
 30
0.0
 11
-1.0
 21
0.166666666
 31
0.0
 12
0.0
 22
0.0
 32
0.0
 13
0.0
 23
0.0
 33
0.0
  0
ENDBLK
  5
32B0
  8
0
  0
BLOCK
  8
0
  2
_ACMOPEN15
 70
     0
 10
0.0
 20
0.0
 30
0.0
  3
_ACMOPEN15
  1

  0
LINE
  5
32BB
  8
0
 62
     0
 10
-1.0
 20
0.0
 30
0.0
 11
0.0
 21
0.0
 31
0.0
  0
LINE
  5
32BC
  8
0
 62
     0
 10
-1.0
 20
-0.131652497
 30
0.0
 11
0.0
 21
0.0
 31
0.0
  0
LINE
  5
32BD
  8
0
 62
     0
 10
0.0
 20
0.0
 30
0.0
 11
-1.0
 21
0.131652497
 31
0.0
  0
ENDBLK
  5
32BA
  8
0
  0
BLOCK
  8
0
  2
_ACMFILLED15
 70
     0
 10
0.0
 20
0.0
 30
0.0
  3
_ACMFILLED15
  1

  0
TRACE
  5
32C9
  8
0
 62
     0
 10
-1.0
 20
-0.131652497
 30
0.0
 11
-1.0
 21
0.131652497
 31
0.0
 12
0.0
 22
0.0
 32
0.0
 13
0.0
 23
0.0
 33
0.0
  0
ENDBLK
  5
32C8
  8
0
  0
BLOCK
  8
0
  2
GENDOT
 70
     0
 10
0.0
 20
0.0
 30
0.0
  3
GENDOT
  1

  0
LINE
  5
769A
  8
0
 10
0.0
 20
0.0
 30
0.0
 11
-1.0
 21
0.0
 31
0.0
  0
POLYLINE
  5
769B
  8
0
 66
     1
 10
0.0
 20
0.0
 30
0.0
 70
     1
 40
0.25
 41
0.25
  0
VERTEX
  5
B1FB
  8
0
 10
-0.125
 20
0.0
 30
0.0
 42
1.0
  0
VERTEX
  5
B1FC
  8
0
 10
0.125
 20
0.0
 30
0.0
 42
1.0
  0
SEQEND
  5
B1FD
  8
0
  0
ENDBLK
  5
769D
  8
0
  0
BLOCK
  8
0
  2
*D14
 70
     1
 10
0.0
 20
0.0
 30
0.0
  3
*D14
  1

  0
LINE
  5
AF74
  8
AM_5
  6
CONTINUOUS
 62
     7
 10
214.94570724559671
 20
155.5758468791519
 30
0.0
 11
214.94570724559671
 21
169.6627384863981
 31
0.0
  0
LINE
  5
AF75
  8
AM_5
  6
CONTINUOUS
 62
     7
 10
209.0457072479567
 20
155.5758468791519
 30
0.0
 11
209.0457072479567
 21
169.6627384863981
 31
0.0
  0
LINE
  5
AF76
  8
AM_5
  6
CONTINUOUS
 62
     7
 10
217.44570724559671
 20
168.6627384863981
 30
0.0
 11
219.94570724559671
 21
168.6627384863981
 31
0.0
  0
LINE
  5
AF77
  8
AM_5
  6
CONTINUOUS
 62
     7
 10
206.5457072479567
 20
168.6627384863981
 30
0.0
 11
171.74588189650521
 21
168.6627384863981
 31
0.0
  0
LINE
  5
AF78
  8
AM_5
  6
CONTINUOUS
 62
     7
 10
214.94570724559671
 20
168.6627384863981
 30
0.0
 11
209.0457072479567
 21
168.6627384863981
 31
0.0
  0
INSERT
  5
AF79
  8
AM_5
 62
     7
  2
_OPEN30
 10
214.94570724559671
 20
168.6627384863981
 30
0.0
 41
2.5
 42
2.5
 43
2.5
 50
180.0
  0
INSERT
  5
AF7A
  8
AM_5
 62
     7
  2
_OPEN30
 10
209.0457072479567
 20
168.6627384863981
 30
0.0
 41
2.5
 42
2.5
 43
2.5
  0
INSERT
  5
AF7B
  8
0
  2
*U40
 10
0.0
 20
0.0
 30
0.0
  0
POINT
  5
AF7C
  8
DEFPOINTS
 62
     0
 10
214.94570724559671
 20
154.5758468791519
 30
0.0
  0
POINT
  5
AF7D
  8
DEFPOINTS
 62
     0
 10
209.0457072479567
 20
154.5758468791519
 30
0.0
  0
POINT
  5
AF7E
  8
DEFPOINTS
 62
     0
 10
209.0457072479567
 20
168.6627384863981
 30
0.0
  0
ENDBLK
  5
A1D9
  8
0
  0
BLOCK
  8
0
  2
*D15
 70
     1
 10
0.0
 20
0.0
 30
0.0
  3
*D15
  1

  0
LINE
  5
B1FE
  8
AM_5
  6
CONTINUOUS
 62
     7
 10
190.9957072551766
 20
155.5758468791519
 30
0.0
 11
190.9957072551766
 21
179.86156116486609
 31
0.0
  0
LINE
  5
B1FF
  8
AM_5
  6
CONTINUOUS
 62
     7
 10
197.49570725257661
 20
129.3258468896519
 30
0.0
 11
197.49570725257661
 21
179.86156116486609
 31
0.0
  0
LINE
  5
B200
  8
AM_5
  6
CONTINUOUS
 62
     7
 10
199.99570725257661
 20
178.86156116486609
 30
0.0
 11
202.49570725257669
 21
178.86156116486609
 31
0.0
  0
LINE
  5
B201
  8
AM_5
  6
CONTINUOUS
 62
     7
 10
188.4957072551766
 20
178.86156116486609
 30
0.0
 11
176.57604982176429
 21
178.86156116486609
 31
0.0
  0
LINE
  5
B202
  8
AM_5
  6
CONTINUOUS
 62
     7
 10
197.49570725257661
 20
178.86156116486609
 30
0.0
 11
190.9957072551766
 21
178.86156116486609
 31
0.0
  0
INSERT
  5
B203
  8
AM_5
 62
     7
  2
GENDOT
 10
197.49570725257661
 20
178.86156116486609
 30
0.0
 41
2.5
 42
2.5
 43
2.5
 50
180.0
  0
INSERT
  5
B204
  8
AM_5
 62
     7
  2
_OPEN30
 10
190.9957072551766
 20
178.86156116486609
 30
0.0
 41
2.5
 42
2.5
 43
2.5
  0
TEXT
  8
AM_5
  40
3
  5
B298
  62
7
  72
0
  71
0
 10
180.719
 20
177.462
 30
0.000000
  1
6.5
  0
POINT
  5
B206
  8
DEFPOINTS
 62
     0
 10
190.9957072551766
 20
154.5758468791519
 30
0.0
  0
POINT
  5
B207
  8
DEFPOINTS
 62
     0
 10
197.49570725257661
 20
128.3258468896519
 30
0.0
  0
POINT
  5
B208
  8
DEFPOINTS
 62
     0
 10
197.49570725257661
 20
178.86156116486609
 30
0.0
  0
ENDBLK
  5
A22C
  8
0
  0
BLOCK
  8
0
  2
*D16
 70
     1
 10
0.0
 20
0.0
 30
0.0
  3
*D16
  1

  0
LINE
  5
B209
  8
AM_5
  6
CONTINUOUS
 62
     7
 10
198.4957072521766
 20
154.32584687965189
 30
0.0
 11
198.4957072521766
 21
179.86156116486609
 31
0.0
  0
LINE
  5
B20A
  8
AM_5
  6
CONTINUOUS
 62
     7
 10
197.49570725257661
 20
129.3258468896519
 30
0.0
 11
197.49570725257661
 21
179.86156116486609
 31
0.0
  0
LINE
  5
B20B
  8
AM_5
  6
CONTINUOUS
 62
     7
 10
200.99570725217669
 20
178.86156116486609
 30
0.0
 11
203.49570725217669
 21
178.86156116486609
 31
0.0
  0
LINE
  5
B20C
  8
AM_5
  6
CONTINUOUS
 62
     7
 10
194.99570725257661
 20
178.86156116486609
 30
0.0
 11
192.49570725257661
 21
178.86156116486609
 31
0.0
  0
LINE
  5
B20D
  8
AM_5
  6
CONTINUOUS
 62
     7
 10
197.99570725237669
 20
178.86156116486609
 30
0.0
 11
195.03301195940179
 21
185.33152987844201
 31
0.0
  0
LINE
  5
B20E
  8
AM_5
  6
CONTINUOUS
 62
     7
 10
195.03301195940179
 20
185.33152987844201
 30
0.0
 11
192.3187262451161
 21
185.33152987844201
 31
0.0
  0
TEXT
  8
AM_5
  40
3
  5
B299
  62
7
  72
0
  71
0
 10
193.676
 20
183.932
 30
0.000000
  1
1
  0
LINE
  5
B210
  8
AM_5
  6
CONTINUOUS
 62
     7
 10
198.4957072521766
 20
178.86156116486609
 30
0.0
 11
197.49570725257661
 21
178.86156116486609
 31
0.0
  0
LINE
  5
B211
  8
AM_5
  6
CONTINUOUS
 62
     7
 10
198.4957072521766
 20
178.86156116486609
 30
0.0
 11
197.49570725257661
 21
178.86156116486609
 31
0.0
  0
INSERT
  5
B212
  8
AM_5
 62
     7
  2
_OPEN30
 10
198.4957072521766
 20
178.86156116486609
 30
0.0
 41
2.5
 42
2.5
 43
2.5
 50
180.0
  0
INSERT
  5
B213
  8
AM_5
 62
     7
  2
GENDOT
 10
197.49570725257661
 20
178.86156116486609
 30
0.0
 41
2.5
 42
2.5
 43
2.5
  0
POINT
  5
B214
  8
DEFPOINTS
 62
     0
 10
198.4957072521766
 20
153.32584687965189
 30
0.0
  0
POINT
  5
B215
  8
DEFPOINTS
 62
     0
 10
197.49570725257661
 20
128.3258468896519
 30
0.0
  0
POINT
  5
B216
  8
DEFPOINTS
 62
     0
 10
197.49570725257661
 20
178.86156116486609
 30
0.0
  0
ENDBLK
  5
A269
  8
0
  0
BLOCK
  8
0
  2
*D17
 70
     1
 10
0.0
 20
0.0
 30
0.0
  3
*D17
  1

  0
LINE
  5
AF98
  8
AM_5
  6
CONTINUOUS
 62
     7
 10
211.9957072467767
 20
162.65376826116119
 30
0.0
 11
211.9957072467767
 21
179.86156116486609
 31
0.0
  0
LINE
  5
AF99
  8
AM_5
  6
CONTINUOUS
 62
     7
 10
198.4957072521766
 20
154.32584687965189
 30
0.0
 11
198.4957072521766
 21
179.86156116486609
 31
0.0
  0
LINE
  5
AF9A
  8
AM_5
  6
CONTINUOUS
 62
     7
 10
209.4957072467767
 20
178.86156116486609
 30
0.0
 11
200.99570725217669
 21
178.86156116486609
 31
0.0
  0
INSERT
  5
AF9B
  8
AM_5
 62
     7
  2
_OPEN30
 10
211.9957072467767
 20
178.86156116486609
 30
0.0
 41
2.5
 42
2.5
 43
2.5
  0
INSERT
  5
AF9C
  8
AM_5
 62
     7
  2
_OPEN30
 10
198.4957072521766
 20
178.86156116486609
 30
0.0
 41
2.5
 42
2.5
 43
2.5
 50
180.0
  0
INSERT
  5
AF9D
  8
0
  2
*U41
 10
0.0
 20
0.0
 30
0.0
  0
POINT
  5
AF9E
  8
DEFPOINTS
 62
     0
 10
211.9957072467767
 20
161.65376826116119
 30
0.0
  0
POINT
  5
AF9F
  8
DEFPOINTS
 62
     0
 10
198.4957072521766
 20
153.32584687965189
 30
0.0
  0
POINT
  5
AFA0
  8
DEFPOINTS
 62
     0
 10
198.4957072521766
 20
178.86156116486609
 30
0.0
  0
ENDBLK
  5
A2A6
  8
0
  0
BLOCK
  8
0
  2
*D18
 70
     1
 10
0.0
 20
0.0
 30
0.0
  3
*D18
  1

  0
LINE
  5
AFA1
  8
AM_5
  6
CONTINUOUS
 62
     7
 10
225.49570724137669
 20
154.32584687965189
 30
0.0
 11
225.49570724137669
 21
179.86156116486609
 31
0.0
  0
LINE
  5
AFA2
  8
AM_5
  6
CONTINUOUS
 62
     7
 10
211.9957072467767
 20
162.65376826116119
 30
0.0
 11
211.9957072467767
 21
179.86156116486609
 31
0.0
  0
LINE
  5
AFA3
  8
AM_5
  6
CONTINUOUS
 62
     7
 10
222.99570724137669
 20
178.86156116486609
 30
0.0
 11
214.4957072467767
 21
178.86156116486609
 31
0.0
  0
INSERT
  5
AFA4
  8
AM_5
 62
     7
  2
_OPEN30
 10
225.49570724137669
 20
178.86156116486609
 30
0.0
 41
2.5
 42
2.5
 43
2.5
  0
INSERT
  5
AFA5
  8
AM_5
 62
     7
  2
_OPEN30
 10
211.9957072467767
 20
178.86156116486609
 30
0.0
 41
2.5
 42
2.5
 43
2.5
 50
180.0
  0
INSERT
  5
AFA6
  8
0
  2
*U42
 10
0.0
 20
0.0
 30
0.0
  0
POINT
  5
AFA7
  8
DEFPOINTS
 62
     0
 10
225.49570724137669
 20
153.32584687965189
 30
0.0
  0
POINT
  5
AFA8
  8
DEFPOINTS
 62
     0
 10
211.9957072467767
 20
161.65376826116119
 30
0.0
  0
POINT
  5
AFA9
  8
DEFPOINTS
 62
     0
 10
211.9957072467767
 20
178.86156116486609
 30
0.0
  0
ENDBLK
  5
A2C7
  8
0
  0
BLOCK
  8
0
  2
*D19
 70
     1
 10
0.0
 20
0.0
 30
0.0
  3
*D19
  1

  0
LINE
  5
B217
  8
AM_5
  6
CONTINUOUS
 62
     7
 10
226.49570724097671
 20
129.32584688965181
 30
0.0
 11
226.49570724097671
 21
179.86156116486609
 31
0.0
  0
LINE
  5
B218
  8
AM_5
  6
CONTINUOUS
 62
     7
 10
225.49570724137669
 20
154.32584687965189
 30
0.0
 11
225.49570724137669
 21
179.86156116486609
 31
0.0
  0
LINE
  5
B219
  8
AM_5
  6
CONTINUOUS
 62
     7
 10
228.99570724097671
 20
178.86156116486609
 30
0.0
 11
231.49570724097671
 21
178.86156116486609
 31
0.0
  0
LINE
  5
B21A
  8
AM_5
  6
CONTINUOUS
 62
     7
 10
222.99570724137669
 20
178.86156116486609
 30
0.0
 11
220.49570724137669
 21
178.86156116486609
 31
0.0
  0
LINE
  5
B21B
  8
AM_5
  6
CONTINUOUS
 62
     7
 10
225.99570724117669
 20
178.86156116486609
 30
0.0
 11
228.0384082329783
 21
185.33152987844201
 31
0.0
  0
LINE
  5
B21C
  8
AM_5
  6
CONTINUOUS
 62
     7
 10
228.0384082329783
 20
185.33152987844201
 30
0.0
 11
230.75269394726411
 21
185.33152987844201
 31
0.0
  0
TEXT
  8
AM_5
  40
3
  5
B29A
  62
7
  72
0
  71
0
 10
229.396
 20
183.932
 30
0.000000
  1
1
  0
LINE
  5
B21E
  8
AM_5
  6
CONTINUOUS
 62
     7
 10
226.49570724097671
 20
178.86156116486609
 30
0.0
 11
225.49570724137669
 21
178.86156116486609
 31
0.0
  0
LINE
  5
B21F
  8
AM_5
  6
CONTINUOUS
 62
     7
 10
226.49570724097671
 20
178.86156116486609
 30
0.0
 11
225.49570724137669
 21
178.86156116486609
 31
0.0
  0
INSERT
  5
B220
  8
AM_5
 62
     7
  2
GENDOT
 10
226.49570724097671
 20
178.86156116486609
 30
0.0
 41
2.5
 42
2.5
 43
2.5
 50
180.0
  0
INSERT
  5
B221
  8
AM_5
 62
     7
  2
_OPEN30
 10
225.49570724137669
 20
178.86156116486609
 30
0.0
 41
2.5
 42
2.5
 43
2.5
  0
POINT
  5
B222
  8
DEFPOINTS
 62
     0
 10
226.49570724097671
 20
128.32584688965181
 30
0.0
  0
POINT
  5
B223
  8
DEFPOINTS
 62
     0
 10
225.49570724137669
 20
153.32584687965189
 30
0.0
  0
POINT
  5
B224
  8
DEFPOINTS
 62
     0
 10
225.49570724137669
 20
178.86156116486609
 30
0.0
  0
ENDBLK
  5
A2E8
  8
0
  0
BLOCK
  8
0
  2
*D20
 70
     1
 10
0.0
 20
0.0
 30
0.0
  3
*D20
  1

  0
LINE
  5
B225
  8
AM_5
  6
CONTINUOUS
 62
     7
 10
232.9957072383767
 20
155.5758468791519
 30
0.0
 11
232.9957072383767
 21
179.86156116486609
 31
0.0
  0
LINE
  5
B226
  8
AM_5
  6
CONTINUOUS
 62
     7
 10
226.49570724097671
 20
129.32584688965181
 30
0.0
 11
226.49570724097671
 21
179.86156116486609
 31
0.0
  0
LINE
  5
B227
  8
AM_5
  6
CONTINUOUS
 62
     7
 10
223.99570724097671
 20
178.86156116486609
 30
0.0
 11
221.49570724097671
 21
178.86156116486609
 31
0.0
  0
LINE
  5
B228
  8
AM_5
  6
CONTINUOUS
 62
     7
 10
235.4957072383767
 20
178.86156116486609
 30
0.0
 11
247.9638194747227
 21
178.86156116486609
 31
0.0
  0
LINE
  5
B229
  8
AM_5
  6
CONTINUOUS
 62
     7
 10
226.49570724097671
 20
178.86156116486609
 30
0.0
 11
232.9957072383767
 21
178.86156116486609
 31
0.0
  0
INSERT
  5
B22A
  8
AM_5
 62
     7
  2
GENDOT
 10
226.49570724097671
 20
178.86156116486609
 30
0.0
 41
2.5
 42
2.5
 43
2.5
  0
INSERT
  5
B22B
  8
AM_5
 62
     7
  2
_OPEN30
 10
232.9957072383767
 20
178.86156116486609
 30
0.0
 41
2.5
 42
2.5
 43
2.5
 50
180.0
  0
TEXT
  8
AM_5
  40
3
  5
B29B
  62
7
  72
0
  71
0
 10
243.821
 20
177.462
 30
0.000000
  1
6.5
  0
POINT
  5
B22D
  8
DEFPOINTS
 62
     0
 10
232.9957072383767
 20
154.5758468791519
 30
0.0
  0
POINT
  5
B22E
  8
DEFPOINTS
 62
     0
 10
226.49570724097671
 20
128.32584688965181
 30
0.0
  0
POINT
  5
B22F
  8
DEFPOINTS
 62
     0
 10
226.49570724097671
 20
178.86156116486609
 30
0.0
  0
ENDBLK
  5
A30F
  8
0
  0
BLOCK
  8
0
  2
*D21
 70
     1
 10
0.0
 20
0.0
 30
0.0
  3
*D21
  1

  0
LINE
  5
AFC3
  8
AM_5
  6
CONTINUOUS
 62
     7
 10
190.9957072551766
 20
155.5758468791519
 30
0.0
 11
190.9957072551766
 21
193.86156116486609
 31
0.0
  0
LINE
  5
AFC4
  8
AM_5
  6
CONTINUOUS
 62
     7
 10
211.9957072467767
 20
162.65376826116119
 30
0.0
 11
211.9957072467767
 21
193.86156116486609
 31
0.0
  0
LINE
  5
AFC5
  8
AM_5
  6
CONTINUOUS
 62
     7
 10
193.4957072551766
 20
192.86156116486609
 30
0.0
 11
209.4957072467767
 21
192.86156116486609
 31
0.0
  0
INSERT
  5
AFC6
  8
AM_5
 62
     7
  2
_OPEN30
 10
190.9957072551766
 20
192.86156116486609
 30
0.0
 41
2.5
 42
2.5
 43
2.5
 50
180.0
  0
INSERT
  5
AFC7
  8
AM_5
 62
     7
  2
_OPEN30
 10
211.9957072467767
 20
192.86156116486609
 30
0.0
 41
2.5
 42
2.5
 43
2.5
  0
INSERT
  5
AFC8
  8
0
  2
*U43
 10
0.0
 20
0.0
 30
0.0
  0
POINT
  5
AFC9
  8
DEFPOINTS
 62
     0
 10
190.9957072551766
 20
154.5758468791519
 30
0.0
  0
POINT
  5
AFCA
  8
DEFPOINTS
 62
     0
 10
211.9957072467767
 20
161.65376826116119
 30
0.0
  0
POINT
  5
AFCB
  8
DEFPOINTS
 62
     0
 10
211.9957072467767
 20
192.86156116486609
 30
0.0
  0
ENDBLK
  5
A394
  8
0
  0
BLOCK
  8
0
  2
*D22
 70
     1
 10
0.0
 20
0.0
 30
0.0
  3
*D22
  1

  0
LINE
  5
B037
  8
AM_5
  6
CONTINUOUS
 62
     7
 10
232.9957072383767
 20
155.5758468791519
 30
0.0
 11
232.9957072383767
 21
193.861561164866
 31
0.0
  0
LINE
  5
B038
  8
AM_5
  6
CONTINUOUS
 62
     7
 10
211.9957072467767
 20
162.65376826116119
 30
0.0
 11
211.9957072467767
 21
193.861561164866
 31
0.0
  0
LINE
  5
B039
  8
AM_5
  6
CONTINUOUS
 62
     7
 10
230.4957072383767
 20
192.861561164866
 30
0.0
 11
214.4957072467767
 21
192.861561164866
 31
0.0
  0
INSERT
  5
B03A
  8
AM_5
 62
     7
  2
_OPEN30
 10
232.9957072383767
 20
192.861561164866
 30
0.0
 41
2.5
 42
2.5
 43
2.5
  0
INSERT
  5
B03B
  8
AM_5
 62
     7
  2
_OPEN30
 10
211.9957072467767
 20
192.861561164866
 30
0.0
 41
2.5
 42
2.5
 43
2.5
 50
180.0
  0
INSERT
  5
B03C
  8
0
  2
*U53
 10
0.0
 20
0.0
 30
0.0
  0
POINT
  5
B03D
  8
DEFPOINTS
 62
     0
 10
232.9957072383767
 20
154.5758468791519
 30
0.0
  0
POINT
  5
B03E
  8
DEFPOINTS
 62
     0
 10
211.9957072467767
 20
161.65376826116119
 30
0.0
  0
POINT
  5
B03F
  8
DEFPOINTS
 62
     0
 10
211.9957072467767
 20
192.861561164866
 30
0.0
  0
ENDBLK
  5
A3C7
  8
0
  0
BLOCK
  8
0
  2
*D23
 70
     1
 10
0.0
 20
0.0
 30
0.0
  3
*D23
  1

  0
LINE
  5
AFD5
  8
AM_5
  6
CONTINUOUS
 62
     7
 10
190.9957072551766
 20
155.5758468791519
 30
0.0
 11
190.9957072551766
 21
200.86156116486609
 31
0.0
  0
LINE
  5
AFD6
  8
AM_5
  6
CONTINUOUS
 62
     7
 10
232.9957072383767
 20
155.5758468791519
 30
0.0
 11
232.9957072383767
 21
200.86156116486609
 31
0.0
  0
LINE
  5
AFD7
  8
AM_5
  6
CONTINUOUS
 62
     7
 10
193.4957072551766
 20
199.86156116486609
 30
0.0
 11
230.4957072383767
 21
199.86156116486609
 31
0.0
  0
INSERT
  5
AFD8
  8
AM_5
 62
     7
  2
_OPEN30
 10
190.9957072551766
 20
199.86156116486609
 30
0.0
 41
2.5
 42
2.5
 43
2.5
 50
180.0
  0
INSERT
  5
AFD9
  8
AM_5
 62
     7
  2
_OPEN30
 10
232.9957072383767
 20
199.86156116486609
 30
0.0
 41
2.5
 42
2.5
 43
2.5
  0
INSERT
  5
AFDA
  8
0
  2
*U44
 10
0.0
 20
0.0
 30
0.0
  0
POINT
  5
AFDB
  8
DEFPOINTS
 62
     0
 10
190.9957072551766
 20
154.5758468791519
 30
0.0
  0
POINT
  5
AFDC
  8
DEFPOINTS
 62
     0
 10
232.9957072383767
 20
154.5758468791519
 30
0.0
  0
POINT
  5
AFDD
  8
DEFPOINTS
 62
     0
 10
232.9957072383767
 20
199.86156116486609
 30
0.0
  0
ENDBLK
  5
A3E8
  8
0
  0
BLOCK
  8
0
  2
*D24
 70
     1
 10
0.0
 20
0.0
 30
0.0
  3
*D24
  1

  0
LINE
  5
AFDE
  8
AM_5
  6
CONTINUOUS
 62
     7
 10
189.9957072551766
 20
154.5758468791519
 30
0.0
 11
156.52456996346109
 21
154.5758468791519
 31
0.0
  0
LINE
  5
AFDF
  8
AM_5
  6
CONTINUOUS
 62
     7
 10
192.49570725417661
 20
147.57584688195189
 30
0.0
 11
156.52456996346109
 21
147.57584688195189
 31
0.0
  0
LINE
  5
AFE0
  8
AM_5
  6
CONTINUOUS
 62
     7
 10
157.52456996346109
 20
157.0758468791519
 30
0.0
 11
157.52456996346109
 21
159.5758468791519
 31
0.0
  0
LINE
  5
AFE1
  8
AM_5
  6
CONTINUOUS
 62
     7
 10
157.52456996346109
 20
145.07584688195189
 30
0.0
 11
157.52456996346109
 21
142.57584688195189
 31
0.0
  0
LINE
  5
AFE2
  8
AM_5
  6
CONTINUOUS
 62
     7
 10
157.52456996346109
 20
154.5758468791519
 30
0.0
 11
157.52456996346109
 21
147.57584688195189
 31
0.0
  0
INSERT
  5
AFE3
  8
AM_5
 62
     7
  2
_OPEN30
 10
157.52456996346109
 20
154.5758468791519
 30
0.0
 41
2.5
 42
2.5
 43
2.5
 50
270.0
  0
INSERT
  5
AFE4
  8
AM_5
 62
     7
  2
_OPEN30
 10
157.52456996346109
 20
147.57584688195189
 30
0.0
 41
2.5
 42
2.5
 43
2.5
 50
90.0
  0
INSERT
  5
AFE5
  8
0
  2
*U45
 10
0.0
 20
0.0
 30
0.0
  0
POINT
  5
AFE6
  8
DEFPOINTS
 62
     0
 10
190.9957072551766
 20
154.5758468791519
 30
0.0
  0
POINT
  5
AFE7
  8
DEFPOINTS
 62
     0
 10
193.49570725417661
 20
147.57584688195189
 30
0.0
  0
POINT
  5
AFE8
  8
DEFPOINTS
 62
     0
 10
157.52456996346109
 20
147.57584688195189
 30
0.0
  0
ENDBLK
  5
A412
  8
0
  0
BLOCK
  8
0
  2
*D25
 70
     1
 10
0.0
 20
0.0
 30
0.0
  3
*D25
  1

  0
LINE
  5
AFE9
  8
AM_5
  6
CONTINUOUS
 62
     7
 10
192.49570725417661
 20
147.57584688195189
 30
0.0
 11
156.52456996346109
 21
147.57584688195189
 31
0.0
  0
LINE
  5
AFEA
  8
AM_5
  6
CONTINUOUS
 62
     7
 10
191.49570725457659
 20
122.5758468919518
 30
0.0
 11
156.52456996346109
 21
122.5758468919519
 31
0.0
  0
LINE
  5
AFEB
  8
AM_5
  6
CONTINUOUS
 62
     7
 10
157.52456996346109
 20
145.07584688195189
 30
0.0
 11
157.52456996346109
 21
125.0758468919519
 31
0.0
  0
INSERT
  5
AFEC
  8
AM_5
 62
     7
  2
_OPEN30
 10
157.52456996346109
 20
147.57584688195189
 30
0.0
 41
2.5
 42
2.5
 43
2.5
 50
90.0
  0
INSERT
  5
AFED
  8
AM_5
 62
     7
  2
_OPEN30
 10
157.52456996346109
 20
122.5758468919519
 30
0.0
 41
2.5
 42
2.5
 43
2.5
 50
270.0
  0
INSERT
  5
AFEE
  8
0
  2
*U46
 10
0.0
 20
0.0
 30
0.0
  0
POINT
  5
AFEF
  8
DEFPOINTS
 62
     0
 10
193.49570725417661
 20
147.57584688195189
 30
0.0
  0
POINT
  5
AFF0
  8
DEFPOINTS
 62
     0
 10
192.49570725457659
 20
122.5758468919518
 30
0.0
  0
POINT
  5
AFF1
  8
DEFPOINTS
 62
     0
 10
157.52456996346109
 20
122.5758468919519
 30
0.0
  0
ENDBLK
  5
A44F
  8
0
  0
BLOCK
  8
0
  2
*D26
 70
     1
 10
0.0
 20
0.0
 30
0.0
  3
*D26
  1

  0
LINE
  5
B040
  8
AM_5
  6
CONTINUOUS
 62
     7
 10
191.49570725457659
 20
122.5758468919518
 30
0.0
 11
156.524569963461
 21
122.5758468919519
 31
0.0
  0
LINE
  5
B041
  8
AM_5
  6
CONTINUOUS
 62
     7
 10
191.49570725457659
 20
97.575846901951849
 30
0.0
 11
156.524569963461
 21
97.575846901951877
 31
0.0
  0
LINE
  5
B042
  8
AM_5
  6
CONTINUOUS
 62
     7
 10
157.524569963461
 20
120.0758468919518
 30
0.0
 11
157.524569963461
 21
100.07584690195181
 31
0.0
  0
INSERT
  5
B043
  8
AM_5
 62
     7
  2
_OPEN30
 10
157.524569963461
 20
122.5758468919519
 30
0.0
 41
2.5
 42
2.5
 43
2.5
 50
90.0
  0
INSERT
  5
B044
  8
AM_5
 62
     7
  2
_OPEN30
 10
157.524569963461
 20
97.575846901951877
 30
0.0
 41
2.5
 42
2.5
 43
2.5
 50
270.0
  0
INSERT
  5
B045
  8
0
  2
*U54
 10
0.0
 20
0.0
 30
0.0
  0
POINT
  5
B046
  8
DEFPOINTS
 62
     0
 10
192.49570725457659
 20
122.5758468919518
 30
0.0
  0
POINT
  5
B047
  8
DEFPOINTS
 62
     0
 10
192.49570725457659
 20
97.575846901951849
 30
0.0
  0
POINT
  5
B048
  8
DEFPOINTS
 62
     0
 10
157.524569963461
 20
97.575846901951877
 30
0.0
  0
ENDBLK
  5
A470
  8
0
  0
BLOCK
  8
0
  2
*D27
 70
     1
 10
0.0
 20
0.0
 30
0.0
  3
*D27
  1

  0
LINE
  5
AFFB
  8
AM_5
  6
CONTINUOUS
 62
     7
 10
191.49570725457659
 20
97.575846901951849
 30
0.0
 11
156.5245699634612
 21
97.575846901951877
 31
0.0
  0
LINE
  5
AFFC
  8
AM_5
  6
CONTINUOUS
 62
     7
 10
189.9957072551766
 20
90.575846904751856
 30
0.0
 11
156.5245699634612
 21
90.575846904751884
 31
0.0
  0
LINE
  5
AFFD
  8
AM_5
  6
CONTINUOUS
 62
     7
 10
157.5245699634612
 20
100.07584690195181
 30
0.0
 11
157.5245699634612
 21
102.57584690195181
 31
0.0
  0
LINE
  5
AFFE
  8
AM_5
  6
CONTINUOUS
 62
     7
 10
157.5245699634612
 20
88.075846904751884
 30
0.0
 11
157.5245699634612
 21
85.575846904751884
 31
0.0
  0
LINE
  5
AFFF
  8
AM_5
  6
CONTINUOUS
 62
     7
 10
157.5245699634612
 20
97.575846901951877
 30
0.0
 11
157.5245699634612
 21
90.575846904751884
 31
0.0
  0
INSERT
  5
B000
  8
AM_5
 62
     7
  2
_OPEN30
 10
157.5245699634612
 20
97.575846901951877
 30
0.0
 41
2.5
 42
2.5
 43
2.5
 50
270.0
  0
INSERT
  5
B001
  8
AM_5
 62
     7
  2
_OPEN30
 10
157.5245699634612
 20
90.575846904751884
 30
0.0
 41
2.5
 42
2.5
 43
2.5
 50
90.0
  0
INSERT
  5
B002
  8
0
  2
*U47
 10
0.0
 20
0.0
 30
0.0
  0
POINT
  5
B003
  8
DEFPOINTS
 62
     0
 10
192.49570725457659
 20
97.575846901951849
 30
0.0
  0
POINT
  5
B004
  8
DEFPOINTS
 62
     0
 10
190.9957072551766
 20
90.575846904751856
 30
0.0
  0
POINT
  5
B005
  8
DEFPOINTS
 62
     0
 10
157.5245699634612
 20
90.575846904751884
 30
0.0
  0
ENDBLK
  5
A491
  8
0
  0
BLOCK
  8
0
  2
*D28
 70
     1
 10
0.0
 20
0.0
 30
0.0
  3
*D28
  1

  0
LINE
  5
B006
  8
AM_5
  6
CONTINUOUS
 62
     7
 10
233.9957072383767
 20
154.5758468791519
 30
0.0
 11
261.03916412494033
 21
154.5758468791519
 31
0.0
  0
LINE
  5
B007
  8
AM_5
  6
CONTINUOUS
 62
     7
 10
231.49570723937671
 20
147.57584688195189
 30
0.0
 11
261.03916412494033
 21
147.57584688195189
 31
0.0
  0
LINE
  5
B008
  8
AM_5
  6
CONTINUOUS
 62
     7
 10
260.03916412494033
 20
157.0758468791519
 30
0.0
 11
260.03916412494033
 21
159.5758468791519
 31
0.0
  0
LINE
  5
B009
  8
AM_5
  6
CONTINUOUS
 62
     7
 10
260.03916412494033
 20
145.07584688195189
 30
0.0
 11
260.03916412494033
 21
142.57584688195189
 31
0.0
  0
LINE
  5
B00A
  8
AM_5
  6
CONTINUOUS
 62
     7
 10
260.03916412494033
 20
154.5758468791519
 30
0.0
 11
260.03916412494033
 21
147.57584688195189
 31
0.0
  0
INSERT
  5
B00B
  8
AM_5
 62
     7
  2
_OPEN30
 10
260.03916412494033
 20
154.5758468791519
 30
0.0
 41
2.5
 42
2.5
 43
2.5
 50
270.0
  0
INSERT
  5
B00C
  8
AM_5
 62
     7
  2
_OPEN30
 10
260.03916412494033
 20
147.57584688195189
 30
0.0
 41
2.5
 42
2.5
 43
2.5
 50
90.0
  0
INSERT
  5
B00D
  8
0
  2
*U48
 10
0.0
 20
0.0
 30
0.0
  0
POINT
  5
B00E
  8
DEFPOINTS
 62
     0
 10
232.9957072383767
 20
154.5758468791519
 30
0.0
  0
POINT
  5
B00F
  8
DEFPOINTS
 62
     0
 10
230.4957072393766
 20
147.57584688195189
 30
0.0
  0
POINT
  5
B010
  8
DEFPOINTS
 62
     0
 10
260.03916412494033
 20
147.57584688195189
 30
0.0
  0
ENDBLK
  5
A4B8
  8
0
  0
BLOCK
  8
0
  2
*D29
 70
     1
 10
0.0
 20
0.0
 30
0.0
  3
*D29
  1

  0
LINE
  5
B011
  8
AM_5
  6
CONTINUOUS
 62
     7
 10
232.49570723897671
 20
122.5758468919518
 30
0.0
 11
261.03916412494021
 21
122.5758468919518
 31
0.0
  0
LINE
  5
B012
  8
AM_5
  6
CONTINUOUS
 62
     7
 10
231.49570723937671
 20
147.57584688195189
 30
0.0
 11
261.03916412494033
 21
147.57584688195189
 31
0.0
  0
LINE
  5
B013
  8
AM_5
  6
CONTINUOUS
 62
     7
 10
260.03916412494021
 20
125.0758468919519
 30
0.0
 11
260.03916412494033
 21
145.07584688195189
 31
0.0
  0
INSERT
  5
B014
  8
AM_5
 62
     7
  2
_OPEN30
 10
260.03916412494021
 20
122.5758468919518
 30
0.0
 41
2.5
 42
2.5
 43
2.5
 50
270.0
  0
INSERT
  5
B015
  8
AM_5
 62
     7
  2
_OPEN30
 10
260.03916412494033
 20
147.57584688195189
 30
0.0
 41
2.5
 42
2.5
 43
2.5
 50
90.0
  0
INSERT
  5
B016
  8
0
  2
*U49
 10
0.0
 20
0.0
 30
0.0
  0
POINT
  5
B017
  8
DEFPOINTS
 62
     0
 10
231.49570723897671
 20
122.5758468919518
 30
0.0
  0
POINT
  5
B018
  8
DEFPOINTS
 62
     0
 10
230.4957072393766
 20
147.57584688195189
 30
0.0
  0
POINT
  5
B019
  8
DEFPOINTS
 62
     0
 10
260.03916412494033
 20
147.57584688195189
 30
0.0
  0
ENDBLK
  5
A4F5
  8
0
  0
BLOCK
  8
0
  2
*D30
 70
     1
 10
0.0
 20
0.0
 30
0.0
  3
*D30
  1

  0
LINE
  5
B01A
  8
AM_5
  6
CONTINUOUS
 62
     7
 10
231.49570723937671
 20
97.575846901951891
 30
0.0
 11
261.03916412494033
 21
97.575846901951891
 31
0.0
  0
LINE
  5
B01B
  8
AM_5
  6
CONTINUOUS
 62
     7
 10
232.49570723897671
 20
122.5758468919518
 30
0.0
 11
261.03916412494033
 21
122.5758468919518
 31
0.0
  0
LINE
  5
B01C
  8
AM_5
  6
CONTINUOUS
 62
     7
 10
260.03916412494033
 20
100.07584690195191
 30
0.0
 11
260.03916412494033
 21
120.0758468919518
 31
0.0
  0
INSERT
  5
B01D
  8
AM_5
 62
     7
  2
_OPEN30
 10
260.03916412494033
 20
97.575846901951891
 30
0.0
 41
2.5
 42
2.5
 43
2.5
 50
270.0
  0
INSERT
  5
B01E
  8
AM_5
 62
     7
  2
_OPEN30
 10
260.03916412494033
 20
122.5758468919518
 30
0.0
 41
2.5
 42
2.5
 43
2.5
 50
90.0
  0
INSERT
  5
B01F
  8
0
  2
*U50
 10
0.0
 20
0.0
 30
0.0
  0
POINT
  5
B020
  8
DEFPOINTS
 62
     0
 10
230.4957072393766
 20
97.575846901951891
 30
0.0
  0
POINT
  5
B021
  8
DEFPOINTS
 62
     0
 10
231.49570723897671
 20
122.5758468919518
 30
0.0
  0
POINT
  5
B022
  8
DEFPOINTS
 62
     0
 10
260.03916412494033
 20
122.5758468919518
 30
0.0
  0
ENDBLK
  5
A516
  8
0
  0
BLOCK
  8
0
  2
*D31
 70
     1
 10
0.0
 20
0.0
 30
0.0
  3
*D31
  1

  0
LINE
  5
B023
  8
AM_5
  6
CONTINUOUS
 62
     7
 10
233.9957072383767
 20
90.575846904751856
 30
0.0
 11
261.03916412494033
 21
90.575846904751856
 31
0.0
  0
LINE
  5
B024
  8
AM_5
  6
CONTINUOUS
 62
     7
 10
231.49570723937671
 20
97.575846901951891
 30
0.0
 11
261.03916412494033
 21
97.575846901951891
 31
0.0
  0
LINE
  5
B025
  8
AM_5
  6
CONTINUOUS
 62
     7
 10
260.03916412494033
 20
88.075846904751856
 30
0.0
 11
260.03916412494033
 21
85.575846904751856
 31
0.0
  0
LINE
  5
B026
  8
AM_5
  6
CONTINUOUS
 62
     7
 10
260.03916412494033
 20
100.07584690195191
 30
0.0
 11
260.03916412494033
 21
102.57584690195191
 31
0.0
  0
LINE
  5
B027
  8
AM_5
  6
CONTINUOUS
 62
     7
 10
260.03916412494033
 20
90.575846904751856
 30
0.0
 11
260.03916412494033
 21
97.575846901951891
 31
0.0
  0
INSERT
  5
B028
  8
AM_5
 62
     7
  2
_OPEN30
 10
260.03916412494033
 20
90.575846904751856
 30
0.0
 41
2.5
 42
2.5
 43
2.5
 50
90.0
  0
INSERT
  5
B029
  8
AM_5
 62
     7
  2
_OPEN30
 10
260.03916412494033
 20
97.575846901951891
 30
0.0
 41
2.5
 42
2.5
 43
2.5
 50
270.0
  0
INSERT
  5
B02A
  8
0
  2
*U51
 10
0.0
 20
0.0
 30
0.0
  0
POINT
  5
B02B
  8
DEFPOINTS
 62
     0
 10
232.9957072383767
 20
90.575846904751856
 30
0.0
  0
POINT
  5
B02C
  8
DEFPOINTS
 62
     0
 10
230.4957072393766
 20
97.575846901951891
 30
0.0
  0
POINT
  5
B02D
  8
DEFPOINTS
 62
     0
 10
260.03916412494033
 20
97.575846901951891
 30
0.0
  0
ENDBLK
  5
A537
  8
0
  0
BLOCK
  8
0
  2
*D32
 70
     1
 10
0.0
 20
0.0
 30
0.0
  3
*D32
  1

  0
LINE
  5
B02E
  8
AM_5
  6
CONTINUOUS
 62
     7
 10
233.9957072383767
 20
154.5758468791519
 30
0.0
 11
268.03916412494033
 21
154.5758468791519
 31
0.0
  0
LINE
  5
B02F
  8
AM_5
  6
CONTINUOUS
 62
     7
 10
233.9957072383767
 20
90.575846904751856
 30
0.0
 11
268.03916412494033
 21
90.575846904751856
 31
0.0
  0
LINE
  5
B030
  8
AM_5
  6
CONTINUOUS
 62
     7
 10
267.03916412494033
 20
152.0758468791519
 30
0.0
 11
267.03916412494033
 21
93.075846904751856
 31
0.0
  0
INSERT
  5
B031
  8
AM_5
 62
     7
  2
_OPEN30
 10
267.03916412494033
 20
154.5758468791519
 30
0.0
 41
2.5
 42
2.5
 43
2.5
 50
90.0
  0
INSERT
  5
B032
  8
AM_5
 62
     7
  2
_OPEN30
 10
267.03916412494033
 20
90.575846904751856
 30
0.0
 41
2.5
 42
2.5
 43
2.5
 50
270.0
  0
INSERT
  5
B033
  8
0
  2
*U52
 10
0.0
 20
0.0
 30
0.0
  0
POINT
  5
B034
  8
DEFPOINTS
 62
     0
 10
232.9957072383767
 20
154.5758468791519
 30
0.0
  0
POINT
  5
B035
  8
DEFPOINTS
 62
     0
 10
232.9957072383767
 20
90.575846904751856
 30
0.0
  0
POINT
  5
B036
  8
DEFPOINTS
 62
     0
 10
267.03916412494033
 20
90.575846904751856
 30
0.0
  0
ENDBLK
  5
A55E
  8
0
  0
BLOCK
  8
0
  2
*D33
 70
     1
 10
0.0
 20
0.0
 30
0.0
  3
*D33
  1

  0
LINE
  5
B230
  8
AM_5
  6
CONTINUOUS
 62
     7
 10
189.99570725523569
 20
241.12079358310359
 30
0.0
 11
173.49570718935121
 21
241.12079358310359
 31
0.0
  0
LINE
  5
B231
  8
AM_5
  6
CONTINUOUS
 62
     7
 10
189.9957072552358
 20
239.9207935835837
 30
0.0
 11
173.49570718935121
 21
239.9207935835837
 31
0.0
  0
LINE
  5
B232
  8
AM_5
  6
CONTINUOUS
 62
     7
 10
174.49570718935121
 20
237.4207935835837
 30
0.0
 11
174.49570718935121
 21
234.9207935835837
 31
0.0
  0
LINE
  5
B233
  8
AM_5
  6
CONTINUOUS
 62
     7
 10
174.49570718935121
 20
243.62079358310359
 30
0.0
 11
174.49570718935121
 21
256.20527253179978
 31
0.0
  0
LINE
  5
B234
  8
AM_5
  6
CONTINUOUS
 62
     7
 10
174.49570718935121
 20
239.9207935835837
 30
0.0
 11
174.49570718935121
 21
241.12079358310359
 31
0.0
  0
INSERT
  5
B235
  8
AM_5
 62
     7
  2
GENDOT
 10
174.49570718935121
 20
239.9207935835837
 30
0.0
 41
2.5
 42
2.5
 43
2.5
 50
90.0
  0
INSERT
  5
B236
  8
AM_5
 62
     7
  2
_OPEN30
 10
174.49570718935121
 20
241.12079358310359
 30
0.0
 41
2.5
 42
2.5
 43
2.5
 50
270.0
  0
TEXT
  8
AM_5
  40
3
  5
B29C
  62
7
  72
0
  71
0
 10
171.996
 20
248.448
 30
0.000000
  1
1.2
  0
POINT
  5
B238
  8
DEFPOINTS
 62
     0
 10
190.99570725523569
 20
241.12079358310359
 30
0.0
  0
POINT
  5
B239
  8
DEFPOINTS
 62
     0
 10
190.9957072552358
 20
239.9207935835837
 30
0.0
  0
POINT
  5
B23A
  8
DEFPOINTS
 62
     0
 10
174.49570718935121
 20
239.9207935835837
 30
0.0
  0
ENDBLK
  5
A58B
  8
0
  0
BLOCK
  8
0
  2
*D34
 70
     1
 10
0.0
 20
0.0
 30
0.0
  3
*D34
  1

  0
LINE
  5
B23B
  8
AM_5
  6
CONTINUOUS
 62
     7
 10
189.9957072552358
 20
239.9207935835837
 30
0.0
 11
173.49570818722319
 21
239.9207935835837
 31
0.0
  0
LINE
  5
B23C
  8
AM_5
  6
CONTINUOUS
 62
     7
 10
189.9957072552358
 20
237.9207935843836
 30
0.0
 11
173.49570818722319
 21
237.9207935843836
 31
0.0
  0
LINE
  5
B23D
  8
AM_5
  6
CONTINUOUS
 62
     7
 10
174.49570818722319
 20
242.4207935835837
 30
0.0
 11
174.49570818722319
 21
244.9207935835837
 31
0.0
  0
LINE
  5
B23E
  8
AM_5
  6
CONTINUOUS
 62
     7
 10
174.49570818722319
 20
235.4207935843836
 30
0.0
 11
174.49570818722319
 21
232.9207935843836
 31
0.0
  0
LINE
  5
B23F
  8
AM_5
  6
CONTINUOUS
 62
     7
 10
174.49570818722319
 20
238.9207935839836
 30
0.0
 11
166.08326039772791
 21
232.22552443749379
 31
0.0
  0
LINE
  5
B240
  8
AM_5
  6
CONTINUOUS
 62
     7
 10
166.08326039772791
 20
232.22552443749379
 30
0.0
 11
166.08326039772791
 21
228.22552443749379
 31
0.0
  0
TEXT
  8
AM_5
  40
3
  5
B29D
  62
7
  72
0
  71
0
 10
163.583
 20
226.326
 30
0.000000
  1
2
  0
LINE
  5
B242
  8
AM_5
  6
CONTINUOUS
 62
     7
 10
174.49570818722319
 20
239.9207935835837
 30
0.0
 11
174.49570818722319
 21
237.9207935843836
 31
0.0
  0
LINE
  5
B243
  8
AM_5
  6
CONTINUOUS
 62
     7
 10
174.49570818722319
 20
239.9207935835837
 30
0.0
 11
174.49570818722319
 21
237.9207935843836
 31
0.0
  0
INSERT
  5
B244
  8
AM_5
 62
     7
  2
GENDOT
 10
174.49570818722319
 20
239.9207935835837
 30
0.0
 41
2.5
 42
2.5
 43
2.5
 50
270.0
  0
INSERT
  5
B245
  8
AM_5
 62
     7
  2
GENDOT
 10
174.49570818722319
 20
237.9207935843836
 30
0.0
 41
2.5
 42
2.5
 43
2.5
 50
90.0
  0
POINT
  5
B246
  8
DEFPOINTS
 62
     0
 10
190.9957072552358
 20
239.9207935835837
 30
0.0
  0
POINT
  5
B247
  8
DEFPOINTS
 62
     0
 10
190.9957072552358
 20
237.9207935843836
 30
0.0
  0
POINT
  5
B248
  8
DEFPOINTS
 62
     0
 10
174.49570818722319
 20
237.9207935843836
 30
0.0
  0
ENDBLK
  5
A5C8
  8
0
  0
BLOCK
  8
0
  2
*D35
 70
     1
 10
0.0
 20
0.0
 30
0.0
  3
*D35
  1

  0
LINE
  5
B249
  8
AM_5
  6
CONTINUOUS
 62
     7
 10
189.9957072552358
 20
237.9207935843836
 30
0.0
 11
173.4957077533661
 21
237.9207935843836
 31
0.0
  0
LINE
  5
B24A
  8
AM_5
  6
CONTINUOUS
 62
     7
 10
189.9957072552358
 20
236.7207935848636
 30
0.0
 11
173.4957077533661
 21
236.7207935848636
 31
0.0
  0
LINE
  5
B24B
  8
AM_5
  6
CONTINUOUS
 62
     7
 10
174.4957077533661
 20
240.4207935843836
 30
0.0
 11
174.4957077533661
 21
242.9207935843836
 31
0.0
  0
LINE
  5
B24C
  8
AM_5
  6
CONTINUOUS
 62
     7
 10
174.4957077533661
 20
234.2207935848636
 30
0.0
 11
174.4957077533661
 21
224.00650787057791
 31
0.0
  0
LINE
  5
B24D
  8
AM_5
  6
CONTINUOUS
 62
     7
 10
174.4957077533661
 20
237.9207935843836
 30
0.0
 11
174.4957077533661
 21
236.7207935848636
 31
0.0
  0
INSERT
  5
B24E
  8
AM_5
 62
     7
  2
GENDOT
 10
174.4957077533661
 20
237.9207935843836
 30
0.0
 41
2.5
 42
2.5
 43
2.5
 50
270.0
  0
INSERT
  5
B24F
  8
AM_5
 62
     7
  2
_OPEN30
 10
174.4957077533661
 20
236.7207935848636
 30
0.0
 41
2.5
 42
2.5
 43
2.5
 50
90.0
  0
TEXT
  8
AM_5
  40
3
  5
B29E
  62
7
  72
0
  71
0
 10
171.996
 20
223.964
 30
0.000000
  1
1.2
  0
POINT
  5
B251
  8
DEFPOINTS
 62
     0
 10
190.9957072552358
 20
237.9207935843836
 30
0.0
  0
POINT
  5
B252
  8
DEFPOINTS
 62
     0
 10
190.9957072552358
 20
236.7207935848636
 30
0.0
  0
POINT
  5
B253
  8
DEFPOINTS
 62
     0
 10
174.4957077533661
 20
236.7207935848636
 30
0.0
  0
ENDBLK
  5
A605
  8
0
  0
BLOCK
  8
0
  2
*D36
 70
     1
 10
0.0
 20
0.0
 30
0.0
  3
*D36
  1

  0
LINE
  5
AED9
  8
AM_5
  6
CONTINUOUS
 62
     7
 10
189.9957072552358
 20
241.12079358310351
 30
0.0
 11
155.3002674207676
 21
241.12079358310351
 31
0.0
  0
LINE
  5
AEDA
  8
AM_5
  6
CONTINUOUS
 62
     7
 10
189.9957072552358
 20
236.7207935848636
 30
0.0
 11
155.3002674207676
 21
236.7207935848636
 31
0.0
  0
LINE
  5
AEDB
  8
AM_5
  6
CONTINUOUS
 62
     7
 10
156.3002674207676
 20
243.62079358310351
 30
0.0
 11
156.3002674207676
 21
246.12079358310351
 31
0.0
  0
LINE
  5
AEDC
  8
AM_5
  6
CONTINUOUS
 62
     7
 10
156.3002674207676
 20
234.2207935848636
 30
0.0
 11
156.3002674207676
 21
223.29222215629221
 31
0.0
  0
LINE
  5
AEDD
  8
AM_5
  6
CONTINUOUS
 62
     7
 10
156.3002674207676
 20
241.12079358310351
 30
0.0
 11
156.3002674207676
 21
236.7207935848636
 31
0.0
  0
INSERT
  5
AEDE
  8
AM_5
 62
     7
  2
_OPEN30
 10
156.3002674207676
 20
241.12079358310351
 30
0.0
 41
2.5
 42
2.5
 43
2.5
 50
270.0
  0
INSERT
  5
AEDF
  8
AM_5
 62
     7
  2
_OPEN30
 10
156.3002674207676
 20
236.7207935848636
 30
0.0
 41
2.5
 42
2.5
 43
2.5
 50
90.0
  0
INSERT
  5
AEE0
  8
0
  2
*U39
 10
0.0
 20
0.0
 30
0.0
  0
POINT
  5
AEE1
  8
DEFPOINTS
 62
     0
 10
190.9957072552358
 20
241.12079358310351
 30
0.0
  0
POINT
  5
AEE2
  8
DEFPOINTS
 62
     0
 10
190.9957072552358
 20
236.7207935848636
 30
0.0
  0
POINT
  5
AEE3
  8
DEFPOINTS
 62
     0
 10
156.3002674207676
 20
236.7207935848636
 30
0.0
  0
ENDBLK
  5
A671
  8
0
  0
BLOCK
  8
0
  2
*S38
 70
     1
 10
0.0
 20
0.0
 30
0.0
  3
*S38
  1

  0
LINE
  5
B199
  8
AM_5
  6
CONTINUOUS
 62
     7
 10
150.78530498747901
 20
73.51638502936575
 30
0.0
 11
178.64130892448691
 21
73.51638502936575
 31
0.0
  0
LINE
  5
B19A
  8
AM_5
  6
CONTINUOUS
 62
     7
 10
178.64130892448691
 20
73.51638502936575
 30
0.0
 11
194.2630829849887
 21
92.446773711384935
 31
0.0
  0
LINE
  5
B19B
  8
AM_5
  6
CONTINUOUS
 62
     7
 10
194.2630829849887
 20
92.446773711384935
 30
0.0
 11
196.2680102698682
 21
94.876334696901779
 31
0.0
  0
LINE
  5
B19C
  8
AM_5
  6
CONTINUOUS
 62
     7
 10
194.58294075534579
 20
92.182820028027109
 30
0.0
 11
196.2680102698682
 21
94.876334696901779
 31
0.0
  0
LINE
  5
B19D
  8
AM_5
  6
CONTINUOUS
 62
     7
 10
196.2680102698682
 20
94.876334696901779
 30
0.0
 11
193.94322521463161
 21
92.710727394742747
 31
0.0
  0
INSERT
  5
B19E
  8
0
  2
*U55
 10
0.0
 20
0.0
 30
0.0
  0
ENDBLK
  5
B1A0
  8
0
  0
BLOCK
  8
0
  2
*U39
 70
     1
 10
0.0
 20
0.0
 30
0.0
  3
*U39
  1

  0
TEXT
  5
B255
  8
AM_5
 62
     7
 10
155.30026742076751
 20
224.29222215629221
 30
0.0
 40
3.0
  1
4.4
 50
90.0
  0
ENDBLK
  5
B257
  8
0
  0
BLOCK
  8
0
  2
*U40
 70
     1
 10
0.0
 20
0.0
 30
0.0
  3
*U40
  1

  0
TEXT
  5
B259
  8
AM_5
 62
     7
 10
172.74588189650521
 20
170.66273848639801
 30
0.0
 40
3.0
  1
(\U+22055.9)
  0
ENDBLK
  5
B25B
  8
0
  0
BLOCK
  8
0
  2
*U41
 70
     1
 10
0.0
 20
0.0
 30
0.0
  3
*U41
  1

  0
TEXT
  5
B25D
  8
AM_5
 62
     7
 10
200.9599929637624
 20
179.86156116486609
 30
0.0
 40
3.0
  1
13.5
  0
ENDBLK
  5
B25F
  8
0
  0
BLOCK
  8
0
  2
*U42
 70
     1
 10
0.0
 20
0.0
 30
0.0
  3
*U42
  1

  0
TEXT
  5
B261
  8
AM_5
 62
     7
 10
214.45999295836239
 20
179.86156116486609
 30
0.0
 40
3.0
  1
13.5
  0
ENDBLK
  5
B263
  8
0
  0
BLOCK
  8
0
  2
*U43
 70
     1
 10
0.0
 20
0.0
 30
0.0
  3
*U43
  1

  0
TEXT
  5
B265
  8
AM_5
 62
     7
 10
199.70999296526239
 20
193.86156116486609
 30
0.0
 40
3.0
  1
21
  0
ENDBLK
  5
B267
  8
0
  0
BLOCK
  8
0
  2
*U44
 70
     1
 10
0.0
 20
0.0
 30
0.0
  3
*U44
  1

  0
TEXT
  5
B269
  8
AM_5
 62
     7
 10
209.5671358182052
 20
200.86156116486609
 30
0.0
 40
3.0
  1
42
  0
ENDBLK
  5
B26B
  8
0
  0
BLOCK
  8
0
  2
*U45
 70
     1
 10
0.0
 20
0.0
 30
0.0
  3
*U45
  1

  0
TEXT
  5
B26D
  8
AM_5
 62
     7
 10
156.524569963461
 20
150.07584688055189
 30
0.0
 40
3.0
  1
7
 50
90.0
  0
ENDBLK
  5
B26F
  8
0
  0
BLOCK
  8
0
  2
*U46
 70
     1
 10
0.0
 20
0.0
 30
0.0
  3
*U46
  1

  0
TEXT
  5
B271
  8
AM_5
 62
     7
 10
156.524569963461
 20
132.64727545838051
 30
0.0
 40
3.0
  1
25
 50
90.0
  0
ENDBLK
  5
B273
  8
0
  0
BLOCK
  8
0
  2
*U47
 70
     1
 10
0.0
 20
0.0
 30
0.0
  3
*U47
  1

  0
TEXT
  5
B275
  8
AM_5
 62
     7
 10
156.52456996346109
 20
93.075846903351874
 30
0.0
 40
3.0
  1
7
 50
90.0
  0
ENDBLK
  5
B277
  8
0
  0
BLOCK
  8
0
  2
*U48
 70
     1
 10
0.0
 20
0.0
 30
0.0
  3
*U48
  1

  0
TEXT
  5
B279
  8
AM_5
 62
     7
 10
259.03916412494021
 20
150.07584688055189
 30
0.0
 40
3.0
  1
7
 50
90.0
  0
ENDBLK
  5
B27B
  8
0
  0
BLOCK
  8
0
  2
*U49
 70
     1
 10
0.0
 20
0.0
 30
0.0
  3
*U49
  1

  0
TEXT
  5
B27D
  8
AM_5
 62
     7
 10
259.03916412494021
 20
132.64727545838051
 30
0.0
 40
3.0
  1
25
 50
90.0
  0
ENDBLK
  5
B27F
  8
0
  0
BLOCK
  8
0
  2
*U50
 70
     1
 10
0.0
 20
0.0
 30
0.0
  3
*U50
  1

  0
TEXT
  5
B281
  8
AM_5
 62
     7
 10
259.03916412494033
 20
107.6472754683805
 30
0.0
 40
3.0
  1
25
 50
90.0
  0
ENDBLK
  5
B283
  8
0
  0
BLOCK
  8
0
  2
*U51
 70
     1
 10
0.0
 20
0.0
 30
0.0
  3
*U51
  1

  0
TEXT
  5
B285
  8
AM_5
 62
     7
 10
259.03916412494033
 20
93.075846903351916
 30
0.0
 40
3.0
  1
7
 50
90.0
  0
ENDBLK
  5
B287
  8
0
  0
BLOCK
  8
0
  2
*U52
 70
     1
 10
0.0
 20
0.0
 30
0.0
  3
*U52
  1

  0
TEXT
  5
B289
  8
AM_5
 62
     7
 10
266.03916412494033
 20
120.0758468919519
 30
0.0
 40
3.0
  1
64
 50
90.0
  0
ENDBLK
  5
B28B
  8
0
  0
BLOCK
  8
0
  2
*U53
 70
     1
 10
0.0
 20
0.0
 30
0.0
  3
*U53
  1

  0
TEXT
  5
B28D
  8
AM_5
 62
     7
 10
220.70999295686241
 20
193.861561164866
 30
0.0
 40
3.0
  1
21
  0
ENDBLK
  5
B28F
  8
0
  0
BLOCK
  8
0
  2
*U54
 70
     1
 10
0.0
 20
0.0
 30
0.0
  3
*U54
  1

  0
TEXT
  5
B291
  8
AM_5
 62
     7
 10
156.524569963461
 20
107.6472754683804
 30
0.0
 40
3.0
  1
25
 50
90.0
  0
ENDBLK
  5
B293
  8
0
  0
BLOCK
  8
0
  2
*U55
 70
     1
 10
0.0
 20
0.0
 30
0.0
  3
*U55
  1

  0
TEXT
  5
B295
  8
AM_5
 62
     7
 10
150.50130892448689
 20
75.091385029365753
 30
0.0
 40
3.149999999999999
  1
6-\U+22055\U+00D7\U+22057皿孔
  7
ACJISTS
  0
ENDBLK
  5
B297
  8
0
  0
ENDSEC
  0
SECTION
  2
ENTITIES
  0
INSERT
  5
1BB5
  8
0
  2
ZUWAKU-A3H
 10
0.0
 20
0.0
 30
0.0
1001
GENIUS_GENOREF_13
1005
1C93
1001
GENIUS_GENOBJ-N-SDF_13
1002
{
1000
OWNER
1000
GEN
1002
}
1001
GENIUS_GENODEF_13
1002
{
1000
HIER
1070
     0
1002
}
1002
{
1000
MANEDIT
1070
     0
1002
}
1002
{
1000
NOSEL
1070
     0
1002
}
1002
{
1000
BEHIND
1070
     0
1002
}
1002
{
1000
OTHER
1070
     0
1002
}
1002
{
1000
REACTOR
1002
}
1001
GENIUS_GENSCREG_13
1040
1.0
1040
1.0
1011
24.999999999999979
1021
0.0
1031
0.0
1021
8.9999999999999964
1031
0.0
1011
411.99999999999989
1021
0.0
1031
0.0
1021
284.99999999999989
1031
0.0
1070
     3
  0
POINT
  5
1C93
  8
0
 10
0.0
 20
0.0
 30
0.0
1001
GENIUS_GENOBJ-N-TIT_13
1002
{
1000
OWNER
1000
GEN
1002
}
1001
GENIUS_GENODEF_13
1002
{
1000
HIER
1070
     1
1002
}
1002
{
1000
MANEDIT
1070
     1
1002
}
1002
{
1000
NOSEL
1070
     0
1002
}
1002
{
1000
BEHIND
1070
     0
1002
}
1002
{
1000
OTHER
1070
     0
1002
}
1002
{
1000
REACTOR
1002
}
1001
GENIUS_GENOLIS_13
1002
{
1000
ENT
1005
1BB5
1005
2A9C
1002
}
1001
GENIUS_GENTITLE_13
1002
{
1000
BORDER
1000
C:\Program Files\Autodesk\ACADM 2008\Acadm\gen\Dwg\Format\ZUWAKU-A3H
1002
}
1002
{
1000
TITLE
1000
C:\Program Files\Autodesk\ACADM 2008\Acadm\gen\Dwg\Title\N_Title
1002
}
1002
{
1000
ADDITIONAL1
1000

1002
}
1002
{
1000
ADDITIONAL2
1000

1002
}
1002
{
1000
SCALE
1000
1:1
1002
}
1002
{
1000
TITLESTD
1000
JIS
1002
}
1002
{
1000
HRA
1005
1BB5
1002
}
1002
{
1000
HTIT
1005
2A9C
1002
}
1002
{
1000
GENIUSID
1005
1C93
1002
}
1002
{
1000
INVTXTID
1005
0
1002
}
1002
{
1000
UNCHG
1002
{
1000
GEN-TITLE-SIZ
1000
GEN-TITLE-SCA
1002
}
1002
}
1001
GENIUS_GENOENT_13
1002
{
1000
MYREF
1005
1C93
1002
}
1002
{
1000
GRP
1005
0
1002
}
  0
INSERT
  5
20F2
  8
0
 66
     1
  2
A$C1C06296A
 10
135.5000001316065
 20
8.9999998268887005
 30
0.0
  0
ATTRIB
  5
20F3
  8
AM_BOR
 62
     7
 10
249.8107097069896
 20
9.4999999999999893
 30
0.0
 40
3.0
  1

 11
249.8107097069896
 21
10.999999999999989
 31
0.0
  2
SETS｛20｝
 70
     0
 74
     2
1001
AcDbAttr
1070
     0
1070
     1
  0
ATTRIB
  5
20F4
  8
AM_BOR
 62
     7
 10
154.5607097069896
 20
9.4999999999999893
 30
0.0
 40
3.0
  1

 11
154.5607097069896
 21
10.999999999999989
 31
0.0
  2
REMARKS｛20｝
 70
     0
 74
     2
1001
AcDbAttr
1070
     0
1070
     1
  0
ATTRIB
  5
20F5
  8
AM_BOR
 62
     7
 10
249.8107097069896
 20
14.499999999999989
 30
0.0
 40
3.0
  1

 11
249.8107097069896
 21
15.999999999999989
 31
0.0
  2
SETS｛20｝
 70
     0
 74
     2
1001
AcDbAttr
1070
     0
1070
     1
  0
ATTRIB
  5
20F6
  8
AM_BOR
 62
     7
 10
154.5607097069896
 20
14.499999999999989
 30
0.0
 40
3.0
  1

 11
154.5607097069896
 21
15.999999999999989
 31
0.0
  2
REMARKS｛20｝
 70
     0
 74
     2
1001
AcDbAttr
1070
     0
1070
     1
  0
ATTRIB
  5
20F7
  8
AM_BOR
 62
     7
 10
249.8107097069896
 20
19.499999999999989
 30
0.0
 40
3.0
  1

 11
249.8107097069896
 21
20.999999999999989
 31
0.0
  2
SETS｛20｝
 70
     0
 74
     2
1001
AcDbAttr
1070
     0
1070
     1
  0
ATTRIB
  5
20F8
  8
AM_BOR
 62
     7
 10
154.5607097069896
 20
19.499999999999989
 30
0.0
 40
3.0
  1

 11
154.5607097069896
 21
20.999999999999989
 31
0.0
  2
REMARKS｛20｝
 70
     0
 74
     2
1001
AcDbAttr
1070
     0
1070
     1
  0
ATTRIB
  5
20F9
  8
AM_BOR
 62
     7
 10
249.74999999999969
 20
32.499999999999993
 30
0.0
 40
3.0
  1
5K-64-1.2t
 11
249.74999999999969
 21
33.999999999999993
 31
0.0
  2
ART_NO｛20｝
 70
     0
 74
     2
1001
AcDbAttr
1070
     0
1070
     1
  0
ATTRIB
  5
20FA
  8
AM_BOR
 62
     7
 10
154.49999999999969
 20
32.499999999999993
 30
0.0
 40
3.0
  1
5管丁番
 11
154.49999999999969
 21
33.999999999999993
 31
0.0
  2
ARTICLE｛20｝
 70
     0
 74
     2
1001
AcDbAttr
1070
     0
1070
     1
  0
ATTRIB
  5
20FB
  8
AM_BOR
 62
     7
 10
249.74999999999969
 20
25.999999999999989
 30
0.0
 40
3.0
  1
ヘアライン
 11
249.74999999999969
 21
27.499999999999989
 31
0.0
  2
FINISH｛20｝
 70
     0
 74
     2
1001
AcDbAttr
1070
     0
1070
     1
  0
ATTRIB
  5
20FC
  8
AM_BOR
 62
     7
 10
154.49999999999969
 20
25.999999999999989
 30
0.0
 40
3.0
  1
ステンレス（リングは樹脂）
 11
154.49999999999969
 21
27.499999999999989
 31
0.0
  2
MATERIAK｛20｝
 70
     0
 74
     2
1001
AcDbAttr
1070
     0
1070
     1
  0
SEQEND
  5
20FD
  8
0
  0
LINE
  5
9F89
  8
AM_7
 10
211.9957072467767
 20
83.823011017509998
 30
0.0
 11
211.9957072467767
 21
161.65376826116119
 31
0.0
  0
LINE
  5
9F8A
  8
0
 10
232.9957072383767
 20
90.575846904751856
 30
0.0
 11
232.9957072383767
 21
154.5758468791519
 31
0.0
  0
LINE
  5
9F8B
  8
0
 10
190.9957072551766
 20
90.575846904751856
 30
0.0
 11
190.9957072551766
 21
154.5758468791519
 31
0.0
  0
LINE
  5
9F8C
  8
0
 10
232.9957072383767
 20
90.575846904751856
 30
0.0
 11
215.74570724527669
 21
90.575846904751856
 31
0.0
  0
LINE
  5
9F8D
  8
0
 10
214.94570724559671
 20
90.575846904751856
 30
0.0
 11
190.9957072551766
 21
90.575846904751856
 31
0.0
  0
LINE
  5
9F8E
  8
0
 10
232.9957072383767
 20
154.5758468791519
 30
0.0
 11
215.74570724527669
 21
154.5758468791519
 31
0.0
  0
LINE
  5
9F8F
  8
0
 10
214.94570724559671
 20
154.5758468791519
 30
0.0
 11
190.9957072551766
 21
154.5758468791519
 31
0.0
  0
LINE
  5
9F90
  8
0
 10
214.94570724559671
 20
90.575846904751856
 30
0.0
 11
214.94570724559671
 21
154.5758468791519
 31
0.0
  0
LINE
  5
9F91
  8
0
 10
209.0457072479567
 20
90.575846904751856
 30
0.0
 11
209.0457072479567
 21
154.5758468791519
 31
0.0
  0
LINE
  5
9F92
  8
0
 10
214.94570724559671
 20
101.87584690055191
 30
0.0
 11
208.24570724827669
 21
101.87584690055191
 31
0.0
  0
LINE
  5
9F93
  8
0
 10
214.94570724559671
 20
116.87584689415191
 30
0.0
 11
208.24570724827669
 21
116.87584689415191
 31
0.0
  0
LINE
  5
9F94
  8
0
 10
214.94570724559671
 20
128.2758468897519
 30
0.0
 11
208.24570724827669
 21
128.2758468897519
 31
0.0
  0
LINE
  5
9F95
  8
0
 10
214.94570724559671
 20
143.2758468833519
 30
0.0
 11
208.24570724827669
 21
143.2758468833519
 31
0.0
  0
LINE
  5
9F96
  8
0
 10
215.74570724527669
 20
130.27584688875189
 30
0.0
 11
209.0457072479567
 21
130.27584688875189
 31
0.0
  0
LINE
  5
9F97
  8
0
 10
215.74570724527669
 20
141.27584688435189
 30
0.0
 11
209.0457072479567
 21
141.27584688435189
 31
0.0
  0
LINE
  5
9F98
  8
0
 10
215.74570724527669
 20
103.8758468995519
 30
0.0
 11
209.0457072479567
 21
103.8758468995519
 31
0.0
  0
LINE
  5
9F99
  8
0
 10
215.74570724527669
 20
114.8758468951518
 30
0.0
 11
209.0457072479567
 21
114.8758468951518
 31
0.0
  0
LINE
  5
9F9A
  8
AM_7
 10
193.49570725417669
 20
97.575846901951849
 30
0.0
 11
203.49570725017671
 21
97.575846901951849
 31
0.0
  0
LINE
  5
9F9B
  8
AM_7
 10
198.49570725217669
 20
102.5758468999518
 30
0.0
 11
198.49570725217669
 21
92.575846903951856
 31
0.0
  0
LINE
  5
9F9C
  8
AM_7
 10
193.49570725417661
 20
147.57584688195189
 30
0.0
 11
203.49570725017671
 21
147.57584688195189
 31
0.0
  0
LINE
  5
9F9D
  8
AM_7
 10
198.4957072521766
 20
153.32584687965189
 30
0.0
 11
198.4957072521766
 21
141.82584688425189
 31
0.0
  0
LINE
  5
9F9E
  8
AM_7
 10
220.4957072433767
 20
147.57584688195189
 30
0.0
 11
230.4957072393766
 21
147.57584688195189
 31
0.0
  0
LINE
  5
9F9F
  8
AM_7
 10
225.49570724137669
 20
153.32584687965189
 30
0.0
 11
225.49570724137669
 21
141.82584688425189
 31
0.0
  0
LINE
  5
9FA0
  8
AM_7
 10
220.4957072433767
 20
97.575846901951891
 30
0.0
 11
230.4957072393766
 21
97.575846901951891
 31
0.0
  0
LINE
  5
9FA1
  8
AM_7
 10
225.49570724137661
 20
102.5758468999519
 30
0.0
 11
225.49570724137661
 21
92.575846903951884
 31
0.0
  0
LINE
  5
9FA2
  8
0
 10
232.99570723843581
 20
239.92079358358359
 30
0.0
 11
232.9957072384357
 21
241.12079358310359
 31
0.0
  0
LINE
  5
9FA3
  8
0
 10
190.9957072552358
 20
239.9207935835837
 30
0.0
 11
190.9957072552358
 21
241.12079358310359
 31
0.0
  0
LINE
  5
9FA4
  8
0
 10
209.04563364224671
 20
241.1207974986481
 30
0.0
 11
190.99570725523569
 21
241.12079358310359
 31
0.0
  0
LINE
  5
9FA5
  8
AM_1
 10
209.2203690248399
 20
237.92079308884121
 30
0.0
 11
190.99570725523569
 21
237.9207935843836
 31
0.0
  0
LINE
  5
9FA6
  8
AM_1
 10
210.0303818418987
 20
236.72079614107909
 30
0.0
 11
190.99570725523569
 21
236.7207935848636
 31
0.0
  0
LINE
  5
9FA7
  8
0
 10
213.96102702452171
 20
241.12079771226931
 30
0.0
 11
232.9957072384357
 21
241.12079358310359
 31
0.0
  0
LINE
  5
9FA8
  8
AM_1
 10
190.9957072552358
 20
236.7207935848636
 30
0.0
 11
190.9957072552358
 21
237.92079358438369
 31
0.0
  0
LINE
  5
9FA9
  8
AM_7
 10
226.4957072410358
 20
237.50745755505079
 30
0.0
 11
226.49570724103569
 21
243.7291897118445
 31
0.0
  0
LINE
  5
9FAA
  8
AM_7
 10
198.49570725223569
 20
234.1673682666231
 30
0.0
 11
198.49570725223569
 21
243.7291897118445
 31
0.0
  0
LINE
  5
9FAB
  8
AM_7
 10
192.49570725457659
 20
122.5758468919518
 30
0.0
 11
202.49570725057669
 21
122.5758468919518
 31
0.0
  0
LINE
  5
9FAC
  8
AM_7
 10
197.49570725257661
 20
128.3258468896519
 30
0.0
 11
197.49570725257661
 21
116.8258468942518
 31
0.0
  0
LINE
  5
9FAD
  8
AM_7
 10
221.49570724297669
 20
122.5758468919518
 30
0.0
 11
231.49570723897671
 21
122.5758468919518
 31
0.0
  0
LINE
  5
9FAE
  8
AM_7
 10
226.49570724097671
 20
128.32584688965181
 30
0.0
 11
226.49570724097671
 21
116.8258468942518
 31
0.0
  0
LINE
  5
9FAF
  8
AM_7
 10
225.49570724143581
 20
237.50745755505079
 30
0.0
 11
225.4957072414357
 21
243.7291897118445
 31
0.0
  0
LINE
  5
9FB0
  8
AM_7
 10
197.49570725263581
 20
234.1673682666231
 30
0.0
 11
197.4957072526357
 21
243.7291897118445
 31
0.0
  0
ARC
  5
9FB1
  8
0
 10
211.99570724683571
 20
238.92079358398371
 30
0.0
 40
2.9499999988200001
 50
160.18508178805581
 51
106.57094959333109
  0
LINE
  5
9FB2
  8
0
 10
215.74570724527669
 20
239.92079129628439
 30
0.0
 11
215.74570724527669
 21
241.12079580078409
 31
0.0
  0
CIRCLE
  5
9FB3
  8
0
 10
225.49570724137661
 20
147.5758468819518
 30
0.0
 40
2.499999998999999
  0
CIRCLE
  5
9FB4
  8
0
 10
226.4957072409766
 20
122.5758468919519
 30
0.0
 40
2.499999998999999
  0
CIRCLE
  5
9FB5
  8
0
 10
225.49570724137649
 20
97.575846901951891
 30
0.0
 40
2.499999998999999
  0
CIRCLE
  5
9FB6
  8
0
 10
198.4957072521766
 20
97.575846901951834
 30
0.0
 40
2.499999998999999
  0
CIRCLE
  5
9FB7
  8
0
 10
197.49570725257661
 20
122.5758468919518
 30
0.0
 40
2.499999998999999
  0
CIRCLE
  5
9FB8
  8
0
 10
198.4957072521766
 20
147.57584688195189
 30
0.0
 40
2.499999998999999
  0
CIRCLE
  5
9FB9
  8
0
 10
225.49570724137661
 20
147.5758468819518
 30
0.0
 40
3.4999999985999981
  0
CIRCLE
  5
9FBA
  8
0
 10
198.4957072521766
 20
147.57584688195189
 30
0.0
 40
3.4999999985999981
  0
CIRCLE
  5
9FBB
  8
0
 10
226.4957072409766
 20
122.5758468919519
 30
0.0
 40
3.4999999985999981
  0
CIRCLE
  5
9FBC
  8
0
 10
225.49570724137649
 20
97.575846901951891
 30
0.0
 40
3.4999999985999981
  0
CIRCLE
  5
9FBD
  8
0
 10
198.4957072521766
 20
97.575846901951834
 30
0.0
 40
3.4999999985999981
  0
CIRCLE
  5
9FBE
  8
0
 10
197.49570725257661
 20
122.5758468919518
 30
0.0
 40
3.4999999985999981
  0
ARC
  5
9FBF
  8
0
 10
211.99570724677659
 20
152.07459688015231
 30
0.0
 40
3.5012499985995009
 50
45.593042935885052
 51
134.40695706411441
  0
ARC
  5
9FC0
  8
0
 10
211.99570724677659
 20
93.077096903751254
 30
0.0
 40
3.5012499985994281
 50
225.59304293588389
 51
314.406957064116
  0
LINE
  5
9FCA
  8
0
 10
232.9957072384357
 20
239.92079358358359
 30
0.0
 11
214.7710452415532
 21
239.92079308804111
 31
0.0
  0
LINE
  5
9FCB
  8
0
 10
209.04561885134561
 20
239.92079310688391
 30
0.0
 11
190.99570725523569
 21
239.9207935835837
 31
0.0
  0
LINE
  5
9FCC
  8
AM_7
 10
204.0457072500156
 20
238.92079358398371
 30
0.0
 11
219.94570724365559
 21
238.92079358398371
 31
0.0
  0
LINE
  5
9FCD
  8
AM_7
 10
211.99570724683571
 20
246.87079358080359
 30
0.0
 11
211.99570724683571
 21
230.9707935871636
 31
0.0
  0
LINE
  5
9FCE
  8
0
 10
215.74570724527669
 20
103.8758468995519
 30
0.0
 11
215.74570724527669
 21
90.575846904751856
 31
0.0
  0
LINE
  5
9FCF
  8
0
 10
215.74570724527669
 20
114.8758468951518
 30
0.0
 11
215.74570724527669
 21
130.27584688875189
 31
0.0
  0
LINE
  5
9FD0
  8
0
 10
215.74570724527669
 20
141.27584688435189
 30
0.0
 11
215.74570724527669
 21
154.5758468791519
 31
0.0
  0
LINE
  5
9FD1
  8
0
 10
208.24570724827669
 20
128.2758468897519
 30
0.0
 11
208.24570724827669
 21
143.2758468833519
 31
0.0
  0
LINE
  5
9FD2
  8
0
 10
208.24570724827669
 20
116.87584689415191
 30
0.0
 11
208.24570724827669
 21
101.87584690055191
 31
0.0
  0
CIRCLE
  5
9FDB
  8
0
 10
211.99570724683571
 20
238.92079358398371
 30
0.0
 40
1.749999998819999
  0
LINE
  5
9FDC
  8
0
 10
210.34932030430949
 20
239.51401363704079
 30
0.0
 11
209.22036925724461
 21
239.9207931022687
 31
0.0
  0
LINE
  5
9FDD
  8
0
 10
209.38786180739649
 20
239.97063234389179
 30
0.0
 11
211.4966029824823
 21
240.59811136221589
 31
0.0
  0
LINE
  5
9FDE
  8
0
 10
209.04563364224649
 20
241.1207974986481
 30
0.0
 11
211.15436005812339
 21
241.7482721252079
 31
0.0
  0
ARC
  5
9FDF
  8
0
 10
209.04561888303769
 20
241.12079310688389
 30
0.0
 40
1.1999999999999991
 50
270.0
 51
286.57094959333108
  0
DIMENSION
  5
A1D6
  8
AM_5
  2
*D14
 10
209.0457072479567
 20
168.6627384863981
 30
0.0
 11
179.17445332507671
 21
168.6627384863981
 31
0.0
 70
   128
  1
(%%c<>)
 13
214.94570724559671
 23
154.5758468791519
 33
0.0
 14
209.0457072479567
 24
154.5758468791519
 34
0.0
1001
ACAD_DSTYLE_DIMINSPECT
1070
   396
1000
100%
1070
   395
1000

1070
   394
1070
    33
1070
   393
1070
     0
  0
DIMENSION
  5
A229
  8
AM_5
  2
*D15
 10
197.49570725257661
 20
178.86156116486609
 30
0.0
 11
180.71890696462151
 21
178.86156116486609
 31
0.0
 70
   128
 13
190.9957072551766
 23
154.5758468791519
 33
0.0
 14
197.49570725257661
 24
128.3258468896519
 34
0.0
1001
ACAD_DSTYLE_DIMINSPECT
1070
   396
1000
100%
1070
   395
1000

1070
   394
1070
    33
1070
   393
1070
     0
1001
ACAD
1000
DSTYLE
1002
{
1070
   173
1070
     1
1070
   174
1070
     1
1070
     6
1000
OPEN30
1070
     7
1000
GENDOT
1002
}
  0
DIMENSION
  5
A266
  8
AM_5
  2
*D16
 10
197.49570725257661
 20
178.86156116486609
 30
0.0
 11
194.03301195940179
 21
185.33152987844201
 31
0.0
 70
   128
 13
198.4957072521766
 23
153.32584687965189
 33
0.0
 14
197.49570725257661
 24
128.3258468896519
 34
0.0
1001
ACAD_DSTYLE_DIMINSPECT
1070
   396
1000
100%
1070
   395
1000

1070
   394
1070
    33
1070
   393
1070
     0
1001
ACAD
1000
DSTYLE
1002
{
1070
   287
1070
     4
1070
   173
1070
     1
1070
   174
1070
     1
1070
   279
1070
     1
1070
     6
1000
OPEN30
1070
     7
1000
GENDOT
1002
}
  0
DIMENSION
  5
A2A3
  8
AM_5
  2
*D17
 10
198.4957072521766
 20
178.86156116486609
 30
0.0
 11
205.24570724947671
 21
181.36156116486609
 31
0.0
 70
     0
 13
211.9957072467767
 23
161.65376826116119
 33
0.0
 14
198.4957072521766
 24
153.32584687965189
 34
0.0
1001
ACAD
1000
DSTYLE
1002
{
1070
   174
1070
     1
1002
}
1001
ACAD_DSTYLE_DIMINSPECT
1070
   396
1000
100%
1070
   395
1000

1070
   394
1070
    33
1070
   393
1070
     0
  0
DIMENSION
  5
A2C4
  8
AM_5
  2
*D18
 10
211.9957072467767
 20
178.86156116486609
 30
0.0
 11
218.7457072440767
 21
181.36156116486609
 31
0.0
 70
     0
 13
225.49570724137669
 23
153.32584687965189
 33
0.0
 14
211.9957072467767
 24
161.65376826116119
 34
0.0
1001
ACAD
1000
DSTYLE
1002
{
1070
   174
1070
     1
1002
}
1001
ACAD_DSTYLE_DIMINSPECT
1070
   396
1000
100%
1070
   395
1000

1070
   394
1070
    33
1070
   393
1070
     0
  0
DIMENSION
  5
A2E5
  8
AM_5
  2
*D19
 10
225.49570724137669
 20
178.86156116486609
 30
0.0
 11
229.0384082329783
 21
185.33152987844201
 31
0.0
 70
   128
 13
226.49570724097671
 23
128.32584688965181
 33
0.0
 14
225.49570724137669
 24
153.32584687965189
 34
0.0
1001
ACAD_DSTYLE_DIMINSPECT
1070
   396
1000
100%
1070
   395
1000

1070
   394
1070
    33
1070
   393
1070
     0
1001
ACAD
1000
DSTYLE
1002
{
1070
   287
1070
     4
1070
   173
1070
     1
1070
   174
1070
     1
1070
   279
1070
     1
1070
     6
1000
GENDOT
1070
     7
1000
OPEN30
1002
}
  0
DIMENSION
  5
A30C
  8
AM_5
  2
*D20
 10
226.49570724097671
 20
178.86156116486609
 30
0.0
 11
243.8209623318655
 21
178.86156116486609
 31
0.0
 70
   128
 13
232.9957072383767
 23
154.5758468791519
 33
0.0
 14
226.49570724097671
 24
128.32584688965181
 34
0.0
1001
ACAD_DSTYLE_DIMINSPECT
1070
   396
1000
100%
1070
   395
1000

1070
   394
1070
    33
1070
   393
1070
     0
1001
ACAD
1000
DSTYLE
1002
{
1070
   173
1070
     1
1070
   174
1070
     1
1070
     6
1000
OPEN30
1070
     7
1000
GENDOT
1002
}
  0
DIMENSION
  5
A391
  8
AM_5
  2
*D21
 10
211.9957072467767
 20
192.86156116486609
 30
0.0
 11
201.49570725097661
 21
195.36156116486609
 31
0.0
 70
     0
 13
190.9957072551766
 23
154.5758468791519
 33
0.0
 14
211.9957072467767
 24
161.65376826116119
 34
0.0
1001
ACAD_DSTYLE_DIMINSPECT
1070
   396
1000
100%
1070
   395
1000

1070
   394
1070
    33
1070
   393
1070
     0
1001
ACAD
1000
DSTYLE
1002
{
1070
   174
1070
     1
1002
}
  0
DIMENSION
  5
A3C4
  8
AM_5
  2
*D22
 10
211.9957072467767
 20
192.861561164866
 30
0.0
 11
222.49570724257671
 21
195.361561164866
 31
0.0
 70
     0
 13
232.9957072383767
 23
154.5758468791519
 33
0.0
 14
211.9957072467767
 24
161.65376826116119
 34
0.0
1001
ACAD
1000
DSTYLE
1002
{
1070
   174
1070
     1
1002
}
1001
ACAD_DSTYLE_DIMINSPECT
1070
   396
1000
100%
1070
   395
1000

1070
   394
1070
    33
1070
   393
1070
     0
  0
DIMENSION
  5
A3E5
  8
AM_5
  2
*D23
 10
232.9957072383767
 20
199.86156116486609
 30
0.0
 11
211.99570724677659
 21
202.36156116486609
 31
0.0
 70
     0
 13
190.9957072551766
 23
154.5758468791519
 33
0.0
 14
232.9957072383767
 24
154.5758468791519
 34
0.0
1001
ACAD_DSTYLE_DIMINSPECT
1070
   396
1000
100%
1070
   395
1000

1070
   394
1070
    33
1070
   393
1070
     0
  0
DIMENSION
  5
A40F
  8
AM_5
  2
*D24
 10
157.52456996346109
 20
147.57584688195189
 30
0.0
 11
155.024569963461
 21
151.07584688055189
 31
0.0
 70
     0
 13
190.9957072551766
 23
154.5758468791519
 33
0.0
 14
193.49570725417661
 24
147.57584688195189
 34
0.0
 50
90.0
1001
ACAD_DSTYLE_DIMINSPECT
1070
   396
1000
100%
1070
   395
1000

1070
   394
1070
    33
1070
   393
1070
     0
1001
ACAD
1000
DSTYLE
1002
{
1070
   174
1070
     1
1002
}
  0
DIMENSION
  5
A44C
  8
AM_5
  2
*D25
 10
157.52456996346109
 20
122.5758468919519
 30
0.0
 11
155.024569963461
 21
135.07584688695189
 31
0.0
 70
     0
 13
193.49570725417661
 23
147.57584688195189
 33
0.0
 14
192.49570725457659
 24
122.5758468919518
 34
0.0
 50
90.0
1001
ACAD
1000
DSTYLE
1002
{
1070
   174
1070
     1
1002
}
1001
ACAD_DSTYLE_DIMINSPECT
1070
   396
1000
100%
1070
   395
1000

1070
   394
1070
    33
1070
   393
1070
     0
  0
DIMENSION
  5
A46D
  8
AM_5
  2
*D26
 10
157.524569963461
 20
97.575846901951877
 30
0.0
 11
155.024569963461
 21
110.0758468969519
 31
0.0
 70
     0
 13
192.49570725457659
 23
122.5758468919518
 33
0.0
 14
192.49570725457659
 24
97.575846901951849
 34
0.0
 50
90.0
1001
ACAD
1000
DSTYLE
1002
{
1070
   174
1070
     1
1002
}
1001
ACAD_DSTYLE_DIMINSPECT
1070
   396
1000
100%
1070
   395
1000

1070
   394
1070
    33
1070
   393
1070
     0
  0
DIMENSION
  5
A48E
  8
AM_5
  2
*D27
 10
157.5245699634612
 20
90.575846904751884
 30
0.0
 11
155.02456996346109
 21
94.075846903351888
 31
0.0
 70
     0
 13
192.49570725457659
 23
97.575846901951849
 33
0.0
 14
190.9957072551766
 24
90.575846904751856
 34
0.0
 50
90.0
1001
ACAD
1000
DSTYLE
1002
{
1070
   174
1070
     1
1002
}
1001
ACAD_DSTYLE_DIMINSPECT
1070
   396
1000
100%
1070
   395
1000

1070
   394
1070
    33
1070
   393
1070
     0
  0
DIMENSION
  5
A4B5
  8
AM_5
  2
*D28
 10
260.03916412494033
 20
147.57584688195189
 30
0.0
 11
257.53916412494021
 21
151.07584688055189
 31
0.0
 70
     0
 13
232.9957072383767
 23
154.5758468791519
 33
0.0
 14
230.4957072393766
 24
147.57584688195189
 34
0.0
 50
90.0
1001
ACAD_DSTYLE_DIMINSPECT
1070
   396
1000
100%
1070
   395
1000

1070
   394
1070
    33
1070
   393
1070
     0
1001
ACAD
1000
DSTYLE
1002
{
1070
   174
1070
     1
1002
}
  0
DIMENSION
  5
A4F2
  8
AM_5
  2
*D29
 10
260.03916412494033
 20
147.57584688195189
 30
0.0
 11
257.53916412494021
 21
135.07584688695189
 31
0.0
 70
     0
 13
231.49570723897671
 23
122.5758468919518
 33
0.0
 14
230.4957072393766
 24
147.57584688195189
 34
0.0
 50
90.0
1001
ACAD
1000
DSTYLE
1002
{
1070
   174
1070
     1
1002
}
1001
ACAD_DSTYLE_DIMINSPECT
1070
   396
1000
100%
1070
   395
1000

1070
   394
1070
    33
1070
   393
1070
     0
  0
DIMENSION
  5
A513
  8
AM_5
  2
*D30
 10
260.03916412494033
 20
122.5758468919518
 30
0.0
 11
257.53916412494033
 21
110.0758468969519
 31
0.0
 70
     0
 13
230.4957072393766
 23
97.575846901951891
 33
0.0
 14
231.49570723897671
 24
122.5758468919518
 34
0.0
 50
90.0
1001
ACAD
1000
DSTYLE
1002
{
1070
   174
1070
     1
1002
}
1001
ACAD_DSTYLE_DIMINSPECT
1070
   396
1000
100%
1070
   395
1000

1070
   394
1070
    33
1070
   393
1070
     0
  0
DIMENSION
  5
A534
  8
AM_5
  2
*D31
 10
260.03916412494033
 20
97.575846901951891
 30
0.0
 11
257.53916412494033
 21
94.075846903351916
 31
0.0
 70
     0
 13
232.9957072383767
 23
90.575846904751856
 33
0.0
 14
230.4957072393766
 24
97.575846901951891
 34
0.0
 50
90.0
1001
ACAD
1000
DSTYLE
1002
{
1070
   174
1070
     1
1002
}
1001
ACAD_DSTYLE_DIMINSPECT
1070
   396
1000
100%
1070
   395
1000

1070
   394
1070
    33
1070
   393
1070
     0
  0
DIMENSION
  5
A55B
  8
AM_5
  2
*D32
 10
267.03916412494033
 20
90.575846904751856
 30
0.0
 11
264.53916412494033
 21
122.5758468919519
 31
0.0
 70
     0
 13
232.9957072383767
 23
154.5758468791519
 33
0.0
 14
232.9957072383767
 24
90.575846904751856
 34
0.0
 50
90.0
1001
ACAD_DSTYLE_DIMINSPECT
1070
   396
1000
100%
1070
   395
1000

1070
   394
1070
    33
1070
   393
1070
     0
  0
INSERT
  5
A586
  8
AM_5
  2
*S38
 10
0.0
 20
0.0
 30
0.0
  0
DIMENSION
  5
A588
  8
AM_5
  2
*D33
 10
174.49570718935121
 20
239.9207935835837
 30
0.0
 11
174.49570718935121
 21
252.348129674657
 31
0.0
 70
   128
 13
190.99570725523569
 23
241.12079358310359
 33
0.0
 14
190.9957072552358
 24
239.9207935835837
 34
0.0
 50
90.000012429090887
1001
ACAD_DSTYLE_DIMINSPECT
1070
   396
1000
100%
1070
   395
1000

1070
   394
1070
    33
1070
   393
1070
     0
1001
ACAD
1000
DSTYLE
1002
{
1070
   173
1070
     1
1070
   174
1070
     1
1070
     6
1000
OPEN30
1070
     7
1000
GENDOT
1002
}
  0
DIMENSION
  5
A5C5
  8
AM_5
  2
*D34
 10
174.49570818722319
 20
237.9207935843836
 30
0.0
 11
166.0832603977278
 21
231.22552443749379
 31
0.0
 70
   128
 13
190.9957072552358
 23
239.9207935835837
 33
0.0
 14
190.9957072552358
 24
237.9207935843836
 34
0.0
 50
90.000012429090646
1001
ACAD_DSTYLE_DIMINSPECT
1070
   396
1000
100%
1070
   395
1000

1070
   394
1070
    33
1070
   393
1070
     0
1001
ACAD
1000
DSTYLE
1002
{
1070
   287
1070
     4
1070
   174
1070
     1
1070
   279
1070
     1
1070
     5
1000
GENDOT
1002
}
  0
DIMENSION
  5
A602
  8
AM_5
  2
*D35
 10
174.4957077533661
 20
236.7207935848636
 30
0.0
 11
174.49570775336599
 21
227.8636507277208
 31
0.0
 70
   128
 13
190.9957072552358
 23
237.9207935843836
 33
0.0
 14
190.9957072552358
 24
236.7207935848636
 34
0.0
 50
90.000012429090646
1001
ACAD_DSTYLE_DIMINSPECT
1070
   396
1000
100%
1070
   395
1000

1070
   394
1070
    33
1070
   393
1070
     0
1001
ACAD
1000
DSTYLE
1002
{
1070
   173
1070
     1
1070
   174
1070
     1
1070
     6
1000
GENDOT
1070
     7
1000
OPEN30
1002
}
  0
DIMENSION
  5
A66E
  8
AM_5
  2
*D36
 10
156.3002674207676
 20
236.7207935848636
 30
0.0
 11
153.8002674207676
 21
227.50650787057799
 31
0.0
 70
     0
 13
190.9957072552358
 23
241.12079358310351
 33
0.0
 14
190.9957072552358
 24
236.7207935848636
 34
0.0
 50
90.000012429090887
1001
ACAD_DSTYLE_DIMINSPECT
1070
   396
1000
100%
1070
   395
1000

1070
   394
1070
    33
1070
   393
1070
     0
  0
VIEWPORT
  5
95A
 67
     1
  8
0
  6
CONTINUOUS
 10
128.5
 20
97.5
 30
0.0
 40
386.73855140186919
 41
222.18000000000001
 68
     1
 69
     1
1001
ACAD
1000
MVIEW
1002
{
1070
    16
1010
0.0
1020
0.0
1030
0.0
1010
0.0
1020
0.0
1030
1.0
1040
0.0
1040
222.18000000000001
1040
128.5
1040
97.5
1040
50.0
1040
0.0
1040
0.0
1070
     0
1070
   100
1070
     1
1070
     1
1070
     0
1070
     0
1070
     0
1070
     0
1040
0.0
1040
0.0
1040
0.0
1040
10.0
1040
10.0
1040
10.0
1040
10.0
1070
     0
1002
{
1002
}
1002
}
1001
GENIUS_GENODEF_13
1002
{
1000
HIER
1070
     0
1002
}
1002
{
1000
MANEDIT
1070
     0
1002
}
1002
{
1000
NOSEL
1070
     0
1002
}
1002
{
1000
BEHIND
1070
     0
1002
}
1002
{
1000
OTHER
1070
     0
1002
}
1002
{
1000
REACTOR
1002
}
1001
GENIUS_GENOBJ-N-SDF_13
1002
{
1000
OWNER
1000
GEN
1002
}
1001
GENIUS_GENSCREG_15
1000
PF
1040
1.0
1000
DF
1040
1.0
1000
MIN
1011
-64.869275700934566
1021
0.0
1031
0.0
1021
-13.59
1031
0.0
1000
MAX
1011
321.86927570093462
1021
0.0
1031
0.0
1021
208.59
1031
0.0
1000
FLAGS
1070
     4
  0
ENDSEC
  0
EOF
