  0
SECTION
  2
HEADER
  9
$ACADVER
  1
AC1009
  9
$INSBASE
 10
0.0
 20
0.0
 30
0.0
  9
$EXTMIN
 10
12.94856671827347
 20
9.9939764722233804
 30
-0.0000000000000053
  9
$EXTMAX
 10
289.46544068600087
 20
201.1282508882129
 30
0.0000000000000099
  9
$LIMMIN
 10
12.95699999999508
 20
10.0
  9
$LIMMAX
 10
289.45700000038528
 20
201.1206999999936
  9
$ORTHOMODE
 70
     1
  9
$REGENMODE
 70
     1
  9
$FILLMODE
 70
     1
  9
$QTEXTMODE
 70
     0
  9
$MIRRTEXT
 70
     1
  9
$DRAGMODE
 70
     2
  9
$LTSCALE
 40
5.0
  9
$OSMODE
 70
    39
  9
$ATTMODE
 70
     1
  9
$TEXTSIZE
 40
3.0
  9
$TRACEWID
 40
0.05
  9
$TEXTSTYLE
  7
STANDARD
  9
$CLAYER
  8
0
  9
$CELTYPE
  6
BYLAYER
  9
$CECOLOR
 62
   256
  9
$DIMSCALE
 40
1.0
  9
$DIMASZ
 40
2.5
  9
$DIMEXO
 40
1.0
  9
$DIMDLI
 40
7.0
  9
$DIMRND
 40
0.0
  9
$DIMDLE
 40
0.0
  9
$DIMEXE
 40
1.0
  9
$DIMTP
 40
0.1
  9
$DIMTM
 40
0.1
  9
$DIMTXT
 40
3.0
  9
$DIMCEN
 40
0.0
  9
$DIMTSZ
 40
0.0
  9
$DIMTOL
 70
     0
  9
$DIMLIM
 70
     0
  9
$DIMTIH
 70
     0
  9
$DIMTOH
 70
     0
  9
$DIMSE1
 70
     0
  9
$DIMSE2
 70
     0
  9
$DIMTAD
 70
     3
  9
$DIMZIN
 70
     8
  9
$DIMBLK
  1
OPEN30
  9
$DIMASO
 70
     1
  9
$DIMSHO
 70
     1
  9
$DIMPOST
  1

  9
$DIMAPOST
  1
"
  9
$DIMALT
 70
     0
  9
$DIMALTD
 70
     2
  9
$DIMALTF
 40
0.0393701
  9
$DIMLFAC
 40
1.0
  9
$DIMTOFL
 70
     1
  9
$DIMTVP
 40
0.0
  9
$DIMTIX
 70
     0
  9
$DIMSOXD
 70
     0
  9
$DIMSAH
 70
     0
  9
$DIMBLK1
  1

  9
$DIMBLK2
  1

  9
$DIMSTYLE
  2
AM_JIS
  9
$DIMCLRD
 70
     7
  9
$DIMCLRE
 70
     7
  9
$DIMCLRT
 70
     7
  9
$DIMTFAC
 40
0.71
  9
$DIMGAP
 40
1.0
  9
$LUNITS
 70
     2
  9
$LUPREC
 70
     4
  9
$SKETCHINC
 40
0.1
  9
$FILLETRAD
 40
0.0
  9
$AUNITS
 70
     0
  9
$AUPREC
 70
     0
  9
$MENU
  1
acad
  9
$ELEVATION
 40
0.0
  9
$PELEVATION
 40
0.0
  9
$THICKNESS
 40
0.0
  9
$LIMCHECK
 70
     0
  9
$BLIPMODE
 70
     0
  9
$CHAMFERA
 40
0.0
  9
$CHAMFERB
 40
0.0
  9
$SKPOLY
 70
     0
  9
$TDCREATE
 40
2455755.6568701151
  9
$TDUPDATE
 40
2457136.7286508679
  9
$TDINDWG
 40
0.201460706
  9
$TDUSRTIMER
 40
0.2014605208
  9
$USRTIMER
 70
     1
  9
$ANGBASE
 50
0.0
  9
$ANGDIR
 70
     0
  9
$PDMODE
 70
     0
  9
$PDSIZE
 40
0.0
  9
$PLINEWID
 40
0.0
  9
$COORDS
 70
     1
  9
$SPLFRAME
 70
     0
  9
$SPLINETYPE
 70
     6
  9
$SPLINESEGS
 70
     8
  9
$ATTDIA
 70
     1
  9
$ATTREQ
 70
     1
  9
$HANDLING
 70
     1
  9
$HANDSEED
  5
3A33
  9
$SURFTAB1
 70
     6
  9
$SURFTAB2
 70
     6
  9
$SURFTYPE
 70
     6
  9
$SURFU
 70
     6
  9
$SURFV
 70
     6
  9
$UCSNAME
  2

  9
$UCSORG
 10
0.0
 20
0.0
 30
0.0
  9
$UCSXDIR
 10
1.0
 20
0.0
 30
0.0
  9
$UCSYDIR
 10
0.0
 20
1.0
 30
0.0
  9
$PUCSNAME
  2

  9
$PUCSORG
 10
0.0
 20
0.0
 30
0.0
  9
$PUCSXDIR
 10
1.0
 20
0.0
 30
0.0
  9
$PUCSYDIR
 10
0.0
 20
1.0
 30
0.0
  9
$USERI1
 70
     0
  9
$USERI2
 70
     0
  9
$USERI3
 70
     0
  9
$USERI4
 70
     0
  9
$USERI5
 70
     0
  9
$USERR1
 40
0.0
  9
$USERR2
 40
0.0
  9
$USERR3
 40
0.0
  9
$USERR4
 40
0.0
  9
$USERR5
 40
0.0
  9
$WORLDVIEW
 70
     1
  9
$SHADEDGE
 70
     3
  9
$SHADEDIF
 70
    70
  9
$TILEMODE
 70
     1
  9
$MAXACTVP
 70
    16
  9
$PLIMCHECK
 70
     0
  9
$PEXTMIN
 10
1.0000000000000000E+020
 20
1.0000000000000000E+020
 30
1.0000000000000000E+020
  9
$PEXTMAX
 10
-1.0000000000000000E+020
 20
-1.0000000000000000E+020
 30
-1.0000000000000000E+020
  9
$PLIMMIN
 10
-20.0
 20
-7.5
  9
$PLIMMAX
 10
277.0
 20
202.5
  9
$UNITMODE
 70
     0
  9
$VISRETAIN
 70
     0
  9
$PLINEGEN
 70
     1
  9
$PSLTSCALE
 70
     0
  0
ENDSEC
  0
SECTION
  2
TABLES
  0
TABLE
  2
VPORT
 70
     1
  0
VPORT
  2
*ACTIVE
 70
     0
 10
0.0
 20
0.0
 11
1.0
 21
1.0
 12
151.2070037021372
 22
105.5611136802181
 13
0.0
 23
0.0
 14
2.5
 24
2.5
 15
10.0
 25
10.0
 16
0.0
 26
0.0
 36
1.0
 17
0.0
 27
0.0
 37
0.0
 40
192.75501009549239
 41
2.1619718309859151
 42
50.0
 43
0.0
 44
0.0
 50
0.0
 51
0.0
 71
    16
 72
   100
 73
     1
 74
     3
 75
     0
 76
     0
 77
     0
 78
     1
  0
ENDTAB
  0
TABLE
  2
LTYPE
 70
    14
  0
LTYPE
  2
CONTINUOUS
 70
     0
  3
Solid line (NEC CAE2D for Win R7.2 : 2008.02.20
 72
    65
 73
     0
 40
0.0
  0
LTYPE
  2
HIDDEN
 70
     0
  3
Hidden __ __ __ __ __ __ __ __ __ __ __ __ __ _
 72
    65
 73
     2
 40
0.375
 49
0.25
 49
-0.125
  0
LTYPE
  2
PHANTOM2
 70
     0
  3
Phantom (.5x) ___ _ _ ___ _ _ ___ _ _ ___ _ _
 72
    65
 73
     6
 40
1.25
 49
0.625
 49
-0.125
 49
0.125
 49
-0.125
 49
0.125
 49
-0.125
  0
LTYPE
  2
CENTER
 70
     0
  3
Center ____ _ ____ _ ____ _ ____ _ ____ _ ____
 72
    65
 73
     4
 40
2.0
 49
1.25
 49
-0.25
 49
0.25
 49
-0.25
  0
LTYPE
  2
CENTER2
 70
     0
  3
Center (.5x) ___ _ ___ _ ___ _ ___ _ ___ _ ___
 72
    65
 73
     4
 40
1.125
 49
0.75
 49
-0.125
 49
0.125
 49
-0.125
  0
LTYPE
  2
HIDDEN2
 70
     0
  3
Hidden (.5x) _ _ _ _ _ _ _ _ _ _ _ _ _ _ _ _ _
 72
    65
 73
     2
 40
0.1875
 49
0.125
 49
-0.0625
  0
LTYPE
  2
ACANSTGB
 70
     0
  3
__ . . __ . .
 72
    65
 73
     6
 40
0.35433070866
 49
0.15748031496
 49
-0.03937007874
 49
0.03937007874
 49
-0.03937007874
 49
0.03937007874
 49
-0.03937007874
  0
LTYPE
  2
ACANSTGL
 70
     0
  3
_ _ _ _ _
 72
    65
 73
     2
 40
0.11811023622
 49
0.07874015748
 49
-0.03937007874
  0
LTYPE
  2
ACJISWELD
 70
     0
  3
_ _ _ _ _
 72
    65
 73
     2
 40
2.0
 49
2.0
 49
-1.0
  0
LTYPE
  2
ACJISTGB
 70
     0
  3
__ . . __ . .
 72
    65
 73
     6
 40
9.0
 49
4.0
 49
-1.0
 49
1.0
 49
-1.0
 49
1.0
 49
-1.0
  0
LTYPE
  2
ACJISTGL
 70
     0
  3
_ _ _ _ _
 72
    65
 73
     2
 40
3.0
 49
2.0
 49
-1.0
  0
LTYPE
  2
ACISOWELD
 70
     0
  3
_ _ _ _ _
 72
    65
 73
     2
 40
2.0
 49
2.0
 49
-1.0
  0
LTYPE
  2
ACISOTGB
 70
     0
  3
__ . . __ . .
 72
    65
 73
     6
 40
9.0
 49
4.0
 49
-1.0
 49
1.0
 49
-1.0
 49
1.0
 49
-1.0
  0
LTYPE
  2
ACISOTGL
 70
     0
  3
_ _ _ _ _
 72
    65
 73
     2
 40
3.0
 49
2.0
 49
-1.0
  0
ENDTAB
  0
TABLE
  2
LAYER
 70
    21
  0
LAYER
  2
0
 70
     0
 62
     3
  6
CONTINUOUS
  0
LAYER
  2
SYS-BUHIN0
 70
     0
 62
     7
  6
CONTINUOUS
  0
LAYER
  2
AM_0
 70
     0
 62
     3
  6
CONTINUOUS
  0
LAYER
  2
DEFPOINTS
 70
     0
 62
     7
  6
CONTINUOUS
  0
LAYER
  2
AM_5
 70
     0
 62
     7
  6
CONTINUOUS
  0
LAYER
  2
AM_BOR
 70
     0
 62
     7
  6
CONTINUOUS
  0
LAYER
  2
SYS-BUHINCODE
 70
     0
 62
     7
  6
CONTINUOUS
  0
LAYER
  2
AM_7
 70
     0
 62
     4
  6
CENTER
  0
LAYER
  2
AM_3
 70
     0
 62
     7
  6
HIDDEN
  0
LAYER
  2
AM_12
 70
     0
 62
   253
  6
CONTINUOUS
  0
LAYER
  2
AM_PAREF
 70
     0
 62
     4
  6
CONTINUOUS
  0
LAYER
  2
AM_6
 70
     0
 62
     7
  6
CONTINUOUS
  0
LAYER
  2
AM_8
 70
     0
 62
   253
  6
CONTINUOUS
  0
LAYER
  2
AM_4
 70
     0
 62
     6
  6
CONTINUOUS
  0
LAYER
  2
AM_10
 70
     0
 62
     7
  6
CONTINUOUS
  0
LAYER
  2
AM_CL
 70
     0
 62
     1
  6
CONTINUOUS
  0
LAYER
  2
AM_2
 70
     0
 62
     5
  6
PHANTOM2
  0
LAYER
  2
AM_1N
 70
     0
 62
    14
  6
CONTINUOUS
  0
LAYER
  2
AM_1
 70
     0
 62
    14
  6
PHANTOM2
  0
LAYER
  2
AM_9
 70
     0
 62
    -7
  6
CONTINUOUS
  0
LAYER
  2
SYS-TEISEI0
 70
     0
 62
     7
  6
CONTINUOUS
  0
ENDTAB
  0
TABLE
  2
STYLE
 70
    13
  0
STYLE
  2
STANDARD
 70
     0
 40
0.0
 41
1.0
 50
0.0
 71
     0
 42
3.0
  3
dim.shx
  4
extfont.shx
  0
STYLE
  2
KNJYOKO
 70
     0
 40
0.0
 41
1.0
 50
0.0
 71
     0
 42
3.099999904632567
  3
TXT.shx
  4
extfont.shx
  0
STYLE
  2
ACANSTS
 70
     0
 40
1.0
 41
1.0
 50
0.0
 71
     0
 42
0.2
  3
romans.shx
  4
extfont.shx
  0
STYLE
  2
ACANSGDT
 70
     0
 40
0.0
 41
1.0
 50
0.0
 71
     0
 42
0.2
  3
amgdt.shx
  4

  0
STYLE
  2
ACJISTS
 70
     0
 40
1.0
 41
1.0
 50
0.0
 71
     0
 42
0.2
  3
isocp.shx
  4
extfont.shx
  0
STYLE
  2
ACJISGDT
 70
     0
 40
0.0
 41
1.0
 50
0.0
 71
     0
 42
0.2
  3
amgdt.shx
  4

  0
STYLE
  2
MINNTYOU
 70
     0
 40
0.0
 41
1.0
 50
0.0
 71
     0
 42
3.0
  3
txt
  4

  0
STYLE
  2
R寸法
 70
     0
 40
2.0
 41
1.0
 50
0.0
 71
     0
 42
3.0
  3
dim.shx
  4
extfont.shx
  0
STYLE
  2
ANKTATE
 70
     4
 40
0.0
 41
1.0
 50
0.0
 71
     0
 42
3.099999904632567
  3
TXT
  4

  0
STYLE
  2
KNJTATE
 70
     4
 40
0.0
 41
1.0
 50
0.0
 71
     0
 42
3.099999904632567
  3
TXT
  4
BIGFONT
  0
STYLE
  2
ACISOTS
 70
     0
 40
1.0
 41
1.0
 50
0.0
 71
     0
 42
2.5
  3
isocp.shx
  4
extfont.shx
  0
STYLE
  2
ACISOGDT
 70
     0
 40
0.0
 41
1.0
 50
0.0
 71
     0
 42
2.5
  3
amgdt.shx
  4

  0
ENDTAB
  0
TABLE
  2
VIEW
 70
     7
  0
VIEW
  2
AM_VIEW1
 70
     0
 40
95.560349999996788
 10
100.7985233311003
 20
153.34052499999521
 41
175.68304666221039
 11
0.0
 21
0.0
 31
1.0
 12
0.0
 22
0.0
 32
0.0
 42
50.0
 43
0.0
 44
0.0
 50
0.0
 71
    16
  0
VIEW
  2
AM_VIEW2
 70
     0
 40
95.560349999996788
 10
201.6154766692801
 20
153.34052499999521
 41
175.68304666221039
 11
0.0
 21
0.0
 31
1.0
 12
0.0
 22
0.0
 32
0.0
 42
50.0
 43
0.0
 44
0.0
 50
0.0
 71
    16
  0
VIEW
  2
AM_VIEW3
 70
     0
 40
95.560349999996788
 10
100.7985233311003
 20
57.780174999998401
 41
175.68304666221039
 11
0.0
 21
0.0
 31
1.0
 12
0.0
 22
0.0
 32
0.0
 42
50.0
 43
0.0
 44
0.0
 50
0.0
 71
    16
  0
VIEW
  2
AM_VIEW4
 70
     0
 40
95.560349999996788
 10
201.6154766692801
 20
57.780174999998401
 41
175.68304666221039
 11
0.0
 21
0.0
 31
1.0
 12
0.0
 22
0.0
 32
0.0
 42
50.0
 43
0.0
 44
0.0
 50
0.0
 71
    16
  0
VIEW
  2
AM_VIEW5
 70
     0
 40
95.560349999996816
 10
151.20700000019011
 20
105.5603499999968
 41
175.68304666221039
 11
0.0
 21
0.0
 31
1.0
 12
0.0
 22
0.0
 32
0.0
 42
50.0
 43
0.0
 44
0.0
 50
0.0
 71
    16
  0
VIEW
  2
AM_VIEW6
 70
     0
 40
191.1187887929936
 10
151.20700000019019
 20
105.5603499999968
 41
351.36257966348762
 11
0.0
 21
0.0
 31
1.0
 12
0.0
 22
0.0
 32
0.0
 42
50.0
 43
0.0
 44
0.0
 50
0.0
 71
    16
  0
ENDTAB
  0
TABLE
  2
UCS
 70
     0
  0
ENDTAB
  0
TABLE
  2
APPID
 70
    59
  0
APPID
  2
ACAD
 70
     0
  0
APPID
  2
ACADANNOTATIVE
 70
     0
  0
APPID
  2
ACAD_MLEADERVER
 70
     0
  0
APPID
  2
MCAD_NO_VIS
 70
     0
  0
APPID
  2
ACAD_TEMP_GRAPHIC
 70
     0
  0
APPID
  2
AD_DRAW
 70
     0
  0
APPID
  2
ACATTRIBSERVICES
 70
     0
  0
APPID
  2
DESIGNERASSEMBLIES
 70
     0
  0
APPID
  2
ACADM_DIM_EDIT
 70
     0
  0
APPID
  2
AMDT_DM_ADJ
 70
     0
  0
APPID
  2
ACADANNOPO
 70
     0
  0
APPID
  2
ACAECLAYERSTANDARD
 70
     0
  0
APPID
  2
ACDBDYNAMICBLOCKGUID
 70
     0
  0
APPID
  2
ACDBBLOCKREPETAG
 70
     0
  0
APPID
  2
ACAUTHENVIRON
 70
     0
  0
APPID
  2
ACDBDYNAMICBLOCKTRUENAME
 70
     0
  0
APPID
  2
GENIUS_GENREC_14
 70
     0
  0
APPID
  2
GENIUS_GENOBJ-N-REC_13
 70
     0
  0
APPID
  2
GENIUS_GENODEF_13
 70
     0
  0
APPID
  2
ACAD_EXEMPT_FROM_CAD_STANDARDS
 70
     0
  0
APPID
  2
GENIUS_GENOBJ-N-CEN_13
 70
     0
  0
APPID
  2
GENIUS_GENCEN_19
 70
     0
  0
APPID
  2
ACAD_DSTYLE_DIMINSPECT
 70
     0
  0
APPID
  2
DCO15
 70
     0
  0
APPID
  2
ACAD_PSEXT
 70
     0
  0
APPID
  2
GENIUS_GENBH_13
 70
     0
  0
APPID
  2
GENIUS_GENOENT_13
 70
     0
  0
APPID
  2
GENIUS_GENOLIS_13
 70
     0
  0
APPID
  2
GENIUS_GENOBJ-NBEHI-BHF_13
 70
     0
  0
APPID
  2
GENIUS_GENOREF_13
 70
     0
  0
APPID
  2
GENIUS_GENOBJ-NBEHI-BHB_13
 70
     0
  0
APPID
  2
AMG_2DHIDE
 70
     0
  0
APPID
  2
AMG_2DSTRUCT_BTR
 70
     0
  0
APPID
  2
GENIUS_AMGTXT_16
 70
     0
  0
APPID
  2
GENIUS_GENOBJ-N-HTC_13
 70
     0
  0
APPID
  2
GENIUS_GENHATCH_13
 70
     0
  0
APPID
  2
GEVID1208849169
 70
     0
  0
APPID
  2
GEVDC
 70
     0
  0
APPID
  2
ACADM_2DVIEW_IGN_NOTIFY
 70
     0
  0
APPID
  2
GEVID1208849170
 70
     0
  0
APPID
  2
GEVID1208849171
 70
     0
  0
APPID
  2
GEVRADREF
 70
     0
  0
APPID
  2
ACAD_DSTYLE_DIMJAG
 70
     0
  0
APPID
  2
ACAD_DSTYLE_DIMTALN
 70
     0
  0
APPID
  2
GENIUS_GENDTOL_13
 70
     0
  0
APPID
  2
GENIUS_GENTRA_14
 70
     0
  0
APPID
  2
GENIUS_GENOBJ-N-TIT_13
 70
     0
  0
APPID
  2
GENIUS_GENTITLE_13
 70
     0
  0
APPID
  2
GENIUS_GENSCREG_15
 70
     0
  0
APPID
  2
GENIUS_GENOBJ-N-SDF_13
 70
     0
  0
APPID
  2
ACAD_DSTYLE_DIMRADIAL_EXTENSION
 70
     0
  0
APPID
  2
GENIUS_GENOBJ-N-FIL_13
 70
     0
  0
APPID
  2
GENIUS_GENOBJ-N-CRS_13
 70
     0
  0
APPID
  2
GENIUS_GENDIMSH_14
 70
     0
  0
APPID
  2
ACAD_DSTYLE_DIMANGULAR_EXT
 70
     0
  0
APPID
  2
ACAD_NAV_VCDISPLAY
 70
     0
  0
APPID
  2
GENIUS_GENSCREG_13
 70
     0
  0
APPID
  2
CONTENTBLOCKICON
 70
     0
  0
APPID
  2
AcDbAttr
 70
     0
  0
ENDTAB
  0
TABLE
  2
DIMSTYLE
 70
    26
  0
DIMSTYLE
  2
STANDARD
 70
     0
  3

  4

  5

  6

  7

 40
1.0
 41
1.0
 42
0.8
 43
0.38
 44
1.0
 45
0.0
 46
0.0
 47
0.0
 48
0.0
140
3.1000000000000001
141
0.09
142
0.0
143
25.399999999999999
144
1.0
145
0.5
146
1.0
147
0.09
 71
     0
 72
     0
 73
     0
 74
     0
 75
     0
 76
     0
 77
     1
 78
     0
170
     0
171
     2
172
     0
173
     0
174
     0
175
     0
176
     0
177
     0
178
     0
  0
DIMSTYLE
  2
AM_ANSI
 70
     0
  3

  4
mm
  5

  6

  7

 40
1.0
 41
0.1
 42
0.05
 43
0.5
 44
0.1
 45
0.0
 46
0.0
 47
0.1
 48
0.1
140
0.12
141
0.0
142
0.0
143
25.399999999999999
144
1.0
145
0.0
146
0.71
147
0.06
 71
     0
 72
     0
 73
     1
 74
     1
 75
     0
 76
     0
 77
     0
 78
     7
170
     0
171
     2
172
     0
173
     0
174
     0
175
     0
176
   256
177
   256
178
     2
  0
DIMSTYLE
  2
AM_ANSI$3
 70
     0
  3

  4
mm
  5

  6

  7

 40
1.0
 41
0.1
 42
0.05
 43
0.5
 44
0.1
 45
0.0
 46
0.0
 47
0.1
 48
0.1
140
0.12
141
0.0
142
0.0
143
25.399999999999999
144
1.0
145
0.0
146
0.71
147
0.06
 71
     0
 72
     0
 73
     1
 74
     1
 75
     0
 76
     0
 77
     0
 78
     7
170
     0
171
     2
172
     0
173
     0
174
     0
175
     0
176
   256
177
   256
178
     2
  0
DIMSTYLE
  2
AM_ANSI$4
 70
     0
  3

  4
mm
  5

  6

  7

 40
1.0
 41
0.1
 42
0.05
 43
0.5
 44
0.1
 45
0.0
 46
0.0
 47
0.1
 48
0.1
140
0.12
141
0.0
142
0.0
143
25.399999999999999
144
1.0
145
0.0
146
0.71
147
0.06
 71
     0
 72
     0
 73
     1
 74
     1
 75
     0
 76
     0
 77
     0
 78
     7
170
     0
171
     2
172
     0
173
     0
174
     0
175
     0
176
   256
177
   256
178
     2
  0
DIMSTYLE
  2
AM_ANSI$7
 70
     0
  3

  4
mm
  5

  6

  7

 40
1.0
 41
0.1
 42
0.05
 43
0.5
 44
0.1
 45
0.0
 46
0.0
 47
0.1
 48
0.1
140
0.24
141
0.0
142
0.0
143
25.399999999999999
144
1.0
145
0.0
146
0.71
147
0.06
 71
     0
 72
     0
 73
     1
 74
     1
 75
     0
 76
     0
 77
     0
 78
     7
170
     0
171
     2
172
     0
173
     0
174
     0
175
     0
176
   256
177
   256
178
     2
  0
DIMSTYLE
  2
AM_ANSI$SF
 70
     0
  3

  4
mm
  5

  6

  7

 40
1.0
 41
0.1
 42
0.05
 43
0.5
 44
0.1
 45
0.0
 46
0.0
 47
0.1
 48
0.1
140
0.12
141
0.0
142
0.0
143
25.399999999999999
144
1.0
145
0.0
146
0.71
147
0.06
 71
     0
 72
     0
 73
     1
 74
     1
 75
     1
 76
     1
 77
     0
 78
     7
170
     0
171
     2
172
     0
173
     0
174
     0
175
     0
176
   256
177
   256
178
     2
  0
DIMSTYLE
  2
AM_ANSI$SH
 70
     0
  3

  4
mm
  5

  6
GENAXEH
  7

 40
1.0
 41
0.1
 42
0.05
 43
0.5
 44
0.1
 45
0.0
 46
0.0
 47
0.1
 48
0.1
140
0.12
141
0.0
142
0.0
143
25.399999999999999
144
1.0
145
0.0
146
0.71
147
0.06
 71
     0
 72
     0
 73
     1
 74
     1
 75
     1
 76
     1
 77
     0
 78
     7
170
     0
171
     2
172
     0
173
     1
174
     0
175
     0
176
   256
177
   256
178
     2
  0
DIMSTYLE
  2
AM_JIS
 70
     0
  3

  4
"
  5
OPEN30
  6

  7

 40
1.0
 41
2.5
 42
1.0
 43
7.0
 44
1.0
 45
0.0
 46
0.0
 47
0.1
 48
0.1
140
3.0
141
0.0
142
0.0
143
0.0393701
144
1.0
145
0.0
146
0.71
147
1.0
 71
     0
 72
     0
 73
     0
 74
     0
 75
     0
 76
     0
 77
     3
 78
     8
170
     0
171
     2
172
     1
173
     0
174
     0
175
     0
176
     7
177
     7
178
     7
  0
DIMSTYLE
  2
AM_JIS$3
 70
     0
  3

  4
"
  5
OPEN30
  6

  7

 40
1.0
 41
2.5
 42
1.0
 43
10.0
 44
1.0
 45
0.0
 46
0.0
 47
0.1
 48
0.1
140
3.0
141
0.0
142
0.0
143
0.0393701
144
1.0
145
0.0
146
0.71
147
1.0
 71
     0
 72
     0
 73
     0
 74
     1
 75
     0
 76
     0
 77
     3
 78
     8
170
     0
171
     2
172
     0
173
     0
174
     0
175
     0
176
     7
177
     7
178
     7
  0
DIMSTYLE
  2
AM_JIS$4
 70
     0
  3

  4
"
  5
OPEN30
  6

  7

 40
1.0
 41
2.5
 42
1.0
 43
10.0
 44
1.0
 45
0.0
 46
0.0
 47
0.1
 48
0.1
140
2.0
141
0.0
142
0.0
143
0.0393701
144
1.0
145
0.0
146
0.71
147
1.0
 71
     0
 72
     0
 73
     0
 74
     0
 75
     0
 76
     0
 77
     3
 78
     8
170
     0
171
     2
172
     0
173
     0
174
     0
175
     0
176
     7
177
     7
178
     7
  0
DIMSTYLE
  2
AM_JIS$6
 70
     0
  3

  4
"
  5
OPEN30
  6

  7

 40
1.0
 41
2.5
 42
1.0
 43
10.0
 44
1.0
 45
0.0
 46
0.0
 47
0.1
 48
0.1
140
3.0
141
0.0
142
0.0
143
0.0393701
144
1.0
145
0.0
146
0.71
147
1.0
 71
     0
 72
     0
 73
     0
 74
     0
 75
     0
 76
     0
 77
     0
 78
     8
170
     0
171
     2
172
     1
173
     0
174
     0
175
     0
176
   256
177
     7
178
     7
  0
DIMSTYLE
  2
AM_JIS$7
 70
     0
  3

  4
"
  5
OPEN30
  6

  7

 40
1.0
 41
2.5
 42
1.0
 43
10.0
 44
1.0
 45
0.0
 46
0.0
 47
0.1
 48
0.1
140
3.0
141
0.0
142
0.0
143
0.0393701
144
1.0
145
0.0
146
0.71
147
1.0
 71
     0
 72
     0
 73
     0
 74
     0
 75
     0
 76
     0
 77
     3
 78
     8
170
     0
171
     2
172
     1
173
     0
174
     0
175
     0
176
     7
177
   256
178
     7
  0
DIMSTYLE
  2
AM_JIS$SF
 70
     0
  3

  4
"
  5
OPEN30
  6

  7

 40
1.0
 41
2.5
 42
1.0
 43
7.0
 44
1.0
 45
0.0
 46
0.0
 47
0.1
 48
0.1
140
3.0
141
0.0
142
0.0
143
0.0393701
144
1.0
145
0.0
146
0.71
147
1.0
 71
     0
 72
     0
 73
     0
 74
     0
 75
     1
 76
     1
 77
     3
 78
     8
170
     0
171
     2
172
     1
173
     0
174
     0
175
     0
176
     7
177
   256
178
     7
  0
DIMSTYLE
  2
AM_JIS$SH
 70
     0
  3

  4
"
  5

  6
GENAXEH
  7
OPEN30
 40
1.0
 41
2.5
 42
1.0
 43
7.0
 44
1.0
 45
0.0
 46
0.0
 47
0.1
 48
0.1
140
3.0
141
0.0
142
0.0
143
0.0393701
144
2.0
145
0.0
146
0.71
147
1.0
 71
     0
 72
     0
 73
     0
 74
     0
 75
     1
 76
     1
 77
     3
 78
     8
170
     0
171
     2
172
     1
173
     1
174
     0
175
     0
176
     7
177
   256
178
     7
  0
DIMSTYLE
  2
AM_JIS$2
 70
     0
  3

  4
"
  5
OPEN30
  6

  7

 40
1.0
 41
2.5
 42
1.0
 43
7.0
 44
1.0
 45
0.0
 46
0.0
 47
0.1
 48
0.1
140
3.0
141
0.0
142
0.0
143
0.0393701
144
1.0
145
0.0
146
0.71
147
1.0
 71
     0
 72
     0
 73
     0
 74
     0
 75
     0
 76
     0
 77
     3
 78
     8
170
     0
171
     2
172
     1
173
     0
174
     0
175
     0
176
     7
177
     7
178
     7
  0
DIMSTYLE
  2
AM_JIS$0
 70
     0
  3

  4
"
  5
OPEN30
  6

  7

 40
1.0
 41
2.5
 42
1.0
 43
7.0
 44
1.0
 45
0.0
 46
0.0
 47
0.1
 48
0.1
140
3.0
141
0.0
142
0.0
143
0.0393701
144
1.0
145
0.0
146
0.71
147
1.0
 71
     0
 72
     0
 73
     0
 74
     0
 75
     0
 76
     0
 77
     3
 78
     8
170
     0
171
     2
172
     1
173
     0
174
     0
175
     0
176
     7
177
     7
178
     7
  0
DIMSTYLE
  2
STANDARD$0
 70
     0
  3

  4

  5

  6

  7

 40
1.0
 41
1.0
 42
0.8
 43
0.38
 44
1.0
 45
0.0
 46
0.0
 47
0.0
 48
0.0
140
3.1000000000000001
141
0.09
142
0.0
143
25.399999999999999
144
1.0
145
0.5
146
1.0
147
0.09
 71
     0
 72
     0
 73
     0
 74
     0
 75
     0
 76
     0
 77
     1
 78
     0
170
     0
171
     2
172
     0
173
     0
174
     0
175
     0
176
     0
177
     0
178
     0
  0
DIMSTYLE
  2
ANNOTATIVE
 70
     0
  3

  4

  5

  6

  7

 40
1.0
 41
0.18
 42
0.0625
 43
0.38
 44
0.18
 45
0.0
 46
0.0
 47
0.0
 48
0.0
140
0.18
141
0.09
142
0.0
143
25.399999999999999
144
1.0
145
0.0
146
1.0
147
0.09
 71
     0
 72
     0
 73
     1
 74
     1
 75
     0
 76
     0
 77
     0
 78
     0
170
     0
171
     2
172
     0
173
     0
174
     0
175
     0
176
     0
177
     0
178
     0
  0
DIMSTYLE
  2
AM_ISO
 70
     0
  3

  4
"
  5

  6

  7

 40
1.0
 41
2.5
 42
1.0
 43
10.0
 44
1.0
 45
0.0
 46
0.0
 47
0.1
 48
0.1
140
3.5
141
0.0
142
0.0
143
0.0393701
144
1.0
145
0.0
146
0.71
147
1.5
 71
     0
 72
     0
 73
     0
 74
     0
 75
     0
 76
     0
 77
     1
 78
     8
170
     0
171
     2
172
     1
173
     0
174
     0
175
     0
176
   256
177
   256
178
     2
  0
DIMSTYLE
  2
AM_ISO$3
 70
     0
  3

  4
"
  5

  6

  7

 40
1.0
 41
2.5
 42
1.0
 43
10.0
 44
1.0
 45
0.0
 46
0.0
 47
0.1
 48
0.1
140
3.5
141
0.0
142
0.0
143
0.0393701
144
1.0
145
0.0
146
0.71
147
1.5
 71
     0
 72
     0
 73
     0
 74
     1
 75
     0
 76
     0
 77
     1
 78
     8
170
     0
171
     2
172
     0
173
     0
174
     0
175
     0
176
   256
177
   256
178
     2
  0
DIMSTYLE
  2
AM_ISO$4
 70
     0
  3

  4
"
  5

  6

  7

 40
1.0
 41
2.5
 42
1.0
 43
10.0
 44
1.0
 45
0.0
 46
0.0
 47
0.1
 48
0.1
140
3.5
141
0.0
142
0.0
143
0.0393701
144
1.0
145
0.0
146
0.71
147
1.5
 71
     0
 72
     0
 73
     0
 74
     1
 75
     0
 76
     0
 77
     1
 78
     8
170
     0
171
     2
172
     0
173
     0
174
     0
175
     0
176
   256
177
   256
178
     2
  0
DIMSTYLE
  2
AM_ISO$6
 70
     0
  3

  4
"
  5

  6

  7

 40
1.0
 41
2.5
 42
1.0
 43
10.0
 44
1.0
 45
0.0
 46
0.0
 47
0.1
 48
0.1
140
3.5
141
0.0
142
0.0
143
0.0393701
144
1.0
145
0.0
146
0.71
147
1.5
 71
     0
 72
     0
 73
     0
 74
     0
 75
     0
 76
     0
 77
     0
 78
     8
170
     0
171
     2
172
     1
173
     0
174
     0
175
     0
176
   256
177
   256
178
     2
  0
DIMSTYLE
  2
AM_ISO$7
 70
     0
  3

  4
"
  5

  6

  7

 40
1.0
 41
2.5
 42
1.0
 43
10.0
 44
1.0
 45
0.0
 46
0.0
 47
0.1
 48
0.1
140
5.0
141
0.0
142
0.0
143
0.0393701
144
1.0
145
0.0
146
0.71
147
1.5
 71
     0
 72
     0
 73
     0
 74
     0
 75
     0
 76
     0
 77
     1
 78
     8
170
     0
171
     2
172
     1
173
     0
174
     0
175
     0
176
   256
177
   256
178
     2
  0
DIMSTYLE
  2
AM_ISO$SF
 70
     0
  3

  4
"
  5

  6

  7

 40
1.0
 41
2.5
 42
1.0
 43
10.0
 44
1.0
 45
0.0
 46
0.0
 47
0.1
 48
0.1
140
3.5
141
0.0
142
0.0
143
0.0393701
144
1.0
145
0.0
146
0.71
147
1.5
 71
     0
 72
     0
 73
     0
 74
     0
 75
     1
 76
     1
 77
     1
 78
     8
170
     0
171
     2
172
     1
173
     0
174
     0
175
     0
176
   256
177
   256
178
     2
  0
DIMSTYLE
  2
AM_ISO$SH
 70
     0
  3

  4
"
  5

  6
GENAXEH
  7

 40
1.0
 41
2.5
 42
1.0
 43
10.0
 44
1.0
 45
0.0
 46
0.0
 47
0.1
 48
0.1
140
3.5
141
0.0
142
0.0
143
0.0393701
144
2.0
145
0.0
146
0.71
147
1.5
 71
     0
 72
     0
 73
     0
 74
     0
 75
     1
 76
     1
 77
     1
 78
     8
170
     0
171
     2
172
     1
173
     1
174
     0
175
     0
176
   256
177
   256
178
     2
  0
ENDTAB
  0
ENDSEC
  0
SECTION
  2
BLOCKS
  0
BLOCK
  8
0
  2
$MODEL_SPACE
 70
     0
 10
0.0
 20
0.0
 30
0.0
  3
$MODEL_SPACE
  1

  0
ENDBLK
  5
1D3
  8
0
  0
BLOCK
 67
     1
  8
0
  2
$PAPER_SPACE
 70
     0
 10
0.0
 20
0.0
 30
0.0
  3
$PAPER_SPACE
  1

  0
ENDBLK
  5
1D1
 67
     1
  8
0
  0
BLOCK
  8
0
  2
GENAXEH
 70
     0
 10
0.0
 20
0.0
 30
0.0
  3
GENAXEH
  1

  0
LINE
  5
264
  8
0
 10
-1.0
 20
0.0
 30
0.0
 11
1.0
 21
0.0
 31
0.0
  0
ENDBLK
  5
266
  8
0
  0
BLOCK
  8
0
  2
_OPEN30
 70
     0
 10
0.0
 20
0.0
 30
0.0
  3
_OPEN30
  1

  0
LINE
  5
2FA
  8
0
  6
BYBLOCK
 62
     0
 10
-1.0
 20
0.26794919
 30
0.0
 11
0.0
 21
0.0
 31
0.0
  0
LINE
  5
2FB
  8
0
  6
BYBLOCK
 62
     0
 10
0.0
 20
0.0
 30
0.0
 11
-1.0
 21
-0.26794919
 31
0.0
  0
LINE
  5
2FC
  8
0
  6
BYBLOCK
 62
     0
 10
0.0
 20
0.0
 30
0.0
 11
-1.0
 21
0.0
 31
0.0
  0
ENDBLK
  5
2FE
  8
0
  0
BLOCK
  8
0
  2
MYPLIST0
 70
     2
 10
0.0
 20
0.0
 30
0.0
  3
MYPLIST0
  1

  0
LINE
  5
346
  8
SYS-BUHIN0
  6
CONTINUOUS
 62
     4
 10
-170.0
 20
7.0
 30
0.0
 11
0.0
 21
7.0
 31
0.0
  0
LINE
  5
347
  8
SYS-BUHIN0
  6
CONTINUOUS
 62
     4
 10
-170.0
 20
-0.0000000000030695
 30
0.0
 11
0.0
 21
-0.0000000000001137
 31
0.0
  0
LINE
  5
348
  8
SYS-BUHIN0
  6
CONTINUOUS
 62
     4
 10
-170.0
 20
7.0
 30
0.0
 11
-170.0
 21
0.0
 31
0.0
  0
LINE
  5
349
  8
SYS-BUHIN0
  6
CONTINUOUS
 62
     4
 10
0.0
 20
7.0
 30
0.0
 11
0.0
 21
0.0
 31
0.0
  0
LINE
  5
34A
  8
SYS-BUHIN0
  6
CONTINUOUS
 62
     4
 10
-161.0
 20
7.0
 30
0.0
 11
-161.0
 21
0.0
 31
0.0
  0
LINE
  5
34B
  8
SYS-BUHIN0
  6
CONTINUOUS
 62
     4
 10
-99.0
 20
7.0
 30
0.0
 11
-99.0
 21
0.0
 31
0.0
  0
LINE
  5
34C
  8
SYS-BUHIN0
  6
CONTINUOUS
 62
     4
 10
-72.0
 20
7.0
 30
0.0
 11
-72.0
 21
0.0
 31
0.0
  0
LINE
  5
34D
  8
SYS-BUHIN0
  6
CONTINUOUS
 62
     4
 10
-63.0
 20
7.0
 30
0.0
 11
-63.0
 21
0.0
 31
0.0
  0
LINE
  5
34E
  8
SYS-BUHIN0
  6
CONTINUOUS
 62
     4
 10
-16.0
 20
7.0
 30
0.0
 11
-16.0
 21
0.0
 31
0.0
  0
TEXT
  5
34F
  8
SYS-BUHIN0
  6
CONTINUOUS
 62
     7
 10
-13.61264708219346
 20
0.6000000119208835
 30
0.0
 40
1.1000000000000001
  1
PARTS NO.
 41
1.3
  0
TEXT
  5
350
  8
SYS-BUHIN0
  6
CONTINUOUS
 62
     7
 10
-14.36429419116018
 20
3.0691472933651762
 30
0.0
 40
2.2000000000000002
  1
部品コード
  0
TEXT
  5
351
  8
SYS-BUHIN0
  6
CONTINUOUS
 62
     7
 10
-43.852454807937526
 20
0.6000000119208835
 30
0.0
 40
1.1000000000000001
  1
REMARKS
 41
1.3
  0
TEXT
  5
352
  8
SYS-BUHIN0
  6
CONTINUOUS
 62
     7
 10
-47.370000243186951
 20
2.7500000476836699
 30
0.0
 40
2.7999999999999989
  1
備    考
  0
TEXT
  5
353
  8
SYS-BUHIN0
  6
CONTINUOUS
 62
     7
 10
-69.144963642251696
 20
0.6000000119208835
 30
0.0
 40
1.1000000000000001
  1
UNIT
  0
TEXT
  5
354
  8
SYS-BUHIN0
  6
CONTINUOUS
 62
     7
 10
-70.272262370934413
 20
2.6949072988287521
 30
0.0
 40
2.7999999999999989
  1
数量
  0
TEXT
  5
355
  8
SYS-BUHIN0
  6
CONTINUOUS
 62
     7
 10
-90.559234383463263
 20
0.6000000119208835
 30
0.0
 40
1.1000000000000001
  1
MATERIAL
 41
1.3
  0
TEXT
  5
357
  8
SYS-BUHIN0
  6
CONTINUOUS
 62
     7
 10
-138.9093619295486
 20
0.6000000119208835
 30
0.0
 40
1.1000000000000001
  1
  DESCRIPTION
 41
1.3
  0
TEXT
  5
358
  8
SYS-BUHIN0
  6
CONTINUOUS
 62
     7
 10
-142.0050003230572
 20
2.7500000476836699
 30
0.0
 40
2.7999999999999989
  1
 部  品  名
  0
TEXT
  5
359
  8
SYS-BUHIN0
  6
CONTINUOUS
 62
     7
 10
-166.63404873957319
 20
0.6000000119208835
 30
0.0
 40
1.1000000000000001
  1
NO.
  0
TEXT
  5
35A
  8
SYS-BUHIN0
  6
CONTINUOUS
 62
     7
 10
-168.29000008106229
 20
2.7500000476836699
 30
0.0
 40
2.7999999999999989
  1
項番
  0
ATTDEF
  5
35B
  8
AM_0
 62
     7
 10
-168.79000008106229
 20
3.5
 30
0.0
 40
3.1000000000000001
  1

  3

  2
ITEM
 70
     1
1001
AcDbAttr
1070
     0
1070
     1
  0
TEXT
  5
C0B
  8
AM_BOR
 62
     7
 10
-91.770000159740434
 20
2.7000000476837149
 30
0.0
 40
2.7999999999999989
  1
材　　質
  0
ENDBLK
  5
35C
  8
0
  0
BLOCK
  8
0
  2
MYPLIST1
 70
     2
 10
0.0
 20
0.0
 30
0.0
  3
MYPLIST1
  1

  0
LINE
  5
393
  8
SYS-BUHIN0
  6
CONTINUOUS
 62
     4
 10
-170.0
 20
6.0
 30
0.0
 11
0.0
 21
6.0
 31
0.0
  0
LINE
  5
394
  8
SYS-BUHIN0
  6
CONTINUOUS
 62
     4
 10
-170.0
 20
0.0
 30
0.0
 11
-170.0
 21
6.0
 31
0.0
  0
LINE
  5
395
  8
SYS-BUHIN0
  6
CONTINUOUS
 62
     4
 10
-161.0
 20
0.0
 30
0.0
 11
-161.0
 21
6.0
 31
0.0
  0
LINE
  5
396
  8
SYS-BUHIN0
  6
CONTINUOUS
 62
     4
 10
-99.0
 20
0.0
 30
0.0
 11
-99.0
 21
6.0
 31
0.0
  0
LINE
  5
397
  8
SYS-BUHIN0
  6
CONTINUOUS
 62
     4
 10
-72.0
 20
0.0
 30
0.0
 11
-72.0
 21
6.0
 31
0.0
  0
LINE
  5
398
  8
SYS-BUHIN0
  6
CONTINUOUS
 62
     4
 10
-63.0
 20
0.0
 30
0.0
 11
-63.0
 21
6.0
 31
0.0
  0
LINE
  5
399
  8
SYS-BUHIN0
  6
CONTINUOUS
 62
     4
 10
-16.0
 20
0.0
 30
0.0
 11
-16.0
 21
6.0
 31
0.0
  0
LINE
  5
39A
  8
SYS-BUHIN0
  6
CONTINUOUS
 62
     4
 10
0.0
 20
0.0
 30
0.0
 11
0.0
 21
6.0
 31
0.0
  0
LINE
  5
39B
  8
SYS-BUHIN0
  6
CONTINUOUS
 62
     4
 10
-170.0
 20
0.0
 30
0.0
 11
0.0
 21
0.0
 31
0.0
  0
ATTDEF
  5
39C
  8
SYS-BUHINCODE
 10
-14.0
 20
2.5
 30
0.0
 40
1.0
  1

 11
-14.0
 21
3.0
 31
0.0
  3
部品コード
  2
PCODE
 70
     0
 74
     2
1001
AcDbAttr
1070
     0
1070
     1
  0
ATTDEF
  5
39D
  8
SYS-BUHIN0
  6
CONTINUOUS
 62
     7
 10
-61.0
 20
2.0
 30
0.0
 40
2.0
  1

 11
-61.0
 21
3.0
 31
0.0
  3
備考
  2
NOTE
 70
     0
 74
     2
1001
AcDbAttr
1070
     0
1070
     1
  0
ATTDEF
  5
39E
  8
SYS-BUHIN0
  6
CONTINUOUS
 62
     7
 10
-67.5
 20
3.0
 30
0.0
 40
2.5
  1

 72
     4
 11
-67.5
 21
3.0
 31
0.0
  3
数量
  2
QTY
 70
     0
1001
AcDbAttr
1070
     0
1070
     1
  0
ATTDEF
  5
39F
  8
SYS-BUHIN0
  6
CONTINUOUS
 62
     7
 10
-97.595958160209875
 20
2.0
 30
0.0
 40
2.0
  1

 11
-97.595958160209875
 21
3.0
 31
0.0
  3
材質
  2
MATERIAL
 70
     0
 74
     2
1001
AcDbAttr
1070
     0
1070
     1
  0
ATTDEF
  5
3A0
  8
SYS-BUHIN0
  6
CONTINUOUS
 62
     7
 10
-159.0
 20
1.75
 30
0.0
 40
2.5
  1

 11
-159.0
 21
3.0
 31
0.0
  3
部品名
  2
DESCR
 70
     0
 74
     2
1001
AcDbAttr
1070
     0
1070
     1
  0
ATTDEF
  5
3A1
  8
SYS-BUHIN0
  6
CONTINUOUS
 62
     7
 10
-165.5
 20
3.0
 30
0.0
 40
2.5
  1

 72
     4
 11
-165.5
 21
3.0
 31
0.0
  3
項番
  2
ITEM
 70
     0
1001
AcDbAttr
1070
     0
1070
     1
  0
ENDBLK
  5
370
  8
0
  0
BLOCK
  8
0
  2
ZUWAKU-A4H
 70
     0
 10
0.0
 20
0.0
 30
0.0
  3
ZUWAKU-A4H
  1

  0
LINE
  5
1B9F
  8
AM_BOR
 62
     3
 10
12.956999999995089
 20
201.1206999999936
 30
0.0
 11
12.956999999999759
 21
10.0
 31
0.0
  0
LINE
  5
1BA0
  8
AM_BOR
 62
     3
 10
289.45700000038528
 20
201.12069999985769
 30
0.0
 11
289.45700000001921
 21
10.0
 31
0.0
  0
LINE
  5
1BA1
  8
AM_BOR
 62
     3
 10
12.95699999999508
 20
201.1206999999936
 30
0.0
 11
289.45700000038528
 21
201.12069999985769
 31
0.0
  0
LINE
  5
1BA2
  8
AM_BOR
 62
     3
 10
12.95699999999974
 20
10.0
 30
0.0
 11
289.45700000001921
 21
10.0
 31
0.0
  0
TEXT
  5
1BA3
  8
SYS-TEISEI0
  6
CONTINUOUS
 62
     3
 10
21.84200001765786
 20
20.950000047683719
 30
0.0
 40
3.099999904632567
  1
 
  0
TEXT
  5
1BA4
  8
SYS-TEISEI0
  6
CONTINUOUS
 62
     3
 10
47.342000044479938
 20
20.950000047683719
 30
0.0
 40
3.099999904632567
  1
 
  0
TEXT
  5
1BA5
  8
SYS-TEISEI0
  6
CONTINUOUS
 62
     3
 10
106.7019999570846
 20
20.950000047683719
 30
0.0
 40
3.099999904632567
  1
 
  0
TEXT
  5
1BA6
  8
SYS-TEISEI0
  6
CONTINUOUS
 62
     3
 10
114.4019999570846
 20
20.950000047683719
 30
0.0
 40
3.099999904632567
  1
 
  0
TEXT
  5
1BA7
  8
SYS-TEISEI0
  6
CONTINUOUS
 62
     3
 10
21.84200001765786
 20
25.950000047683719
 30
0.0
 40
3.099999904632567
  1
 
  0
TEXT
  5
1BA8
  8
SYS-TEISEI0
  6
CONTINUOUS
 62
     3
 10
47.342000044479938
 20
25.950000047683719
 30
0.0
 40
3.099999904632567
  1
 
  0
TEXT
  5
1BA9
  8
SYS-TEISEI0
  6
CONTINUOUS
 62
     3
 10
106.7019999570846
 20
25.950000047683719
 30
0.0
 40
3.099999904632567
  1
 
  0
TEXT
  5
1BAA
  8
SYS-TEISEI0
  6
CONTINUOUS
 62
     3
 10
114.4019999570846
 20
25.950000047683719
 30
0.0
 40
3.099999904632567
  1
 
  0
TEXT
  5
1BAB
  8
SYS-BUHIN0
  6
CONTINUOUS
 62
     3
 10
260.70699999999999
 20
52.450000047683723
 30
0.0
 40
3.099999904632567
  1
 
  0
TEXT
  5
1BAC
  8
SYS-BUHIN0
  6
CONTINUOUS
 62
     3
 10
260.70699999999999
 20
58.45000004768373
 30
0.0
 40
3.099999904632567
  1
 
  0
TEXT
  5
1BAD
  8
SYS-BUHIN0
  6
CONTINUOUS
 62
     3
 10
260.70699999999999
 20
64.450000047683716
 30
0.0
 40
3.099999904632567
  1
 
  0
TEXT
  5
1BAE
  8
AM_BOR
 10
12.956999999999759
 20
10.0
 30
0.0
 40
5.0
  1
!GENTITLE-LL
  0
TEXT
  5
1BAF
  8
AM_BOR
 10
289.45700000001921
 20
10.0
 30
0.0
 40
5.0
  1
!GENTITLE-INSERT
  0
TEXT
  5
1BB0
  8
AM_BOR
 10
289.45700000038528
 20
201.12069999985769
 30
0.0
 40
5.0
  1
!GENTITLE-RU
  0
TEXT
  5
1BB1
  8
AM_BOR
 10
297.0
 20
210.0
 30
0.0
 40
5.0
  1
!GENTITLE-MAX
  0
ENDBLK
  5
1BB3
  8
0
  0
BLOCK
  8
0
  2
A$C1C06296A
 70
     2
 10
0.0
 20
0.0
 30
0.0
  3
A$C1C06296A
  1

  0
LINE
  5
204C
  8
AM_BOR
 10
198.86851880399371
 20
17.886744577931989
 30
0.0
 11
203.2337455721775
 21
13.521517809748619
 31
0.0
  0
LINE
  5
204D
  8
AM_BOR
 10
198.8685188039936
 20
17.866715351316039
 30
0.0
 11
198.86851880399399
 21
14.128964361178911
 31
0.0
  0
LINE
  5
204E
  8
AM_BOR
 10
204.7045172738834
 20
17.866715326469411
 30
0.0
 11
204.70451727388391
 21
14.181128845625549
 31
0.0
  0
LINE
  5
204F
  8
AM_BOR
 10
204.20428883360731
 20
17.793010290175861
 30
0.0
 11
204.204288833607
 21
14.69861035774108
 31
0.0
  0
LINE
  5
2050
  8
AM_BOR
 10
199.3687472442698
 20
17.176052465333349
 30
0.0
 11
199.36874724427059
 21
14.197800355103411
 31
0.0
  0
LINE
  5
2051
  8
AM_BOR
 10
200.43756462039269
 20
18.46533457095553
 30
0.0
 11
204.20428883360731
 21
14.69861035774052
 31
0.0
  0
LINE
  5
2052
  8
AM_BOR
 10
199.36874724426971
 20
17.17605246533255
 30
0.0
 11
203.02713287203409
 21
13.51766683756852
 31
0.0
  0
ARC
  5
2053
  8
AM_BOR
 10
198.36829036868701
 20
17.866715351316049
 30
0.0
 40
0.5002284402762121
 50
0.0
 51
50.265515568291427
  0
ARC
  5
2054
  8
AM_BOR
 10
198.36829034384081
 20
14.12896436117892
 30
0.0
 40
0.5002284402762121
 50
304.69759678405279
 51
0.0
  0
ARC
  5
2055
  8
AM_BOR
 10
205.20474573403669
 20
17.866715326469411
 30
0.0
 40
0.5002284402762121
 50
127.0284887689633
 51
180.00000500895629
  0
ARC
  5
2056
  8
AM_BOR
 10
203.53731756996689
 20
17.793010290175818
 30
0.0
 40
0.6669712537016159
 50
0.0
 51
74.714823568866152
  0
ARC
  5
2057
  8
AM_BOR
 10
200.03571849797169
 20
14.197800355103389
 30
0.0
 40
0.6669712537016159
 50
180.00000500895629
 51
256.4857883914604
  0
LINE
  5
2058
  8
AM_BOR
 10
210.95737277733619
 20
15.993445664994679
 30
0.0
 11
210.9224749062999
 21
16.211434571273589
 31
0.0
  0
LINE
  5
2059
  8
AM_BOR
 10
210.92247490629941
 20
16.211434571273411
 30
0.0
 11
210.8180468870608
 21
16.42776445035037
 31
0.0
  0
LINE
  5
205A
  8
AM_BOR
 10
210.8180468870604
 20
16.42776445035037
 30
0.0
 11
210.64488347990149
 21
16.640788901221669
 31
0.0
  0
LINE
  5
205B
  8
AM_BOR
 10
210.6448834799013
 20
16.640788901221619
 30
0.0
 11
210.40430256290981
 21
16.848886679188759
 31
0.0
  0
LINE
  5
205C
  8
AM_BOR
 10
210.40430256290949
 20
16.848886679189
 30
0.0
 11
210.0981351021297
 21
17.050474034508689
 31
0.0
  0
LINE
  5
205D
  8
AM_BOR
 10
210.09813510212999
 20
17.05047403450855
 30
0.0
 11
209.7287112168076
 21
17.244016765685139
 31
0.0
  0
LINE
  5
205E
  8
AM_BOR
 10
209.72871121680711
 20
17.24401676568521
 30
0.0
 11
209.29884244577369
 21
17.428041895669988
 31
0.0
  0
LINE
  5
205F
  8
AM_BOR
 10
209.29884244577369
 20
17.428041895670081
 30
0.0
 11
208.81180034993889
 21
17.601148882106369
 31
0.0
  0
LINE
  5
2060
  8
AM_BOR
 10
208.81180034993889
 20
17.60114888210644
 30
0.0
 11
208.27129161373591
 21
17.76202027630297
 31
0.0
  0
LINE
  5
2061
  8
AM_BOR
 10
208.27129161373611
 20
17.76202027630309
 30
0.0
 11
207.68142983501551
 21
17.909431749813081
 31
0.0
  0
LINE
  5
2062
  8
AM_BOR
 10
207.68142983501531
 20
17.90943174981297
 30
0.0
 11
207.04670421808169
 21
18.042261412313358
 31
0.0
  0
LINE
  5
2063
  8
AM_BOR
 10
207.04670421808169
 20
18.04226141231344
 30
0.0
 11
206.37194540813729
 21
18.15949834986797
 31
0.0
  0
LINE
  5
2064
  8
AM_BOR
 10
206.37194540813749
 20
18.159498349867881
 30
0.0
 11
205.66228872715681
 21
18.260250318592298
 31
0.0
  0
LINE
  5
2065
  8
AM_BOR
 10
205.66228872715661
 20
18.260250318592369
 30
0.0
 11
205.02242374599979
 21
18.33253416039674
 31
0.0
  0
LINE
  5
2066
  8
AM_BOR
 10
205.02242374599939
 20
18.332534160396779
 30
0.0
 11
204.92313509098369
 21
18.343750535168819
 31
0.0
  0
LINE
  5
2067
  8
AM_BOR
 10
204.92313509098369
 20
18.343750535168748
 30
0.0
 11
204.16010990510409
 21
18.409363512530259
 31
0.0
  0
LINE
  5
2068
  8
AM_BOR
 10
204.1601099051048
 20
18.409363512530259
 30
0.0
 11
203.71314686010501
 21
18.436387872932471
 31
0.0
  0
LINE
  5
2069
  8
AM_BOR
 10
200.43756462039249
 20
18.465334570955569
 30
0.0
 11
200.19401582596791
 21
18.45658989630088
 31
0.0
  0
LINE
  5
206A
  8
AM_BOR
 10
200.19401582596799
 20
18.456589896300901
 30
0.0
 11
199.41292617277259
 21
18.409363512530309
 31
0.0
  0
LINE
  5
206B
  8
AM_BOR
 10
199.41292617277259
 20
18.409363512530248
 30
0.0
 11
198.64990098689299
 21
18.343750535168759
 31
0.0
  0
LINE
  5
206C
  8
AM_BOR
 10
198.5506123731563
 20
18.332534165059979
 30
0.0
 11
197.9107473507209
 21
18.260250318592469
 31
0.0
  0
LINE
  5
206D
  8
AM_BOR
 10
198.64990098689299
 20
18.343750535168791
 30
0.0
 11
198.5506123731563
 21
18.332534165059919
 31
0.0
  0
LINE
  5
206E
  8
AM_BOR
 10
197.91074735072121
 20
18.26025031859243
 30
0.0
 11
197.20109066974049
 21
18.159498349868041
 31
0.0
  0
LINE
  5
206F
  8
AM_BOR
 10
197.20109066974041
 20
18.159498349868091
 30
0.0
 11
196.52633185979579
 21
18.042261412313529
 31
0.0
  0
LINE
  5
2070
  8
AM_BOR
 10
196.5263318597959
 20
18.042261412313589
 30
0.0
 11
195.89160624286239
 21
17.909431749813219
 31
0.0
  0
LINE
  5
2071
  8
AM_BOR
 10
195.89160624286171
 20
17.90943174981302
 30
0.0
 11
195.30174446414119
 21
17.762020276303058
 31
0.0
  0
LINE
  5
2072
  8
AM_BOR
 10
195.301744464141
 20
17.762020276303161
 30
0.0
 11
194.76123572793779
 21
17.60114888210661
 31
0.0
  0
LINE
  5
2073
  8
AM_BOR
 10
194.76123572793779
 20
17.60114888210656
 30
0.0
 11
194.27419363210299
 21
17.428041895670152
 31
0.0
  0
LINE
  5
2074
  8
AM_BOR
 10
194.27419363210339
 20
17.428041895670152
 30
0.0
 11
193.84432486106959
 21
17.244016765685259
 31
0.0
  0
LINE
  5
2075
  8
AM_BOR
 10
193.84432486106959
 20
17.24401676568521
 30
0.0
 11
193.4749009757472
 21
17.05047403450865
 31
0.0
  0
LINE
  5
2076
  8
AM_BOR
 10
193.4749009757472
 20
17.050474034508671
 30
0.0
 11
193.16873351496719
 21
16.848886679188929
 31
0.0
  0
LINE
  5
2077
  8
AM_BOR
 10
193.1687335149673
 20
16.848886679188951
 30
0.0
 11
192.92815259797499
 21
16.640788901221619
 31
0.0
  0
LINE
  5
2078
  8
AM_BOR
 10
192.9281525979753
 20
16.640788901221811
 30
0.0
 11
192.75498919081639
 21
16.42776445035042
 31
0.0
  0
LINE
  5
2079
  8
AM_BOR
 10
192.75498919081639
 20
16.427764450350349
 30
0.0
 11
192.65056117157769
 21
16.211434571273479
 31
0.0
  0
LINE
  5
207A
  8
AM_BOR
 10
192.65056117157789
 20
16.211434571273731
 30
0.0
 11
192.61566330054151
 21
15.993445664994679
 31
0.0
  0
LINE
  5
207B
  8
AM_BOR
 10
192.61566330054069
 20
15.99344566499464
 30
0.0
 11
192.65056117157721
 21
15.775456758715791
 31
0.0
  0
LINE
  5
207C
  8
AM_BOR
 10
192.65056117157769
 20
15.775456758715929
 30
0.0
 11
192.7549891908163
 21
15.55912687963913
 31
0.0
  0
LINE
  5
207D
  8
AM_BOR
 10
192.75498919081639
 20
15.559126879639029
 30
0.0
 11
192.9281525979753
 21
15.34610242876764
 31
0.0
  0
LINE
  5
207E
  8
AM_BOR
 10
192.9281525979751
 20
15.34610242876769
 30
0.0
 11
193.16873351496719
 21
15.1380046508005
 31
0.0
  0
LINE
  5
207F
  8
AM_BOR
 10
193.1687335149669
 20
15.1380046508005
 30
0.0
 11
193.47490097574689
 21
14.93641729548081
 31
0.0
  0
LINE
  5
2080
  8
AM_BOR
 10
193.47490097574729
 20
14.936417295480711
 30
0.0
 11
193.84432486106959
 21
14.742874564304079
 31
0.0
  0
LINE
  5
2081
  8
AM_BOR
 10
193.84432486106951
 20
14.74287456430417
 30
0.0
 11
194.27419363210271
 21
14.558849434319351
 31
0.0
  0
LINE
  5
2082
  8
AM_BOR
 10
194.27419363210319
 20
14.558849434319439
 30
0.0
 11
194.7612357279379
 21
14.38574244788296
 31
0.0
  0
LINE
  5
2083
  8
AM_BOR
 10
194.76123572793779
 20
14.38574244788277
 30
0.0
 11
195.301744464141
 21
14.22487105368617
 31
0.0
  0
LINE
  5
2084
  8
AM_BOR
 10
195.301744464141
 20
14.224871053686311
 30
0.0
 11
195.891606242862
 21
14.077459580176351
 31
0.0
  0
LINE
  5
2085
  8
AM_BOR
 10
195.89160624286191
 20
14.077459580176219
 30
0.0
 11
196.52633185979579
 21
13.94462991767579
 31
0.0
  0
LINE
  5
2086
  8
AM_BOR
 10
196.52633185979539
 20
13.944629917675821
 30
0.0
 11
197.2010906697397
 21
13.827392980121321
 31
0.0
  0
LINE
  5
2087
  8
AM_BOR
 10
197.20109066974049
 20
13.82739298012133
 30
0.0
 11
197.9107473507209
 21
13.726641011397049
 31
0.0
  0
LINE
  5
2088
  8
AM_BOR
 10
197.9107473507205
 20
13.72664101139711
 30
0.0
 11
198.5412166771807
 21
13.655418571666219
 31
0.0
  0
LINE
  5
2089
  8
AM_BOR
 10
198.54121667717999
 20
13.65541857166625
 30
0.0
 11
198.64990098689259
 21
13.643140794820731
 31
0.0
  0
LINE
  5
208A
  8
AM_BOR
 10
198.6499009868929
 20
13.643140794820679
 30
0.0
 11
199.41292617277259
 21
13.57752781745919
 31
0.0
  0
LINE
  5
208B
  8
AM_BOR
 10
199.41292617277259
 20
13.577527817459201
 30
0.0
 11
199.8798563250744
 21
13.54929620220682
 31
0.0
  0
LINE
  5
208C
  8
AM_BOR
 10
203.0271328720325
 20
13.51766683756999
 30
0.0
 11
203.37902025190911
 21
13.530301433688649
 31
0.0
  0
LINE
  5
208D
  8
AM_BOR
 10
203.3790202519092
 20
13.530301433688599
 30
0.0
 11
204.16010990510441
 21
13.57752781745919
 31
0.0
  0
LINE
  5
208E
  8
AM_BOR
 10
204.70451727388399
 20
13.624341722195579
 30
0.0
 11
204.9231350909844
 21
13.64314079482075
 31
0.0
  0
LINE
  5
208F
  8
AM_BOR
 10
204.16010990510441
 20
13.57752781745917
 30
0.0
 11
204.70451727388379
 21
13.62434172219551
 31
0.0
  0
LINE
  5
2090
  8
AM_BOR
 10
204.92313509098409
 20
13.643140794820759
 30
0.0
 11
205.66228872715669
 21
13.726641011397151
 31
0.0
  0
LINE
  5
2091
  8
AM_BOR
 10
205.66228872715661
 20
13.72664101139711
 30
0.0
 11
206.37194540813709
 21
13.827392980121401
 31
0.0
  0
LINE
  5
2092
  8
AM_BOR
 10
206.37194540813749
 20
13.82739298012145
 30
0.0
 11
207.04670421808191
 21
13.94462991767594
 31
0.0
  0
LINE
  5
2093
  8
AM_BOR
 10
207.04670421808169
 20
13.94462991767597
 30
0.0
 11
207.68142983501559
 21
14.07745958017637
 31
0.0
  0
LINE
  5
2094
  8
AM_BOR
 10
207.68142983501551
 20
14.07745958017629
 30
0.0
 11
208.27129161373611
 21
14.22487105368625
 31
0.0
  0
LINE
  5
2095
  8
AM_BOR
 10
208.2712916137362
 20
14.224871053686289
 30
0.0
 11
208.81180034993929
 21
14.38574244788289
 31
0.0
  0
LINE
  5
2096
  8
AM_BOR
 10
208.81180034993929
 20
14.385742447882921
 30
0.0
 11
209.29884244577411
 21
14.558849434319351
 31
0.0
  0
LINE
  5
2097
  8
AM_BOR
 10
209.298842445774
 20
14.55884943431932
 30
0.0
 11
209.72871121680751
 21
14.74287456430422
 31
0.0
  0
LINE
  5
2098
  8
AM_BOR
 10
209.72871121680711
 20
14.742874564304151
 30
0.0
 11
210.0981351021297
 21
14.93641729548083
 31
0.0
  0
LINE
  5
2099
  8
AM_BOR
 10
210.09813510212999
 20
14.93641729548081
 30
0.0
 11
210.40430256290989
 21
15.13800465080036
 31
0.0
  0
LINE
  5
209A
  8
AM_BOR
 10
210.40430256291
 20
15.13800465080055
 30
0.0
 11
210.64488347990201
 21
15.346102428767731
 31
0.0
  0
LINE
  5
209B
  8
AM_BOR
 10
210.64488347990169
 20
15.34610242876783
 30
0.0
 11
210.8180468870608
 21
15.559126879639029
 31
0.0
  0
LINE
  5
209C
  8
AM_BOR
 10
210.81804688706069
 20
15.559126879639059
 30
0.0
 11
210.92247490629899
 21
15.77545675871586
 31
0.0
  0
LINE
  5
209D
  8
AM_BOR
 10
210.92247490629981
 20
15.775456758715791
 30
0.0
 11
210.95737277733619
 21
15.993445664994621
 31
0.0
  0
LINE
  5
209E
  8
AM_BOR
 10
199.10514248704791
 20
18.382897015254191
 30
0.0
 11
203.92474251077411
 21
13.563296991527499
 31
0.0
  0
ARC
  5
209F
  8
AM_BOR
 10
205.2047457141602
 20
14.181128845625549
 30
0.0
 40
0.5002284402762121
 50
180.0
 51
244.5184856857075
  0
LINE
  5
20A0
  8
AM_BOR
 10
199.36521928176651
 20
18.405261169360589
 30
0.0
 11
204.19035209062989
 21
13.58012836049622
 31
0.0
  0
LINE
  5
20A1
  8
AM_BOR
 10
199.630408435547
 20
18.422512964405719
 30
0.0
 11
204.450428885349
 21
13.602492514602771
 31
0.0
  0
LINE
  5
20A2
  8
AM_BOR
 10
199.8967460324557
 20
18.438616316322719
 30
0.0
 11
204.70776895023289
 21
13.62759339854461
 31
0.0
  0
LINE
  5
20A3
  8
AM_BOR
 10
200.16308362936431
 20
18.454719668239761
 30
0.0
 11
204.9488987968831
 21
13.66890450072008
 31
0.0
  0
LINE
  5
20A4
  8
AM_BOR
 10
198.8450656923284
 20
18.36053286114759
 30
0.0
 11
203.6584049138651
 21
13.547193639610409
 31
0.0
  0
LINE
  5
20A5
  8
AM_BOR
 10
198.7943784573331
 20
18.12877914731807
 30
0.0
 11
203.39206731695711
 21
13.53109028769336
 31
0.0
  0
LINE
  5
20A6
  8
AM_BOR
 10
199.01830573664321
 20
18.375429872827009
 30
0.0
 11
199.01830573664321
 21
13.61146145716244
 31
0.0
  0
LINE
  5
20A7
  8
AM_BOR
 10
199.2180216468426
 20
18.39260355953768
 30
0.0
 11
199.2180216468426
 21
13.594287770451791
 31
0.0
  0
LINE
  5
20A8
  8
AM_BOR
 10
204.55473034123381
 20
18.375429872826999
 30
0.0
 11
204.55473034123381
 21
13.61146145716245
 31
0.0
  0
LINE
  5
20A9
  8
AM_BOR
 10
204.35501443103459
 20
18.39260355953764
 30
0.0
 11
204.35501443103459
 21
13.594287770451791
 31
0.0
  0
LINE
  5
20AA
  8
AM_BOR
 62
     4
 10
-0.0000001316067255
 20
15.000000173111291
 30
0.0
 11
190.49999986839319
 21
15.000000173111291
 31
0.0
  0
LINE
  5
20AB
  8
AM_BOR
 62
     4
 10
276.49999986839327
 20
28.000000173111289
 30
0.0
 11
276.49999986839327
 21
0.000000173111296
 31
0.0
  0
LINE
  5
20AC
  8
AM_BOR
 62
     4
 10
-0.0000001316067255
 20
15.000000173111291
 30
0.0
 11
-0.0000001316067255
 21
0.000000173111296
 31
0.0
  0
LINE
  5
20AD
  8
AM_BOR
 62
     4
 10
-0.0000001316067255
 20
28.000000173111289
 30
0.0
 11
276.49999986839327
 21
28.000000173111289
 31
0.0
  0
LINE
  5
20AE
  8
AM_BOR
 62
     4
 10
15.999999868393269
 20
15.000000173111291
 30
0.0
 11
15.999999868393269
 21
0.000000173111296
 31
0.0
  0
TEXT
  5
20AF
  8
AM_BOR
 62
     4
 10
215.17999986839331
 20
10.000000173111291
 30
0.0
 40
1.5
  1
NAKANISHI　INDUSTRIAL CO., LTD.
 41
1.5
  0
TEXT
  5
20B0
  8
AM_BOR
 62
     3
 10
213.19999986839329
 20
13.500000173111291
 30
0.0
 40
5.5
  1
中西産業株式会社
 41
1.1999999999999991
  0
TEXT
  5
20B1
  8
AM_BOR
 62
     4
 10
196.192787937406
 20
10.000000173111291
 30
0.0
 40
1.5
  1
Nakanishi
 41
1.1999999999999991
  0
TEXT
  5
20B2
  8
AM_BOR
 62
     7
 10
98.104999768257457
 20
15.650000185032219
 30
0.0
 40
1.0
  1
FINISH
 41
1.6000000000000001
  0
TEXT
  5
20B3
  8
AM_BOR
 62
     7
 10
96.979999708652798
 20
17.700000220795008
 30
0.0
 40
2.7999999999999989
  1
仕　　上
  0
TEXT
  5
20B4
  8
AM_BOR
 62
     7
 10
3.1549997801784002
 20
15.650000185032219
 30
0.0
 40
1.0
  1
MATERIAL
 41
1.6000000000000001
  0
TEXT
  5
20B5
  8
AM_BOR
 62
     7
 10
1.729999708652826
 20
17.700000220795008
 30
0.0
 40
2.7999999999999989
  1
材　　質
  0
LINE
  5
20B6
  8
AM_BOR
 62
     4
 10
190.49999986839319
 20
28.000000173111289
 30
0.0
 11
190.49999986839319
 21
0.000000173111296
 31
0.0
  0
LINE
  5
20B7
  8
AM_BOR
 62
     4
 10
-0.0000001316067255
 20
28.000000173111289
 30
0.0
 11
-0.0000001316067255
 21
15.000000173111291
 31
0.0
  0
LINE
  5
20B8
  8
AM_BOR
 62
     4
 10
-0.0000001316067255
 20
21.500000173111289
 30
0.0
 11
190.49999986839319
 21
21.500000173111289
 31
0.0
  0
LINE
  5
20B9
  8
AM_BOR
 62
     4
 10
15.999999868393269
 20
28.000000173111289
 30
0.0
 11
15.999999868393269
 21
15.000000173111291
 31
0.0
  0
TEXT
  5
20BA
  8
AM_BOR
 62
     7
 10
98.104999768257457
 20
22.150000185032219
 30
0.0
 40
1.0
  1
ART. NO.
 41
1.6000000000000001
  0
TEXT
  5
20BB
  8
AM_BOR
 62
     7
 10
96.979999708652684
 20
24.200000220795008
 30
0.0
 40
2.7999999999999989
  1
品　　番
  0
TEXT
  5
20BC
  8
AM_BOR
 62
     7
 10
3.1549997801784002
 20
22.150000185032219
 30
0.0
 40
1.0
  1
ARTICLE
 41
1.6000000000000001
  0
TEXT
  5
20BD
  8
AM_BOR
 62
     7
 10
1.7299997086527119
 20
24.200000220795008
 30
0.0
 40
2.7999999999999989
  1
品　　名
  0
LINE
  5
20BE
  8
AM_BOR
 62
     4
 10
-0.0000001316067255
 20
15.000000173111291
 30
0.0
 11
-0.0000001316067255
 21
0.0000001731112924
 31
0.0
  0
LINE
  5
20BF
  8
AM_BOR
 62
     4
 10
95.249999868393246
 20
28.000000173111289
 30
0.0
 11
95.249999868393246
 21
0.000000173111296
 31
0.0
  0
TEXT
  5
20C0
  8
AM_BOR
 62
     7
 10
3.1549997801784002
 20
9.1500001850322192
 30
0.0
 40
1.0
  1
REMARKS
 41
1.6000000000000001
  0
TEXT
  5
20C1
  8
AM_BOR
 62
     7
 10
1.7299997086527119
 20
11.20000022079501
 30
0.0
 40
2.7999999999999989
  1
備　　考
  0
LINE
  5
20C2
  8
AM_BOR
 62
     4
 10
111.2499998683932
 20
28.000000173111289
 30
0.0
 11
111.2499998683932
 21
0.000000173111296
 31
0.0
  0
LINE
  5
20C3
  8
AM_BOR
 62
     4
 10
-0.0000001316067255
 20
0.000000173111296
 30
0.0
 11
276.49999986839327
 21
0.000000173111296
 31
0.0
  0
TEXT
  5
20C4
  8
AM_BOR
 62
     7
 10
98.404999780178386
 20
9.1500001850322157
 30
0.0
 40
1.0
  1
SETS
 41
1.6000000000000001
  0
TEXT
  5
20C5
  8
AM_BOR
 62
     7
 10
96.979999708652684
 20
11.20000022079501
 30
0.0
 40
2.7999999999999989
  1
セット品
  0
ATTDEF
  5
20C6
  8
AM_BOR
 62
     7
 10
114.3107095753831
 20
0.5000001731112853
 30
0.0
 40
3.0
  1

 11
114.3107095753831
 21
2.0000001731112849
 31
0.0
  3
セット
  2
SETS｛20｝
 70
     0
 74
     2
1001
ACADANNOTATIVE
1000
AnnotativeData
1002
{
1070
     1
1070
     0
1002
}
1001
AcDbAttr
1070
     0
1070
     1
  0
ATTDEF
  5
20CA
  8
AM_BOR
 62
     7
 10
19.060709575383161
 20
0.5000001731112889
 30
0.0
 40
3.0
  1

 11
19.060709575383161
 21
2.000000173111288
 31
0.0
  3
備　　考
  2
REMARKS｛20｝
 70
     0
 74
     2
1001
ACADANNOTATIVE
1000
AnnotativeData
1002
{
1070
     1
1070
     0
1002
}
1001
AcDbAttr
1070
     0
1070
     1
  0
ATTDEF
  5
20CE
  8
AM_BOR
 62
     7
 10
114.3107095753831
 20
5.5000001731112853
 30
0.0
 40
3.0
  1

 11
114.3107095753831
 21
7.0000001731112853
 31
0.0
  3
セット
  2
SETS｛20｝
 70
     0
 74
     2
1001
ACADANNOTATIVE
1000
AnnotativeData
1002
{
1070
     1
1070
     0
1002
}
1001
AcDbAttr
1070
     0
1070
     1
  0
ATTDEF
  5
20D2
  8
AM_BOR
 62
     7
 10
19.060709575383161
 20
5.500000173111288
 30
0.0
 40
3.0
  1

 11
19.060709575383161
 21
7.000000173111288
 31
0.0
  3
備　　考
  2
REMARKS｛20｝
 70
     0
 74
     2
1001
ACADANNOTATIVE
1000
AnnotativeData
1002
{
1070
     1
1070
     0
1002
}
1001
AcDbAttr
1070
     0
1070
     1
  0
ATTDEF
  5
20D6
  8
AM_BOR
 62
     7
 10
114.3107095753831
 20
10.50000017311128
 30
0.0
 40
3.0
  1

 11
114.3107095753831
 21
12.00000017311128
 31
0.0
  3
セット
  2
SETS｛20｝
 70
     0
 74
     2
1001
ACADANNOTATIVE
1000
AnnotativeData
1002
{
1070
     1
1070
     0
1002
}
1001
AcDbAttr
1070
     0
1070
     1
  0
ATTDEF
  5
20DA
  8
AM_BOR
 62
     7
 10
19.060709575383161
 20
10.500000173111291
 30
0.0
 40
3.0
  1

 11
19.060709575383161
 21
12.000000173111291
 31
0.0
  3
備　　考
  2
REMARKS｛20｝
 70
     0
 74
     2
1001
ACADANNOTATIVE
1000
AnnotativeData
1002
{
1070
     1
1070
     0
1002
}
1001
AcDbAttr
1070
     0
1070
     1
  0
ATTDEF
  5
20DE
  8
AM_BOR
 62
     7
 10
114.2499998683932
 20
23.500000173111289
 30
0.0
 40
3.0
  1

 11
114.2499998683932
 21
25.000000173111289
 31
0.0
  3
品    番
  2
ART_NO｛20｝
 70
     0
 74
     2
1001
ACADANNOTATIVE
1000
AnnotativeData
1002
{
1070
     1
1070
     0
1002
}
1001
AcDbAttr
1070
     0
1070
     1
  0
ATTDEF
  5
20E2
  8
AM_BOR
 62
     7
 10
18.999999868393271
 20
23.500000173111289
 30
0.0
 40
3.0
  1

 11
18.999999868393271
 21
25.000000173111289
 31
0.0
  3
品    名
  2
ARTICLE｛20｝
 70
     0
 74
     2
1001
ACADANNOTATIVE
1000
AnnotativeData
1002
{
1070
     1
1070
     0
1002
}
1001
AcDbAttr
1070
     0
1070
     1
  0
ATTDEF
  5
20E6
  8
AM_BOR
 62
     7
 10
114.2499998683932
 20
17.000000173111289
 30
0.0
 40
3.0
  1

 11
114.2499998683932
 21
18.500000173111289
 31
0.0
  3
仕上
  2
FINISH｛20｝
 70
     0
 74
     2
1001
ACADANNOTATIVE
1000
AnnotativeData
1002
{
1070
     1
1070
     0
1002
}
1001
AcDbAttr
1070
     0
1070
     1
  0
ATTDEF
  5
20EA
  8
AM_BOR
 62
     7
 10
18.999999868393271
 20
17.000000173111289
 30
0.0
 40
3.0
  1

 11
18.999999868393271
 21
18.500000173111289
 31
0.0
  3
材　　質
  2
MATERIAK｛20｝
 70
     0
 74
     2
1001
ACADANNOTATIVE
1000
AnnotativeData
1002
{
1070
     1
1070
     0
1002
}
1001
AcDbAttr
1070
     0
1070
     1
  0
ENDBLK
  5
20F1
  8
0
  0
BLOCK
  8
0
  2
_ACMFILLEDHALF
 70
     0
 10
0.0
 20
0.0
 30
0.0
  3
_ACMFILLEDHALF
  1

  0
TRACE
  5
29C3
  8
0
 62
     0
 10
-0.8
 20
0.0
 30
0.0
 11
-1.0
 21
0.166666666
 31
0.0
 12
0.0
 22
0.0
 32
0.0
 13
0.0
 23
0.0
 33
0.0
  0
LINE
  5
29C4
  8
0
 62
     0
 10
-1.0
 20
0.0
 30
0.0
 11
-0.8
 21
0.0
 31
0.0
  0
ENDBLK
  5
29C2
  8
0
  0
BLOCK
  8
0
  2
_ACMFILLED
 70
     0
 10
0.0
 20
0.0
 30
0.0
  3
_ACMFILLED
  1

  0
TRACE
  5
29CF
  8
0
 62
     0
 10
-1.0
 20
-0.166666666
 30
0.0
 11
-1.0
 21
0.166666666
 31
0.0
 12
0.0
 22
0.0
 32
0.0
 13
0.0
 23
0.0
 33
0.0
  0
ENDBLK
  5
29CE
  8
0
  0
BLOCK
  8
0
  2
_ACMOPEN15
 70
     0
 10
0.0
 20
0.0
 30
0.0
  3
_ACMOPEN15
  1

  0
LINE
  5
29D9
  8
0
 62
     0
 10
-1.0
 20
0.0
 30
0.0
 11
0.0
 21
0.0
 31
0.0
  0
LINE
  5
29DA
  8
0
 62
     0
 10
-1.0
 20
-0.131652497
 30
0.0
 11
0.0
 21
0.0
 31
0.0
  0
LINE
  5
29DB
  8
0
 62
     0
 10
0.0
 20
0.0
 30
0.0
 11
-1.0
 21
0.131652497
 31
0.0
  0
ENDBLK
  5
29D8
  8
0
  0
BLOCK
  8
0
  2
_ACMFILLED15
 70
     0
 10
0.0
 20
0.0
 30
0.0
  3
_ACMFILLED15
  1

  0
TRACE
  5
29E7
  8
0
 62
     0
 10
-1.0
 20
-0.131652497
 30
0.0
 11
-1.0
 21
0.131652497
 31
0.0
 12
0.0
 22
0.0
 32
0.0
 13
0.0
 23
0.0
 33
0.0
  0
ENDBLK
  5
29E6
  8
0
  0
BLOCK
  8
0
  2
GENDOT
 70
     0
 10
0.0
 20
0.0
 30
0.0
  3
GENDOT
  1

  0
LINE
  5
29F9
  8
0
 10
0.0
 20
0.0
 30
0.0
 11
-1.0
 21
0.0
 31
0.0
  0
POLYLINE
  5
29FA
  8
0
 66
     1
 10
0.0
 20
0.0
 30
0.0
 70
     1
 40
0.25
 41
0.25
  0
VERTEX
  5
39BB
  8
0
 10
-0.125
 20
0.0
 30
0.0
 42
1.0
  0
VERTEX
  5
39BC
  8
0
 10
0.125
 20
0.0
 30
0.0
 42
1.0
  0
SEQEND
  5
39BD
  8
0
  0
ENDBLK
  5
29FB
  8
0
  0
BLOCK
  8
0
  2
*D14
 70
     1
 10
0.0
 20
0.0
 30
0.0
  3
*D14
  1

  0
LINE
  5
36F2
  8
AM_5
  6
CONTINUOUS
 62
     7
 10
157.77624789191819
 20
119.8592522410264
 30
0.0
 11
157.77624789191819
 21
137.14496652674069
 31
0.0
  0
LINE
  5
36F3
  8
AM_5
  6
CONTINUOUS
 62
     7
 10
152.37624789191821
 20
119.8592522410264
 30
0.0
 11
152.37624789191821
 21
137.14496652674069
 31
0.0
  0
LINE
  5
36F4
  8
AM_5
  6
CONTINUOUS
 62
     7
 10
160.27624789191819
 20
136.14496652674069
 30
0.0
 11
162.77624789191819
 21
136.14496652674069
 31
0.0
  0
LINE
  5
36F5
  8
AM_5
  6
CONTINUOUS
 62
     7
 10
149.87624789191821
 20
136.14496652674069
 30
0.0
 11
117.8620387901786
 21
136.14496652674069
 31
0.0
  0
LINE
  5
36F6
  8
AM_5
  6
CONTINUOUS
 62
     7
 10
157.77624789191819
 20
136.14496652674069
 30
0.0
 11
152.37624789191821
 21
136.14496652674069
 31
0.0
  0
INSERT
  5
36F7
  8
AM_5
 62
     7
  2
_OPEN30
 10
157.77624789191819
 20
136.14496652674069
 30
0.0
 41
2.5
 42
2.5
 43
2.5
 50
180.0
  0
INSERT
  5
36F8
  8
AM_5
 62
     7
  2
_OPEN30
 10
152.37624789191821
 20
136.14496652674069
 30
0.0
 41
2.5
 42
2.5
 43
2.5
  0
INSERT
  5
36F9
  8
0
  2
*U37
 10
0.0
 20
0.0
 30
0.0
  0
POINT
  5
36FA
  8
DEFPOINTS
 62
     0
 10
157.77624789191819
 20
118.8592522410264
 30
0.0
  0
POINT
  5
36FB
  8
DEFPOINTS
 62
     0
 10
152.37624789191821
 20
118.8592522410264
 30
0.0
  0
POINT
  5
36FC
  8
DEFPOINTS
 62
     0
 10
152.37624789191821
 20
136.14496652674069
 30
0.0
  0
ENDBLK
  5
314A
  8
0
  0
BLOCK
  8
0
  2
*D15
 70
     1
 10
0.0
 20
0.0
 30
0.0
  3
*D15
  1

  0
LINE
  5
384A
  8
AM_5
  6
CONTINUOUS
 62
     7
 10
135.5762478919182
 20
119.8592522410264
 30
0.0
 11
135.5762478919182
 21
144.14496652674069
 31
0.0
  0
LINE
  5
384B
  8
AM_5
  6
CONTINUOUS
 62
     7
 10
142.5762478919182
 20
114.482074791467
 30
0.0
 11
142.5762478919182
 21
144.14496652674069
 31
0.0
  0
LINE
  5
384C
  8
AM_5
  6
CONTINUOUS
 62
     7
 10
138.0762478919182
 20
143.14496652674069
 30
0.0
 11
140.0762478919182
 21
143.14496652674069
 31
0.0
  0
INSERT
  5
384D
  8
AM_5
 62
     7
  2
_OPEN30
 10
135.5762478919182
 20
143.14496652674069
 30
0.0
 41
2.5
 42
2.5
 43
2.5
 50
180.0
  0
INSERT
  5
384E
  8
AM_5
 62
     7
  2
_OPEN30
 10
142.5762478919182
 20
143.14496652674069
 30
0.0
 41
2.5
 42
2.5
 43
2.5
  0
INSERT
  5
384F
  8
0
  2
*U49
 10
0.0
 20
0.0
 30
0.0
  0
POINT
  5
3850
  8
DEFPOINTS
 62
     0
 10
135.5762478919182
 20
118.8592522410264
 30
0.0
  0
POINT
  5
3851
  8
DEFPOINTS
 62
     0
 10
142.5762478919182
 20
113.482074791467
 30
0.0
  0
POINT
  5
3852
  8
DEFPOINTS
 62
     0
 10
142.5762478919182
 20
143.14496652674069
 30
0.0
  0
ENDBLK
  5
3158
  8
0
  0
BLOCK
  8
0
  2
*D16
 70
     1
 10
0.0
 20
0.0
 30
0.0
  3
*D16
  1

  0
LINE
  5
3853
  8
AM_5
  6
CONTINUOUS
 62
     7
 10
155.0762478919182
 20
126.07490068687549
 30
0.0
 11
155.0762478919182
 21
144.14496652674069
 31
0.0
  0
LINE
  5
3854
  8
AM_5
  6
CONTINUOUS
 62
     7
 10
142.5762478919182
 20
114.482074791467
 30
0.0
 11
142.5762478919182
 21
144.14496652674069
 31
0.0
  0
LINE
  5
3855
  8
AM_5
  6
CONTINUOUS
 62
     7
 10
152.5762478919182
 20
143.14496652674069
 30
0.0
 11
145.0762478919182
 21
143.14496652674069
 31
0.0
  0
INSERT
  5
3856
  8
AM_5
 62
     7
  2
_OPEN30
 10
155.0762478919182
 20
143.14496652674069
 30
0.0
 41
2.5
 42
2.5
 43
2.5
  0
INSERT
  5
3857
  8
AM_5
 62
     7
  2
_OPEN30
 10
142.5762478919182
 20
143.14496652674069
 30
0.0
 41
2.5
 42
2.5
 43
2.5
 50
180.0
  0
INSERT
  5
3858
  8
0
  2
*U50
 10
0.0
 20
0.0
 30
0.0
  0
POINT
  5
3859
  8
DEFPOINTS
 62
     0
 10
155.0762478919182
 20
125.07490068687549
 30
0.0
  0
POINT
  5
385A
  8
DEFPOINTS
 62
     0
 10
142.5762478919182
 20
113.482074791467
 30
0.0
  0
POINT
  5
385B
  8
DEFPOINTS
 62
     0
 10
142.5762478919182
 20
143.14496652674069
 30
0.0
  0
ENDBLK
  5
3164
  8
0
  0
BLOCK
  8
0
  2
*D17
 70
     1
 10
0.0
 20
0.0
 30
0.0
  3
*D17
  1

  0
LINE
  5
37D8
  8
AM_5
  6
CONTINUOUS
 62
     7
 10
167.5762478919182
 20
114.482074791467
 30
0.0
 11
167.5762478919182
 21
144.1449665267406
 31
0.0
  0
LINE
  5
37D9
  8
AM_5
  6
CONTINUOUS
 62
     7
 10
155.0762478919182
 20
126.07490068687549
 30
0.0
 11
155.0762478919182
 21
144.1449665267406
 31
0.0
  0
LINE
  5
37DA
  8
AM_5
  6
CONTINUOUS
 62
     7
 10
165.07624789191809
 20
143.1449665267406
 30
0.0
 11
157.5762478919182
 21
143.1449665267406
 31
0.0
  0
INSERT
  5
37DB
  8
AM_5
 62
     7
  2
_OPEN30
 10
167.5762478919182
 20
143.1449665267406
 30
0.0
 41
2.5
 42
2.5
 43
2.5
  0
INSERT
  5
37DC
  8
AM_5
 62
     7
  2
_OPEN30
 10
155.0762478919182
 20
143.1449665267406
 30
0.0
 41
2.5
 42
2.5
 43
2.5
 50
180.0
  0
INSERT
  5
37DD
  8
0
  2
*U44
 10
0.0
 20
0.0
 30
0.0
  0
POINT
  5
37DE
  8
DEFPOINTS
 62
     0
 10
167.5762478919182
 20
113.482074791467
 30
0.0
  0
POINT
  5
37DF
  8
DEFPOINTS
 62
     0
 10
155.0762478919182
 20
125.07490068687549
 30
0.0
  0
POINT
  5
37E0
  8
DEFPOINTS
 62
     0
 10
155.0762478919182
 20
143.1449665267406
 30
0.0
  0
ENDBLK
  5
3170
  8
0
  0
BLOCK
  8
0
  2
*D18
 70
     1
 10
0.0
 20
0.0
 30
0.0
  3
*D18
  1

  0
LINE
  5
37E1
  8
AM_5
  6
CONTINUOUS
 62
     7
 10
174.5762478919182
 20
119.8592522410264
 30
0.0
 11
174.5762478919182
 21
144.14496652674069
 31
0.0
  0
LINE
  5
37E2
  8
AM_5
  6
CONTINUOUS
 62
     7
 10
167.5762478919182
 20
114.482074791467
 30
0.0
 11
167.5762478919182
 21
144.14496652674069
 31
0.0
  0
LINE
  5
37E3
  8
AM_5
  6
CONTINUOUS
 62
     7
 10
172.0762478919182
 20
143.14496652674069
 30
0.0
 11
170.07624789191809
 21
143.14496652674069
 31
0.0
  0
INSERT
  5
37E4
  8
AM_5
 62
     7
  2
_OPEN30
 10
174.5762478919182
 20
143.14496652674069
 30
0.0
 41
2.5
 42
2.5
 43
2.5
  0
INSERT
  5
37E5
  8
AM_5
 62
     7
  2
_OPEN30
 10
167.5762478919182
 20
143.14496652674069
 30
0.0
 41
2.5
 42
2.5
 43
2.5
 50
180.0
  0
INSERT
  5
37E6
  8
0
  2
*U45
 10
0.0
 20
0.0
 30
0.0
  0
POINT
  5
37E7
  8
DEFPOINTS
 62
     0
 10
174.5762478919182
 20
118.8592522410264
 30
0.0
  0
POINT
  5
37E8
  8
DEFPOINTS
 62
     0
 10
167.5762478919182
 20
113.482074791467
 30
0.0
  0
POINT
  5
37E9
  8
DEFPOINTS
 62
     0
 10
167.5762478919182
 20
143.14496652674069
 30
0.0
  0
ENDBLK
  5
317C
  8
0
  0
BLOCK
  8
0
  2
*D19
 70
     1
 10
0.0
 20
0.0
 30
0.0
  3
*D19
  1

  0
LINE
  5
3721
  8
AM_5
  6
CONTINUOUS
 62
     7
 10
135.5762478919182
 20
119.8592522410264
 30
0.0
 11
135.5762478919182
 21
151.14496652674069
 31
0.0
  0
LINE
  5
3722
  8
AM_5
  6
CONTINUOUS
 62
     7
 10
155.0762478919182
 20
126.07490068687549
 30
0.0
 11
155.0762478919182
 21
151.14496652674069
 31
0.0
  0
LINE
  5
3723
  8
AM_5
  6
CONTINUOUS
 62
     7
 10
138.0762478919182
 20
150.14496652674069
 30
0.0
 11
152.5762478919182
 21
150.14496652674069
 31
0.0
  0
INSERT
  5
3724
  8
AM_5
 62
     7
  2
_OPEN30
 10
135.5762478919182
 20
150.14496652674069
 30
0.0
 41
2.5
 42
2.5
 43
2.5
 50
180.0
  0
INSERT
  5
3725
  8
AM_5
 62
     7
  2
_OPEN30
 10
155.0762478919182
 20
150.14496652674069
 30
0.0
 41
2.5
 42
2.5
 43
2.5
  0
INSERT
  5
3726
  8
0
  2
*U38
 10
0.0
 20
0.0
 30
0.0
  0
POINT
  5
3727
  8
DEFPOINTS
 62
     0
 10
135.5762478919182
 20
118.8592522410264
 30
0.0
  0
POINT
  5
3728
  8
DEFPOINTS
 62
     0
 10
155.0762478919182
 20
125.07490068687549
 30
0.0
  0
POINT
  5
3729
  8
DEFPOINTS
 62
     0
 10
155.0762478919182
 20
150.14496652674069
 30
0.0
  0
ENDBLK
  5
3188
  8
0
  0
BLOCK
  8
0
  2
*D20
 70
     1
 10
0.0
 20
0.0
 30
0.0
  3
*D20
  1

  0
LINE
  5
372A
  8
AM_5
  6
CONTINUOUS
 62
     7
 10
174.5762478919182
 20
119.8592522410264
 30
0.0
 11
174.5762478919182
 21
151.14496652674069
 31
0.0
  0
LINE
  5
372B
  8
AM_5
  6
CONTINUOUS
 62
     7
 10
155.0762478919182
 20
126.07490068687549
 30
0.0
 11
155.0762478919182
 21
151.14496652674069
 31
0.0
  0
LINE
  5
372C
  8
AM_5
  6
CONTINUOUS
 62
     7
 10
172.0762478919182
 20
150.14496652674069
 30
0.0
 11
157.5762478919182
 21
150.14496652674069
 31
0.0
  0
INSERT
  5
372D
  8
AM_5
 62
     7
  2
_OPEN30
 10
174.5762478919182
 20
150.14496652674069
 30
0.0
 41
2.5
 42
2.5
 43
2.5
  0
INSERT
  5
372E
  8
AM_5
 62
     7
  2
_OPEN30
 10
155.0762478919182
 20
150.14496652674069
 30
0.0
 41
2.5
 42
2.5
 43
2.5
 50
180.0
  0
INSERT
  5
372F
  8
0
  2
*U39
 10
0.0
 20
0.0
 30
0.0
  0
POINT
  5
3730
  8
DEFPOINTS
 62
     0
 10
174.5762478919182
 20
118.8592522410264
 30
0.0
  0
POINT
  5
3731
  8
DEFPOINTS
 62
     0
 10
155.0762478919182
 20
125.07490068687549
 30
0.0
  0
POINT
  5
3732
  8
DEFPOINTS
 62
     0
 10
155.0762478919182
 20
150.14496652674069
 30
0.0
  0
ENDBLK
  5
3194
  8
0
  0
BLOCK
  8
0
  2
*D21
 70
     1
 10
0.0
 20
0.0
 30
0.0
  3
*D21
  1

  0
LINE
  5
3733
  8
AM_5
  6
CONTINUOUS
 62
     7
 10
135.5762478919182
 20
119.8592522410264
 30
0.0
 11
135.5762478919182
 21
158.14496652674069
 31
0.0
  0
LINE
  5
3734
  8
AM_5
  6
CONTINUOUS
 62
     7
 10
174.57624789191809
 20
119.8592522410264
 30
0.0
 11
174.57624789191809
 21
158.14496652674069
 31
0.0
  0
LINE
  5
3735
  8
AM_5
  6
CONTINUOUS
 62
     7
 10
138.0762478919182
 20
157.1449665267406
 30
0.0
 11
172.0762478919182
 21
157.1449665267406
 31
0.0
  0
INSERT
  5
3736
  8
AM_5
 62
     7
  2
_OPEN30
 10
135.5762478919182
 20
157.1449665267406
 30
0.0
 41
2.5
 42
2.5
 43
2.5
 50
180.0
  0
INSERT
  5
3737
  8
AM_5
 62
     7
  2
_OPEN30
 10
174.57624789191809
 20
157.1449665267406
 30
0.0
 41
2.5
 42
2.5
 43
2.5
  0
INSERT
  5
3738
  8
0
  2
*U40
 10
0.0
 20
0.0
 30
0.0
  0
POINT
  5
3739
  8
DEFPOINTS
 62
     0
 10
135.5762478919182
 20
118.8592522410264
 30
0.0
  0
POINT
  5
373A
  8
DEFPOINTS
 62
     0
 10
174.57624789191809
 20
118.8592522410264
 30
0.0
  0
POINT
  5
373B
  8
DEFPOINTS
 62
     0
 10
174.57624789191809
 20
157.1449665267406
 30
0.0
  0
ENDBLK
  5
31A0
  8
0
  0
BLOCK
  8
0
  2
*D22
 70
     1
 10
0.0
 20
0.0
 30
0.0
  3
*D22
  1

  0
LINE
  5
373C
  8
AM_5
  6
CONTINUOUS
 62
     7
 10
134.5762478919182
 20
118.8592522410264
 30
0.0
 11
107.3744710837304
 21
118.8592522410264
 31
0.0
  0
LINE
  5
373D
  8
AM_5
  6
CONTINUOUS
 62
     7
 10
137.352592933479
 20
108.3592522410264
 30
0.0
 11
107.3744710837304
 21
108.3592522410264
 31
0.0
  0
LINE
  5
373E
  8
AM_5
  6
CONTINUOUS
 62
     7
 10
108.3744710837304
 20
121.3592522410264
 30
0.0
 11
108.3744710837304
 21
123.8592522410264
 31
0.0
  0
LINE
  5
373F
  8
AM_5
  6
CONTINUOUS
 62
     7
 10
108.3744710837304
 20
105.8592522410264
 30
0.0
 11
108.3744710837304
 21
103.3592522410264
 31
0.0
  0
LINE
  5
3740
  8
AM_5
  6
CONTINUOUS
 62
     7
 10
108.3744710837304
 20
118.8592522410264
 30
0.0
 11
108.3744710837304
 21
108.3592522410264
 31
0.0
  0
INSERT
  5
3741
  8
AM_5
 62
     7
  2
_OPEN30
 10
108.3744710837304
 20
118.8592522410264
 30
0.0
 41
2.5
 42
2.5
 43
2.5
 50
270.0
  0
INSERT
  5
3742
  8
AM_5
 62
     7
  2
_OPEN30
 10
108.3744710837304
 20
108.3592522410264
 30
0.0
 41
2.5
 42
2.5
 43
2.5
 50
90.0
  0
INSERT
  5
3743
  8
0
  2
*U41
 10
0.0
 20
0.0
 30
0.0
  0
POINT
  5
3744
  8
DEFPOINTS
 62
     0
 10
135.5762478919182
 20
118.8592522410264
 30
0.0
  0
POINT
  5
3745
  8
DEFPOINTS
 62
     0
 10
138.352592933479
 20
108.3592522410264
 30
0.0
  0
POINT
  5
3746
  8
DEFPOINTS
 62
     0
 10
108.3744710837304
 20
108.3592522410264
 30
0.0
  0
ENDBLK
  5
31AC
  8
0
  0
BLOCK
  8
0
  2
*D23
 70
     1
 10
0.0
 20
0.0
 30
0.0
  3
*D23
  1

  0
LINE
  5
385C
  8
AM_5
  6
CONTINUOUS
 62
     7
 10
137.352592933479
 20
108.3592522410264
 30
0.0
 11
107.3744710837304
 21
108.3592522410264
 31
0.0
  0
LINE
  5
385D
  8
AM_5
  6
CONTINUOUS
 62
     7
 10
137.1852542857057
 20
93.359252241026411
 30
0.0
 11
107.3744710837304
 21
93.359252241026411
 31
0.0
  0
LINE
  5
385E
  8
AM_5
  6
CONTINUOUS
 62
     7
 10
108.3744710837304
 20
105.8592522410264
 30
0.0
 11
108.3744710837304
 21
95.859252241026411
 31
0.0
  0
INSERT
  5
385F
  8
AM_5
 62
     7
  2
_OPEN30
 10
108.3744710837304
 20
108.3592522410264
 30
0.0
 41
2.5
 42
2.5
 43
2.5
 50
90.0
  0
INSERT
  5
3860
  8
AM_5
 62
     7
  2
_OPEN30
 10
108.3744710837304
 20
93.359252241026411
 30
0.0
 41
2.5
 42
2.5
 43
2.5
 50
270.0
  0
INSERT
  5
3861
  8
0
  2
*U51
 10
0.0
 20
0.0
 30
0.0
  0
POINT
  5
3862
  8
DEFPOINTS
 62
     0
 10
138.352592933479
 20
108.3592522410264
 30
0.0
  0
POINT
  5
3863
  8
DEFPOINTS
 62
     0
 10
138.1852542857057
 20
93.359252241026411
 30
0.0
  0
POINT
  5
3864
  8
DEFPOINTS
 62
     0
 10
108.3744710837304
 20
93.359252241026411
 30
0.0
  0
ENDBLK
  5
31BA
  8
0
  0
BLOCK
  8
0
  2
*D24
 70
     1
 10
0.0
 20
0.0
 30
0.0
  3
*D24
  1

  0
LINE
  5
3865
  8
AM_5
  6
CONTINUOUS
 62
     7
 10
137.1852542857057
 20
93.359252241026411
 30
0.0
 11
107.3744710837304
 21
93.359252241026411
 31
0.0
  0
LINE
  5
3866
  8
AM_5
  6
CONTINUOUS
 62
     7
 10
137.1852542857057
 20
78.359252241026468
 30
0.0
 11
107.3744710837304
 21
78.359252241026468
 31
0.0
  0
LINE
  5
3867
  8
AM_5
  6
CONTINUOUS
 62
     7
 10
108.3744710837304
 20
90.859252241026411
 30
0.0
 11
108.3744710837304
 21
80.859252241026468
 31
0.0
  0
INSERT
  5
3868
  8
AM_5
 62
     7
  2
_OPEN30
 10
108.3744710837304
 20
93.359252241026411
 30
0.0
 41
2.5
 42
2.5
 43
2.5
 50
90.0
  0
INSERT
  5
3869
  8
AM_5
 62
     7
  2
_OPEN30
 10
108.3744710837304
 20
78.359252241026468
 30
0.0
 41
2.5
 42
2.5
 43
2.5
 50
270.0
  0
INSERT
  5
386A
  8
0
  2
*U52
 10
0.0
 20
0.0
 30
0.0
  0
POINT
  5
386B
  8
DEFPOINTS
 62
     0
 10
138.1852542857057
 20
93.359252241026411
 30
0.0
  0
POINT
  5
386C
  8
DEFPOINTS
 62
     0
 10
138.1852542857057
 20
78.359252241026468
 30
0.0
  0
POINT
  5
386D
  8
DEFPOINTS
 62
     0
 10
108.3744710837304
 20
78.359252241026468
 30
0.0
  0
ENDBLK
  5
31C6
  8
0
  0
BLOCK
  8
0
  2
*D25
 70
     1
 10
0.0
 20
0.0
 30
0.0
  3
*D25
  1

  0
LINE
  5
382D
  8
AM_5
  6
CONTINUOUS
 62
     7
 10
137.1852542857057
 20
78.359252241026468
 30
0.0
 11
107.3744710837304
 21
78.359252241026468
 31
0.0
  0
LINE
  5
382E
  8
AM_5
  6
CONTINUOUS
 62
     7
 10
134.5762478919182
 20
67.859252241026468
 30
0.0
 11
107.3744710837304
 21
67.859252241026468
 31
0.0
  0
LINE
  5
382F
  8
AM_5
  6
CONTINUOUS
 62
     7
 10
108.3744710837304
 20
80.859252241026468
 30
0.0
 11
108.3744710837304
 21
83.359252241026468
 31
0.0
  0
LINE
  5
3830
  8
AM_5
  6
CONTINUOUS
 62
     7
 10
108.3744710837304
 20
65.359252241026468
 30
0.0
 11
108.3744710837304
 21
62.859252241026482
 31
0.0
  0
LINE
  5
3831
  8
AM_5
  6
CONTINUOUS
 62
     7
 10
108.3744710837304
 20
78.359252241026468
 30
0.0
 11
108.3744710837304
 21
67.859252241026468
 31
0.0
  0
INSERT
  5
3832
  8
AM_5
 62
     7
  2
_OPEN30
 10
108.3744710837304
 20
78.359252241026468
 30
0.0
 41
2.5
 42
2.5
 43
2.5
 50
270.0
  0
INSERT
  5
3833
  8
AM_5
 62
     7
  2
_OPEN30
 10
108.3744710837304
 20
67.859252241026468
 30
0.0
 41
2.5
 42
2.5
 43
2.5
 50
90.0
  0
INSERT
  5
3834
  8
0
  2
*U48
 10
0.0
 20
0.0
 30
0.0
  0
POINT
  5
3835
  8
DEFPOINTS
 62
     0
 10
138.1852542857057
 20
78.359252241026468
 30
0.0
  0
POINT
  5
3836
  8
DEFPOINTS
 62
     0
 10
135.5762478919182
 20
67.859252241026468
 30
0.0
  0
POINT
  5
3837
  8
DEFPOINTS
 62
     0
 10
108.3744710837304
 20
67.859252241026468
 30
0.0
  0
ENDBLK
  5
31D2
  8
0
  0
BLOCK
  8
0
  2
*D26
 70
     1
 10
0.0
 20
0.0
 30
0.0
  3
*D26
  1

  0
LINE
  5
37EA
  8
AM_5
  6
CONTINUOUS
 62
     7
 10
175.57624789191809
 20
118.8592522410264
 30
0.0
 11
198.9771221311064
 21
118.8592522410264
 31
0.0
  0
LINE
  5
37EB
  8
AM_5
  6
CONTINUOUS
 62
     7
 10
173.54225166352509
 20
108.3592522410264
 30
0.0
 11
198.9771221311064
 21
108.3592522410264
 31
0.0
  0
LINE
  5
37EC
  8
AM_5
  6
CONTINUOUS
 62
     7
 10
197.9771221311064
 20
121.3592522410264
 30
0.0
 11
197.9771221311064
 21
123.8592522410264
 31
0.0
  0
LINE
  5
37ED
  8
AM_5
  6
CONTINUOUS
 62
     7
 10
197.9771221311064
 20
105.8592522410264
 30
0.0
 11
197.9771221311064
 21
103.3592522410264
 31
0.0
  0
LINE
  5
37EE
  8
AM_5
  6
CONTINUOUS
 62
     7
 10
197.9771221311064
 20
118.8592522410264
 30
0.0
 11
197.9771221311064
 21
108.3592522410264
 31
0.0
  0
INSERT
  5
37EF
  8
AM_5
 62
     7
  2
_OPEN30
 10
197.9771221311064
 20
118.8592522410264
 30
0.0
 41
2.5
 42
2.5
 43
2.5
 50
270.0
  0
INSERT
  5
37F0
  8
AM_5
 62
     7
  2
_OPEN30
 10
197.9771221311064
 20
108.3592522410264
 30
0.0
 41
2.5
 42
2.5
 43
2.5
 50
90.0
  0
INSERT
  5
37F1
  8
0
  2
*U46
 10
0.0
 20
0.0
 30
0.0
  0
POINT
  5
37F2
  8
DEFPOINTS
 62
     0
 10
174.57624789191809
 20
118.8592522410264
 30
0.0
  0
POINT
  5
37F3
  8
DEFPOINTS
 62
     0
 10
172.54225166352509
 20
108.3592522410264
 30
0.0
  0
POINT
  5
37F4
  8
DEFPOINTS
 62
     0
 10
197.9771221311064
 20
108.3592522410264
 30
0.0
  0
ENDBLK
  5
31E0
  8
0
  0
BLOCK
  8
0
  2
*D27
 70
     1
 10
0.0
 20
0.0
 30
0.0
  3
*D27
  1

  0
LINE
  5
386E
  8
AM_5
  6
CONTINUOUS
 62
     7
 10
173.54225166352509
 20
93.359252241026411
 30
0.0
 11
198.9771221311064
 21
93.359252241026411
 31
0.0
  0
LINE
  5
386F
  8
AM_5
  6
CONTINUOUS
 62
     7
 10
173.54225166352509
 20
108.3592522410264
 30
0.0
 11
198.9771221311064
 21
108.3592522410264
 31
0.0
  0
LINE
  5
3870
  8
AM_5
  6
CONTINUOUS
 62
     7
 10
197.9771221311064
 20
95.859252241026411
 30
0.0
 11
197.9771221311064
 21
105.8592522410264
 31
0.0
  0
INSERT
  5
3871
  8
AM_5
 62
     7
  2
_OPEN30
 10
197.9771221311064
 20
93.359252241026411
 30
0.0
 41
2.5
 42
2.5
 43
2.5
 50
270.0
  0
INSERT
  5
3872
  8
AM_5
 62
     7
  2
_OPEN30
 10
197.9771221311064
 20
108.3592522410264
 30
0.0
 41
2.5
 42
2.5
 43
2.5
 50
90.0
  0
INSERT
  5
3873
  8
0
  2
*U53
 10
0.0
 20
0.0
 30
0.0
  0
POINT
  5
3874
  8
DEFPOINTS
 62
     0
 10
172.54225166352509
 20
93.359252241026411
 30
0.0
  0
POINT
  5
3875
  8
DEFPOINTS
 62
     0
 10
172.54225166352509
 20
108.3592522410264
 30
0.0
  0
POINT
  5
3876
  8
DEFPOINTS
 62
     0
 10
197.9771221311064
 20
108.3592522410264
 30
0.0
  0
ENDBLK
  5
31EE
  8
0
  0
BLOCK
  8
0
  2
*D28
 70
     1
 10
0.0
 20
0.0
 30
0.0
  3
*D28
  1

  0
LINE
  5
3877
  8
AM_5
  6
CONTINUOUS
 62
     7
 10
173.54225166352509
 20
78.359252241026454
 30
0.0
 11
198.9771221311064
 21
78.359252241026454
 31
0.0
  0
LINE
  5
3878
  8
AM_5
  6
CONTINUOUS
 62
     7
 10
173.54225166352509
 20
93.359252241026411
 30
0.0
 11
198.9771221311064
 21
93.359252241026411
 31
0.0
  0
LINE
  5
3879
  8
AM_5
  6
CONTINUOUS
 62
     7
 10
197.9771221311064
 20
80.859252241026454
 30
0.0
 11
197.9771221311064
 21
90.859252241026411
 31
0.0
  0
INSERT
  5
387A
  8
AM_5
 62
     7
  2
_OPEN30
 10
197.9771221311064
 20
78.359252241026454
 30
0.0
 41
2.5
 42
2.5
 43
2.5
 50
270.0
  0
INSERT
  5
387B
  8
AM_5
 62
     7
  2
_OPEN30
 10
197.9771221311064
 20
93.359252241026411
 30
0.0
 41
2.5
 42
2.5
 43
2.5
 50
90.0
  0
INSERT
  5
387C
  8
0
  2
*U54
 10
0.0
 20
0.0
 30
0.0
  0
POINT
  5
387D
  8
DEFPOINTS
 62
     0
 10
172.54225166352509
 20
78.359252241026454
 30
0.0
  0
POINT
  5
387E
  8
DEFPOINTS
 62
     0
 10
172.54225166352509
 20
93.359252241026411
 30
0.0
  0
POINT
  5
387F
  8
DEFPOINTS
 62
     0
 10
197.9771221311064
 20
93.359252241026411
 30
0.0
  0
ENDBLK
  5
31FA
  8
0
  0
BLOCK
  8
0
  2
*D29
 70
     1
 10
0.0
 20
0.0
 30
0.0
  3
*D29
  1

  0
LINE
  5
3819
  8
AM_5
  6
CONTINUOUS
 62
     7
 10
175.5762478919182
 20
67.859252241026468
 30
0.0
 11
198.9771221311064
 21
67.859252241026468
 31
0.0
  0
LINE
  5
381A
  8
AM_5
  6
CONTINUOUS
 62
     7
 10
173.54225166352509
 20
78.359252241026454
 30
0.0
 11
198.9771221311064
 21
78.359252241026454
 31
0.0
  0
LINE
  5
381B
  8
AM_5
  6
CONTINUOUS
 62
     7
 10
197.9771221311064
 20
65.359252241026468
 30
0.0
 11
197.97712213110631
 21
62.859252241026468
 31
0.0
  0
LINE
  5
381C
  8
AM_5
  6
CONTINUOUS
 62
     7
 10
197.9771221311064
 20
80.859252241026454
 30
0.0
 11
197.9771221311064
 21
83.359252241026454
 31
0.0
  0
LINE
  5
381D
  8
AM_5
  6
CONTINUOUS
 62
     7
 10
197.9771221311064
 20
67.859252241026468
 30
0.0
 11
197.9771221311064
 21
78.359252241026454
 31
0.0
  0
INSERT
  5
381E
  8
AM_5
 62
     7
  2
_OPEN30
 10
197.9771221311064
 20
67.859252241026468
 30
0.0
 41
2.5
 42
2.5
 43
2.5
 50
90.0
  0
INSERT
  5
381F
  8
AM_5
 62
     7
  2
_OPEN30
 10
197.9771221311064
 20
78.359252241026454
 30
0.0
 41
2.5
 42
2.5
 43
2.5
 50
270.0
  0
INSERT
  5
3820
  8
0
  2
*U47
 10
0.0
 20
0.0
 30
0.0
  0
POINT
  5
3821
  8
DEFPOINTS
 62
     0
 10
174.5762478919182
 20
67.859252241026468
 30
0.0
  0
POINT
  5
3822
  8
DEFPOINTS
 62
     0
 10
172.54225166352509
 20
78.359252241026454
 30
0.0
  0
POINT
  5
3823
  8
DEFPOINTS
 62
     0
 10
197.9771221311064
 20
78.359252241026454
 30
0.0
  0
ENDBLK
  5
3206
  8
0
  0
BLOCK
  8
0
  2
*D30
 70
     1
 10
0.0
 20
0.0
 30
0.0
  3
*D30
  1

  0
LINE
  5
378C
  8
AM_5
  6
CONTINUOUS
 62
     7
 10
175.5762478919182
 20
118.8592522410264
 30
0.0
 11
205.97712213110631
 21
118.8592522410264
 31
0.0
  0
LINE
  5
378D
  8
AM_5
  6
CONTINUOUS
 62
     7
 10
175.5762478919182
 20
67.859252241026468
 30
0.0
 11
205.97712213110631
 21
67.859252241026468
 31
0.0
  0
LINE
  5
378E
  8
AM_5
  6
CONTINUOUS
 62
     7
 10
204.97712213110631
 20
116.3592522410264
 30
0.0
 11
204.97712213110631
 21
70.359252241026468
 31
0.0
  0
INSERT
  5
378F
  8
AM_5
 62
     7
  2
_OPEN30
 10
204.97712213110631
 20
118.8592522410264
 30
0.0
 41
2.5
 42
2.5
 43
2.5
 50
90.0
  0
INSERT
  5
3790
  8
AM_5
 62
     7
  2
_OPEN30
 10
204.97712213110631
 20
67.859252241026468
 30
0.0
 41
2.5
 42
2.5
 43
2.5
 50
270.0
  0
INSERT
  5
3791
  8
0
  2
*U42
 10
0.0
 20
0.0
 30
0.0
  0
POINT
  5
3792
  8
DEFPOINTS
 62
     0
 10
174.5762478919182
 20
118.8592522410264
 30
0.0
  0
POINT
  5
3793
  8
DEFPOINTS
 62
     0
 10
174.5762478919182
 20
67.859252241026468
 30
0.0
  0
POINT
  5
3794
  8
DEFPOINTS
 62
     0
 10
204.97712213110631
 20
67.859252241026468
 30
0.0
  0
ENDBLK
  5
3214
  8
0
  0
BLOCK
  8
0
  2
*D31
 70
     1
 10
0.0
 20
0.0
 30
0.0
  3
*D31
  1

  0
LINE
  5
39C0
  8
AM_5
  6
CONTINUOUS
 62
     7
 10
134.5762478919772
 20
181.10808274733009
 30
0.0
 11
118.0762478919771
 21
181.10808274733009
 31
0.0
  0
LINE
  5
39C1
  8
AM_5
  6
CONTINUOUS
 62
     7
 10
134.5762478919772
 20
179.9080827473301
 30
0.0
 11
118.0762478919771
 21
179.9080827473301
 31
0.0
  0
LINE
  5
39C2
  8
AM_5
  6
CONTINUOUS
 62
     7
 10
119.0762478919771
 20
177.4080827473301
 30
0.0
 11
119.0762478919771
 21
174.9080827473301
 31
0.0
  0
LINE
  5
39C3
  8
AM_5
  6
CONTINUOUS
 62
     7
 10
119.0762478919771
 20
183.6080827473302
 30
0.0
 11
119.0762478919771
 21
193.82236846161589
 31
0.0
  0
LINE
  5
39C4
  8
AM_5
  6
CONTINUOUS
 62
     7
 10
119.0762478919771
 20
179.9080827473301
 30
0.0
 11
119.0762478919771
 21
181.10808274733009
 31
0.0
  0
INSERT
  5
39C5
  8
AM_5
 62
     7
  2
GENDOT
 10
119.0762478919771
 20
179.9080827473301
 30
0.0
 41
2.5
 42
2.5
 43
2.5
 50
90.0
  0
INSERT
  5
39C6
  8
AM_5
 62
     7
  2
_OPEN30
 10
119.0762478919771
 20
181.10808274733009
 30
0.0
 41
2.5
 42
2.5
 43
2.5
 50
270.0
  0
TEXT
  8
AM_5
  40
3
  5
3A30
  62
7
  72
0
  71
0
 10
116.576
 20
186.065
 30
0.000000
  1
1.2
  0
POINT
  5
39C8
  8
DEFPOINTS
 62
     0
 10
135.5762478919772
 20
181.10808274733009
 30
0.0
  0
POINT
  5
39C9
  8
DEFPOINTS
 62
     0
 10
135.5762478919772
 20
179.9080827473301
 30
0.0
  0
POINT
  5
39CA
  8
DEFPOINTS
 62
     0
 10
119.0762478919771
 20
179.9080827473301
 30
0.0
  0
ENDBLK
  5
3220
  8
0
  0
BLOCK
  8
0
  2
*D32
 70
     1
 10
0.0
 20
0.0
 30
0.0
  3
*D32
  1

  0
LINE
  5
39CB
  8
AM_5
  6
CONTINUOUS
 62
     7
 10
134.5762478919772
 20
179.9080827473301
 30
0.0
 11
118.0762478919771
 21
179.9080827473301
 31
0.0
  0
LINE
  5
39CC
  8
AM_5
  6
CONTINUOUS
 62
     7
 10
134.57624789197709
 20
179.4080827473301
 30
0.0
 11
118.0762478919771
 21
179.4080827473301
 31
0.0
  0
LINE
  5
39CD
  8
AM_5
  6
CONTINUOUS
 62
     7
 10
119.0762478919771
 20
182.4080827473301
 30
0.0
 11
119.0762478919771
 21
184.9080827473301
 31
0.0
  0
LINE
  5
39CE
  8
AM_5
  6
CONTINUOUS
 62
     7
 10
119.0762478919771
 20
176.9080827473301
 30
0.0
 11
119.0762478919771
 21
174.4080827473301
 31
0.0
  0
LINE
  5
39CF
  8
AM_5
  6
CONTINUOUS
 62
     7
 10
119.0762478919771
 20
179.6580827473301
 30
0.0
 11
110.8026628781966
 21
174.18563761648741
 31
0.0
  0
LINE
  5
39D0
  8
AM_5
  6
CONTINUOUS
 62
     7
 10
110.8026628781966
 20
174.18563761648741
 30
0.0
 11
110.8026628781966
 21
165.89992333077311
 31
0.0
  0
TEXT
  8
AM_5
  40
3
  5
3A31
  62
7
  72
0
  71
0
 10
108.303
 20
166.143
 30
0.000000
  1
0.5
  0
LINE
  5
39D2
  8
AM_5
  6
CONTINUOUS
 62
     7
 10
119.0762478919771
 20
179.9080827473301
 30
0.0
 11
119.0762478919771
 21
179.4080827473301
 31
0.0
  0
LINE
  5
39D3
  8
AM_5
  6
CONTINUOUS
 62
     7
 10
119.0762478919771
 20
179.9080827473301
 30
0.0
 11
119.0762478919771
 21
179.4080827473301
 31
0.0
  0
INSERT
  5
39D4
  8
AM_5
 62
     7
  2
GENDOT
 10
119.0762478919771
 20
179.9080827473301
 30
0.0
 41
2.5
 42
2.5
 43
2.5
 50
270.0
  0
INSERT
  5
39D5
  8
AM_5
 62
     7
  2
GENDOT
 10
119.0762478919771
 20
179.4080827473301
 30
0.0
 41
2.5
 42
2.5
 43
2.5
 50
90.0
  0
POINT
  5
39D6
  8
DEFPOINTS
 62
     0
 10
135.5762478919772
 20
179.9080827473301
 30
0.0
  0
POINT
  5
39D7
  8
DEFPOINTS
 62
     0
 10
135.57624789197709
 20
179.4080827473301
 30
0.0
  0
POINT
  5
39D8
  8
DEFPOINTS
 62
     0
 10
119.0762478919771
 20
179.4080827473301
 30
0.0
  0
ENDBLK
  5
322E
  8
0
  0
BLOCK
  8
0
  2
*D33
 70
     1
 10
0.0
 20
0.0
 30
0.0
  3
*D33
  1

  0
LINE
  5
39D9
  8
AM_5
  6
CONTINUOUS
 62
     7
 10
134.57624789197709
 20
179.4080827473301
 30
0.0
 11
118.0762478919771
 21
179.4080827473301
 31
0.0
  0
LINE
  5
39DA
  8
AM_5
  6
CONTINUOUS
 62
     7
 10
134.57624789197709
 20
178.20808274733011
 30
0.0
 11
118.0762478919771
 21
178.20808274733011
 31
0.0
  0
LINE
  5
39DB
  8
AM_5
  6
CONTINUOUS
 62
     7
 10
119.0762478919771
 20
181.9080827473301
 30
0.0
 11
119.0762478919771
 21
184.4080827473301
 31
0.0
  0
LINE
  5
39DC
  8
AM_5
  6
CONTINUOUS
 62
     7
 10
119.0762478919771
 20
175.70808274733011
 30
0.0
 11
119.0762478919771
 21
165.49379703304439
 31
0.0
  0
LINE
  5
39DD
  8
AM_5
  6
CONTINUOUS
 62
     7
 10
119.0762478919771
 20
179.4080827473301
 30
0.0
 11
119.0762478919771
 21
178.20808274733011
 31
0.0
  0
INSERT
  5
39DE
  8
AM_5
 62
     7
  2
GENDOT
 10
119.0762478919771
 20
179.4080827473301
 30
0.0
 41
2.5
 42
2.5
 43
2.5
 50
270.0
  0
INSERT
  5
39DF
  8
AM_5
 62
     7
  2
_OPEN30
 10
119.0762478919771
 20
178.20808274733011
 30
0.0
 41
2.5
 42
2.5
 43
2.5
 50
90.0
  0
TEXT
  8
AM_5
  40
3
  5
3A32
  62
7
  72
0
  71
0
 10
116.576
 20
165.451
 30
0.000000
  1
1.2
  0
POINT
  5
39E1
  8
DEFPOINTS
 62
     0
 10
135.57624789197709
 20
179.4080827473301
 30
0.0
  0
POINT
  5
39E2
  8
DEFPOINTS
 62
     0
 10
135.57624789197709
 20
178.20808274733011
 30
0.0
  0
POINT
  5
39E3
  8
DEFPOINTS
 62
     0
 10
119.0762478919771
 20
178.20808274733011
 30
0.0
  0
ENDBLK
  5
323F
  8
0
  0
BLOCK
  8
0
  2
*D34
 70
     1
 10
0.0
 20
0.0
 30
0.0
  3
*D34
  1

  0
LINE
  5
37B9
  8
AM_5
  6
CONTINUOUS
 62
     7
 10
134.5762478919772
 20
178.20808274733011
 30
0.0
 11
101.3234541877636
 21
178.20808274733011
 31
0.0
  0
LINE
  5
37BA
  8
AM_5
  6
CONTINUOUS
 62
     7
 10
134.57624789197709
 20
181.10808274733009
 30
0.0
 11
101.3234541877636
 21
181.10808274733009
 31
0.0
  0
LINE
  5
37BB
  8
AM_5
  6
CONTINUOUS
 62
     7
 10
102.3234541877636
 20
175.70808274733011
 30
0.0
 11
102.3234541877636
 21
173.20808274733011
 31
0.0
  0
LINE
  5
37BC
  8
AM_5
  6
CONTINUOUS
 62
     7
 10
102.3234541877636
 20
183.6080827473302
 30
0.0
 11
102.3234541877636
 21
194.25093989018731
 31
0.0
  0
LINE
  5
37BD
  8
AM_5
  6
CONTINUOUS
 62
     7
 10
102.3234541877636
 20
178.20808274733011
 30
0.0
 11
102.3234541877636
 21
181.10808274733009
 31
0.0
  0
INSERT
  5
37BE
  8
AM_5
 62
     7
  2
_OPEN30
 10
102.3234541877636
 20
178.20808274733011
 30
0.0
 41
2.5
 42
2.5
 43
2.5
 50
90.0
  0
INSERT
  5
37BF
  8
AM_5
 62
     7
  2
_OPEN30
 10
102.3234541877636
 20
181.10808274733009
 30
0.0
 41
2.5
 42
2.5
 43
2.5
 50
270.0
  0
INSERT
  5
37C0
  8
0
  2
*U43
 10
0.0
 20
0.0
 30
0.0
  0
POINT
  5
37C1
  8
DEFPOINTS
 62
     0
 10
135.5762478919772
 20
178.20808274733011
 30
0.0
  0
POINT
  5
37C2
  8
DEFPOINTS
 62
     0
 10
135.57624789197709
 20
181.10808274733009
 30
0.0
  0
POINT
  5
37C3
  8
DEFPOINTS
 62
     0
 10
102.3234541877636
 20
181.10808274733009
 30
0.0
  0
ENDBLK
  5
324D
  8
0
  0
BLOCK
  8
0
  2
*S36
 70
     1
 10
0.0
 20
0.0
 30
0.0
  3
*S36
  1

  0
LINE
  5
395B
  8
AM_5
  6
CONTINUOUS
 62
     7
 10
88.772059043837515
 20
50.535996483553717
 30
0.0
 11
123.24306298084539
 21
50.535996483553717
 31
0.0
  0
LINE
  5
395C
  8
AM_5
  6
CONTINUOUS
 62
     7
 10
123.24306298084539
 20
50.535996483553717
 30
0.0
 11
138.9242519061583
 21
73.103500599254019
 31
0.0
  0
LINE
  5
395D
  8
AM_5
  6
CONTINUOUS
 62
     7
 10
138.9242519061583
 20
73.103500599254019
 30
0.0
 11
140.7217186803995
 21
75.690315860438886
 31
0.0
  0
LINE
  5
395E
  8
AM_5
  6
CONTINUOUS
 62
     7
 10
139.264812594571
 20
72.866859610150627
 30
0.0
 11
140.7217186803995
 21
75.690315860438886
 31
0.0
  0
LINE
  5
395F
  8
AM_5
  6
CONTINUOUS
 62
     7
 10
140.7217186803995
 20
75.690315860438886
 30
0.0
 11
138.58369121774561
 21
73.340141588357383
 31
0.0
  0
INSERT
  5
3960
  8
0
  2
*U55
 10
0.0
 20
0.0
 30
0.0
  0
ENDBLK
  5
3962
  8
0
  0
BLOCK
  8
0
  2
*U37
 70
     1
 10
0.0
 20
0.0
 30
0.0
  3
*U37
  1

  0
TEXT
  5
39E5
  8
AM_5
 62
     7
 10
118.8620387901786
 20
138.1449665267406
 30
0.0
 40
3.0
  1
(\U+22055.4)
  0
ENDBLK
  5
39E7
  8
0
  0
BLOCK
  8
0
  2
*U38
 70
     1
 10
0.0
 20
0.0
 30
0.0
  3
*U38
  1

  0
TEXT
  5
39E9
  8
AM_5
 62
     7
 10
141.04053360620389
 20
151.14496652674069
 30
0.0
 40
3.0
  1
19.5
  0
ENDBLK
  5
39EB
  8
0
  0
BLOCK
  8
0
  2
*U39
 70
     1
 10
0.0
 20
0.0
 30
0.0
  3
*U39
  1

  0
TEXT
  5
39ED
  8
AM_5
 62
     7
 10
160.54053360620389
 20
151.14496652674069
 30
0.0
 40
3.0
  1
19.5
  0
ENDBLK
  5
39EF
  8
0
  0
BLOCK
  8
0
  2
*U40
 70
     1
 10
0.0
 20
0.0
 30
0.0
  3
*U40
  1

  0
TEXT
  5
39F1
  8
AM_5
 62
     7
 10
152.71910503477531
 20
158.14496652674069
 30
0.0
 40
3.0
  1
39
  0
ENDBLK
  5
39F3
  8
0
  0
BLOCK
  8
0
  2
*U41
 70
     1
 10
0.0
 20
0.0
 30
0.0
  3
*U41
  1

  0
TEXT
  5
39F5
  8
AM_5
 62
     7
 10
107.3744710837304
 20
109.3235379553121
 30
0.0
 40
3.0
  1
10.5
 50
90.0
  0
ENDBLK
  5
39F7
  8
0
  0
BLOCK
  8
0
  2
*U42
 70
     1
 10
0.0
 20
0.0
 30
0.0
  3
*U42
  1

  0
TEXT
  5
39F9
  8
AM_5
 62
     7
 10
203.97712213110631
 20
91.573537955312176
 30
0.0
 40
3.0
  1
51
 50
90.0
  0
ENDBLK
  5
39FB
  8
0
  0
BLOCK
  8
0
  2
*U43
 70
     1
 10
0.0
 20
0.0
 30
0.0
  3
*U43
  1

  0
TEXT
  5
39FD
  8
AM_5
 62
     7
 10
101.3234541877636
 20
187.1080827473302
 30
0.0
 40
3.0
  1
2.9
 50
90.0
  0
ENDBLK
  5
39FF
  8
0
  0
BLOCK
  8
0
  2
*U44
 70
     1
 10
0.0
 20
0.0
 30
0.0
  3
*U44
  1

  0
TEXT
  5
3A01
  8
AM_5
 62
     7
 10
157.04053360620389
 20
144.1449665267406
 30
0.0
 40
3.0
  1
12.5
  0
ENDBLK
  5
3A03
  8
0
  0
BLOCK
  8
0
  2
*U45
 70
     1
 10
0.0
 20
0.0
 30
0.0
  3
*U45
  1

  0
TEXT
  5
3A05
  8
AM_5
 62
     7
 10
170.0762478919182
 20
144.14496652674069
 30
0.0
 40
3.0
  1
7
  0
ENDBLK
  5
3A07
  8
0
  0
BLOCK
  8
0
  2
*U46
 70
     1
 10
0.0
 20
0.0
 30
0.0
  3
*U46
  1

  0
TEXT
  5
3A09
  8
AM_5
 62
     7
 10
196.97712213110631
 20
109.3235379553121
 30
0.0
 40
3.0
  1
10.5
 50
90.0
  0
ENDBLK
  5
3A0B
  8
0
  0
BLOCK
  8
0
  2
*U47
 70
     1
 10
0.0
 20
0.0
 30
0.0
  3
*U47
  1

  0
TEXT
  5
3A0D
  8
AM_5
 62
     7
 10
196.97712213110631
 20
68.82353795531219
 30
0.0
 40
3.0
  1
10.5
 50
90.0
  0
ENDBLK
  5
3A0F
  8
0
  0
BLOCK
  8
0
  2
*U48
 70
     1
 10
0.0
 20
0.0
 30
0.0
  3
*U48
  1

  0
TEXT
  5
3A11
  8
AM_5
 62
     7
 10
107.3744710837304
 20
68.823537955312204
 30
0.0
 40
3.0
  1
10.5
 50
90.0
  0
ENDBLK
  5
3A13
  8
0
  0
BLOCK
  8
0
  2
*U49
 70
     1
 10
0.0
 20
0.0
 30
0.0
  3
*U49
  1

  0
TEXT
  5
3A15
  8
AM_5
 62
     7
 10
138.0762478919182
 20
144.14496652674069
 30
0.0
 40
3.0
  1
7
  0
ENDBLK
  5
3A17
  8
0
  0
BLOCK
  8
0
  2
*U50
 70
     1
 10
0.0
 20
0.0
 30
0.0
  3
*U50
  1

  0
TEXT
  5
3A19
  8
AM_5
 62
     7
 10
144.54053360620389
 20
144.14496652674069
 30
0.0
 40
3.0
  1
12.5
  0
ENDBLK
  5
3A1B
  8
0
  0
BLOCK
  8
0
  2
*U51
 70
     1
 10
0.0
 20
0.0
 30
0.0
  3
*U51
  1

  0
TEXT
  5
3A1D
  8
AM_5
 62
     7
 10
107.3744710837304
 20
98.716395098169301
 30
0.0
 40
3.0
  1
15
 50
90.0
  0
ENDBLK
  5
3A1F
  8
0
  0
BLOCK
  8
0
  2
*U52
 70
     1
 10
0.0
 20
0.0
 30
0.0
  3
*U52
  1

  0
TEXT
  5
3A21
  8
AM_5
 62
     7
 10
107.3744710837304
 20
83.716395098169329
 30
0.0
 40
3.0
  1
15
 50
90.0
  0
ENDBLK
  5
3A23
  8
0
  0
BLOCK
  8
0
  2
*U53
 70
     1
 10
0.0
 20
0.0
 30
0.0
  3
*U53
  1

  0
TEXT
  5
3A25
  8
AM_5
 62
     7
 10
196.97712213110631
 20
98.716395098169301
 30
0.0
 40
3.0
  1
15
 50
90.0
  0
ENDBLK
  5
3A27
  8
0
  0
BLOCK
  8
0
  2
*U54
 70
     1
 10
0.0
 20
0.0
 30
0.0
  3
*U54
  1

  0
TEXT
  5
3A29
  8
AM_5
 62
     7
 10
196.97712213110631
 20
83.716395098169315
 30
0.0
 40
3.0
  1
15
 50
90.0
  0
ENDBLK
  5
3A2B
  8
0
  0
BLOCK
  8
0
  2
*U55
 70
     1
 10
0.0
 20
0.0
 30
0.0
  3
*U55
  1

  0
TEXT
  5
3A2D
  8
AM_5
 62
     7
 10
88.488062980845385
 20
52.110996483553713
 30
0.0
 40
3.149999999999999
  1
6-\U+22054.5\U+00D7\U+22056.5皿孔
  7
ACJISTS
  0
ENDBLK
  5
3A2F
  8
0
  0
ENDSEC
  0
SECTION
  2
ENTITIES
  0
INSERT
  5
1BB5
  8
0
  2
ZUWAKU-A4H
 10
0.0
 20
0.0
 30
0.0
1001
GENIUS_GENOREF_13
1005
1C93
1001
GENIUS_GENOBJ-N-SDF_13
1002
{
1000
OWNER
1000
GEN
1002
}
1001
GENIUS_GENODEF_13
1002
{
1000
HIER
1070
     0
1002
}
1002
{
1000
MANEDIT
1070
     0
1002
}
1002
{
1000
NOSEL
1070
     0
1002
}
1002
{
1000
BEHIND
1070
     0
1002
}
1002
{
1000
OTHER
1070
     0
1002
}
1002
{
1000
REACTOR
1002
}
1001
GENIUS_GENSCREG_13
1040
1.0
1040
1.0
1011
12.95699999999508
1021
0.0
1031
0.0
1021
10.0
1031
0.0
1011
289.45700000038528
1021
0.0
1031
0.0
1021
201.1206999999936
1031
0.0
1070
     3
  0
POINT
  5
1C93
  8
0
 10
0.0
 20
0.0
 30
0.0
1001
GENIUS_GENOLIS_13
1002
{
1000
ENT
1005
1C84
1005
1BB5
1002
}
1001
GENIUS_GENOENT_13
1002
{
1000
MYREF
1005
1C93
1002
}
1002
{
1000
GRP
1005
0
1002
}
1001
GENIUS_GENOBJ-N-TIT_13
1002
{
1000
OWNER
1000
GEN
1002
}
1001
GENIUS_GENTITLE_13
1002
{
1000
BORDER
1000
C:\Program Files\Autodesk\ACADM 2008\Acadm\gen\Dwg\Format\ZUWAKU-A4H
1002
}
1002
{
1000
TITLE
1000
C:\Program Files\Autodesk\ACADM 2008\Acadm\gen\Dwg\Title\N_Title
1002
}
1002
{
1000
ADDITIONAL1
1000

1002
}
1002
{
1000
ADDITIONAL2
1000

1002
}
1002
{
1000
SCALE
1000
1:1
1002
}
1002
{
1000
TITLESTD
1000
JIS
1002
}
1002
{
1000
HRA
1005
1BB5
1002
}
1002
{
1000
HTIT
1005
1C84
1002
}
1002
{
1000
INVTXTID
1005
0
1002
}
1002
{
1000
UNCHG
1002
{
1000
GEN-TITLE-SIZ
1000
GEN-TITLE-SCA
1002
}
1002
}
1002
{
1000
GENIUSID
1005
1C93
1002
}
1001
GENIUS_GENODEF_13
1002
{
1000
HIER
1070
     1
1002
}
1002
{
1000
MANEDIT
1070
     1
1002
}
1002
{
1000
NOSEL
1070
     0
1002
}
1002
{
1000
BEHIND
1070
     0
1002
}
1002
{
1000
OTHER
1070
     0
1002
}
1002
{
1000
REACTOR
1002
}
  0
INSERT
  5
20F2
  8
0
 66
     1
  2
A$C1C06296A
 10
12.95700013162593
 20
9.9999998268887111
 30
0.0
  0
ATTRIB
  5
20F3
  8
AM_BOR
 62
     7
 10
127.267709707009
 20
10.5
 30
0.0
 40
3.0
  1

 11
127.267709707009
 21
12.0
 31
0.0
  2
SETS｛20｝
 70
     0
 74
     2
1001
AcDbAttr
1070
     0
1070
     1
  0
ATTRIB
  5
20F4
  8
AM_BOR
 62
     7
 10
32.017709707009089
 20
10.5
 30
0.0
 40
3.0
  1

 11
32.017709707009089
 21
12.0
 31
0.0
  2
REMARKS｛20｝
 70
     0
 74
     2
1001
AcDbAttr
1070
     0
1070
     1
  0
ATTRIB
  5
20F5
  8
AM_BOR
 62
     7
 10
127.267709707009
 20
15.5
 30
0.0
 40
3.0
  1

 11
127.267709707009
 21
17.0
 31
0.0
  2
SETS｛20｝
 70
     0
 74
     2
1001
AcDbAttr
1070
     0
1070
     1
  0
ATTRIB
  5
20F6
  8
AM_BOR
 62
     7
 10
32.017709707009089
 20
15.5
 30
0.0
 40
3.0
  1

 11
32.017709707009089
 21
17.0
 31
0.0
  2
REMARKS｛20｝
 70
     0
 74
     2
1001
AcDbAttr
1070
     0
1070
     1
  0
ATTRIB
  5
20F7
  8
AM_BOR
 62
     7
 10
127.267709707009
 20
20.5
 30
0.0
 40
3.0
  1

 11
127.267709707009
 21
22.0
 31
0.0
  2
SETS｛20｝
 70
     0
 74
     2
1001
AcDbAttr
1070
     0
1070
     1
  0
ATTRIB
  5
20F8
  8
AM_BOR
 62
     7
 10
32.017709707009089
 20
20.5
 30
0.0
 40
3.0
  1

 11
32.017709707009089
 21
22.0
 31
0.0
  2
REMARKS｛20｝
 70
     0
 74
     2
1001
AcDbAttr
1070
     0
1070
     1
  0
ATTRIB
  5
20F9
  8
AM_BOR
 62
     7
 10
127.20700000001921
 20
33.5
 30
0.0
 40
3.0
  1
5K-51-05
 11
127.20700000001921
 21
35.0
 31
0.0
  2
ART_NO｛20｝
 70
     0
 74
     2
1001
AcDbAttr
1070
     0
1070
     1
  0
ATTRIB
  5
20FA
  8
AM_BOR
 62
     7
 10
31.95700000001921
 20
33.5
 30
0.0
 40
3.0
  1
5管丁番
 11
31.95700000001921
 21
35.0
 31
0.0
  2
ARTICLE｛20｝
 70
     0
 74
     2
1001
AcDbAttr
1070
     0
1070
     1
  0
ATTRIB
  5
20FB
  8
AM_BOR
 62
     7
 10
127.20700000001921
 20
27.0
 30
0.0
 40
3.0
  1
ヘアライン
 11
127.20700000001921
 21
28.5
 31
0.0
  2
FINISH｛20｝
 70
     0
 74
     2
1001
AcDbAttr
1070
     0
1070
     1
  0
ATTRIB
  5
20FC
  8
AM_BOR
 62
     7
 10
31.95700000001921
 20
27.0
 30
0.0
 40
3.0
  1
ステンレス（リングは樹脂）
 11
31.95700000001921
 21
28.5
 31
0.0
  2
MATERIAK｛20｝
 70
     0
 74
     2
1001
AcDbAttr
1070
     0
1070
     1
  0
SEQEND
  5
20FD
  8
0
  0
LINE
  5
30C3
  8
0
 10
135.5762478919182
 20
67.859252241026468
 30
0.0
 11
135.5762478919182
 21
118.8592522410264
 31
0.0
  0
LINE
  5
30C4
  8
0
 10
174.57624789191809
 20
67.859252241026439
 30
0.0
 11
174.57624789191809
 21
118.8592522410264
 31
0.0
  0
LINE
  5
30C5
  8
0
 10
174.57624789197709
 20
179.9080827473301
 30
0.0
 11
174.57624789197709
 21
181.10808274733009
 31
0.0
  0
LINE
  5
30C6
  8
AM_1
 10
152.798639497191
 20
178.20808274733011
 30
0.0
 11
135.57624789197709
 21
178.20808274733011
 31
0.0
  0
LINE
  5
30C7
  8
AM_1
 10
152.38784688022321
 20
179.4080827473301
 30
0.0
 11
135.57624789197709
 21
179.4080827473301
 31
0.0
  0
LINE
  5
30CA
  8
AM_7
 10
172.54225166352509
 20
78.359252241026454
 30
0.0
 11
162.61024412031119
 21
78.359252241026454
 31
0.0
  0
LINE
  5
30CB
  8
AM_7
 10
146.9672414981307
 20
78.359252241026468
 30
0.0
 11
138.1852542857057
 21
78.359252241026468
 31
0.0
  0
LINE
  5
30CC
  8
AM_7
 10
172.54225166352509
 20
93.359252241026411
 30
0.0
 11
162.61024412031119
 21
93.359252241026411
 31
0.0
  0
LINE
  5
30CD
  8
AM_7
 10
146.9672414981307
 20
93.359252241026411
 30
0.0
 11
138.1852542857057
 21
93.359252241026411
 31
0.0
  0
LINE
  5
30CE
  8
AM_7
 10
172.54225166352509
 20
108.3592522410264
 30
0.0
 11
162.61024412031119
 21
108.3592522410264
 31
0.0
  0
LINE
  5
30CF
  8
AM_7
 10
146.9672414981307
 20
108.3592522410264
 30
0.0
 11
138.1852542857057
 21
108.3592522410264
 31
0.0
  0
LINE
  5
30D0
  8
AM_7
 10
142.5762478919182
 20
103.23642969058569
 30
0.0
 11
142.5762478919182
 21
113.482074791467
 31
0.0
  0
LINE
  5
30D1
  8
AM_7
 10
142.5762478919182
 20
73.602342168615564
 30
0.0
 11
142.5762478919182
 21
83.116162313437357
 31
0.0
  0
LINE
  5
30D2
  8
AM_7
 10
142.5762478919182
 20
88.550069242337571
 30
0.0
 11
142.5762478919182
 21
98.168435239715265
 31
0.0
  0
LINE
  5
30D3
  8
AM_7
 10
167.5762478919182
 20
73.288700622779388
 30
0.0
 11
167.5762478919182
 21
83.429803859273534
 31
0.0
  0
LINE
  5
30D4
  8
AM_7
 10
167.5762478919182
 20
88.550069242337571
 30
0.0
 11
167.5762478919182
 21
98.168435239715265
 31
0.0
  0
LINE
  5
30D5
  8
AM_7
 10
167.5762478919182
 20
103.23642969058569
 30
0.0
 11
167.5762478919182
 21
113.482074791467
 31
0.0
  0
LINE
  5
30D8
  8
AM_7
 10
155.0762478919182
 20
62.648143751243111
 30
0.0
 11
155.0762478919182
 21
125.07490068687549
 31
0.0
  0
LINE
  5
30E1
  8
AM_1
 10
135.5762478919772
 20
178.20808274733011
 30
0.0
 11
135.5762478919772
 21
179.4080827473301
 31
0.0
  0
LINE
  5
30E2
  8
0
 10
135.5762478919772
 20
179.9080827473301
 30
0.0
 11
135.5762478919772
 21
181.10808274733009
 31
0.0
  0
LINE
  5
30E3
  8
AM_7
 10
142.5762478919182
 20
174.3975079719668
 30
0.0
 11
142.5762478919182
 21
184.5546871836861
 31
0.0
  0
LINE
  5
30E4
  8
0
 10
152.08379665415029
 20
179.9080827473301
 30
0.0
 11
135.57624789197709
 21
179.9080827473301
 31
0.0
  0
LINE
  5
30E5
  8
0
 10
174.57624789197709
 20
179.9080827473301
 30
0.0
 11
157.7646489037312
 21
179.9080827473301
 31
0.0
  0
LINE
  5
30E6
  8
AM_7
 10
149.3762478919771
 20
179.6580827473301
 30
0.0
 11
160.77624789197711
 21
179.6580827473301
 31
0.0
  0
LINE
  5
30E7
  8
AM_7
 10
155.07624789197709
 20
185.35808274733009
 30
0.0
 11
155.07624789197709
 21
173.9580827473302
 31
0.0
  0
LINE
  5
30E8
  8
0
 10
174.5762478919182
 20
118.8592522410264
 30
0.0
 11
158.5762478919182
 21
118.8592522410264
 31
0.0
  0
LINE
  5
30E9
  8
0
 10
157.77624789191819
 20
118.8592522410264
 30
0.0
 11
135.5762478919182
 21
118.8592522410264
 31
0.0
  0
LINE
  5
30EA
  8
0
 10
174.5762478919182
 20
67.859252241026468
 30
0.0
 11
158.5762478919182
 21
67.859252241026468
 31
0.0
  0
LINE
  5
30EB
  8
0
 10
157.77624789191819
 20
67.859252241026468
 30
0.0
 11
135.5762478919182
 21
67.859252241026468
 31
0.0
  0
LINE
  5
30F1
  8
0
 10
174.57624789197709
 20
181.10808274733009
 30
0.0
 11
157.3538562867632
 21
181.10808274733009
 31
0.0
  0
LINE
  5
30F2
  8
0
 10
152.08379665415029
 20
181.10808274733009
 30
0.0
 11
135.57624789197709
 21
181.10808274733009
 31
0.0
  0
ARC
  5
30F3
  8
0
 10
155.0762478919772
 20
179.6580827473301
 30
0.0
 40
2.7000000000000002
 50
174.6872252947268
 51
118.43621389061479
  0
CIRCLE
  5
30F4
  8
0
 10
155.0762478919772
 20
179.6580827473301
 30
0.0
 40
1.5
  0
LINE
  5
30F5
  8
0
 10
152.65521277095931
 20
180.0528654135781
 30
0.0
 11
154.3619777459659
 21
180.97710441452011
 31
0.0
  0
LINE
  5
30F6
  8
0
 10
152.08379665415029
 20
181.10808274733009
 30
0.0
 11
153.790561629157
 21
182.03232174827221
 31
0.0
  0
LINE
  5
30F7
  8
0
 10
153.58269177433601
 20
179.79697163621901
 30
0.0
 11
152.38784688022321
 21
179.9080827473301
 31
0.0
  0
ARC
  5
30F8
  8
0
 10
152.08379665415029
 20
181.10808274733009
 30
0.0
 40
1.1999999999999991
 50
270.0
 51
298.43621389061468
  0
CIRCLE
  5
30F9
  8
0
 10
142.5762478919182
 20
78.359252241026454
 30
0.0
 40
2.25
  0
CIRCLE
  5
30FA
  8
0
 10
142.5762478919182
 20
78.359252241026454
 30
0.0
 40
3.25
  0
CIRCLE
  5
30FB
  8
0
 10
142.5762478919182
 20
93.359252241026411
 30
0.0
 40
2.25
  0
CIRCLE
  5
30FC
  8
0
 10
142.5762478919182
 20
93.359252241026411
 30
0.0
 40
3.25
  0
CIRCLE
  5
30FD
  8
0
 10
142.5762478919182
 20
108.3592522410264
 30
0.0
 40
2.25
  0
CIRCLE
  5
30FE
  8
0
 10
142.5762478919182
 20
108.3592522410264
 30
0.0
 40
3.25
  0
CIRCLE
  5
30FF
  8
0
 10
167.5762478919182
 20
108.3592522410264
 30
0.0
 40
2.25
  0
CIRCLE
  5
3100
  8
0
 10
167.5762478919182
 20
108.3592522410264
 30
0.0
 40
3.25
  0
CIRCLE
  5
3101
  8
0
 10
167.5762478919182
 20
93.359252241026411
 30
0.0
 40
2.25
  0
CIRCLE
  5
3102
  8
0
 10
167.5762478919182
 20
93.359252241026411
 30
0.0
 40
3.25
  0
CIRCLE
  5
3103
  8
0
 10
167.5762478919182
 20
78.359252241026454
 30
0.0
 40
2.25
  0
CIRCLE
  5
3104
  8
0
 10
167.5762478919182
 20
78.359252241026454
 30
0.0
 40
3.25
  0
LINE
  5
3105
  8
0
 10
158.57624789187079
 20
179.9080827473301
 30
0.0
 11
158.5762478918698
 21
181.10808274731269
 31
0.0
  0
DIMENSION
  5
3106
  8
AM_5
  2
*D14
 10
152.37624789191821
 20
136.14496652674069
 30
0.0
 11
125.2906102187501
 21
136.14496652674069
 31
0.0
 70
   128
  1
(%%c<>)
 13
157.77624789191819
 23
118.8592522410264
 33
0.0
 14
152.37624789191821
 24
118.8592522410264
 34
0.0
1001
ACAD_DSTYLE_DIMINSPECT
1070
   396
1000
100%
1070
   395
1000

1070
   394
1070
    33
1070
   393
1070
     0
  0
DIMENSION
  5
3109
  8
AM_5
  2
*D15
 10
142.5762478919182
 20
143.14496652674069
 30
0.0
 11
139.0762478919182
 21
145.64496652674069
 31
0.0
 70
     0
 13
135.5762478919182
 23
118.8592522410264
 33
0.0
 14
142.5762478919182
 24
113.482074791467
 34
0.0
1001
ACAD_DSTYLE_DIMINSPECT
1070
   396
1000
100%
1070
   395
1000

1070
   394
1070
    33
1070
   393
1070
     0
1001
ACAD
1000
DSTYLE
1002
{
1070
   174
1070
     1
1002
}
  0
DIMENSION
  5
310C
  8
AM_5
  2
*D16
 10
142.5762478919182
 20
143.14496652674069
 30
0.0
 11
148.8262478919182
 21
145.64496652674069
 31
0.0
 70
     0
 13
155.0762478919182
 23
125.07490068687549
 33
0.0
 14
142.5762478919182
 24
113.482074791467
 34
0.0
1001
ACAD
1000
DSTYLE
1002
{
1070
   174
1070
     1
1002
}
1001
ACAD_DSTYLE_DIMINSPECT
1070
   396
1000
100%
1070
   395
1000

1070
   394
1070
    33
1070
   393
1070
     0
  0
DIMENSION
  5
310F
  8
AM_5
  2
*D17
 10
155.0762478919182
 20
143.1449665267406
 30
0.0
 11
161.3262478919182
 21
145.6449665267406
 31
0.0
 70
     0
 13
167.5762478919182
 23
113.482074791467
 33
0.0
 14
155.0762478919182
 24
125.07490068687549
 34
0.0
1001
ACAD
1000
DSTYLE
1002
{
1070
   174
1070
     1
1002
}
1001
ACAD_DSTYLE_DIMINSPECT
1070
   396
1000
100%
1070
   395
1000

1070
   394
1070
    33
1070
   393
1070
     0
  0
DIMENSION
  5
3112
  8
AM_5
  2
*D18
 10
167.5762478919182
 20
143.14496652674069
 30
0.0
 11
171.0762478919182
 21
145.64496652674069
 31
0.0
 70
     0
 13
174.5762478919182
 23
118.8592522410264
 33
0.0
 14
167.5762478919182
 24
113.482074791467
 34
0.0
1001
ACAD
1000
DSTYLE
1002
{
1070
   174
1070
     1
1002
}
1001
ACAD_DSTYLE_DIMINSPECT
1070
   396
1000
100%
1070
   395
1000

1070
   394
1070
    33
1070
   393
1070
     0
  0
DIMENSION
  5
3115
  8
AM_5
  2
*D19
 10
155.0762478919182
 20
150.14496652674069
 30
0.0
 11
145.3262478919182
 21
152.64496652674069
 31
0.0
 70
     0
 13
135.5762478919182
 23
118.8592522410264
 33
0.0
 14
155.0762478919182
 24
125.07490068687549
 34
0.0
1001
ACAD_DSTYLE_DIMINSPECT
1070
   396
1000
100%
1070
   395
1000

1070
   394
1070
    33
1070
   393
1070
     0
1001
ACAD
1000
DSTYLE
1002
{
1070
   174
1070
     1
1002
}
  0
DIMENSION
  5
3118
  8
AM_5
  2
*D20
 10
155.0762478919182
 20
150.14496652674069
 30
0.0
 11
164.8262478919182
 21
152.64496652674069
 31
0.0
 70
     0
 13
174.5762478919182
 23
118.8592522410264
 33
0.0
 14
155.0762478919182
 24
125.07490068687549
 34
0.0
1001
ACAD
1000
DSTYLE
1002
{
1070
   174
1070
     1
1002
}
1001
ACAD_DSTYLE_DIMINSPECT
1070
   396
1000
100%
1070
   395
1000

1070
   394
1070
    33
1070
   393
1070
     0
  0
DIMENSION
  5
311B
  8
AM_5
  2
*D21
 10
174.57624789191809
 20
157.1449665267406
 30
0.0
 11
155.0762478919182
 21
159.64496652674069
 31
0.0
 70
     0
 13
135.5762478919182
 23
118.8592522410264
 33
0.0
 14
174.57624789191809
 24
118.8592522410264
 34
0.0
1001
ACAD_DSTYLE_DIMINSPECT
1070
   396
1000
100%
1070
   395
1000

1070
   394
1070
    33
1070
   393
1070
     0
  0
DIMENSION
  5
311E
  8
AM_5
  2
*D22
 10
108.3744710837304
 20
108.3592522410264
 30
0.0
 11
105.8744710837304
 21
113.6092522410264
 31
0.0
 70
     0
 13
135.5762478919182
 23
118.8592522410264
 33
0.0
 14
138.352592933479
 24
108.3592522410264
 34
0.0
 50
90.0
1001
ACAD_DSTYLE_DIMINSPECT
1070
   396
1000
100%
1070
   395
1000

1070
   394
1070
    33
1070
   393
1070
     0
1001
ACAD
1000
DSTYLE
1002
{
1070
   174
1070
     1
1002
}
  0
DIMENSION
  5
3121
  8
AM_5
  2
*D23
 10
108.3744710837304
 20
93.359252241026411
 30
0.0
 11
105.8744710837304
 21
100.8592522410264
 31
0.0
 70
     0
 13
138.352592933479
 23
108.3592522410264
 33
0.0
 14
138.1852542857057
 24
93.359252241026411
 34
0.0
 50
90.0
1001
ACAD_DSTYLE_DIMINSPECT
1070
   396
1000
100%
1070
   395
1000

1070
   394
1070
    33
1070
   393
1070
     0
1001
ACAD
1000
DSTYLE
1002
{
1070
   174
1070
     1
1002
}
  0
DIMENSION
  5
3124
  8
AM_5
  2
*D24
 10
108.3744710837304
 20
78.359252241026468
 30
0.0
 11
105.8744710837304
 21
85.859252241026468
 31
0.0
 70
     0
 13
138.1852542857057
 23
93.359252241026411
 33
0.0
 14
138.1852542857057
 24
78.359252241026468
 34
0.0
 50
90.0
1001
ACAD_DSTYLE_DIMINSPECT
1070
   396
1000
100%
1070
   395
1000

1070
   394
1070
    33
1070
   393
1070
     0
1001
ACAD
1000
DSTYLE
1002
{
1070
   174
1070
     1
1002
}
  0
DIMENSION
  5
3127
  8
AM_5
  2
*D25
 10
108.3744710837304
 20
67.859252241026468
 30
0.0
 11
105.8744710837304
 21
73.109252241026496
 31
0.0
 70
     0
 13
138.1852542857057
 23
78.359252241026468
 33
0.0
 14
135.5762478919182
 24
67.859252241026468
 34
0.0
 50
90.0
1001
ACAD
1000
DSTYLE
1002
{
1070
   174
1070
     1
1002
}
1001
ACAD_DSTYLE_DIMINSPECT
1070
   396
1000
100%
1070
   395
1000

1070
   394
1070
    33
1070
   393
1070
     0
  0
DIMENSION
  5
312A
  8
AM_5
  2
*D26
 10
197.9771221311064
 20
108.3592522410264
 30
0.0
 11
195.47712213110631
 21
113.6092522410264
 31
0.0
 70
     0
 13
174.57624789191809
 23
118.8592522410264
 33
0.0
 14
172.54225166352509
 24
108.3592522410264
 34
0.0
 50
90.0
1001
ACAD_DSTYLE_DIMINSPECT
1070
   396
1000
100%
1070
   395
1000

1070
   394
1070
    33
1070
   393
1070
     0
1001
ACAD
1000
DSTYLE
1002
{
1070
   174
1070
     1
1002
}
  0
DIMENSION
  5
312D
  8
AM_5
  2
*D27
 10
197.9771221311064
 20
108.3592522410264
 30
0.0
 11
195.47712213110631
 21
100.8592522410264
 31
0.0
 70
     0
 13
172.54225166352509
 23
93.359252241026411
 33
0.0
 14
172.54225166352509
 24
108.3592522410264
 34
0.0
 50
90.0
1001
ACAD_DSTYLE_DIMINSPECT
1070
   396
1000
100%
1070
   395
1000

1070
   394
1070
    33
1070
   393
1070
     0
1001
ACAD
1000
DSTYLE
1002
{
1070
   174
1070
     1
1002
}
  0
DIMENSION
  5
3130
  8
AM_5
  2
*D28
 10
197.9771221311064
 20
93.359252241026411
 30
0.0
 11
195.47712213110631
 21
85.859252241026454
 31
0.0
 70
     0
 13
172.54225166352509
 23
78.359252241026454
 33
0.0
 14
172.54225166352509
 24
93.359252241026411
 34
0.0
 50
90.0
1001
ACAD_DSTYLE_DIMINSPECT
1070
   396
1000
100%
1070
   395
1000

1070
   394
1070
    33
1070
   393
1070
     0
1001
ACAD
1000
DSTYLE
1002
{
1070
   174
1070
     1
1002
}
  0
DIMENSION
  5
3133
  8
AM_5
  2
*D29
 10
197.9771221311064
 20
78.359252241026454
 30
0.0
 11
195.47712213110631
 21
73.109252241026482
 31
0.0
 70
     0
 13
174.5762478919182
 23
67.859252241026468
 33
0.0
 14
172.54225166352509
 24
78.359252241026454
 34
0.0
 50
90.0
1001
ACAD
1000
DSTYLE
1002
{
1070
   174
1070
     1
1002
}
1001
ACAD_DSTYLE_DIMINSPECT
1070
   396
1000
100%
1070
   395
1000

1070
   394
1070
    33
1070
   393
1070
     0
  0
DIMENSION
  5
3136
  8
AM_5
  2
*D30
 10
204.97712213110631
 20
67.859252241026468
 30
0.0
 11
202.47712213110631
 21
93.359252241026468
 31
0.0
 70
     0
 13
174.5762478919182
 23
118.8592522410264
 33
0.0
 14
174.5762478919182
 24
67.859252241026468
 34
0.0
 50
90.0
1001
ACAD_DSTYLE_DIMINSPECT
1070
   396
1000
100%
1070
   395
1000

1070
   394
1070
    33
1070
   393
1070
     0
  0
INSERT
  5
3139
  8
AM_5
  2
*S36
 10
0.0
 20
0.0
 30
0.0
  0
DIMENSION
  5
313B
  8
AM_5
  2
*D31
 10
119.0762478919771
 20
179.9080827473301
 30
0.0
 11
119.0762478919771
 21
189.96522560447309
 31
0.0
 70
   128
 13
135.5762478919772
 23
181.10808274733009
 33
0.0
 14
135.5762478919772
 24
179.9080827473301
 34
0.0
 50
90.0
1001
ACAD_DSTYLE_DIMINSPECT
1070
   396
1000
100%
1070
   395
1000

1070
   394
1070
    33
1070
   393
1070
     0
1001
ACAD
1000
DSTYLE
1002
{
1070
   173
1070
     1
1070
   174
1070
     1
1070
     6
1000
OPEN30
1070
     7
1000
GENDOT
1002
}
  0
DIMENSION
  5
313E
  8
AM_5
  2
*D32
 10
119.0762478919771
 20
179.4080827473301
 30
0.0
 11
110.8026628781965
 21
173.18563761648741
 31
0.0
 70
   128
 13
135.5762478919772
 23
179.9080827473301
 33
0.0
 14
135.57624789197709
 24
179.4080827473301
 34
0.0
 50
90.0
1001
ACAD_DSTYLE_DIMINSPECT
1070
   396
1000
100%
1070
   395
1000

1070
   394
1070
    33
1070
   393
1070
     0
1001
ACAD
1000
DSTYLE
1002
{
1070
   287
1070
     4
1070
   174
1070
     1
1070
   279
1070
     1
1070
     5
1000
GENDOT
1002
}
  0
DIMENSION
  5
3141
  8
AM_5
  2
*D33
 10
119.0762478919771
 20
178.20808274733011
 30
0.0
 11
119.0762478919771
 21
169.35093989018731
 31
0.0
 70
   128
 13
135.57624789197709
 23
179.4080827473301
 33
0.0
 14
135.57624789197709
 24
178.20808274733011
 34
0.0
 50
90.0
1001
ACAD_DSTYLE_DIMINSPECT
1070
   396
1000
100%
1070
   395
1000

1070
   394
1070
    33
1070
   393
1070
     0
1001
ACAD
1000
DSTYLE
1002
{
1070
   173
1070
     1
1070
   174
1070
     1
1070
     6
1000
GENDOT
1070
     7
1000
OPEN30
1002
}
  0
DIMENSION
  5
3144
  8
AM_5
  2
*D34
 10
102.3234541877636
 20
181.10808274733009
 30
0.0
 11
99.823454187763645
 21
190.17951131875881
 31
0.0
 70
     0
 13
135.5762478919772
 23
178.20808274733011
 33
0.0
 14
135.57624789197709
 24
181.10808274733009
 34
0.0
 50
90.0
1001
ACAD_DSTYLE_DIMINSPECT
1070
   396
1000
100%
1070
   395
1000

1070
   394
1070
    33
1070
   393
1070
     0
  0
LINE
  5
3607
  8
0
 10
157.77624789191819
 20
67.859252241026397
 30
0.0
 11
157.77624789191819
 21
77.859252241026397
 31
0.0
  0
LINE
  5
3608
  8
0
 10
157.77624789191819
 20
78.359252241026397
 30
0.0
 11
157.77624789191819
 21
88.859252241026397
 31
0.0
  0
LINE
  5
3609
  8
0
 10
157.77624789191819
 20
89.359252241026411
 30
0.0
 11
157.77624789191819
 21
99.359252241026411
 31
0.0
  0
LINE
  5
360A
  8
0
 10
157.77624789191819
 20
99.859252241026425
 30
0.0
 11
157.77624789191819
 21
110.3592522410264
 31
0.0
  0
LINE
  5
360B
  8
0
 10
157.77624789191819
 20
110.8592522410263
 30
0.0
 11
157.77624789191819
 21
118.8592522410264
 31
0.0
  0
LINE
  5
360C
  8
0
 10
152.3762478919183
 20
67.859252241026425
 30
0.0
 11
152.3762478919183
 21
77.859252241026425
 31
0.0
  0
LINE
  5
360D
  8
0
 10
152.37624789191821
 20
78.359252241026397
 30
0.0
 11
152.3762478919181
 21
88.859252241026397
 31
0.0
  0
LINE
  5
360E
  8
0
 10
152.37624789191821
 20
89.359252241026411
 30
0.0
 11
152.3762478919183
 21
99.359252241026411
 31
0.0
  0
LINE
  5
360F
  8
0
 10
152.37624789191821
 20
99.859252241026425
 30
0.0
 11
152.3762478919183
 21
110.3592522410264
 31
0.0
  0
LINE
  5
3610
  8
0
 10
152.3762478919183
 20
110.8592522410263
 30
0.0
 11
152.3762478919183
 21
118.8592522410264
 31
0.0
  0
LINE
  5
3611
  8
0
 10
157.77624789191819
 20
75.859252241026397
 30
0.0
 11
151.5762478919182
 21
75.859252241026397
 31
0.0
  0
LINE
  5
3612
  8
0
 10
157.77624789191819
 20
110.8592522410264
 30
0.0
 11
151.5762478919182
 21
110.8592522410264
 31
0.0
  0
LINE
  5
3613
  8
0
 10
158.5762478919182
 20
99.859252241026425
 30
0.0
 11
152.3762478919183
 21
99.859252241026425
 31
0.0
  0
LINE
  5
3614
  8
0
 10
158.5762478919182
 20
108.3592522410264
 30
0.0
 11
152.3762478919183
 21
108.3592522410264
 31
0.0
  0
LINE
  5
3615
  8
0
 10
157.77624789191819
 20
110.3592522410264
 30
0.0
 11
152.3762478919183
 21
110.3592522410264
 31
0.0
  0
LINE
  5
3616
  8
0
 10
158.5762478919182
 20
78.359252241026397
 30
0.0
 11
152.3762478919183
 21
78.359252241026397
 31
0.0
  0
LINE
  5
3617
  8
0
 10
158.5762478919182
 20
86.859252241026411
 30
0.0
 11
152.3762478919183
 21
86.859252241026411
 31
0.0
  0
ARC
  5
3618
  8
0
 10
155.07624789191809
 20
116.9392522410263
 30
0.0
 40
2.9199999999999982
 50
41.112090439166359
 51
138.88790956083361
  0
ARC
  5
3619
  8
0
 10
155.0762478919182
 20
69.779252241026356
 30
0.0
 40
2.9199999999999662
 50
221.11209043916639
 51
318.88790956083352
  0
LINE
  5
361A
  8
0
 10
158.5762478919182
 20
78.359252241026397
 30
0.0
 11
158.5762478919182
 21
67.859252241026397
 31
0.0
  0
LINE
  5
361B
  8
0
 10
158.5762478919182
 20
86.859252241026354
 30
0.0
 11
158.5762478919182
 21
99.859252241026425
 31
0.0
  0
LINE
  5
361C
  8
0
 10
158.5762478919182
 20
108.3592522410264
 30
0.0
 11
158.5762478919182
 21
118.8592522410264
 31
0.0
  0
LINE
  5
361D
  8
0
 10
151.5762478919182
 20
97.359252241026425
 30
0.0
 11
151.5762478919182
 21
110.8592522410264
 31
0.0
  0
LINE
  5
361E
  8
0
 10
151.5762478919182
 20
89.359252241026411
 30
0.0
 11
151.5762478919182
 21
75.859252241026397
 31
0.0
  0
LINE
  5
3620
  8
0
 10
156.57624789191809
 20
110.3592522410263
 30
0.0
 11
156.57624789191809
 21
110.8592522410264
 31
0.0
1001
GENIUS_GENOBJ-N-CEN_13
1002
{
1000
OWNER
1000
GEN
1002
}
1001
GENIUS_GENODEF_13
1002
{
1000
HIER
1070
     0
1002
}
1002
{
1000
MANEDIT
1070
     0
1002
}
1002
{
1000
NOSEL
1070
     0
1002
}
1002
{
1000
BEHIND
1070
     0
1002
}
1002
{
1000
OTHER
1070
     0
1002
}
1002
{
1000
REACTOR
1002
}
1001
GENIUS_GENCEN_19
1002
{
1040
3.0
1002
}
  0
LINE
  5
3621
  8
0
 10
153.57624789191809
 20
110.3592522410263
 30
0.0
 11
153.57624789191809
 21
110.8592522410264
 31
0.0
1001
GENIUS_GENOBJ-N-CEN_13
1002
{
1000
OWNER
1000
GEN
1002
}
1001
GENIUS_GENODEF_13
1002
{
1000
HIER
1070
     0
1002
}
1002
{
1000
MANEDIT
1070
     0
1002
}
1002
{
1000
NOSEL
1070
     0
1002
}
1002
{
1000
BEHIND
1070
     0
1002
}
1002
{
1000
OTHER
1070
     0
1002
}
1002
{
1000
REACTOR
1002
}
1001
GENIUS_GENCEN_19
1002
{
1040
3.0
1002
}
  0
LINE
  5
3622
  8
0
 10
157.77624789191819
 20
77.859252241026397
 30
0.0
 11
152.3762478919183
 21
77.859252241026397
 31
0.0
  0
LINE
  5
3623
  8
0
 10
157.77624789191819
 20
88.859252241026397
 30
0.0
 11
152.3762478919183
 21
88.859252241026397
 31
0.0
  0
LINE
  5
3624
  8
0
 10
157.77624789191819
 20
97.359252241026425
 30
0.0
 11
151.5762478919182
 21
97.359252241026425
 31
0.0
  0
LINE
  5
3625
  8
0
 10
157.77624789191819
 20
99.359252241026411
 30
0.0
 11
152.3762478919183
 21
99.359252241026411
 31
0.0
  0
LINE
  5
3626
  8
0
 10
157.77624789191819
 20
89.359252241026411
 30
0.0
 11
151.5762478919182
 21
89.359252241026411
 31
0.0
  0
LINE
  5
3627
  8
0
 10
156.57624789191809
 20
99.359252241026411
 30
0.0
 11
156.57624789191809
 21
99.859252241026425
 31
0.0
1001
GENIUS_GENOBJ-N-CEN_13
1002
{
1000
OWNER
1000
GEN
1002
}
1001
GENIUS_GENODEF_13
1002
{
1000
HIER
1070
     0
1002
}
1002
{
1000
MANEDIT
1070
     0
1002
}
1002
{
1000
NOSEL
1070
     0
1002
}
1002
{
1000
BEHIND
1070
     0
1002
}
1002
{
1000
OTHER
1070
     0
1002
}
1002
{
1000
REACTOR
1002
}
1001
GENIUS_GENCEN_19
1002
{
1040
3.0
1002
}
  0
LINE
  5
3628
  8
0
 10
153.57624789191809
 20
99.359252241026411
 30
0.0
 11
153.57624789191809
 21
99.859252241026425
 31
0.0
1001
GENIUS_GENOBJ-N-CEN_13
1002
{
1000
OWNER
1000
GEN
1002
}
1001
GENIUS_GENODEF_13
1002
{
1000
HIER
1070
     0
1002
}
1002
{
1000
MANEDIT
1070
     0
1002
}
1002
{
1000
NOSEL
1070
     0
1002
}
1002
{
1000
BEHIND
1070
     0
1002
}
1002
{
1000
OTHER
1070
     0
1002
}
1002
{
1000
REACTOR
1002
}
1001
GENIUS_GENCEN_19
1002
{
1040
3.0
1002
}
  0
LINE
  5
3629
  8
0
 10
156.57624789191809
 20
88.859252241026397
 30
0.0
 11
156.57624789191809
 21
89.359252241026411
 31
0.0
1001
GENIUS_GENOBJ-N-CEN_13
1002
{
1000
OWNER
1000
GEN
1002
}
1001
GENIUS_GENODEF_13
1002
{
1000
HIER
1070
     0
1002
}
1002
{
1000
MANEDIT
1070
     0
1002
}
1002
{
1000
NOSEL
1070
     0
1002
}
1002
{
1000
BEHIND
1070
     0
1002
}
1002
{
1000
OTHER
1070
     0
1002
}
1002
{
1000
REACTOR
1002
}
1001
GENIUS_GENCEN_19
1002
{
1040
3.0
1002
}
  0
LINE
  5
362A
  8
0
 10
153.57624789191809
 20
88.859252241026397
 30
0.0
 11
153.57624789191809
 21
89.359252241026411
 31
0.0
1001
GENIUS_GENOBJ-N-CEN_13
1002
{
1000
OWNER
1000
GEN
1002
}
1001
GENIUS_GENODEF_13
1002
{
1000
HIER
1070
     0
1002
}
1002
{
1000
MANEDIT
1070
     0
1002
}
1002
{
1000
NOSEL
1070
     0
1002
}
1002
{
1000
BEHIND
1070
     0
1002
}
1002
{
1000
OTHER
1070
     0
1002
}
1002
{
1000
REACTOR
1002
}
1001
GENIUS_GENCEN_19
1002
{
1040
3.0
1002
}
  0
LINE
  5
362B
  8
0
 10
156.57624789191809
 20
77.859252241026368
 30
0.0
 11
156.57624789191809
 21
78.359252241026397
 31
0.0
1001
GENIUS_GENOBJ-N-CEN_13
1002
{
1000
OWNER
1000
GEN
1002
}
1001
GENIUS_GENODEF_13
1002
{
1000
HIER
1070
     0
1002
}
1002
{
1000
MANEDIT
1070
     0
1002
}
1002
{
1000
NOSEL
1070
     0
1002
}
1002
{
1000
BEHIND
1070
     0
1002
}
1002
{
1000
OTHER
1070
     0
1002
}
1002
{
1000
REACTOR
1002
}
1001
GENIUS_GENCEN_19
1002
{
1040
3.0
1002
}
  0
LINE
  5
362C
  8
0
 10
153.57624789191809
 20
77.859252241026368
 30
0.0
 11
153.57624789191809
 21
78.359252241026397
 31
0.0
1001
GENIUS_GENOBJ-N-CEN_13
1002
{
1000
OWNER
1000
GEN
1002
}
1001
GENIUS_GENODEF_13
1002
{
1000
HIER
1070
     0
1002
}
1002
{
1000
MANEDIT
1070
     0
1002
}
1002
{
1000
NOSEL
1070
     0
1002
}
1002
{
1000
BEHIND
1070
     0
1002
}
1002
{
1000
OTHER
1070
     0
1002
}
1002
{
1000
REACTOR
1002
}
1001
GENIUS_GENCEN_19
1002
{
1040
3.0
1002
}
  0
VIEWPORT
  5
95A
 67
     1
  8
0
  6
CONTINUOUS
 10
128.5
 20
97.5
 30
0.0
 40
386.73855140186919
 41
222.18000000000001
 68
     1
 69
     1
1001
ACAD
1000
MVIEW
1002
{
1070
    16
1010
0.0
1020
0.0
1030
0.0
1010
0.0
1020
0.0
1030
1.0
1040
0.0
1040
222.18000000000001
1040
128.5
1040
97.5
1040
50.0
1040
0.0
1040
0.0
1070
     0
1070
   100
1070
     1
1070
     1
1070
     0
1070
     0
1070
     0
1070
     0
1040
0.0
1040
0.0
1040
0.0
1040
10.0
1040
10.0
1040
10.0
1040
10.0
1070
     0
1002
{
1002
}
1002
}
1001
GENIUS_GENOBJ-N-SDF_13
1002
{
1000
OWNER
1000
GEN
1002
}
1001
GENIUS_GENODEF_13
1002
{
1000
HIER
1070
     0
1002
}
1002
{
1000
MANEDIT
1070
     0
1002
}
1002
{
1000
NOSEL
1070
     0
1002
}
1002
{
1000
BEHIND
1070
     0
1002
}
1002
{
1000
OTHER
1070
     0
1002
}
1002
{
1000
REACTOR
1002
}
1001
GENIUS_GENSCREG_15
1000
PF
1040
1.0
1000
DF
1040
1.0
1000
MIN
1011
-64.869275700934566
1021
0.0
1031
0.0
1021
-13.59
1031
0.0
1000
MAX
1011
321.86927570093462
1021
0.0
1031
0.0
1021
208.59
1031
0.0
1000
FLAGS
1070
     4
  0
ENDSEC
  0
EOF
