  0
SECTION
  2
HEADER
  9
$ACADVER
  1
AC1009
  9
$INSBASE
 10
0.0
 20
0.0
 30
0.0
  9
$EXTMIN
 10
24.982289231708371
 20
8.9873690644740236
 30
-0.0000000000000058
  9
$EXTMAX
 10
412.01771797711359
 20
285.01263607670109
 30
0.0000000000000104
  9
$LIMMIN
 10
24.999999999999979
 20
8.9999999999999964
  9
$LIMMAX
 10
411.99999999999989
 20
284.99999999999989
  9
$ORTHOMODE
 70
     1
  9
$REGENMODE
 70
     1
  9
$FILLMODE
 70
     1
  9
$QTEXTMODE
 70
     0
  9
$MIRRTEXT
 70
     1
  9
$DRAGMODE
 70
     2
  9
$LTSCALE
 40
5.0
  9
$OSMODE
 70
    39
  9
$ATTMODE
 70
     1
  9
$TEXTSIZE
 40
3.0
  9
$TRACEWID
 40
0.05
  9
$TEXTSTYLE
  7
STANDARD
  9
$CLAYER
  8
0
  9
$CELTYPE
  6
BYLAYER
  9
$CECOLOR
 62
   256
  9
$DIMSCALE
 40
1.0
  9
$DIMASZ
 40
2.5
  9
$DIMEXO
 40
1.0
  9
$DIMDLI
 40
7.0
  9
$DIMRND
 40
0.0
  9
$DIMDLE
 40
0.0
  9
$DIMEXE
 40
1.0
  9
$DIMTP
 40
0.1
  9
$DIMTM
 40
0.1
  9
$DIMTXT
 40
3.0
  9
$DIMCEN
 40
0.0
  9
$DIMTSZ
 40
0.0
  9
$DIMTOL
 70
     0
  9
$DIMLIM
 70
     0
  9
$DIMTIH
 70
     0
  9
$DIMTOH
 70
     0
  9
$DIMSE1
 70
     0
  9
$DIMSE2
 70
     0
  9
$DIMTAD
 70
     3
  9
$DIMZIN
 70
     8
  9
$DIMBLK
  1
OPEN30
  9
$DIMASO
 70
     1
  9
$DIMSHO
 70
     1
  9
$DIMPOST
  1

  9
$DIMAPOST
  1
"
  9
$DIMALT
 70
     0
  9
$DIMALTD
 70
     2
  9
$DIMALTF
 40
0.0393701
  9
$DIMLFAC
 40
1.0
  9
$DIMTOFL
 70
     1
  9
$DIMTVP
 40
0.0
  9
$DIMTIX
 70
     0
  9
$DIMSOXD
 70
     0
  9
$DIMSAH
 70
     0
  9
$DIMBLK1
  1

  9
$DIMBLK2
  1

  9
$DIMSTYLE
  2
AM_JIS
  9
$DIMCLRD
 70
     7
  9
$DIMCLRE
 70
     7
  9
$DIMCLRT
 70
     7
  9
$DIMTFAC
 40
0.71
  9
$DIMGAP
 40
1.0
  9
$LUNITS
 70
     2
  9
$LUPREC
 70
     4
  9
$SKETCHINC
 40
0.1
  9
$FILLETRAD
 40
0.0
  9
$AUNITS
 70
     0
  9
$AUPREC
 70
     0
  9
$MENU
  1
acad
  9
$ELEVATION
 40
0.0
  9
$PELEVATION
 40
0.0
  9
$THICKNESS
 40
0.0
  9
$LIMCHECK
 70
     0
  9
$BLIPMODE
 70
     0
  9
$CHAMFERA
 40
0.0
  9
$CHAMFERB
 40
0.0
  9
$SKPOLY
 70
     0
  9
$TDCREATE
 40
2455755.6568701151
  9
$TDUPDATE
 40
2457136.6850951859
  9
$TDINDWG
 40
0.2185887384
  9
$TDUSRTIMER
 40
0.2185885532
  9
$USRTIMER
 70
     1
  9
$ANGBASE
 50
0.0
  9
$ANGDIR
 70
     0
  9
$PDMODE
 70
     0
  9
$PDSIZE
 40
0.0
  9
$PLINEWID
 40
0.0
  9
$COORDS
 70
     1
  9
$SPLFRAME
 70
     0
  9
$SPLINETYPE
 70
     6
  9
$SPLINESEGS
 70
     8
  9
$ATTDIA
 70
     1
  9
$ATTREQ
 70
     1
  9
$HANDLING
 70
     1
  9
$HANDSEED
  5
51E9
  9
$SURFTAB1
 70
     6
  9
$SURFTAB2
 70
     6
  9
$SURFTYPE
 70
     6
  9
$SURFU
 70
     6
  9
$SURFV
 70
     6
  9
$UCSNAME
  2

  9
$UCSORG
 10
0.0
 20
0.0
 30
0.0
  9
$UCSXDIR
 10
1.0
 20
0.0
 30
0.0
  9
$UCSYDIR
 10
0.0
 20
1.0
 30
0.0
  9
$PUCSNAME
  2

  9
$PUCSORG
 10
0.0
 20
0.0
 30
0.0
  9
$PUCSXDIR
 10
1.0
 20
0.0
 30
0.0
  9
$PUCSYDIR
 10
0.0
 20
1.0
 30
0.0
  9
$USERI1
 70
     0
  9
$USERI2
 70
     0
  9
$USERI3
 70
     0
  9
$USERI4
 70
     0
  9
$USERI5
 70
     0
  9
$USERR1
 40
0.0
  9
$USERR2
 40
0.0
  9
$USERR3
 40
0.0
  9
$USERR4
 40
0.0
  9
$USERR5
 40
0.0
  9
$WORLDVIEW
 70
     1
  9
$SHADEDGE
 70
     3
  9
$SHADEDIF
 70
    70
  9
$TILEMODE
 70
     1
  9
$MAXACTVP
 70
    16
  9
$PLIMCHECK
 70
     0
  9
$PEXTMIN
 10
1.0000000000000000E+020
 20
1.0000000000000000E+020
 30
1.0000000000000000E+020
  9
$PEXTMAX
 10
-1.0000000000000000E+020
 20
-1.0000000000000000E+020
 30
-1.0000000000000000E+020
  9
$PLIMMIN
 10
-20.0
 20
-7.5
  9
$PLIMMAX
 10
277.0
 20
202.5
  9
$UNITMODE
 70
     0
  9
$VISRETAIN
 70
     0
  9
$PLINEGEN
 70
     1
  9
$PSLTSCALE
 70
     0
  0
ENDSEC
  0
SECTION
  2
TABLES
  0
TABLE
  2
VPORT
 70
     1
  0
VPORT
  2
*ACTIVE
 70
     0
 10
0.0
 20
0.0
 11
1.0
 21
1.0
 12
218.50000360441101
 22
147.0000025705875
 13
0.0
 23
0.0
 14
2.5
 24
2.5
 15
10.0
 25
10.0
 16
0.0
 26
0.0
 36
1.0
 17
0.0
 27
0.0
 37
0.0
 40
278.36584145947347
 41
2.1619718309859151
 42
50.0
 43
0.0
 44
0.0
 50
0.0
 51
0.0
 71
     0
 72
   100
 73
     1
 74
     3
 75
     0
 76
     0
 77
     0
 78
     1
  0
ENDTAB
  0
TABLE
  2
LTYPE
 70
    21
  0
LTYPE
  2
CONTINUOUS
 70
     0
  3
Solid line (NEC CAE2D for Win R7.2 : 2008.02.20
 72
    65
 73
     0
 40
0.0
  0
LTYPE
  2
HIDDEN
 70
     0
  3
Hidden __ __ __ __ __ __ __ __ __ __ __ __ __ _
 72
    65
 73
     2
 40
0.375
 49
0.25
 49
-0.125
  0
LTYPE
  2
PHANTOM2
 70
     0
  3
Phantom (.5x) ___ _ _ ___ _ _ ___ _ _ ___ _ _
 72
    65
 73
     6
 40
1.25
 49
0.625
 49
-0.125
 49
0.125
 49
-0.125
 49
0.125
 49
-0.125
  0
LTYPE
  2
CENTER
 70
     0
  3
Center ____ _ ____ _ ____ _ ____ _ ____ _ ____
 72
    65
 73
     4
 40
2.0
 49
1.25
 49
-0.25
 49
0.25
 49
-0.25
  0
LTYPE
  2
CENTER2
 70
     0
  3
Center (.5x) ___ _ ___ _ ___ _ ___ _ ___ _ ___
 72
    65
 73
     4
 40
1.125
 49
0.75
 49
-0.125
 49
0.125
 49
-0.125
  0
LTYPE
  2
HIDDEN2
 70
     0
  3
Hidden (.5x) _ _ _ _ _ _ _ _ _ _ _ _ _ _ _ _ _
 72
    65
 73
     2
 40
0.1875
 49
0.125
 49
-0.0625
  0
LTYPE
  2
ACANSTGB
 70
     0
  3
__ . . __ . .
 72
    65
 73
     6
 40
0.35433070866
 49
0.15748031496
 49
-0.03937007874
 49
0.03937007874
 49
-0.03937007874
 49
0.03937007874
 49
-0.03937007874
  0
LTYPE
  2
ACANSTGL
 70
     0
  3
_ _ _ _ _
 72
    65
 73
     2
 40
0.11811023622
 49
0.07874015748
 49
-0.03937007874
  0
LTYPE
  2
ACJISWELD
 70
     0
  3
_ _ _ _ _
 72
    65
 73
     2
 40
2.0
 49
2.0
 49
-1.0
  0
LTYPE
  2
ACJISTGB
 70
     0
  3
__ . . __ . .
 72
    65
 73
     6
 40
9.0
 49
4.0
 49
-1.0
 49
1.0
 49
-1.0
 49
1.0
 49
-1.0
  0
LTYPE
  2
ACJISTGL
 70
     0
  3
_ _ _ _ _
 72
    65
 73
     2
 40
3.0
 49
2.0
 49
-1.0
  0
LTYPE
  2
ACISOWELD
 70
     0
  3
_ _ _ _ _
 72
    65
 73
     2
 40
2.0
 49
2.0
 49
-1.0
  0
LTYPE
  2
ACISOTGB
 70
     0
  3
__ . . __ . .
 72
    65
 73
     6
 40
9.0
 49
4.0
 49
-1.0
 49
1.0
 49
-1.0
 49
1.0
 49
-1.0
  0
LTYPE
  2
ACISOTGL
 70
     0
  3
_ _ _ _ _
 72
    65
 73
     2
 40
3.0
 49
2.0
 49
-1.0
  0
LTYPE
  2
AM_ISO02W050
 70
     0
  3
__ __ __ __ __ __ __ __ __ __ __ __ __ __ __
 72
    65
 73
     2
 40
7.5
 49
6.0
 49
-1.5
  0
LTYPE
  2
AM_ISO08W050
 70
     0
  3
____ . ____ . ____ . ____ . ____ . ____ . ____
 72
    65
 73
     4
 40
18.0
 49
12.0
 49
-1.5
 49
3.0
 49
-1.5
  0
LTYPE
  2
AM_ISO09W050
 70
     0
  3
_____ . . _____ . . _____ . . ____ .. ____
 72
    65
 73
     6
 40
22.5
 49
12.0
 49
-1.5
 49
3.0
 49
-1.5
 49
3.0
 49
-1.5
  0
LTYPE
  2
AMCONSTR
 70
     0
  3
_______________________
 72
    65
 73
     2
 40
9999.0
 49
9999.0
 49
0.0
  0
LTYPE
  2
AM_ISO08W050X2
 70
     0
  3
__ . __ . __ . __ . __ . __
 72
    65
 73
     4
 40
9.0
 49
6.0
 49
-0.75
 49
1.5
 49
-0.75
  0
LTYPE
  2
AM_ISO02W050X2
 70
     0
  3
 _ _ _ _ _ _ _ _ _ _ _ _
 72
    65
 73
     2
 40
3.75
 49
3.0
 49
-0.75
  0
LTYPE
  2
AMZIGZAG
 70
     0
  3
/\/-/\/-/\/-/\/-/\/-/\/
 72
    65
 73
     2
 40
11.0001
 49
0.0001
 49
-11.0
  0
ENDTAB
  0
TABLE
  2
LAYER
 70
    22
  0
LAYER
  2
0
 70
     0
 62
     3
  6
CONTINUOUS
  0
LAYER
  2
SYS-BUHIN0
 70
     0
 62
     7
  6
CONTINUOUS
  0
LAYER
  2
AM_0
 70
     0
 62
     3
  6
CONTINUOUS
  0
LAYER
  2
DEFPOINTS
 70
     0
 62
     7
  6
CONTINUOUS
  0
LAYER
  2
AM_5
 70
     0
 62
     7
  6
CONTINUOUS
  0
LAYER
  2
AM_BOR
 70
     0
 62
     7
  6
CONTINUOUS
  0
LAYER
  2
SYS-BUHINCODE
 70
     0
 62
     7
  6
CONTINUOUS
  0
LAYER
  2
AM_7
 70
     0
 62
     4
  6
CENTER
  0
LAYER
  2
AM_3
 70
     0
 62
     7
  6
HIDDEN
  0
LAYER
  2
AM_12
 70
     0
 62
   253
  6
CONTINUOUS
  0
LAYER
  2
AM_PAREF
 70
     0
 62
     4
  6
CONTINUOUS
  0
LAYER
  2
AM_6
 70
     0
 62
     7
  6
CONTINUOUS
  0
LAYER
  2
AM_8
 70
     0
 62
   253
  6
CONTINUOUS
  0
LAYER
  2
AM_4
 70
     0
 62
     6
  6
CONTINUOUS
  0
LAYER
  2
AM_10
 70
     0
 62
     7
  6
CONTINUOUS
  0
LAYER
  2
AM_CL
 70
     0
 62
     1
  6
CONTINUOUS
  0
LAYER
  2
AM_2
 70
     0
 62
     5
  6
PHANTOM2
  0
LAYER
  2
AM_1N
 70
     0
 62
    14
  6
CONTINUOUS
  0
LAYER
  2
AM_1
 70
     0
 62
    14
  6
PHANTOM2
  0
LAYER
  2
AM_9
 70
     0
 62
    -7
  6
CONTINUOUS
  0
LAYER
  2
SYS-TEISEI0
 70
     0
 62
     7
  6
CONTINUOUS
  0
LAYER
  2
K000720
 70
     0
 62
     7
  6
CONTINUOUS
  0
ENDTAB
  0
TABLE
  2
STYLE
 70
    15
  0
STYLE
  2
STANDARD
 70
     0
 40
0.0
 41
1.0
 50
0.0
 71
     0
 42
3.0
  3
dim.shx
  4
extfont.shx
  0
STYLE
  2
KNJYOKO
 70
     0
 40
0.0
 41
1.0
 50
0.0
 71
     0
 42
3.099999904632567
  3
TXT.shx
  4
extfont.shx
  0
STYLE
  2
ACANSTS
 70
     0
 40
1.0
 41
1.0
 50
0.0
 71
     0
 42
0.2
  3
romans.shx
  4
extfont.shx
  0
STYLE
  2
ACANSGDT
 70
     0
 40
0.0
 41
1.0
 50
0.0
 71
     0
 42
0.2
  3
amgdt.shx
  4

  0
STYLE
  2
ACJISTS
 70
     0
 40
1.0
 41
1.0
 50
0.0
 71
     0
 42
0.2
  3
isocp.shx
  4
extfont.shx
  0
STYLE
  2
ACJISGDT
 70
     0
 40
0.0
 41
1.0
 50
0.0
 71
     0
 42
0.2
  3
amgdt.shx
  4

  0
STYLE
  2
MINNTYOU
 70
     0
 40
0.0
 41
1.0
 50
0.0
 71
     0
 42
3.0
  3
txt
  4

  0
STYLE
  2
R寸法
 70
     0
 40
2.0
 41
1.0
 50
0.0
 71
     0
 42
3.0
  3
dim.shx
  4
extfont.shx
  0
STYLE
  2
ANKTATE
 70
     4
 40
0.0
 41
1.0
 50
0.0
 71
     0
 42
3.099999904632567
  3
TXT
  4

  0
STYLE
  2
KNJTATE
 70
     4
 40
0.0
 41
1.0
 50
0.0
 71
     0
 42
3.099999904632567
  3
TXT
  4
BIGFONT
  0
STYLE
  2
ACISOTS
 70
     0
 40
1.0
 41
1.0
 50
0.0
 71
     0
 42
2.5
  3
isocp.shx
  4
extfont.shx
  0
STYLE
  2
ACISOGDT
 70
     0
 40
0.0
 41
1.0
 50
0.0
 71
     0
 42
2.5
  3
amgdt.shx
  4

  0
STYLE
  2

 70
     1
 40
0.0
 41
1.0
 50
0.0
 71
     0
 42
3.0
  3
genltshp.shx
  4

  0
ENDTAB
  0
TABLE
  2
VIEW
 70
     7
  0
VIEW
  2
AM_VIEW1
 70
     0
 40
137.99999999999989
 10
151.8531375166888
 20
215.99999999999989
 41
253.70627503337769
 11
0.0
 21
0.0
 31
1.0
 12
0.0
 22
0.0
 32
0.0
 42
50.0
 43
0.0
 44
0.0
 50
0.0
 71
     0
  0
VIEW
  2
AM_VIEW2
 70
     0
 40
137.99999999999989
 10
285.146862483311
 20
215.99999999999989
 41
253.70627503337769
 11
0.0
 21
0.0
 31
1.0
 12
0.0
 22
0.0
 32
0.0
 42
50.0
 43
0.0
 44
0.0
 50
0.0
 71
     0
  0
VIEW
  2
AM_VIEW3
 70
     0
 40
137.99999999999989
 10
151.8531375166888
 20
77.999999999999972
 41
253.70627503337769
 11
0.0
 21
0.0
 31
1.0
 12
0.0
 22
0.0
 32
0.0
 42
50.0
 43
0.0
 44
0.0
 50
0.0
 71
     0
  0
VIEW
  2
AM_VIEW4
 70
     0
 40
137.99999999999989
 10
285.146862483311
 20
77.999999999999972
 41
253.70627503337769
 11
0.0
 21
0.0
 31
1.0
 12
0.0
 22
0.0
 32
0.0
 42
50.0
 43
0.0
 44
0.0
 50
0.0
 71
     0
  0
VIEW
  2
AM_VIEW5
 70
     0
 40
137.99999999999989
 10
218.49999999999989
 20
146.99999999999989
 41
253.70627503337769
 11
0.0
 21
0.0
 31
1.0
 12
0.0
 22
0.0
 32
0.0
 42
50.0
 43
0.0
 44
0.0
 50
0.0
 71
     0
  0
VIEW
  2
AM_VIEW6
 70
     0
 40
275.99723999999992
 10
218.49999999999989
 20
146.99999999999989
 41
507.4074759412548
 11
0.0
 21
0.0
 31
1.0
 12
0.0
 22
0.0
 32
0.0
 42
50.0
 43
0.0
 44
0.0
 50
0.0
 71
     0
  0
ENDTAB
  0
TABLE
  2
UCS
 70
     0
  0
ENDTAB
  0
TABLE
  2
APPID
 70
    60
  0
APPID
  2
ACAD
 70
     0
  0
APPID
  2
ACADANNOTATIVE
 70
     0
  0
APPID
  2
ACAD_MLEADERVER
 70
     0
  0
APPID
  2
MCAD_NO_VIS
 70
     0
  0
APPID
  2
ACAD_TEMP_GRAPHIC
 70
     0
  0
APPID
  2
AD_DRAW
 70
     0
  0
APPID
  2
ACATTRIBSERVICES
 70
     0
  0
APPID
  2
DESIGNERASSEMBLIES
 70
     0
  0
APPID
  2
ACADM_DIM_EDIT
 70
     0
  0
APPID
  2
AMDT_DM_ADJ
 70
     0
  0
APPID
  2
ACADANNOPO
 70
     0
  0
APPID
  2
ACAECLAYERSTANDARD
 70
     0
  0
APPID
  2
ACDBDYNAMICBLOCKGUID
 70
     0
  0
APPID
  2
ACDBBLOCKREPETAG
 70
     0
  0
APPID
  2
ACAUTHENVIRON
 70
     0
  0
APPID
  2
ACDBDYNAMICBLOCKTRUENAME
 70
     0
  0
APPID
  2
GENIUS_GENREC_14
 70
     0
  0
APPID
  2
GENIUS_GENOBJ-N-REC_13
 70
     0
  0
APPID
  2
GENIUS_GENODEF_13
 70
     0
  0
APPID
  2
ACAD_EXEMPT_FROM_CAD_STANDARDS
 70
     0
  0
APPID
  2
GENIUS_GENOBJ-N-CEN_13
 70
     0
  0
APPID
  2
GENIUS_GENCEN_19
 70
     0
  0
APPID
  2
ACAD_DSTYLE_DIMINSPECT
 70
     0
  0
APPID
  2
DCO15
 70
     0
  0
APPID
  2
ACAD_PSEXT
 70
     0
  0
APPID
  2
GENIUS_GENBH_13
 70
     0
  0
APPID
  2
GENIUS_GENOENT_13
 70
     0
  0
APPID
  2
GENIUS_GENOLIS_13
 70
     0
  0
APPID
  2
GENIUS_GENOBJ-NBEHI-BHF_13
 70
     0
  0
APPID
  2
GENIUS_GENOREF_13
 70
     0
  0
APPID
  2
GENIUS_GENOBJ-NBEHI-BHB_13
 70
     0
  0
APPID
  2
AMG_2DHIDE
 70
     0
  0
APPID
  2
AMG_2DSTRUCT_BTR
 70
     0
  0
APPID
  2
GENIUS_AMGTXT_16
 70
     0
  0
APPID
  2
GENIUS_GENOBJ-N-HTC_13
 70
     0
  0
APPID
  2
GENIUS_GENHATCH_13
 70
     0
  0
APPID
  2
GEVID1208849169
 70
     0
  0
APPID
  2
GEVDC
 70
     0
  0
APPID
  2
ACADM_2DVIEW_IGN_NOTIFY
 70
     0
  0
APPID
  2
GEVID1208849170
 70
     0
  0
APPID
  2
GEVID1208849171
 70
     0
  0
APPID
  2
GEVRADREF
 70
     0
  0
APPID
  2
ACAD_DSTYLE_DIMJAG
 70
     0
  0
APPID
  2
ACAD_DSTYLE_DIMTALN
 70
     0
  0
APPID
  2
GENIUS_GENDTOL_13
 70
     0
  0
APPID
  2
GENIUS_GENTRA_14
 70
     0
  0
APPID
  2
GENIUS_GENOBJ-N-TIT_13
 70
     0
  0
APPID
  2
GENIUS_GENTITLE_13
 70
     0
  0
APPID
  2
GENIUS_GENSCREG_15
 70
     0
  0
APPID
  2
GENIUS_GENOBJ-N-SDF_13
 70
     0
  0
APPID
  2
ACAD_DSTYLE_DIMRADIAL_EXTENSION
 70
     0
  0
APPID
  2
GENIUS_GENOBJ-N-FIL_13
 70
     0
  0
APPID
  2
GENIUS_GENOBJ-N-CRS_13
 70
     0
  0
APPID
  2
GENIUS_GENDIMSH_14
 70
     0
  0
APPID
  2
ACAD_DSTYLE_DIMANGULAR_EXT
 70
     0
  0
APPID
  2
ACAD_NAV_VCDISPLAY
 70
     0
  0
APPID
  2
ACAD_DSTYLE_DIMBREAK
 70
     0
  0
APPID
  2
GENIUS_GENSCREG_13
 70
     0
  0
APPID
  2
CONTENTBLOCKICON
 70
     0
  0
APPID
  2
AcDbAttr
 70
     0
  0
ENDTAB
  0
TABLE
  2
DIMSTYLE
 70
    27
  0
DIMSTYLE
  2
STANDARD
 70
     0
  3

  4

  5

  6

  7

 40
1.0
 41
1.0
 42
0.8
 43
0.38
 44
1.0
 45
0.0
 46
0.0
 47
0.0
 48
0.0
140
3.1000000000000001
141
0.09
142
0.0
143
25.399999999999999
144
1.0
145
0.5
146
1.0
147
0.09
 71
     0
 72
     0
 73
     0
 74
     0
 75
     0
 76
     0
 77
     1
 78
     0
170
     0
171
     2
172
     0
173
     0
174
     0
175
     0
176
     0
177
     0
178
     0
  0
DIMSTYLE
  2
AM_ANSI
 70
     0
  3

  4
mm
  5

  6

  7

 40
1.0
 41
0.1
 42
0.05
 43
0.5
 44
0.1
 45
0.0
 46
0.0
 47
0.1
 48
0.1
140
0.12
141
0.0
142
0.0
143
25.399999999999999
144
1.0
145
0.0
146
0.71
147
0.06
 71
     0
 72
     0
 73
     1
 74
     1
 75
     0
 76
     0
 77
     0
 78
     7
170
     0
171
     2
172
     0
173
     0
174
     0
175
     0
176
   256
177
   256
178
     2
  0
DIMSTYLE
  2
AM_ANSI$3
 70
     0
  3

  4
mm
  5

  6

  7

 40
1.0
 41
0.1
 42
0.05
 43
0.5
 44
0.1
 45
0.0
 46
0.0
 47
0.1
 48
0.1
140
0.12
141
0.0
142
0.0
143
25.399999999999999
144
1.0
145
0.0
146
0.71
147
0.06
 71
     0
 72
     0
 73
     1
 74
     1
 75
     0
 76
     0
 77
     0
 78
     7
170
     0
171
     2
172
     0
173
     0
174
     0
175
     0
176
   256
177
   256
178
     2
  0
DIMSTYLE
  2
AM_ANSI$4
 70
     0
  3

  4
mm
  5

  6

  7

 40
1.0
 41
0.1
 42
0.05
 43
0.5
 44
0.1
 45
0.0
 46
0.0
 47
0.1
 48
0.1
140
0.12
141
0.0
142
0.0
143
25.399999999999999
144
1.0
145
0.0
146
0.71
147
0.06
 71
     0
 72
     0
 73
     1
 74
     1
 75
     0
 76
     0
 77
     0
 78
     7
170
     0
171
     2
172
     0
173
     0
174
     0
175
     0
176
   256
177
   256
178
     2
  0
DIMSTYLE
  2
AM_ANSI$7
 70
     0
  3

  4
mm
  5

  6

  7

 40
1.0
 41
0.1
 42
0.05
 43
0.5
 44
0.1
 45
0.0
 46
0.0
 47
0.1
 48
0.1
140
0.24
141
0.0
142
0.0
143
25.399999999999999
144
1.0
145
0.0
146
0.71
147
0.06
 71
     0
 72
     0
 73
     1
 74
     1
 75
     0
 76
     0
 77
     0
 78
     7
170
     0
171
     2
172
     0
173
     0
174
     0
175
     0
176
   256
177
   256
178
     2
  0
DIMSTYLE
  2
AM_ANSI$SF
 70
     0
  3

  4
mm
  5

  6

  7

 40
1.0
 41
0.1
 42
0.05
 43
0.5
 44
0.1
 45
0.0
 46
0.0
 47
0.1
 48
0.1
140
0.12
141
0.0
142
0.0
143
25.399999999999999
144
1.0
145
0.0
146
0.71
147
0.06
 71
     0
 72
     0
 73
     1
 74
     1
 75
     1
 76
     1
 77
     0
 78
     7
170
     0
171
     2
172
     0
173
     0
174
     0
175
     0
176
   256
177
   256
178
     2
  0
DIMSTYLE
  2
AM_ANSI$SH
 70
     0
  3

  4
mm
  5

  6
GENAXEH
  7

 40
1.0
 41
0.1
 42
0.05
 43
0.5
 44
0.1
 45
0.0
 46
0.0
 47
0.1
 48
0.1
140
0.12
141
0.0
142
0.0
143
25.399999999999999
144
1.0
145
0.0
146
0.71
147
0.06
 71
     0
 72
     0
 73
     1
 74
     1
 75
     1
 76
     1
 77
     0
 78
     7
170
     0
171
     2
172
     0
173
     1
174
     0
175
     0
176
   256
177
   256
178
     2
  0
DIMSTYLE
  2
AM_JIS
 70
     0
  3

  4
"
  5
OPEN30
  6

  7

 40
1.0
 41
2.5
 42
1.0
 43
7.0
 44
1.0
 45
0.0
 46
0.0
 47
0.1
 48
0.1
140
3.0
141
0.0
142
0.0
143
0.0393701
144
1.0
145
0.0
146
0.71
147
1.0
 71
     0
 72
     0
 73
     0
 74
     0
 75
     0
 76
     0
 77
     3
 78
     8
170
     0
171
     2
172
     1
173
     0
174
     0
175
     0
176
     7
177
     7
178
     7
  0
DIMSTYLE
  2
AM_JIS$3
 70
     0
  3

  4
"
  5
OPEN30
  6

  7

 40
1.0
 41
2.5
 42
1.0
 43
10.0
 44
1.0
 45
0.0
 46
0.0
 47
0.1
 48
0.1
140
3.0
141
0.0
142
0.0
143
0.0393701
144
1.0
145
0.0
146
0.71
147
1.0
 71
     0
 72
     0
 73
     0
 74
     1
 75
     0
 76
     0
 77
     3
 78
     8
170
     0
171
     2
172
     0
173
     0
174
     0
175
     0
176
     7
177
     7
178
     7
  0
DIMSTYLE
  2
AM_JIS$4
 70
     0
  3

  4
"
  5
OPEN30
  6

  7

 40
1.0
 41
2.5
 42
1.0
 43
10.0
 44
1.0
 45
0.0
 46
0.0
 47
0.1
 48
0.1
140
2.0
141
0.0
142
0.0
143
0.0393701
144
1.0
145
0.0
146
0.71
147
1.0
 71
     0
 72
     0
 73
     0
 74
     0
 75
     0
 76
     0
 77
     3
 78
     8
170
     0
171
     2
172
     0
173
     0
174
     0
175
     0
176
     7
177
     7
178
     7
  0
DIMSTYLE
  2
AM_JIS$6
 70
     0
  3

  4
"
  5
OPEN30
  6

  7

 40
1.0
 41
2.5
 42
1.0
 43
10.0
 44
1.0
 45
0.0
 46
0.0
 47
0.1
 48
0.1
140
3.0
141
0.0
142
0.0
143
0.0393701
144
1.0
145
0.0
146
0.71
147
1.0
 71
     0
 72
     0
 73
     0
 74
     0
 75
     0
 76
     0
 77
     0
 78
     8
170
     0
171
     2
172
     1
173
     0
174
     0
175
     0
176
   256
177
     7
178
     7
  0
DIMSTYLE
  2
AM_JIS$7
 70
     0
  3

  4
"
  5
OPEN30
  6

  7

 40
1.0
 41
2.5
 42
1.0
 43
10.0
 44
1.0
 45
0.0
 46
0.0
 47
0.1
 48
0.1
140
3.0
141
0.0
142
0.0
143
0.0393701
144
1.0
145
0.0
146
0.71
147
1.0
 71
     0
 72
     0
 73
     0
 74
     0
 75
     0
 76
     0
 77
     3
 78
     8
170
     0
171
     2
172
     1
173
     0
174
     0
175
     0
176
     7
177
   256
178
     7
  0
DIMSTYLE
  2
AM_JIS$SF
 70
     0
  3

  4
"
  5
OPEN30
  6

  7

 40
1.0
 41
2.5
 42
1.0
 43
7.0
 44
1.0
 45
0.0
 46
0.0
 47
0.1
 48
0.1
140
3.0
141
0.0
142
0.0
143
0.0393701
144
1.0
145
0.0
146
0.71
147
1.0
 71
     0
 72
     0
 73
     0
 74
     0
 75
     1
 76
     1
 77
     3
 78
     8
170
     0
171
     2
172
     1
173
     0
174
     0
175
     0
176
     7
177
   256
178
     7
  0
DIMSTYLE
  2
AM_JIS$SH
 70
     0
  3

  4
"
  5

  6
GENAXEH
  7
OPEN30
 40
1.0
 41
2.5
 42
1.0
 43
7.0
 44
1.0
 45
0.0
 46
0.0
 47
0.1
 48
0.1
140
3.0
141
0.0
142
0.0
143
0.0393701
144
2.0
145
0.0
146
0.71
147
1.0
 71
     0
 72
     0
 73
     0
 74
     0
 75
     1
 76
     1
 77
     3
 78
     8
170
     0
171
     2
172
     1
173
     1
174
     0
175
     0
176
     7
177
   256
178
     7
  0
DIMSTYLE
  2
AM_JIS$2
 70
     0
  3

  4
"
  5
OPEN30
  6

  7

 40
1.0
 41
2.5
 42
1.0
 43
7.0
 44
1.0
 45
0.0
 46
0.0
 47
0.1
 48
0.1
140
3.0
141
0.0
142
0.0
143
0.0393701
144
1.0
145
0.0
146
0.71
147
1.0
 71
     0
 72
     0
 73
     0
 74
     0
 75
     0
 76
     0
 77
     3
 78
     8
170
     0
171
     2
172
     1
173
     0
174
     0
175
     0
176
     7
177
     7
178
     7
  0
DIMSTYLE
  2
AM_JIS$0
 70
     0
  3

  4
"
  5
OPEN30
  6

  7

 40
1.0
 41
2.5
 42
1.0
 43
7.0
 44
1.0
 45
0.0
 46
0.0
 47
0.1
 48
0.1
140
3.0
141
0.0
142
0.0
143
0.0393701
144
1.0
145
0.0
146
0.71
147
1.0
 71
     0
 72
     0
 73
     0
 74
     0
 75
     0
 76
     0
 77
     3
 78
     8
170
     0
171
     2
172
     1
173
     0
174
     0
175
     0
176
     7
177
     7
178
     7
  0
DIMSTYLE
  2
STANDARD$0
 70
     0
  3

  4

  5

  6

  7

 40
1.0
 41
1.0
 42
0.8
 43
0.38
 44
1.0
 45
0.0
 46
0.0
 47
0.0
 48
0.0
140
3.1000000000000001
141
0.09
142
0.0
143
25.399999999999999
144
1.0
145
0.5
146
1.0
147
0.09
 71
     0
 72
     0
 73
     0
 74
     0
 75
     0
 76
     0
 77
     1
 78
     0
170
     0
171
     2
172
     0
173
     0
174
     0
175
     0
176
     0
177
     0
178
     0
  0
DIMSTYLE
  2
ANNOTATIVE
 70
     0
  3

  4

  5

  6

  7

 40
1.0
 41
0.18
 42
0.0625
 43
0.38
 44
0.18
 45
0.0
 46
0.0
 47
0.0
 48
0.0
140
0.18
141
0.09
142
0.0
143
25.399999999999999
144
1.0
145
0.0
146
1.0
147
0.09
 71
     0
 72
     0
 73
     1
 74
     1
 75
     0
 76
     0
 77
     0
 78
     0
170
     0
171
     2
172
     0
173
     0
174
     0
175
     0
176
     0
177
     0
178
     0
  0
DIMSTYLE
  2
AM_ISO
 70
     0
  3

  4
"
  5

  6

  7

 40
1.0
 41
2.5
 42
1.0
 43
10.0
 44
1.0
 45
0.0
 46
0.0
 47
0.1
 48
0.1
140
3.5
141
0.0
142
0.0
143
0.0393701
144
1.0
145
0.0
146
0.71
147
1.5
 71
     0
 72
     0
 73
     0
 74
     0
 75
     0
 76
     0
 77
     1
 78
     8
170
     0
171
     2
172
     1
173
     0
174
     0
175
     0
176
   256
177
   256
178
     2
  0
DIMSTYLE
  2
AM_ISO$3
 70
     0
  3

  4
"
  5

  6

  7

 40
1.0
 41
2.5
 42
1.0
 43
10.0
 44
1.0
 45
0.0
 46
0.0
 47
0.1
 48
0.1
140
3.5
141
0.0
142
0.0
143
0.0393701
144
1.0
145
0.0
146
0.71
147
1.5
 71
     0
 72
     0
 73
     0
 74
     1
 75
     0
 76
     0
 77
     1
 78
     8
170
     0
171
     2
172
     0
173
     0
174
     0
175
     0
176
   256
177
   256
178
     2
  0
DIMSTYLE
  2
AM_ISO$4
 70
     0
  3

  4
"
  5

  6

  7

 40
1.0
 41
2.5
 42
1.0
 43
10.0
 44
1.0
 45
0.0
 46
0.0
 47
0.1
 48
0.1
140
3.5
141
0.0
142
0.0
143
0.0393701
144
1.0
145
0.0
146
0.71
147
1.5
 71
     0
 72
     0
 73
     0
 74
     1
 75
     0
 76
     0
 77
     1
 78
     8
170
     0
171
     2
172
     0
173
     0
174
     0
175
     0
176
   256
177
   256
178
     2
  0
DIMSTYLE
  2
AM_ISO$6
 70
     0
  3

  4
"
  5

  6

  7

 40
1.0
 41
2.5
 42
1.0
 43
10.0
 44
1.0
 45
0.0
 46
0.0
 47
0.1
 48
0.1
140
3.5
141
0.0
142
0.0
143
0.0393701
144
1.0
145
0.0
146
0.71
147
1.5
 71
     0
 72
     0
 73
     0
 74
     0
 75
     0
 76
     0
 77
     0
 78
     8
170
     0
171
     2
172
     1
173
     0
174
     0
175
     0
176
   256
177
   256
178
     2
  0
DIMSTYLE
  2
AM_ISO$7
 70
     0
  3

  4
"
  5

  6

  7

 40
1.0
 41
2.5
 42
1.0
 43
10.0
 44
1.0
 45
0.0
 46
0.0
 47
0.1
 48
0.1
140
5.0
141
0.0
142
0.0
143
0.0393701
144
1.0
145
0.0
146
0.71
147
1.5
 71
     0
 72
     0
 73
     0
 74
     0
 75
     0
 76
     0
 77
     1
 78
     8
170
     0
171
     2
172
     1
173
     0
174
     0
175
     0
176
   256
177
   256
178
     2
  0
DIMSTYLE
  2
AM_ISO$SF
 70
     0
  3

  4
"
  5

  6

  7

 40
1.0
 41
2.5
 42
1.0
 43
10.0
 44
1.0
 45
0.0
 46
0.0
 47
0.1
 48
0.1
140
3.5
141
0.0
142
0.0
143
0.0393701
144
1.0
145
0.0
146
0.71
147
1.5
 71
     0
 72
     0
 73
     0
 74
     0
 75
     1
 76
     1
 77
     1
 78
     8
170
     0
171
     2
172
     1
173
     0
174
     0
175
     0
176
   256
177
   256
178
     2
  0
DIMSTYLE
  2
AM_ISO$SH
 70
     0
  3

  4
"
  5

  6
GENAXEH
  7

 40
1.0
 41
2.5
 42
1.0
 43
10.0
 44
1.0
 45
0.0
 46
0.0
 47
0.1
 48
0.1
140
3.5
141
0.0
142
0.0
143
0.0393701
144
2.0
145
0.0
146
0.71
147
1.5
 71
     0
 72
     0
 73
     0
 74
     0
 75
     1
 76
     1
 77
     1
 78
     8
170
     0
171
     2
172
     1
173
     1
174
     0
175
     0
176
   256
177
   256
178
     2
  0
ENDTAB
  0
ENDSEC
  0
SECTION
  2
BLOCKS
  0
BLOCK
  8
0
  2
$MODEL_SPACE
 70
     0
 10
0.0
 20
0.0
 30
0.0
  3
$MODEL_SPACE
  1

  0
ENDBLK
  5
1D3
  8
0
  0
BLOCK
 67
     1
  8
0
  2
$PAPER_SPACE
 70
     0
 10
0.0
 20
0.0
 30
0.0
  3
$PAPER_SPACE
  1

  0
ENDBLK
  5
1D1
 67
     1
  8
0
  0
BLOCK
  8
0
  2
GENAXEH
 70
     0
 10
0.0
 20
0.0
 30
0.0
  3
GENAXEH
  1

  0
LINE
  5
264
  8
0
 10
-1.0
 20
0.0
 30
0.0
 11
1.0
 21
0.0
 31
0.0
  0
ENDBLK
  5
266
  8
0
  0
BLOCK
  8
0
  2
_OPEN30
 70
     0
 10
0.0
 20
0.0
 30
0.0
  3
_OPEN30
  1

  0
LINE
  5
2FA
  8
0
  6
BYBLOCK
 62
     0
 10
-1.0
 20
0.26794919
 30
0.0
 11
0.0
 21
0.0
 31
0.0
  0
LINE
  5
2FB
  8
0
  6
BYBLOCK
 62
     0
 10
0.0
 20
0.0
 30
0.0
 11
-1.0
 21
-0.26794919
 31
0.0
  0
LINE
  5
2FC
  8
0
  6
BYBLOCK
 62
     0
 10
0.0
 20
0.0
 30
0.0
 11
-1.0
 21
0.0
 31
0.0
  0
ENDBLK
  5
2FE
  8
0
  0
BLOCK
  8
0
  2
MYPLIST0
 70
     2
 10
0.0
 20
0.0
 30
0.0
  3
MYPLIST0
  1

  0
LINE
  5
346
  8
SYS-BUHIN0
  6
CONTINUOUS
 62
     4
 10
-170.0
 20
7.0
 30
0.0
 11
0.0
 21
7.0
 31
0.0
  0
LINE
  5
347
  8
SYS-BUHIN0
  6
CONTINUOUS
 62
     4
 10
-170.0
 20
-0.0000000000030695
 30
0.0
 11
0.0
 21
-0.0000000000001137
 31
0.0
  0
LINE
  5
348
  8
SYS-BUHIN0
  6
CONTINUOUS
 62
     4
 10
-170.0
 20
7.0
 30
0.0
 11
-170.0
 21
0.0
 31
0.0
  0
LINE
  5
349
  8
SYS-BUHIN0
  6
CONTINUOUS
 62
     4
 10
0.0
 20
7.0
 30
0.0
 11
0.0
 21
0.0
 31
0.0
  0
LINE
  5
34A
  8
SYS-BUHIN0
  6
CONTINUOUS
 62
     4
 10
-161.0
 20
7.0
 30
0.0
 11
-161.0
 21
0.0
 31
0.0
  0
LINE
  5
34B
  8
SYS-BUHIN0
  6
CONTINUOUS
 62
     4
 10
-99.0
 20
7.0
 30
0.0
 11
-99.0
 21
0.0
 31
0.0
  0
LINE
  5
34C
  8
SYS-BUHIN0
  6
CONTINUOUS
 62
     4
 10
-72.0
 20
7.0
 30
0.0
 11
-72.0
 21
0.0
 31
0.0
  0
LINE
  5
34D
  8
SYS-BUHIN0
  6
CONTINUOUS
 62
     4
 10
-63.0
 20
7.0
 30
0.0
 11
-63.0
 21
0.0
 31
0.0
  0
LINE
  5
34E
  8
SYS-BUHIN0
  6
CONTINUOUS
 62
     4
 10
-16.0
 20
7.0
 30
0.0
 11
-16.0
 21
0.0
 31
0.0
  0
TEXT
  5
34F
  8
SYS-BUHIN0
  6
CONTINUOUS
 62
     7
 10
-13.61264708219346
 20
0.6000000119208835
 30
0.0
 40
1.1000000000000001
  1
PARTS NO.
 41
1.3
  0
TEXT
  5
350
  8
SYS-BUHIN0
  6
CONTINUOUS
 62
     7
 10
-14.36429419116018
 20
3.0691472933651762
 30
0.0
 40
2.2000000000000002
  1
部品コード
  0
TEXT
  5
351
  8
SYS-BUHIN0
  6
CONTINUOUS
 62
     7
 10
-43.852454807937526
 20
0.6000000119208835
 30
0.0
 40
1.1000000000000001
  1
REMARKS
 41
1.3
  0
TEXT
  5
352
  8
SYS-BUHIN0
  6
CONTINUOUS
 62
     7
 10
-47.370000243186951
 20
2.7500000476836699
 30
0.0
 40
2.7999999999999989
  1
備    考
  0
TEXT
  5
353
  8
SYS-BUHIN0
  6
CONTINUOUS
 62
     7
 10
-69.144963642251696
 20
0.6000000119208835
 30
0.0
 40
1.1000000000000001
  1
UNIT
  0
TEXT
  5
354
  8
SYS-BUHIN0
  6
CONTINUOUS
 62
     7
 10
-70.272262370934413
 20
2.6949072988287521
 30
0.0
 40
2.7999999999999989
  1
数量
  0
TEXT
  5
355
  8
SYS-BUHIN0
  6
CONTINUOUS
 62
     7
 10
-90.559234383463263
 20
0.6000000119208835
 30
0.0
 40
1.1000000000000001
  1
MATERIAL
 41
1.3
  0
TEXT
  5
357
  8
SYS-BUHIN0
  6
CONTINUOUS
 62
     7
 10
-138.9093619295486
 20
0.6000000119208835
 30
0.0
 40
1.1000000000000001
  1
  DESCRIPTION
 41
1.3
  0
TEXT
  5
358
  8
SYS-BUHIN0
  6
CONTINUOUS
 62
     7
 10
-142.0050003230572
 20
2.7500000476836699
 30
0.0
 40
2.7999999999999989
  1
 部  品  名
  0
TEXT
  5
359
  8
SYS-BUHIN0
  6
CONTINUOUS
 62
     7
 10
-166.63404873957319
 20
0.6000000119208835
 30
0.0
 40
1.1000000000000001
  1
NO.
  0
TEXT
  5
35A
  8
SYS-BUHIN0
  6
CONTINUOUS
 62
     7
 10
-168.29000008106229
 20
2.7500000476836699
 30
0.0
 40
2.7999999999999989
  1
項番
  0
ATTDEF
  5
35B
  8
AM_0
 62
     7
 10
-168.79000008106229
 20
3.5
 30
0.0
 40
3.1000000000000001
  1

  3

  2
ITEM
 70
     1
1001
AcDbAttr
1070
     0
1070
     1
  0
TEXT
  5
C0B
  8
AM_BOR
 62
     7
 10
-91.770000159740434
 20
2.7000000476837149
 30
0.0
 40
2.7999999999999989
  1
材　　質
  0
ENDBLK
  5
35C
  8
0
  0
BLOCK
  8
0
  2
MYPLIST1
 70
     2
 10
0.0
 20
0.0
 30
0.0
  3
MYPLIST1
  1

  0
LINE
  5
393
  8
SYS-BUHIN0
  6
CONTINUOUS
 62
     4
 10
-170.0
 20
6.0
 30
0.0
 11
0.0
 21
6.0
 31
0.0
  0
LINE
  5
394
  8
SYS-BUHIN0
  6
CONTINUOUS
 62
     4
 10
-170.0
 20
0.0
 30
0.0
 11
-170.0
 21
6.0
 31
0.0
  0
LINE
  5
395
  8
SYS-BUHIN0
  6
CONTINUOUS
 62
     4
 10
-161.0
 20
0.0
 30
0.0
 11
-161.0
 21
6.0
 31
0.0
  0
LINE
  5
396
  8
SYS-BUHIN0
  6
CONTINUOUS
 62
     4
 10
-99.0
 20
0.0
 30
0.0
 11
-99.0
 21
6.0
 31
0.0
  0
LINE
  5
397
  8
SYS-BUHIN0
  6
CONTINUOUS
 62
     4
 10
-72.0
 20
0.0
 30
0.0
 11
-72.0
 21
6.0
 31
0.0
  0
LINE
  5
398
  8
SYS-BUHIN0
  6
CONTINUOUS
 62
     4
 10
-63.0
 20
0.0
 30
0.0
 11
-63.0
 21
6.0
 31
0.0
  0
LINE
  5
399
  8
SYS-BUHIN0
  6
CONTINUOUS
 62
     4
 10
-16.0
 20
0.0
 30
0.0
 11
-16.0
 21
6.0
 31
0.0
  0
LINE
  5
39A
  8
SYS-BUHIN0
  6
CONTINUOUS
 62
     4
 10
0.0
 20
0.0
 30
0.0
 11
0.0
 21
6.0
 31
0.0
  0
LINE
  5
39B
  8
SYS-BUHIN0
  6
CONTINUOUS
 62
     4
 10
-170.0
 20
0.0
 30
0.0
 11
0.0
 21
0.0
 31
0.0
  0
ATTDEF
  5
39C
  8
SYS-BUHINCODE
 10
-14.0
 20
2.5
 30
0.0
 40
1.0
  1

 11
-14.0
 21
3.0
 31
0.0
  3
部品コード
  2
PCODE
 70
     0
 74
     2
1001
AcDbAttr
1070
     0
1070
     1
  0
ATTDEF
  5
39D
  8
SYS-BUHIN0
  6
CONTINUOUS
 62
     7
 10
-61.0
 20
2.0
 30
0.0
 40
2.0
  1

 11
-61.0
 21
3.0
 31
0.0
  3
備考
  2
NOTE
 70
     0
 74
     2
1001
AcDbAttr
1070
     0
1070
     1
  0
ATTDEF
  5
39E
  8
SYS-BUHIN0
  6
CONTINUOUS
 62
     7
 10
-67.5
 20
3.0
 30
0.0
 40
2.5
  1

 72
     4
 11
-67.5
 21
3.0
 31
0.0
  3
数量
  2
QTY
 70
     0
1001
AcDbAttr
1070
     0
1070
     1
  0
ATTDEF
  5
39F
  8
SYS-BUHIN0
  6
CONTINUOUS
 62
     7
 10
-97.595958160209875
 20
2.0
 30
0.0
 40
2.0
  1

 11
-97.595958160209875
 21
3.0
 31
0.0
  3
材質
  2
MATERIAL
 70
     0
 74
     2
1001
AcDbAttr
1070
     0
1070
     1
  0
ATTDEF
  5
3A0
  8
SYS-BUHIN0
  6
CONTINUOUS
 62
     7
 10
-159.0
 20
1.75
 30
0.0
 40
2.5
  1

 11
-159.0
 21
3.0
 31
0.0
  3
部品名
  2
DESCR
 70
     0
 74
     2
1001
AcDbAttr
1070
     0
1070
     1
  0
ATTDEF
  5
3A1
  8
SYS-BUHIN0
  6
CONTINUOUS
 62
     7
 10
-165.5
 20
3.0
 30
0.0
 40
2.5
  1

 72
     4
 11
-165.5
 21
3.0
 31
0.0
  3
項番
  2
ITEM
 70
     0
1001
AcDbAttr
1070
     0
1070
     1
  0
ENDBLK
  5
370
  8
0
  0
BLOCK
  8
0
  2
A$C1C06296A
 70
     2
 10
0.0
 20
0.0
 30
0.0
  3
A$C1C06296A
  1

  0
LINE
  5
204C
  8
AM_BOR
 10
198.86851880399371
 20
17.886744577931989
 30
0.0
 11
203.2337455721775
 21
13.521517809748619
 31
0.0
  0
LINE
  5
204D
  8
AM_BOR
 10
198.8685188039936
 20
17.866715351316039
 30
0.0
 11
198.86851880399399
 21
14.128964361178911
 31
0.0
  0
LINE
  5
204E
  8
AM_BOR
 10
204.7045172738834
 20
17.866715326469411
 30
0.0
 11
204.70451727388391
 21
14.181128845625549
 31
0.0
  0
LINE
  5
204F
  8
AM_BOR
 10
204.20428883360731
 20
17.793010290175861
 30
0.0
 11
204.204288833607
 21
14.69861035774108
 31
0.0
  0
LINE
  5
2050
  8
AM_BOR
 10
199.3687472442698
 20
17.176052465333349
 30
0.0
 11
199.36874724427059
 21
14.197800355103411
 31
0.0
  0
LINE
  5
2051
  8
AM_BOR
 10
200.43756462039269
 20
18.46533457095553
 30
0.0
 11
204.20428883360731
 21
14.69861035774052
 31
0.0
  0
LINE
  5
2052
  8
AM_BOR
 10
199.36874724426971
 20
17.17605246533255
 30
0.0
 11
203.02713287203409
 21
13.51766683756852
 31
0.0
  0
ARC
  5
2053
  8
AM_BOR
 10
198.36829036868701
 20
17.866715351316049
 30
0.0
 40
0.5002284402762121
 50
0.0
 51
50.265515568291427
  0
ARC
  5
2054
  8
AM_BOR
 10
198.36829034384081
 20
14.12896436117892
 30
0.0
 40
0.5002284402762121
 50
304.69759678405279
 51
0.0
  0
ARC
  5
2055
  8
AM_BOR
 10
205.20474573403669
 20
17.866715326469411
 30
0.0
 40
0.5002284402762121
 50
127.0284887689633
 51
180.00000500895629
  0
ARC
  5
2056
  8
AM_BOR
 10
203.53731756996689
 20
17.793010290175818
 30
0.0
 40
0.6669712537016159
 50
0.0
 51
74.714823568866152
  0
ARC
  5
2057
  8
AM_BOR
 10
200.03571849797169
 20
14.197800355103389
 30
0.0
 40
0.6669712537016159
 50
180.00000500895629
 51
256.4857883914604
  0
LINE
  5
2058
  8
AM_BOR
 10
210.95737277733619
 20
15.993445664994679
 30
0.0
 11
210.9224749062999
 21
16.211434571273589
 31
0.0
  0
LINE
  5
2059
  8
AM_BOR
 10
210.92247490629941
 20
16.211434571273411
 30
0.0
 11
210.8180468870608
 21
16.42776445035037
 31
0.0
  0
LINE
  5
205A
  8
AM_BOR
 10
210.8180468870604
 20
16.42776445035037
 30
0.0
 11
210.64488347990149
 21
16.640788901221669
 31
0.0
  0
LINE
  5
205B
  8
AM_BOR
 10
210.6448834799013
 20
16.640788901221619
 30
0.0
 11
210.40430256290981
 21
16.848886679188759
 31
0.0
  0
LINE
  5
205C
  8
AM_BOR
 10
210.40430256290949
 20
16.848886679189
 30
0.0
 11
210.0981351021297
 21
17.050474034508689
 31
0.0
  0
LINE
  5
205D
  8
AM_BOR
 10
210.09813510212999
 20
17.05047403450855
 30
0.0
 11
209.7287112168076
 21
17.244016765685139
 31
0.0
  0
LINE
  5
205E
  8
AM_BOR
 10
209.72871121680711
 20
17.24401676568521
 30
0.0
 11
209.29884244577369
 21
17.428041895669988
 31
0.0
  0
LINE
  5
205F
  8
AM_BOR
 10
209.29884244577369
 20
17.428041895670081
 30
0.0
 11
208.81180034993889
 21
17.601148882106369
 31
0.0
  0
LINE
  5
2060
  8
AM_BOR
 10
208.81180034993889
 20
17.60114888210644
 30
0.0
 11
208.27129161373591
 21
17.76202027630297
 31
0.0
  0
LINE
  5
2061
  8
AM_BOR
 10
208.27129161373611
 20
17.76202027630309
 30
0.0
 11
207.68142983501551
 21
17.909431749813081
 31
0.0
  0
LINE
  5
2062
  8
AM_BOR
 10
207.68142983501531
 20
17.90943174981297
 30
0.0
 11
207.04670421808169
 21
18.042261412313358
 31
0.0
  0
LINE
  5
2063
  8
AM_BOR
 10
207.04670421808169
 20
18.04226141231344
 30
0.0
 11
206.37194540813729
 21
18.15949834986797
 31
0.0
  0
LINE
  5
2064
  8
AM_BOR
 10
206.37194540813749
 20
18.159498349867881
 30
0.0
 11
205.66228872715681
 21
18.260250318592298
 31
0.0
  0
LINE
  5
2065
  8
AM_BOR
 10
205.66228872715661
 20
18.260250318592369
 30
0.0
 11
205.02242374599979
 21
18.33253416039674
 31
0.0
  0
LINE
  5
2066
  8
AM_BOR
 10
205.02242374599939
 20
18.332534160396779
 30
0.0
 11
204.92313509098369
 21
18.343750535168819
 31
0.0
  0
LINE
  5
2067
  8
AM_BOR
 10
204.92313509098369
 20
18.343750535168748
 30
0.0
 11
204.16010990510409
 21
18.409363512530259
 31
0.0
  0
LINE
  5
2068
  8
AM_BOR
 10
204.1601099051048
 20
18.409363512530259
 30
0.0
 11
203.71314686010501
 21
18.436387872932471
 31
0.0
  0
LINE
  5
2069
  8
AM_BOR
 10
200.43756462039249
 20
18.465334570955569
 30
0.0
 11
200.19401582596791
 21
18.45658989630088
 31
0.0
  0
LINE
  5
206A
  8
AM_BOR
 10
200.19401582596799
 20
18.456589896300901
 30
0.0
 11
199.41292617277259
 21
18.409363512530309
 31
0.0
  0
LINE
  5
206B
  8
AM_BOR
 10
199.41292617277259
 20
18.409363512530248
 30
0.0
 11
198.64990098689299
 21
18.343750535168759
 31
0.0
  0
LINE
  5
206C
  8
AM_BOR
 10
198.5506123731563
 20
18.332534165059979
 30
0.0
 11
197.9107473507209
 21
18.260250318592469
 31
0.0
  0
LINE
  5
206D
  8
AM_BOR
 10
198.64990098689299
 20
18.343750535168791
 30
0.0
 11
198.5506123731563
 21
18.332534165059919
 31
0.0
  0
LINE
  5
206E
  8
AM_BOR
 10
197.91074735072121
 20
18.26025031859243
 30
0.0
 11
197.20109066974049
 21
18.159498349868041
 31
0.0
  0
LINE
  5
206F
  8
AM_BOR
 10
197.20109066974041
 20
18.159498349868091
 30
0.0
 11
196.52633185979579
 21
18.042261412313529
 31
0.0
  0
LINE
  5
2070
  8
AM_BOR
 10
196.5263318597959
 20
18.042261412313589
 30
0.0
 11
195.89160624286239
 21
17.909431749813219
 31
0.0
  0
LINE
  5
2071
  8
AM_BOR
 10
195.89160624286171
 20
17.90943174981302
 30
0.0
 11
195.30174446414119
 21
17.762020276303058
 31
0.0
  0
LINE
  5
2072
  8
AM_BOR
 10
195.301744464141
 20
17.762020276303161
 30
0.0
 11
194.76123572793779
 21
17.60114888210661
 31
0.0
  0
LINE
  5
2073
  8
AM_BOR
 10
194.76123572793779
 20
17.60114888210656
 30
0.0
 11
194.27419363210299
 21
17.428041895670152
 31
0.0
  0
LINE
  5
2074
  8
AM_BOR
 10
194.27419363210339
 20
17.428041895670152
 30
0.0
 11
193.84432486106959
 21
17.244016765685259
 31
0.0
  0
LINE
  5
2075
  8
AM_BOR
 10
193.84432486106959
 20
17.24401676568521
 30
0.0
 11
193.4749009757472
 21
17.05047403450865
 31
0.0
  0
LINE
  5
2076
  8
AM_BOR
 10
193.4749009757472
 20
17.050474034508671
 30
0.0
 11
193.16873351496719
 21
16.848886679188929
 31
0.0
  0
LINE
  5
2077
  8
AM_BOR
 10
193.1687335149673
 20
16.848886679188951
 30
0.0
 11
192.92815259797499
 21
16.640788901221619
 31
0.0
  0
LINE
  5
2078
  8
AM_BOR
 10
192.9281525979753
 20
16.640788901221811
 30
0.0
 11
192.75498919081639
 21
16.42776445035042
 31
0.0
  0
LINE
  5
2079
  8
AM_BOR
 10
192.75498919081639
 20
16.427764450350349
 30
0.0
 11
192.65056117157769
 21
16.211434571273479
 31
0.0
  0
LINE
  5
207A
  8
AM_BOR
 10
192.65056117157789
 20
16.211434571273731
 30
0.0
 11
192.61566330054151
 21
15.993445664994679
 31
0.0
  0
LINE
  5
207B
  8
AM_BOR
 10
192.61566330054069
 20
15.99344566499464
 30
0.0
 11
192.65056117157721
 21
15.775456758715791
 31
0.0
  0
LINE
  5
207C
  8
AM_BOR
 10
192.65056117157769
 20
15.775456758715929
 30
0.0
 11
192.7549891908163
 21
15.55912687963913
 31
0.0
  0
LINE
  5
207D
  8
AM_BOR
 10
192.75498919081639
 20
15.559126879639029
 30
0.0
 11
192.9281525979753
 21
15.34610242876764
 31
0.0
  0
LINE
  5
207E
  8
AM_BOR
 10
192.9281525979751
 20
15.34610242876769
 30
0.0
 11
193.16873351496719
 21
15.1380046508005
 31
0.0
  0
LINE
  5
207F
  8
AM_BOR
 10
193.1687335149669
 20
15.1380046508005
 30
0.0
 11
193.47490097574689
 21
14.93641729548081
 31
0.0
  0
LINE
  5
2080
  8
AM_BOR
 10
193.47490097574729
 20
14.936417295480711
 30
0.0
 11
193.84432486106959
 21
14.742874564304079
 31
0.0
  0
LINE
  5
2081
  8
AM_BOR
 10
193.84432486106951
 20
14.74287456430417
 30
0.0
 11
194.27419363210271
 21
14.558849434319351
 31
0.0
  0
LINE
  5
2082
  8
AM_BOR
 10
194.27419363210319
 20
14.558849434319439
 30
0.0
 11
194.7612357279379
 21
14.38574244788296
 31
0.0
  0
LINE
  5
2083
  8
AM_BOR
 10
194.76123572793779
 20
14.38574244788277
 30
0.0
 11
195.301744464141
 21
14.22487105368617
 31
0.0
  0
LINE
  5
2084
  8
AM_BOR
 10
195.301744464141
 20
14.224871053686311
 30
0.0
 11
195.891606242862
 21
14.077459580176351
 31
0.0
  0
LINE
  5
2085
  8
AM_BOR
 10
195.89160624286191
 20
14.077459580176219
 30
0.0
 11
196.52633185979579
 21
13.94462991767579
 31
0.0
  0
LINE
  5
2086
  8
AM_BOR
 10
196.52633185979539
 20
13.944629917675821
 30
0.0
 11
197.2010906697397
 21
13.827392980121321
 31
0.0
  0
LINE
  5
2087
  8
AM_BOR
 10
197.20109066974049
 20
13.82739298012133
 30
0.0
 11
197.9107473507209
 21
13.726641011397049
 31
0.0
  0
LINE
  5
2088
  8
AM_BOR
 10
197.9107473507205
 20
13.72664101139711
 30
0.0
 11
198.5412166771807
 21
13.655418571666219
 31
0.0
  0
LINE
  5
2089
  8
AM_BOR
 10
198.54121667717999
 20
13.65541857166625
 30
0.0
 11
198.64990098689259
 21
13.643140794820731
 31
0.0
  0
LINE
  5
208A
  8
AM_BOR
 10
198.6499009868929
 20
13.643140794820679
 30
0.0
 11
199.41292617277259
 21
13.57752781745919
 31
0.0
  0
LINE
  5
208B
  8
AM_BOR
 10
199.41292617277259
 20
13.577527817459201
 30
0.0
 11
199.8798563250744
 21
13.54929620220682
 31
0.0
  0
LINE
  5
208C
  8
AM_BOR
 10
203.0271328720325
 20
13.51766683756999
 30
0.0
 11
203.37902025190911
 21
13.530301433688649
 31
0.0
  0
LINE
  5
208D
  8
AM_BOR
 10
203.3790202519092
 20
13.530301433688599
 30
0.0
 11
204.16010990510441
 21
13.57752781745919
 31
0.0
  0
LINE
  5
208E
  8
AM_BOR
 10
204.70451727388399
 20
13.624341722195579
 30
0.0
 11
204.9231350909844
 21
13.64314079482075
 31
0.0
  0
LINE
  5
208F
  8
AM_BOR
 10
204.16010990510441
 20
13.57752781745917
 30
0.0
 11
204.70451727388379
 21
13.62434172219551
 31
0.0
  0
LINE
  5
2090
  8
AM_BOR
 10
204.92313509098409
 20
13.643140794820759
 30
0.0
 11
205.66228872715669
 21
13.726641011397151
 31
0.0
  0
LINE
  5
2091
  8
AM_BOR
 10
205.66228872715661
 20
13.72664101139711
 30
0.0
 11
206.37194540813709
 21
13.827392980121401
 31
0.0
  0
LINE
  5
2092
  8
AM_BOR
 10
206.37194540813749
 20
13.82739298012145
 30
0.0
 11
207.04670421808191
 21
13.94462991767594
 31
0.0
  0
LINE
  5
2093
  8
AM_BOR
 10
207.04670421808169
 20
13.94462991767597
 30
0.0
 11
207.68142983501559
 21
14.07745958017637
 31
0.0
  0
LINE
  5
2094
  8
AM_BOR
 10
207.68142983501551
 20
14.07745958017629
 30
0.0
 11
208.27129161373611
 21
14.22487105368625
 31
0.0
  0
LINE
  5
2095
  8
AM_BOR
 10
208.2712916137362
 20
14.224871053686289
 30
0.0
 11
208.81180034993929
 21
14.38574244788289
 31
0.0
  0
LINE
  5
2096
  8
AM_BOR
 10
208.81180034993929
 20
14.385742447882921
 30
0.0
 11
209.29884244577411
 21
14.558849434319351
 31
0.0
  0
LINE
  5
2097
  8
AM_BOR
 10
209.298842445774
 20
14.55884943431932
 30
0.0
 11
209.72871121680751
 21
14.74287456430422
 31
0.0
  0
LINE
  5
2098
  8
AM_BOR
 10
209.72871121680711
 20
14.742874564304151
 30
0.0
 11
210.0981351021297
 21
14.93641729548083
 31
0.0
  0
LINE
  5
2099
  8
AM_BOR
 10
210.09813510212999
 20
14.93641729548081
 30
0.0
 11
210.40430256290989
 21
15.13800465080036
 31
0.0
  0
LINE
  5
209A
  8
AM_BOR
 10
210.40430256291
 20
15.13800465080055
 30
0.0
 11
210.64488347990201
 21
15.346102428767731
 31
0.0
  0
LINE
  5
209B
  8
AM_BOR
 10
210.64488347990169
 20
15.34610242876783
 30
0.0
 11
210.8180468870608
 21
15.559126879639029
 31
0.0
  0
LINE
  5
209C
  8
AM_BOR
 10
210.81804688706069
 20
15.559126879639059
 30
0.0
 11
210.92247490629899
 21
15.77545675871586
 31
0.0
  0
LINE
  5
209D
  8
AM_BOR
 10
210.92247490629981
 20
15.775456758715791
 30
0.0
 11
210.95737277733619
 21
15.993445664994621
 31
0.0
  0
LINE
  5
209E
  8
AM_BOR
 10
199.10514248704791
 20
18.382897015254191
 30
0.0
 11
203.92474251077411
 21
13.563296991527499
 31
0.0
  0
ARC
  5
209F
  8
AM_BOR
 10
205.2047457141602
 20
14.181128845625549
 30
0.0
 40
0.5002284402762121
 50
180.0
 51
244.5184856857075
  0
LINE
  5
20A0
  8
AM_BOR
 10
199.36521928176651
 20
18.405261169360589
 30
0.0
 11
204.19035209062989
 21
13.58012836049622
 31
0.0
  0
LINE
  5
20A1
  8
AM_BOR
 10
199.630408435547
 20
18.422512964405719
 30
0.0
 11
204.450428885349
 21
13.602492514602771
 31
0.0
  0
LINE
  5
20A2
  8
AM_BOR
 10
199.8967460324557
 20
18.438616316322719
 30
0.0
 11
204.70776895023289
 21
13.62759339854461
 31
0.0
  0
LINE
  5
20A3
  8
AM_BOR
 10
200.16308362936431
 20
18.454719668239761
 30
0.0
 11
204.9488987968831
 21
13.66890450072008
 31
0.0
  0
LINE
  5
20A4
  8
AM_BOR
 10
198.8450656923284
 20
18.36053286114759
 30
0.0
 11
203.6584049138651
 21
13.547193639610409
 31
0.0
  0
LINE
  5
20A5
  8
AM_BOR
 10
198.7943784573331
 20
18.12877914731807
 30
0.0
 11
203.39206731695711
 21
13.53109028769336
 31
0.0
  0
LINE
  5
20A6
  8
AM_BOR
 10
199.01830573664321
 20
18.375429872827009
 30
0.0
 11
199.01830573664321
 21
13.61146145716244
 31
0.0
  0
LINE
  5
20A7
  8
AM_BOR
 10
199.2180216468426
 20
18.39260355953768
 30
0.0
 11
199.2180216468426
 21
13.594287770451791
 31
0.0
  0
LINE
  5
20A8
  8
AM_BOR
 10
204.55473034123381
 20
18.375429872826999
 30
0.0
 11
204.55473034123381
 21
13.61146145716245
 31
0.0
  0
LINE
  5
20A9
  8
AM_BOR
 10
204.35501443103459
 20
18.39260355953764
 30
0.0
 11
204.35501443103459
 21
13.594287770451791
 31
0.0
  0
LINE
  5
20AA
  8
AM_BOR
 62
     4
 10
-0.0000001316067255
 20
15.000000173111291
 30
0.0
 11
190.49999986839319
 21
15.000000173111291
 31
0.0
  0
LINE
  5
20AB
  8
AM_BOR
 62
     4
 10
276.49999986839327
 20
28.000000173111289
 30
0.0
 11
276.49999986839327
 21
0.000000173111296
 31
0.0
  0
LINE
  5
20AC
  8
AM_BOR
 62
     4
 10
-0.0000001316067255
 20
15.000000173111291
 30
0.0
 11
-0.0000001316067255
 21
0.000000173111296
 31
0.0
  0
LINE
  5
20AD
  8
AM_BOR
 62
     4
 10
-0.0000001316067255
 20
28.000000173111289
 30
0.0
 11
276.49999986839327
 21
28.000000173111289
 31
0.0
  0
LINE
  5
20AE
  8
AM_BOR
 62
     4
 10
15.999999868393269
 20
15.000000173111291
 30
0.0
 11
15.999999868393269
 21
0.000000173111296
 31
0.0
  0
TEXT
  5
20AF
  8
AM_BOR
 62
     4
 10
215.17999986839331
 20
10.000000173111291
 30
0.0
 40
1.5
  1
NAKANISHI　INDUSTRIAL CO., LTD.
 41
1.5
  0
TEXT
  5
20B0
  8
AM_BOR
 62
     3
 10
213.19999986839329
 20
13.500000173111291
 30
0.0
 40
5.5
  1
中西産業株式会社
 41
1.1999999999999991
  0
TEXT
  5
20B1
  8
AM_BOR
 62
     4
 10
196.192787937406
 20
10.000000173111291
 30
0.0
 40
1.5
  1
Nakanishi
 41
1.1999999999999991
  0
TEXT
  5
20B2
  8
AM_BOR
 62
     7
 10
98.104999768257457
 20
15.650000185032219
 30
0.0
 40
1.0
  1
FINISH
 41
1.6000000000000001
  0
TEXT
  5
20B3
  8
AM_BOR
 62
     7
 10
96.979999708652798
 20
17.700000220795008
 30
0.0
 40
2.7999999999999989
  1
仕　　上
  0
TEXT
  5
20B4
  8
AM_BOR
 62
     7
 10
3.1549997801784002
 20
15.650000185032219
 30
0.0
 40
1.0
  1
MATERIAL
 41
1.6000000000000001
  0
TEXT
  5
20B5
  8
AM_BOR
 62
     7
 10
1.729999708652826
 20
17.700000220795008
 30
0.0
 40
2.7999999999999989
  1
材　　質
  0
LINE
  5
20B6
  8
AM_BOR
 62
     4
 10
190.49999986839319
 20
28.000000173111289
 30
0.0
 11
190.49999986839319
 21
0.000000173111296
 31
0.0
  0
LINE
  5
20B7
  8
AM_BOR
 62
     4
 10
-0.0000001316067255
 20
28.000000173111289
 30
0.0
 11
-0.0000001316067255
 21
15.000000173111291
 31
0.0
  0
LINE
  5
20B8
  8
AM_BOR
 62
     4
 10
-0.0000001316067255
 20
21.500000173111289
 30
0.0
 11
190.49999986839319
 21
21.500000173111289
 31
0.0
  0
LINE
  5
20B9
  8
AM_BOR
 62
     4
 10
15.999999868393269
 20
28.000000173111289
 30
0.0
 11
15.999999868393269
 21
15.000000173111291
 31
0.0
  0
TEXT
  5
20BA
  8
AM_BOR
 62
     7
 10
98.104999768257457
 20
22.150000185032219
 30
0.0
 40
1.0
  1
ART. NO.
 41
1.6000000000000001
  0
TEXT
  5
20BB
  8
AM_BOR
 62
     7
 10
96.979999708652684
 20
24.200000220795008
 30
0.0
 40
2.7999999999999989
  1
品　　番
  0
TEXT
  5
20BC
  8
AM_BOR
 62
     7
 10
3.1549997801784002
 20
22.150000185032219
 30
0.0
 40
1.0
  1
ARTICLE
 41
1.6000000000000001
  0
TEXT
  5
20BD
  8
AM_BOR
 62
     7
 10
1.7299997086527119
 20
24.200000220795008
 30
0.0
 40
2.7999999999999989
  1
品　　名
  0
LINE
  5
20BE
  8
AM_BOR
 62
     4
 10
-0.0000001316067255
 20
15.000000173111291
 30
0.0
 11
-0.0000001316067255
 21
0.0000001731112924
 31
0.0
  0
LINE
  5
20BF
  8
AM_BOR
 62
     4
 10
95.249999868393246
 20
28.000000173111289
 30
0.0
 11
95.249999868393246
 21
0.000000173111296
 31
0.0
  0
TEXT
  5
20C0
  8
AM_BOR
 62
     7
 10
3.1549997801784002
 20
9.1500001850322192
 30
0.0
 40
1.0
  1
REMARKS
 41
1.6000000000000001
  0
TEXT
  5
20C1
  8
AM_BOR
 62
     7
 10
1.7299997086527119
 20
11.20000022079501
 30
0.0
 40
2.7999999999999989
  1
備　　考
  0
LINE
  5
20C2
  8
AM_BOR
 62
     4
 10
111.2499998683932
 20
28.000000173111289
 30
0.0
 11
111.2499998683932
 21
0.000000173111296
 31
0.0
  0
LINE
  5
20C3
  8
AM_BOR
 62
     4
 10
-0.0000001316067255
 20
0.000000173111296
 30
0.0
 11
276.49999986839327
 21
0.000000173111296
 31
0.0
  0
TEXT
  5
20C4
  8
AM_BOR
 62
     7
 10
98.404999780178386
 20
9.1500001850322157
 30
0.0
 40
1.0
  1
SETS
 41
1.6000000000000001
  0
TEXT
  5
20C5
  8
AM_BOR
 62
     7
 10
96.979999708652684
 20
11.20000022079501
 30
0.0
 40
2.7999999999999989
  1
セット品
  0
ATTDEF
  5
20C6
  8
AM_BOR
 62
     7
 10
114.3107095753831
 20
0.5000001731112853
 30
0.0
 40
3.0
  1

 11
114.3107095753831
 21
2.0000001731112849
 31
0.0
  3
セット
  2
SETS｛20｝
 70
     0
 74
     2
1001
ACADANNOTATIVE
1000
AnnotativeData
1002
{
1070
     1
1070
     0
1002
}
1001
AcDbAttr
1070
     0
1070
     1
  0
ATTDEF
  5
20CA
  8
AM_BOR
 62
     7
 10
19.060709575383161
 20
0.5000001731112889
 30
0.0
 40
3.0
  1

 11
19.060709575383161
 21
2.000000173111288
 31
0.0
  3
備　　考
  2
REMARKS｛20｝
 70
     0
 74
     2
1001
ACADANNOTATIVE
1000
AnnotativeData
1002
{
1070
     1
1070
     0
1002
}
1001
AcDbAttr
1070
     0
1070
     1
  0
ATTDEF
  5
20CE
  8
AM_BOR
 62
     7
 10
114.3107095753831
 20
5.5000001731112853
 30
0.0
 40
3.0
  1

 11
114.3107095753831
 21
7.0000001731112853
 31
0.0
  3
セット
  2
SETS｛20｝
 70
     0
 74
     2
1001
ACADANNOTATIVE
1000
AnnotativeData
1002
{
1070
     1
1070
     0
1002
}
1001
AcDbAttr
1070
     0
1070
     1
  0
ATTDEF
  5
20D2
  8
AM_BOR
 62
     7
 10
19.060709575383161
 20
5.500000173111288
 30
0.0
 40
3.0
  1

 11
19.060709575383161
 21
7.000000173111288
 31
0.0
  3
備　　考
  2
REMARKS｛20｝
 70
     0
 74
     2
1001
ACADANNOTATIVE
1000
AnnotativeData
1002
{
1070
     1
1070
     0
1002
}
1001
AcDbAttr
1070
     0
1070
     1
  0
ATTDEF
  5
20D6
  8
AM_BOR
 62
     7
 10
114.3107095753831
 20
10.50000017311128
 30
0.0
 40
3.0
  1

 11
114.3107095753831
 21
12.00000017311128
 31
0.0
  3
セット
  2
SETS｛20｝
 70
     0
 74
     2
1001
ACADANNOTATIVE
1000
AnnotativeData
1002
{
1070
     1
1070
     0
1002
}
1001
AcDbAttr
1070
     0
1070
     1
  0
ATTDEF
  5
20DA
  8
AM_BOR
 62
     7
 10
19.060709575383161
 20
10.500000173111291
 30
0.0
 40
3.0
  1

 11
19.060709575383161
 21
12.000000173111291
 31
0.0
  3
備　　考
  2
REMARKS｛20｝
 70
     0
 74
     2
1001
ACADANNOTATIVE
1000
AnnotativeData
1002
{
1070
     1
1070
     0
1002
}
1001
AcDbAttr
1070
     0
1070
     1
  0
ATTDEF
  5
20DE
  8
AM_BOR
 62
     7
 10
114.2499998683932
 20
23.500000173111289
 30
0.0
 40
3.0
  1

 11
114.2499998683932
 21
25.000000173111289
 31
0.0
  3
品    番
  2
ART_NO｛20｝
 70
     0
 74
     2
1001
ACADANNOTATIVE
1000
AnnotativeData
1002
{
1070
     1
1070
     0
1002
}
1001
AcDbAttr
1070
     0
1070
     1
  0
ATTDEF
  5
20E2
  8
AM_BOR
 62
     7
 10
18.999999868393271
 20
23.500000173111289
 30
0.0
 40
3.0
  1

 11
18.999999868393271
 21
25.000000173111289
 31
0.0
  3
品    名
  2
ARTICLE｛20｝
 70
     0
 74
     2
1001
ACADANNOTATIVE
1000
AnnotativeData
1002
{
1070
     1
1070
     0
1002
}
1001
AcDbAttr
1070
     0
1070
     1
  0
ATTDEF
  5
20E6
  8
AM_BOR
 62
     7
 10
114.2499998683932
 20
17.000000173111289
 30
0.0
 40
3.0
  1

 11
114.2499998683932
 21
18.500000173111289
 31
0.0
  3
仕上
  2
FINISH｛20｝
 70
     0
 74
     2
1001
ACADANNOTATIVE
1000
AnnotativeData
1002
{
1070
     1
1070
     0
1002
}
1001
AcDbAttr
1070
     0
1070
     1
  0
ATTDEF
  5
20EA
  8
AM_BOR
 62
     7
 10
18.999999868393271
 20
17.000000173111289
 30
0.0
 40
3.0
  1

 11
18.999999868393271
 21
18.500000173111289
 31
0.0
  3
材　　質
  2
MATERIAK｛20｝
 70
     0
 74
     2
1001
ACADANNOTATIVE
1000
AnnotativeData
1002
{
1070
     1
1070
     0
1002
}
1001
AcDbAttr
1070
     0
1070
     1
  0
ENDBLK
  5
20F1
  8
0
  0
BLOCK
  8
0
  2
ZUWAKU-A3H
 70
     0
 10
0.0
 20
0.0
 30
0.0
  3
ZUWAKU-A3H
  1

  0
LINE
  5
29DD
  8
AM_BOR
 62
     3
 10
24.999999999999989
 20
284.99999999999977
 30
0.0
 11
24.999999999999979
 21
9.0
 31
0.0
  0
LINE
  5
29DE
  8
AM_BOR
 62
     3
 10
411.99999999999989
 20
284.99999999999989
 30
0.0
 11
25.0
 21
284.99999999999989
 31
0.0
  0
LINE
  5
29DF
  8
AM_BOR
 62
     3
 10
411.99999999999989
 20
284.99999999999989
 30
0.0
 11
411.99999999999989
 21
9.0
 31
0.0
  0
LINE
  5
29E0
  8
AM_BOR
 62
     3
 10
24.999999999999989
 20
8.9999999999999964
 30
0.0
 11
411.99999999999972
 21
8.9999999999999964
 31
0.0
  0
TEXT
  5
29E1
  8
SYS-TEISEI0
  6
CONTINUOUS
 62
     3
 10
144.38500001765789
 20
14.950000047683719
 30
0.0
 40
3.099999904632567
  1
 
  0
TEXT
  5
29E2
  8
SYS-TEISEI0
  6
CONTINUOUS
 62
     3
 10
169.88500004447991
 20
14.950000047683719
 30
0.0
 40
3.099999904632567
  1
 
  0
TEXT
  5
29E3
  8
SYS-TEISEI0
  6
CONTINUOUS
 62
     3
 10
229.24499995708459
 20
14.950000047683719
 30
0.0
 40
3.099999904632567
  1
 
  0
TEXT
  5
29E4
  8
SYS-TEISEI0
  6
CONTINUOUS
 62
     3
 10
236.9449999570846
 20
14.950000047683719
 30
0.0
 40
3.099999904632567
  1
 
  0
TEXT
  5
29E5
  8
SYS-TEISEI0
  6
CONTINUOUS
 62
     3
 10
144.38500001765789
 20
19.950000047683719
 30
0.0
 40
3.099999904632567
  1
 
  0
TEXT
  5
29E6
  8
SYS-TEISEI0
  6
CONTINUOUS
 62
     3
 10
169.88500004447991
 20
19.950000047683719
 30
0.0
 40
3.099999904632567
  1
 
  0
TEXT
  5
29E7
  8
SYS-TEISEI0
  6
CONTINUOUS
 62
     3
 10
229.24499995708459
 20
19.950000047683719
 30
0.0
 40
3.099999904632567
  1
 
  0
TEXT
  5
29E8
  8
SYS-TEISEI0
  6
CONTINUOUS
 62
     3
 10
236.9449999570846
 20
19.950000047683719
 30
0.0
 40
3.099999904632567
  1
 
  0
TEXT
  5
29E9
  8
SYS-TEISEI0
  6
CONTINUOUS
 62
     3
 10
144.38500001765789
 20
24.950000047683719
 30
0.0
 40
3.099999904632567
  1
 
  0
TEXT
  5
29EA
  8
SYS-TEISEI0
  6
CONTINUOUS
 62
     3
 10
169.88500004447991
 20
24.950000047683719
 30
0.0
 40
3.099999904632567
  1
 
  0
TEXT
  5
29EB
  8
SYS-TEISEI0
  6
CONTINUOUS
 62
     3
 10
229.24499995708459
 20
24.950000047683719
 30
0.0
 40
3.099999904632567
  1
 
  0
TEXT
  5
29EC
  8
SYS-TEISEI0
  6
CONTINUOUS
 62
     3
 10
236.9449999570846
 20
24.950000047683719
 30
0.0
 40
3.099999904632567
  1
 
  0
TEXT
  5
29ED
  8
AM_BOR
 10
24.999999999999989
 20
9.0
 30
0.0
 40
5.0
  1
!GENTITLE-LL
  0
TEXT
  5
29EE
  8
AM_BOR
 10
411.99999999999989
 20
9.0
 30
0.0
 40
5.0
  1
!GENTITLE-INSERT
  0
TEXT
  5
29EF
  8
AM_BOR
 10
411.99999999999989
 20
284.99999999999989
 30
0.0
 40
5.0
  1
!GENTITLE-RU
  0
TEXT
  5
29F0
  8
AM_BOR
 10
420.0
 20
297.0
 30
0.0
 40
5.0
  1
!GENTITLE-MAX
  0
ENDBLK
  5
29F2
  8
0
  0
BLOCK
  8
0
  2
_ACMFILLEDHALF
 70
     0
 10
0.0
 20
0.0
 30
0.0
  3
_ACMFILLEDHALF
  1

  0
TRACE
  5
32A5
  8
0
 62
     0
 10
-0.8
 20
0.0
 30
0.0
 11
-1.0
 21
0.166666666
 31
0.0
 12
0.0
 22
0.0
 32
0.0
 13
0.0
 23
0.0
 33
0.0
  0
LINE
  5
32A6
  8
0
 62
     0
 10
-1.0
 20
0.0
 30
0.0
 11
-0.8
 21
0.0
 31
0.0
  0
ENDBLK
  5
32A4
  8
0
  0
BLOCK
  8
0
  2
_ACMFILLED
 70
     0
 10
0.0
 20
0.0
 30
0.0
  3
_ACMFILLED
  1

  0
TRACE
  5
32B1
  8
0
 62
     0
 10
-1.0
 20
-0.166666666
 30
0.0
 11
-1.0
 21
0.166666666
 31
0.0
 12
0.0
 22
0.0
 32
0.0
 13
0.0
 23
0.0
 33
0.0
  0
ENDBLK
  5
32B0
  8
0
  0
BLOCK
  8
0
  2
_ACMOPEN15
 70
     0
 10
0.0
 20
0.0
 30
0.0
  3
_ACMOPEN15
  1

  0
LINE
  5
32BB
  8
0
 62
     0
 10
-1.0
 20
0.0
 30
0.0
 11
0.0
 21
0.0
 31
0.0
  0
LINE
  5
32BC
  8
0
 62
     0
 10
-1.0
 20
-0.131652497
 30
0.0
 11
0.0
 21
0.0
 31
0.0
  0
LINE
  5
32BD
  8
0
 62
     0
 10
0.0
 20
0.0
 30
0.0
 11
-1.0
 21
0.131652497
 31
0.0
  0
ENDBLK
  5
32BA
  8
0
  0
BLOCK
  8
0
  2
_ACMFILLED15
 70
     0
 10
0.0
 20
0.0
 30
0.0
  3
_ACMFILLED15
  1

  0
TRACE
  5
32C9
  8
0
 62
     0
 10
-1.0
 20
-0.131652497
 30
0.0
 11
-1.0
 21
0.131652497
 31
0.0
 12
0.0
 22
0.0
 32
0.0
 13
0.0
 23
0.0
 33
0.0
  0
ENDBLK
  5
32C8
  8
0
  0
BLOCK
  8
0
  2
GENDOT
 70
     0
 10
0.0
 20
0.0
 30
0.0
  3
GENDOT
  1

  0
LINE
  5
3930
  8
0
 10
0.0
 20
0.0
 30
0.0
 11
-1.0
 21
0.0
 31
0.0
  0
POLYLINE
  5
3931
  8
0
 66
     1
 10
0.0
 20
0.0
 30
0.0
 70
     1
 40
0.25
 41
0.25
  0
VERTEX
  5
510D
  8
0
 10
-0.125
 20
0.0
 30
0.0
 42
1.0
  0
VERTEX
  5
510E
  8
0
 10
0.125
 20
0.0
 30
0.0
 42
1.0
  0
SEQEND
  5
510F
  8
0
  0
ENDBLK
  5
3933
  8
0
  0
BLOCK
  8
K000720
  6
BYBLOCK
 62
     3
  2
M0
 70
     0
 10
0.0
 20
0.0
 30
0.0
  3
M0
  1

  0
LINE
  5
442B
  8
K000720
  6
BYBLOCK
 62
     0
 10
0.0
 20
0.0
 30
0.0
 11
17.44064869871255
 21
25.195308909750199
 31
0.0
  0
LINE
  5
442C
  8
K000720
  6
BYBLOCK
 62
     0
 10
0.6449843326509029
 20
1.9859494553601049
 30
0.0
 11
0.0
 21
0.0
 31
0.0
  0
LINE
  5
442D
  8
K000720
  6
BYBLOCK
 62
     0
 10
0.0
 20
0.0
 30
0.0
 11
1.6316563733883529
 21
1.302957216408656
 31
0.0
  0
LINE
  5
442E
  8
K000720
  6
BYBLOCK
 62
     0
 10
17.44064869871255
 20
25.195308909750199
 30
0.0
 11
59.086649684811789
 21
25.195308909750199
 31
0.0
  0
TEXT
  5
442F
  8
K000720
  6
BYBLOCK
 62
     0
 10
19.366648642922598
 20
25.695308909750199
 30
0.0
 40
3.0999999046325679
  1
10-%%c5.5\U+00D7%%c8.5皿孔
  7
KNJYOKO
  0
ENDBLK
  5
4430
  8
K000720
  6
BYBLOCK
 62
     3
  0
BLOCK
  8
0
  2
_DOT
 70
     0
 10
0.0
 20
0.0
 30
0.0
  3
_DOT
  1

  0
POLYLINE
  5
4433
  8
0
  6
BYBLOCK
 62
     0
 66
     1
 10
0.0
 20
0.0
 30
0.0
 70
     1
 40
0.5
 41
0.5
  0
VERTEX
  5
5112
  8
0
  6
BYBLOCK
 62
     0
 10
-0.25
 20
0.0
 30
0.0
 42
1.0
  0
VERTEX
  5
5113
  8
0
  6
BYBLOCK
 62
     0
 10
0.25
 20
0.0
 30
0.0
 42
1.0
  0
SEQEND
  5
5114
  8
0
  6
BYBLOCK
 62
     0
  0
LINE
  5
4434
  8
0
  6
BYBLOCK
 62
     0
 10
-0.5
 20
0.0
 30
0.0
 11
-1.0
 21
0.0
 31
0.0
  0
ENDBLK
  5
4435
  8
0
  0
BLOCK
  8
0
  2
*D16
 70
     1
 10
0.0
 20
0.0
 30
0.0
  3
*D16
  1

  0
LINE
  5
511B
  8
AM_5
  6
CONTINUOUS
 62
     7
 10
245.94319270752769
 20
204.4530510863915
 30
0.0
 11
270.31674628768241
 21
204.4530510863915
 31
0.0
  0
LINE
  5
511C
  8
AM_5
  6
CONTINUOUS
 62
     7
 10
247.693192707528
 20
191.4530510863915
 30
0.0
 11
270.31674628768241
 21
191.4530510863915
 31
0.0
  0
LINE
  5
511D
  8
AM_5
  6
CONTINUOUS
 62
     7
 10
269.31674628768252
 20
203.4530510863915
 30
0.0
 11
269.31674628768252
 21
192.4530510863915
 31
0.0
  0
INSERT
  5
511E
  8
AM_5
 62
     7
  2
_DOT
 10
269.31674628768252
 20
204.4530510863915
 30
0.0
 50
90.0
  0
INSERT
  5
511F
  8
AM_5
 62
     7
  2
_DOT
 10
269.31674628768252
 20
191.4530510863915
 30
0.0
 50
270.0
  0
TEXT
  8
AM_5
  40
3
  5
51D7
  62
7
  72
0
  71
0
 10
266.817
 20
194.053
 30
0.000000
  1
13
  0
POINT
  5
5121
  8
DEFPOINTS
 62
     0
 10
244.94319270752769
 20
204.4530510863915
 30
0.0
  0
POINT
  5
5122
  8
DEFPOINTS
 62
     0
 10
246.69319270752791
 20
191.4530510863915
 30
0.0
  0
POINT
  5
5123
  8
DEFPOINTS
 62
     0
 10
269.31674628768252
 20
191.4530510863915
 30
0.0
  0
ENDBLK
  5
4B80
  8
0
  0
BLOCK
  8
0
  2
*D17
 70
     1
 10
0.0
 20
0.0
 30
0.0
  3
*D17
  1

  0
LINE
  5
5124
  8
AM_5
  6
CONTINUOUS
 62
     7
 10
245.943192707528
 20
141.4530510863915
 30
0.0
 11
270.31674628768241
 21
141.4530510863915
 31
0.0
  0
LINE
  5
5125
  8
AM_5
  6
CONTINUOUS
 62
     7
 10
247.693192707528
 20
154.4530510863915
 30
0.0
 11
270.31674628768241
 21
154.4530510863915
 31
0.0
  0
LINE
  5
5126
  8
AM_5
  6
CONTINUOUS
 62
     7
 10
269.31674628768252
 20
142.4530510863915
 30
0.0
 11
269.31674628768252
 21
153.4530510863915
 31
0.0
  0
INSERT
  5
5127
  8
AM_5
 62
     7
  2
_DOT
 10
269.31674628768252
 20
141.4530510863915
 30
0.0
 50
270.0
  0
INSERT
  5
5128
  8
AM_5
 62
     7
  2
_DOT
 10
269.31674628768252
 20
154.4530510863915
 30
0.0
 50
90.0
  0
TEXT
  8
AM_5
  40
3
  5
51D8
  62
7
  72
0
  71
0
 10
266.817
 20
144.053
 30
0.000000
  1
13
  0
POINT
  5
512A
  8
DEFPOINTS
 62
     0
 10
244.94319270752791
 20
141.4530510863915
 30
0.0
  0
POINT
  5
512B
  8
DEFPOINTS
 62
     0
 10
246.69319270752791
 20
154.4530510863915
 30
0.0
  0
POINT
  5
512C
  8
DEFPOINTS
 62
     0
 10
269.31674628768252
 20
154.4530510863915
 30
0.0
  0
ENDBLK
  5
4B8C
  8
0
  0
BLOCK
  8
0
  2
*D18
 70
     1
 10
0.0
 20
0.0
 30
0.0
  3
*D18
  1

  0
LINE
  5
512D
  8
AM_5
  6
CONTINUOUS
 62
     7
 10
149.94319270752769
 20
140.4530510863915
 30
0.0
 11
124.2065635801689
 21
140.4530510863915
 31
0.0
  0
LINE
  5
512E
  8
AM_5
  6
CONTINUOUS
 62
     7
 10
148.19319270752769
 20
127.4530510863915
 30
0.0
 11
124.2065635801689
 21
127.4530510863915
 31
0.0
  0
LINE
  5
512F
  8
AM_5
  6
CONTINUOUS
 62
     7
 10
125.2065635801689
 20
139.4530510863915
 30
0.0
 11
125.2065635801689
 21
128.4530510863915
 31
0.0
  0
INSERT
  5
5130
  8
AM_5
 62
     7
  2
_DOT
 10
125.2065635801689
 20
140.4530510863915
 30
0.0
 50
90.0
  0
INSERT
  5
5131
  8
AM_5
 62
     7
  2
_DOT
 10
125.2065635801689
 20
127.4530510863915
 30
0.0
 50
270.0
  0
TEXT
  8
AM_5
  40
3
  5
51D9
  62
7
  72
0
  71
0
 10
122.707
 20
130.053
 30
0.000000
  1
13
  0
POINT
  5
5133
  8
DEFPOINTS
 62
     0
 10
150.94319270752769
 20
140.4530510863915
 30
0.0
  0
POINT
  5
5134
  8
DEFPOINTS
 62
     0
 10
149.19319270752769
 20
127.4530510863915
 30
0.0
  0
POINT
  5
5135
  8
DEFPOINTS
 62
     0
 10
125.2065635801689
 20
127.4530510863915
 30
0.0
  0
ENDBLK
  5
4B98
  8
0
  0
BLOCK
  8
0
  2
*D19
 70
     1
 10
0.0
 20
0.0
 30
0.0
  3
*D19
  1

  0
LINE
  5
5136
  8
AM_5
  6
CONTINUOUS
 62
     7
 10
148.19319270752769
 20
90.453051086391497
 30
0.0
 11
124.2065635801689
 21
90.453051086391497
 31
0.0
  0
LINE
  5
5137
  8
AM_5
  6
CONTINUOUS
 62
     7
 10
149.94319270752769
 20
77.453051086391497
 30
0.0
 11
124.2065635801689
 21
77.453051086391497
 31
0.0
  0
LINE
  5
5138
  8
AM_5
  6
CONTINUOUS
 62
     7
 10
125.2065635801689
 20
89.453051086391497
 30
0.0
 11
125.2065635801689
 21
78.453051086391497
 31
0.0
  0
INSERT
  5
5139
  8
AM_5
 62
     7
  2
_DOT
 10
125.2065635801689
 20
90.453051086391497
 30
0.0
 50
90.0
  0
INSERT
  5
513A
  8
AM_5
 62
     7
  2
_DOT
 10
125.2065635801689
 20
77.453051086391497
 30
0.0
 50
270.0
  0
TEXT
  8
AM_5
  40
3
  5
51DA
  62
7
  72
0
  71
0
 10
122.707
 20
80.0531
 30
0.000000
  1
13
  0
POINT
  5
513C
  8
DEFPOINTS
 62
     0
 10
149.19319270752769
 20
90.453051086391497
 30
0.0
  0
POINT
  5
513D
  8
DEFPOINTS
 62
     0
 10
150.94319270752769
 20
77.453051086391497
 30
0.0
  0
POINT
  5
513E
  8
DEFPOINTS
 62
     0
 10
125.2065635801689
 20
77.453051086391497
 30
0.0
  0
ENDBLK
  5
4BA4
  8
0
  0
BLOCK
  8
0
  2
*D20
 70
     1
 10
0.0
 20
0.0
 30
0.0
  3
*D20
  1

  0
LINE
  5
513F
  8
AM_5
  6
CONTINUOUS
 62
     7
 10
149.94319270752769
 20
140.4530510863915
 30
0.0
 11
117.2065635801689
 21
140.4530510863915
 31
0.0
  0
LINE
  5
5140
  8
AM_5
  6
CONTINUOUS
 62
     7
 10
149.94319270752769
 20
77.453051086391497
 30
0.0
 11
117.2065635801689
 21
77.453051086391497
 31
0.0
  0
LINE
  5
5141
  8
AM_5
  6
CONTINUOUS
 62
     7
 10
118.2065635801689
 20
139.4530510863915
 30
0.0
 11
118.2065635801689
 21
78.453051086391497
 31
0.0
  0
INSERT
  5
5142
  8
AM_5
 62
     7
  2
_DOT
 10
118.2065635801689
 20
140.4530510863915
 30
0.0
 50
90.0
  0
INSERT
  5
5143
  8
AM_5
 62
     7
  2
_DOT
 10
118.2065635801689
 20
77.453051086391497
 30
0.0
 50
270.0
  0
TEXT
  8
AM_5
  40
3
  5
51DB
  62
7
  72
0
  71
0
 10
115.707
 20
105.053
 30
0.000000
  1
63
  0
POINT
  5
5145
  8
DEFPOINTS
 62
     0
 10
150.94319270752769
 20
140.4530510863915
 30
0.0
  0
POINT
  5
5146
  8
DEFPOINTS
 62
     0
 10
150.94319270752769
 20
77.453051086391497
 30
0.0
  0
POINT
  5
5147
  8
DEFPOINTS
 62
     0
 10
118.2065635801689
 20
77.453051086391497
 30
0.0
  0
ENDBLK
  5
4BB0
  8
0
  0
BLOCK
  8
0
  2
*D21
 70
     1
 10
0.0
 20
0.0
 30
0.0
  3
*D21
  1

  0
LINE
  5
5148
  8
AM_5
  6
CONTINUOUS
 62
     7
 10
245.94319270752769
 20
204.4530510863915
 30
0.0
 11
277.31674628768269
 21
204.4530510863915
 31
0.0
  0
LINE
  5
5149
  8
AM_5
  6
CONTINUOUS
 62
     7
 10
245.94319270752769
 20
141.4530510863915
 30
0.0
 11
277.31674628768269
 21
141.4530510863915
 31
0.0
  0
LINE
  5
514A
  8
AM_5
  6
CONTINUOUS
 62
     7
 10
276.31674628768269
 20
203.4530510863915
 30
0.0
 11
276.31674628768269
 21
142.4530510863915
 31
0.0
  0
INSERT
  5
514B
  8
AM_5
 62
     7
  2
_DOT
 10
276.31674628768269
 20
204.4530510863915
 30
0.0
 50
90.0
  0
INSERT
  5
514C
  8
AM_5
 62
     7
  2
_DOT
 10
276.31674628768269
 20
141.4530510863915
 30
0.0
 50
270.0
  0
TEXT
  8
AM_5
  40
3
  5
51DC
  62
7
  72
0
  71
0
 10
273.817
 20
169.053
 30
0.000000
  1
63
  0
POINT
  5
514E
  8
DEFPOINTS
 62
     0
 10
244.94319270752769
 20
204.4530510863915
 30
0.0
  0
POINT
  5
514F
  8
DEFPOINTS
 62
     0
 10
244.94319270752769
 20
141.4530510863915
 30
0.0
  0
POINT
  5
5150
  8
DEFPOINTS
 62
     0
 10
276.31674628768269
 20
141.4530510863915
 30
0.0
  0
ENDBLK
  5
4BBC
  8
0
  0
BLOCK
  8
0
  2
*D22
 70
     1
 10
0.0
 20
0.0
 30
0.0
  3
*D22
  1

  0
LINE
  5
5151
  8
AM_5
  6
CONTINUOUS
 62
     7
 10
207.94319270752769
 20
77.453051086391497
 30
0.0
 11
284.31674628768383
 21
77.453051086391483
 31
0.0
  0
LINE
  5
5152
  8
AM_5
  6
CONTINUOUS
 62
     7
 10
245.943192707528
 20
204.4530510863915
 30
0.0
 11
284.31674628768383
 21
204.4530510863915
 31
0.0
  0
LINE
  5
5153
  8
AM_5
  6
CONTINUOUS
 62
     7
 10
283.31674628768383
 20
78.453051086391483
 30
0.0
 11
283.31674628768383
 21
203.4530510863915
 31
0.0
  0
INSERT
  5
5154
  8
AM_5
 62
     7
  2
_DOT
 10
283.31674628768383
 20
77.453051086391483
 30
0.0
 50
270.0
  0
INSERT
  5
5155
  8
AM_5
 62
     7
  2
_DOT
 10
283.31674628768383
 20
204.4530510863915
 30
0.0
 50
90.0
  0
TEXT
  8
AM_5
  40
3
  5
51DD
  62
7
  72
0
  71
0
 10
280.817
 20
137.053
 30
0.000000
  1
127
  0
POINT
  5
5157
  8
DEFPOINTS
 62
     0
 10
206.94319270752769
 20
77.453051086391497
 30
0.0
  0
POINT
  5
5158
  8
DEFPOINTS
 62
     0
 10
244.94319270752791
 20
204.4530510863915
 30
0.0
  0
POINT
  5
5159
  8
DEFPOINTS
 62
     0
 10
283.31674628768383
 20
204.4530510863915
 30
0.0
  0
ENDBLK
  5
4BC8
  8
0
  0
BLOCK
  8
0
  2
*D23
 70
     1
 10
0.0
 20
0.0
 30
0.0
  3
*D23
  1

  0
LINE
  5
515A
  8
AM_5
  6
CONTINUOUS
 62
     7
 10
247.94319270752769
 20
202.4530510863915
 30
0.0
 11
247.94319270752769
 21
226.7552096534987
 31
0.0
  0
LINE
  5
515B
  8
AM_5
  6
CONTINUOUS
 62
     7
 10
239.94319270752791
 20
199.2030510863915
 30
0.0
 11
239.94319270752791
 21
226.7552096534987
 31
0.0
  0
LINE
  5
515C
  8
AM_5
  6
CONTINUOUS
 62
     7
 10
246.94319270752769
 20
225.7552096534987
 30
0.0
 11
240.94319270752791
 21
225.7552096534987
 31
0.0
  0
INSERT
  5
515D
  8
AM_5
 62
     7
  2
_DOT
 10
247.94319270752769
 20
225.7552096534987
 30
0.0
  0
INSERT
  5
515E
  8
AM_5
 62
     7
  2
_DOT
 10
239.94319270752791
 20
225.7552096534987
 30
0.0
 50
180.0
  0
TEXT
  8
AM_5
  40
3
  5
51DE
  62
7
  72
0
  71
0
 10
243.943
 20
224.355
 30
0.000000
  1
8
  0
POINT
  5
5160
  8
DEFPOINTS
 62
     0
 10
247.94319270752769
 20
201.4530510863915
 30
0.0
  0
POINT
  5
5161
  8
DEFPOINTS
 62
     0
 10
239.94319270752791
 20
198.2030510863915
 30
0.0
  0
POINT
  5
5162
  8
DEFPOINTS
 62
     0
 10
239.94319270752791
 20
225.7552096534987
 30
0.0
  0
ENDBLK
  5
4BD4
  8
0
  0
BLOCK
  8
0
  2
*D24
 70
     1
 10
0.0
 20
0.0
 30
0.0
  3
*D24
  1

  0
LINE
  5
5163
  8
AM_5
  6
CONTINUOUS
 62
     7
 10
247.94319270752769
 20
202.4530510863915
 30
0.0
 11
247.94319270752769
 21
235.13433281508969
 31
0.0
  0
LINE
  5
5164
  8
AM_5
  6
CONTINUOUS
 62
     7
 10
197.94319270752769
 20
212.46006422517101
 30
0.0
 11
197.94319270752769
 21
235.13433281508969
 31
0.0
  0
LINE
  5
5165
  8
AM_5
  6
CONTINUOUS
 62
     7
 10
246.94319270752769
 20
234.13433281508969
 30
0.0
 11
198.94319270752769
 21
234.13433281508969
 31
0.0
  0
INSERT
  5
5166
  8
AM_5
 62
     7
  2
_DOT
 10
247.94319270752769
 20
234.13433281508969
 30
0.0
  0
INSERT
  5
5167
  8
AM_5
 62
     7
  2
_DOT
 10
197.94319270752769
 20
234.13433281508969
 30
0.0
 50
180.0
  0
TEXT
  8
AM_5
  40
3
  5
51DF
  62
7
  72
0
  71
0
 10
222.943
 20
232.734
 30
0.000000
  1
50
  0
POINT
  5
5169
  8
DEFPOINTS
 62
     0
 10
247.94319270752769
 20
201.4530510863915
 30
0.0
  0
POINT
  5
516A
  8
DEFPOINTS
 62
     0
 10
197.94319270752769
 20
211.46006422517101
 30
0.0
  0
POINT
  5
516B
  8
DEFPOINTS
 62
     0
 10
197.94319270752769
 20
234.13433281508969
 30
0.0
  0
ENDBLK
  5
4BE0
  8
0
  0
BLOCK
  8
0
  2
*D25
 70
     1
 10
0.0
 20
0.0
 30
0.0
  3
*D25
  1

  0
LINE
  5
516C
  8
AM_5
  6
CONTINUOUS
 62
     7
 10
147.94319270752769
 20
79.453051086391497
 30
0.0
 11
147.94319270752769
 21
57.398298708868651
 31
0.0
  0
LINE
  5
516D
  8
AM_5
  6
CONTINUOUS
 62
     7
 10
155.94319270752769
 20
82.703051086391497
 30
0.0
 11
155.94319270752769
 21
57.398298708868651
 31
0.0
  0
LINE
  5
516E
  8
AM_5
  6
CONTINUOUS
 62
     7
 10
148.94319270752769
 20
58.398298708868651
 30
0.0
 11
154.94319270752769
 21
58.398298708868651
 31
0.0
  0
INSERT
  5
516F
  8
AM_5
 62
     7
  2
_DOT
 10
147.94319270752769
 20
58.398298708868651
 30
0.0
 50
180.0
  0
INSERT
  5
5170
  8
AM_5
 62
     7
  2
_DOT
 10
155.94319270752769
 20
58.398298708868651
 30
0.0
  0
TEXT
  8
AM_5
  40
3
  5
51E0
  62
7
  72
0
  71
0
 10
151.943
 20
56.9983
 30
0.000000
  1
8
  0
POINT
  5
5172
  8
DEFPOINTS
 62
     0
 10
147.94319270752769
 20
80.453051086391497
 30
0.0
  0
POINT
  5
5173
  8
DEFPOINTS
 62
     0
 10
155.94319270752769
 20
83.703051086391497
 30
0.0
  0
POINT
  5
5174
  8
DEFPOINTS
 62
     0
 10
155.94319270752769
 20
58.398298708868651
 30
0.0
  0
ENDBLK
  5
4BEC
  8
0
  0
BLOCK
  8
0
  2
*D26
 70
     1
 10
0.0
 20
0.0
 30
0.0
  3
*D26
  1

  0
LINE
  5
5175
  8
AM_5
  6
CONTINUOUS
 62
     7
 10
206.94319270752769
 20
205.4530510863915
 30
0.0
 11
206.94319270752769
 21
219.8837367899396
 31
0.0
  0
LINE
  5
5176
  8
AM_5
  6
CONTINUOUS
 62
     7
 10
188.94319270752769
 20
205.4530510863915
 30
0.0
 11
188.94319270752769
 21
219.8837367899396
 31
0.0
  0
LINE
  5
5177
  8
AM_5
  6
CONTINUOUS
 62
     7
 10
205.94319270752769
 20
218.8837367899396
 30
0.0
 11
189.94319270752769
 21
218.8837367899396
 31
0.0
  0
INSERT
  5
5178
  8
AM_5
 62
     7
  2
_DOT
 10
206.94319270752769
 20
218.8837367899396
 30
0.0
  0
INSERT
  5
5179
  8
AM_5
 62
     7
  2
_DOT
 10
188.94319270752769
 20
218.8837367899396
 30
0.0
 50
180.0
  0
TEXT
  8
AM_5
  40
3
  5
51E1
  62
7
  72
0
  71
0
 10
197.943
 20
218.269
 30
0.000000
  1
(%%c18)
  0
POINT
  5
517B
  8
DEFPOINTS
 62
     0
 10
206.94319270752769
 20
204.4530510863915
 30
0.0
  0
POINT
  5
517C
  8
DEFPOINTS
 62
     0
 10
188.94319270752769
 20
204.4530510863915
 30
0.0
  0
POINT
  5
517D
  8
DEFPOINTS
 62
     0
 10
188.94319270752769
 20
218.8837367899396
 30
0.0
  0
ENDBLK
  5
4BF8
  8
0
  0
BLOCK
  8
0
  2
*D27
 70
     1
 10
0.0
 20
0.0
 30
0.0
  3
*D27
  1

  0
LINE
  5
517E
  8
AM_5
  6
CONTINUOUS
 62
     7
 10
147.94319270752769
 20
78.453051086391497
 30
0.0
 11
147.94319270752769
 21
50.398298708867287
 31
0.0
  0
LINE
  5
517F
  8
AM_5
  6
CONTINUOUS
 62
     7
 10
197.94319270752769
 20
70.645317863529044
 30
0.0
 11
197.94319270752769
 21
50.398298708867287
 31
0.0
  0
LINE
  5
5180
  8
AM_5
  6
CONTINUOUS
 62
     7
 10
148.94319270752769
 20
51.39829870886728
 30
0.0
 11
196.94319270752769
 21
51.39829870886728
 31
0.0
  0
INSERT
  5
5181
  8
AM_5
 62
     7
  2
_DOT
 10
147.94319270752769
 20
51.39829870886728
 30
0.0
 50
180.0
  0
INSERT
  5
5182
  8
AM_5
 62
     7
  2
_DOT
 10
197.94319270752769
 20
51.39829870886728
 30
0.0
  0
TEXT
  8
AM_5
  40
3
  5
51E2
  62
7
  72
0
  71
0
 10
172.943
 20
49.9983
 30
0.000000
  1
50
  0
POINT
  5
5184
  8
DEFPOINTS
 62
     0
 10
147.94319270752769
 20
79.453051086391497
 30
0.0
  0
POINT
  5
5185
  8
DEFPOINTS
 62
     0
 10
197.94319270752769
 20
71.645317863529044
 30
0.0
  0
POINT
  5
5186
  8
DEFPOINTS
 62
     0
 10
197.94319270752769
 20
51.39829870886728
 30
0.0
  0
ENDBLK
  5
4C04
  8
0
  0
BLOCK
  8
0
  2
*D28
 70
     1
 10
0.0
 20
0.0
 30
0.0
  3
*D28
  1

  0
LINE
  5
5187
  8
AM_5
  6
CONTINUOUS
 62
     7
 10
223.94319270752791
 20
200.2030510863915
 30
0.0
 11
223.94319270752791
 21
226.88373678993861
 31
0.0
  0
LINE
  5
5188
  8
AM_5
  6
CONTINUOUS
 62
     7
 10
197.94319270752769
 20
212.46006422517101
 30
0.0
 11
197.94319270752769
 21
226.88373678993861
 31
0.0
  0
LINE
  5
5189
  8
AM_5
  6
CONTINUOUS
 62
     7
 10
222.943192707528
 20
225.88373678993869
 30
0.0
 11
198.94319270752769
 21
225.88373678993869
 31
0.0
  0
INSERT
  5
518A
  8
AM_5
 62
     7
  2
_DOT
 10
223.94319270752791
 20
225.88373678993869
 30
0.0
  0
INSERT
  5
518B
  8
AM_5
 62
     7
  2
_DOT
 10
197.94319270752769
 20
225.88373678993869
 30
0.0
 50
180.0
  0
TEXT
  8
AM_5
  40
3
  5
51E3
  62
7
  72
0
  71
0
 10
210.943
 20
224.484
 30
0.000000
  1
26
  0
POINT
  5
518D
  8
DEFPOINTS
 62
     0
 10
223.94319270752791
 20
199.2030510863915
 30
0.0
  0
POINT
  5
518E
  8
DEFPOINTS
 62
     0
 10
197.94319270752769
 20
211.46006422517101
 30
0.0
  0
POINT
  5
518F
  8
DEFPOINTS
 62
     0
 10
197.94319270752769
 20
225.88373678993869
 30
0.0
  0
ENDBLK
  5
4C10
  8
0
  0
BLOCK
  8
0
  2
*D29
 70
     1
 10
0.0
 20
0.0
 30
0.0
  3
*D29
  1

  0
LINE
  5
5190
  8
AM_5
  6
CONTINUOUS
 62
     7
 10
146.94319270752769
 20
265.09023940091538
 30
0.0
 11
132.9431927075272
 21
265.09023940091538
 31
0.0
  0
LINE
  5
5191
  8
AM_5
  6
CONTINUOUS
 62
     7
 10
146.94319270752769
 20
262.09023940091538
 30
0.0
 11
132.9431927075272
 21
262.09023940091538
 31
0.0
  0
LINE
  5
5192
  8
AM_5
  6
CONTINUOUS
 62
     7
 10
133.9431927075272
 20
266.09023940091538
 30
0.0
 11
133.9431927075272
 21
267.09023940091538
 31
0.0
  0
LINE
  5
5193
  8
AM_5
  6
CONTINUOUS
 62
     7
 10
133.9431927075272
 20
261.09023940091538
 30
0.0
 11
133.9431927075272
 21
256.09023940091538
 31
0.0
  0
LINE
  5
5194
  8
AM_5
  6
CONTINUOUS
 62
     7
 10
133.9431927075272
 20
265.09023940091538
 30
0.0
 11
133.9431927075272
 21
262.09023940091538
 31
0.0
  0
INSERT
  5
5195
  8
AM_5
 62
     7
  2
_DOT
 10
133.9431927075272
 20
265.09023940091538
 30
0.0
 50
270.0
  0
INSERT
  5
5196
  8
AM_5
 62
     7
  2
_DOT
 10
133.9431927075272
 20
262.09023940091538
 30
0.0
 50
90.0
  0
TEXT
  8
AM_5
  40
3
  5
51E4
  62
7
  72
0
  71
0
 10
131.443
 20
254.190
 30
0.000000
  1
3
  0
POINT
  5
5198
  8
DEFPOINTS
 62
     0
 10
147.94319270752769
 20
265.09023940091538
 30
0.0
  0
POINT
  5
5199
  8
DEFPOINTS
 62
     0
 10
147.94319270752769
 20
262.09023940091538
 30
0.0
  0
POINT
  5
519A
  8
DEFPOINTS
 62
     0
 10
133.9431927075272
 20
262.09023940091538
 30
0.0
  0
ENDBLK
  5
4C1C
  8
0
  0
BLOCK
  8
0
  2
*D30
 70
     1
 10
0.0
 20
0.0
 30
0.0
  3
*D30
  1

  0
LINE
  5
4C37
  8
AM_5
  6
CONTINUOUS
 62
     7
 10
239.69319270752769
 20
172.9530510863915
 30
0.0
 11
270.31674628768241
 21
172.9530510863915
 31
0.0
  0
LINE
  5
4C38
  8
AM_5
  6
CONTINUOUS
 62
     7
 10
247.693192707528
 20
191.4530510863915
 30
0.0
 11
270.31674628768241
 21
191.4530510863915
 31
0.0
  0
LINE
  5
4C39
  8
AM_5
  6
CONTINUOUS
 62
     7
 10
269.31674628768252
 20
175.4530510863915
 30
0.0
 11
269.31674628768252
 21
188.9530510863915
 31
0.0
  0
INSERT
  5
4C3A
  8
AM_5
 62
     7
  2
_OPEN30
 10
269.31674628768252
 20
172.9530510863915
 30
0.0
 41
2.5
 42
2.5
 43
2.5
 50
270.0
  0
INSERT
  5
4C3B
  8
AM_5
 62
     7
  2
_OPEN30
 10
269.31674628768252
 20
191.4530510863915
 30
0.0
 41
2.5
 42
2.5
 43
2.5
 50
90.0
  0
INSERT
  5
4C3C
  8
0
  2
*U43
 10
0.0
 20
0.0
 30
0.0
  0
POINT
  5
4C3D
  8
DEFPOINTS
 62
     0
 10
238.69319270752769
 20
172.9530510863915
 30
0.0
  0
POINT
  5
4C3E
  8
DEFPOINTS
 62
     0
 10
246.69319270752791
 20
191.4530510863915
 30
0.0
  0
POINT
  5
4C3F
  8
DEFPOINTS
 62
     0
 10
269.31674628768252
 20
191.4530510863915
 30
0.0
  0
ENDBLK
  5
4C36
  8
0
  0
BLOCK
  8
0
  2
*D31
 70
     1
 10
0.0
 20
0.0
 30
0.0
  3
*D31
  1

  0
LINE
  5
4C43
  8
AM_5
  6
CONTINUOUS
 62
     7
 10
247.693192707528
 20
154.4530510863915
 30
0.0
 11
270.31674628768241
 21
154.4530510863915
 31
0.0
  0
LINE
  5
4C44
  8
AM_5
  6
CONTINUOUS
 62
     7
 10
239.69319270752769
 20
172.9530510863915
 30
0.0
 11
270.31674628768241
 21
172.9530510863915
 31
0.0
  0
LINE
  5
4C45
  8
AM_5
  6
CONTINUOUS
 62
     7
 10
269.31674628768252
 20
156.9530510863915
 30
0.0
 11
269.31674628768252
 21
170.4530510863915
 31
0.0
  0
INSERT
  5
4C46
  8
AM_5
 62
     7
  2
_OPEN30
 10
269.31674628768252
 20
154.4530510863915
 30
0.0
 41
2.5
 42
2.5
 43
2.5
 50
270.0
  0
INSERT
  5
4C47
  8
AM_5
 62
     7
  2
_OPEN30
 10
269.31674628768252
 20
172.9530510863915
 30
0.0
 41
2.5
 42
2.5
 43
2.5
 50
90.0
  0
INSERT
  5
4C48
  8
0
  2
*U44
 10
0.0
 20
0.0
 30
0.0
  0
POINT
  5
4C49
  8
DEFPOINTS
 62
     0
 10
246.69319270752791
 20
154.4530510863915
 30
0.0
  0
POINT
  5
4C4A
  8
DEFPOINTS
 62
     0
 10
238.69319270752769
 20
172.9530510863915
 30
0.0
  0
POINT
  5
4C4B
  8
DEFPOINTS
 62
     0
 10
269.31674628768252
 20
172.9530510863915
 30
0.0
  0
ENDBLK
  5
4C42
  8
0
  0
BLOCK
  8
0
  2
*D32
 70
     1
 10
0.0
 20
0.0
 30
0.0
  3
*D32
  1

  0
LINE
  5
4C4F
  8
AM_5
  6
CONTINUOUS
 62
     7
 10
156.19319270752769
 20
108.9530510863915
 30
0.0
 11
124.2065635801689
 21
108.9530510863915
 31
0.0
  0
LINE
  5
4C50
  8
AM_5
  6
CONTINUOUS
 62
     7
 10
148.19319270752769
 20
90.453051086391497
 30
0.0
 11
124.2065635801689
 21
90.453051086391497
 31
0.0
  0
LINE
  5
4C51
  8
AM_5
  6
CONTINUOUS
 62
     7
 10
125.2065635801689
 20
106.4530510863915
 30
0.0
 11
125.2065635801689
 21
92.953051086391497
 31
0.0
  0
INSERT
  5
4C52
  8
AM_5
 62
     7
  2
_OPEN30
 10
125.2065635801689
 20
108.9530510863915
 30
0.0
 41
2.5
 42
2.5
 43
2.5
 50
90.0
  0
INSERT
  5
4C53
  8
AM_5
 62
     7
  2
_OPEN30
 10
125.2065635801689
 20
90.453051086391497
 30
0.0
 41
2.5
 42
2.5
 43
2.5
 50
270.0
  0
INSERT
  5
4C54
  8
0
  2
*U45
 10
0.0
 20
0.0
 30
0.0
  0
POINT
  5
4C55
  8
DEFPOINTS
 62
     0
 10
157.19319270752769
 20
108.9530510863915
 30
0.0
  0
POINT
  5
4C56
  8
DEFPOINTS
 62
     0
 10
149.19319270752769
 20
90.453051086391497
 30
0.0
  0
POINT
  5
4C57
  8
DEFPOINTS
 62
     0
 10
125.2065635801689
 20
90.453051086391497
 30
0.0
  0
ENDBLK
  5
4C4E
  8
0
  0
BLOCK
  8
0
  2
*D33
 70
     1
 10
0.0
 20
0.0
 30
0.0
  3
*D33
  1

  0
LINE
  5
4C5B
  8
AM_5
  6
CONTINUOUS
 62
     7
 10
148.19319270752769
 20
127.4530510863915
 30
0.0
 11
124.2065635801689
 21
127.4530510863915
 31
0.0
  0
LINE
  5
4C5C
  8
AM_5
  6
CONTINUOUS
 62
     7
 10
156.19319270752769
 20
108.9530510863915
 30
0.0
 11
124.2065635801689
 21
108.9530510863915
 31
0.0
  0
LINE
  5
4C5D
  8
AM_5
  6
CONTINUOUS
 62
     7
 10
125.2065635801689
 20
124.9530510863915
 30
0.0
 11
125.2065635801689
 21
111.4530510863915
 31
0.0
  0
INSERT
  5
4C5E
  8
AM_5
 62
     7
  2
_OPEN30
 10
125.2065635801689
 20
127.4530510863915
 30
0.0
 41
2.5
 42
2.5
 43
2.5
 50
90.0
  0
INSERT
  5
4C5F
  8
AM_5
 62
     7
  2
_OPEN30
 10
125.2065635801689
 20
108.9530510863915
 30
0.0
 41
2.5
 42
2.5
 43
2.5
 50
270.0
  0
INSERT
  5
4C60
  8
0
  2
*U46
 10
0.0
 20
0.0
 30
0.0
  0
POINT
  5
4C61
  8
DEFPOINTS
 62
     0
 10
149.19319270752769
 20
127.4530510863915
 30
0.0
  0
POINT
  5
4C62
  8
DEFPOINTS
 62
     0
 10
157.19319270752769
 20
108.9530510863915
 30
0.0
  0
POINT
  5
4C63
  8
DEFPOINTS
 62
     0
 10
125.2065635801689
 20
108.9530510863915
 30
0.0
  0
ENDBLK
  5
4C5A
  8
0
  0
BLOCK
  8
0
  2
*D34
 70
     1
 10
0.0
 20
0.0
 30
0.0
  3
*D34
  1

  0
LINE
  5
519B
  8
AM_5
  6
CONTINUOUS
 62
     7
 10
231.94319270752769
 20
180.7030510863915
 30
0.0
 11
231.94319270752769
 21
226.7552096534987
 31
0.0
  0
LINE
  5
519C
  8
AM_5
  6
CONTINUOUS
 62
     7
 10
223.94319270752791
 20
199.2030510863915
 30
0.0
 11
223.94319270752791
 21
226.7552096534987
 31
0.0
  0
LINE
  5
519D
  8
AM_5
  6
CONTINUOUS
 62
     7
 10
229.44319270752769
 20
225.7552096534987
 30
0.0
 11
226.44319270752791
 21
225.7552096534987
 31
0.0
  0
INSERT
  5
519E
  8
AM_5
 62
     7
  2
GENDOT
 10
231.94319270752769
 20
225.7552096534987
 30
0.0
 41
2.5
 42
2.5
 43
2.5
  0
INSERT
  5
519F
  8
AM_5
 62
     7
  2
_OPEN30
 10
223.94319270752791
 20
225.7552096534987
 30
0.0
 41
2.5
 42
2.5
 43
2.5
 50
180.0
  0
TEXT
  8
AM_5
  40
3
  5
51E5
  62
7
  72
0
  71
0
 10
227.943
 20
224.355
 30
0.000000
  1
8
  0
POINT
  5
51A1
  8
DEFPOINTS
 62
     0
 10
231.94319270752769
 20
179.7030510863915
 30
0.0
  0
POINT
  5
51A2
  8
DEFPOINTS
 62
     0
 10
223.94319270752791
 20
198.2030510863915
 30
0.0
  0
POINT
  5
51A3
  8
DEFPOINTS
 62
     0
 10
223.94319270752791
 20
225.7552096534987
 30
0.0
  0
ENDBLK
  5
4C66
  8
0
  0
BLOCK
  8
0
  2
*D35
 70
     1
 10
0.0
 20
0.0
 30
0.0
  3
*D35
  1

  0
LINE
  5
51A4
  8
AM_5
  6
CONTINUOUS
 62
     7
 10
239.94319270752791
 20
199.2030510863915
 30
0.0
 11
239.94319270752791
 21
226.7552096534987
 31
0.0
  0
LINE
  5
51A5
  8
AM_5
  6
CONTINUOUS
 62
     7
 10
231.94319270752769
 20
180.7030510863915
 30
0.0
 11
231.94319270752769
 21
226.7552096534987
 31
0.0
  0
LINE
  5
51A6
  8
AM_5
  6
CONTINUOUS
 62
     7
 10
237.443192707528
 20
225.7552096534987
 30
0.0
 11
234.44319270752769
 21
225.7552096534987
 31
0.0
  0
INSERT
  5
51A7
  8
AM_5
 62
     7
  2
GENDOT
 10
239.94319270752791
 20
225.7552096534987
 30
0.0
 41
2.5
 42
2.5
 43
2.5
  0
INSERT
  5
51A8
  8
AM_5
 62
     7
  2
GENDOT
 10
231.94319270752769
 20
225.7552096534987
 30
0.0
 41
2.5
 42
2.5
 43
2.5
 50
180.0
  0
TEXT
  8
AM_5
  40
3
  5
51E6
  62
7
  72
0
  71
0
 10
235.943
 20
224.355
 30
0.000000
  1
8
  0
POINT
  5
51AA
  8
DEFPOINTS
 62
     0
 10
239.94319270752791
 20
198.2030510863915
 30
0.0
  0
POINT
  5
51AB
  8
DEFPOINTS
 62
     0
 10
231.94319270752769
 20
179.7030510863915
 30
0.0
  0
POINT
  5
51AC
  8
DEFPOINTS
 62
     0
 10
231.94319270752769
 20
225.7552096534987
 30
0.0
  0
ENDBLK
  5
4C72
  8
0
  0
BLOCK
  8
0
  2
*D36
 70
     1
 10
0.0
 20
0.0
 30
0.0
  3
*D36
  1

  0
LINE
  5
51AD
  8
AM_5
  6
CONTINUOUS
 62
     7
 10
163.94319270752769
 20
101.2030510863915
 30
0.0
 11
163.94319270752769
 21
57.398298708868651
 31
0.0
  0
LINE
  5
51AE
  8
AM_5
  6
CONTINUOUS
 62
     7
 10
171.94319270752769
 20
82.703051086391497
 30
0.0
 11
171.94319270752769
 21
57.398298708868651
 31
0.0
  0
LINE
  5
51AF
  8
AM_5
  6
CONTINUOUS
 62
     7
 10
166.44319270752769
 20
58.398298708868651
 30
0.0
 11
169.44319270752769
 21
58.398298708868651
 31
0.0
  0
INSERT
  5
51B0
  8
AM_5
 62
     7
  2
GENDOT
 10
163.94319270752769
 20
58.398298708868651
 30
0.0
 41
2.5
 42
2.5
 43
2.5
 50
180.0
  0
INSERT
  5
51B1
  8
AM_5
 62
     7
  2
_OPEN30
 10
171.94319270752769
 20
58.398298708868651
 30
0.0
 41
2.5
 42
2.5
 43
2.5
  0
TEXT
  8
AM_5
  40
3
  5
51E7
  62
7
  72
0
  71
0
 10
167.943
 20
56.9983
 30
0.000000
  1
8
  0
POINT
  5
51B3
  8
DEFPOINTS
 62
     0
 10
163.94319270752769
 20
102.2030510863915
 30
0.0
  0
POINT
  5
51B4
  8
DEFPOINTS
 62
     0
 10
171.94319270752769
 20
83.703051086391497
 30
0.0
  0
POINT
  5
51B5
  8
DEFPOINTS
 62
     0
 10
171.94319270752769
 20
58.398298708868651
 30
0.0
  0
ENDBLK
  5
4C7E
  8
0
  0
BLOCK
  8
0
  2
*D37
 70
     1
 10
0.0
 20
0.0
 30
0.0
  3
*D37
  1

  0
LINE
  5
51B6
  8
AM_5
  6
CONTINUOUS
 62
     7
 10
155.94319270752769
 20
82.703051086391497
 30
0.0
 11
155.94319270752769
 21
57.398298708868651
 31
0.0
  0
LINE
  5
51B7
  8
AM_5
  6
CONTINUOUS
 62
     7
 10
163.94319270752769
 20
101.2030510863915
 30
0.0
 11
163.94319270752769
 21
57.398298708868651
 31
0.0
  0
LINE
  5
51B8
  8
AM_5
  6
CONTINUOUS
 62
     7
 10
158.44319270752769
 20
58.398298708868651
 30
0.0
 11
161.44319270752769
 21
58.398298708868651
 31
0.0
  0
INSERT
  5
51B9
  8
AM_5
 62
     7
  2
GENDOT
 10
155.94319270752769
 20
58.398298708868651
 30
0.0
 41
2.5
 42
2.5
 43
2.5
 50
180.0
  0
INSERT
  5
51BA
  8
AM_5
 62
     7
  2
GENDOT
 10
163.94319270752769
 20
58.398298708868651
 30
0.0
 41
2.5
 42
2.5
 43
2.5
  0
TEXT
  8
AM_5
  40
3
  5
51E8
  62
7
  72
0
  71
0
 10
159.943
 20
56.9983
 30
0.000000
  1
8
  0
POINT
  5
51BC
  8
DEFPOINTS
 62
     0
 10
155.94319270752769
 20
83.703051086391497
 30
0.0
  0
POINT
  5
51BD
  8
DEFPOINTS
 62
     0
 10
163.94319270752769
 20
102.2030510863915
 30
0.0
  0
POINT
  5
51BE
  8
DEFPOINTS
 62
     0
 10
163.94319270752769
 20
58.398298708868651
 30
0.0
  0
ENDBLK
  5
4C8A
  8
0
  0
BLOCK
  8
0
  2
*D38
 70
     1
 10
0.0
 20
0.0
 30
0.0
  3
*D38
  1

  0
LINE
  5
4DD0
  8
AM_5
  6
CONTINUOUS
 62
     7
 10
171.94319270752769
 20
82.703051086391497
 30
0.0
 11
171.94319270752769
 21
57.398298708867522
 31
0.0
  0
LINE
  5
4DD1
  8
AM_5
  6
CONTINUOUS
 62
     7
 10
197.94319270752769
 20
70.645317863529044
 30
0.0
 11
197.94319270752769
 21
57.398298708867522
 31
0.0
  0
LINE
  5
4DD2
  8
AM_5
  6
CONTINUOUS
 62
     7
 10
174.44319270752769
 20
58.398298708867522
 30
0.0
 11
195.44319270752769
 21
58.398298708867522
 31
0.0
  0
INSERT
  5
4DD3
  8
AM_5
 62
     7
  2
_OPEN30
 10
171.94319270752769
 20
58.398298708867522
 30
0.0
 41
2.5
 42
2.5
 43
2.5
 50
180.0
  0
INSERT
  5
4DD4
  8
AM_5
 62
     7
  2
_OPEN30
 10
197.94319270752769
 20
58.398298708867522
 30
0.0
 41
2.5
 42
2.5
 43
2.5
  0
INSERT
  5
4DD5
  8
0
  2
*U47
 10
0.0
 20
0.0
 30
0.0
  0
POINT
  5
4DD6
  8
DEFPOINTS
 62
     0
 10
171.94319270752769
 20
83.703051086391497
 30
0.0
  0
POINT
  5
4DD7
  8
DEFPOINTS
 62
     0
 10
197.94319270752769
 20
71.645317863529044
 30
0.0
  0
POINT
  5
4DD8
  8
DEFPOINTS
 62
     0
 10
197.94319270752769
 20
58.398298708867522
 30
0.0
  0
ENDBLK
  5
4DB2
  8
0
  0
BLOCK
  8
0
  2
*S41
 70
     1
 10
0.0
 20
0.0
 30
0.0
  3
*S41
  1

  0
LINE
  5
50AD
  8
AM_5
  6
CONTINUOUS
 62
     7
 10
303.48144192928368
 20
225.4096882791705
 30
0.0
 11
267.9389419292836
 21
225.4096882791705
 31
0.0
  0
LINE
  5
50AE
  8
AM_5
  6
CONTINUOUS
 62
     7
 10
267.9389419292836
 20
225.4096882791705
 30
0.0
 11
244.65057775722531
 21
197.16273811755929
 31
0.0
  0
LINE
  5
50AF
  8
AM_5
  6
CONTINUOUS
 62
     7
 10
244.65057775722531
 20
197.16273811755929
 30
0.0
 11
242.6467584455298
 21
194.73226323267031
 31
0.0
  0
LINE
  5
50B0
  8
AM_5
  6
CONTINUOUS
 62
     7
 10
244.3305996697338
 20
197.42654593348081
 30
0.0
 11
242.6467584455298
 21
194.73226323267031
 31
0.0
  0
LINE
  5
50B1
  8
AM_5
  6
CONTINUOUS
 62
     7
 10
242.6467584455298
 20
194.73226323267031
 30
0.0
 11
244.9705558447167
 21
196.89893030163771
 31
0.0
  0
INSERT
  5
50B2
  8
0
  2
*U48
 10
0.0
 20
0.0
 30
0.0
  0
ENDBLK
  5
50B4
  8
0
  0
BLOCK
  8
0
  2
*U42
 70
     1
 10
0.0
 20
0.0
 30
0.0
  3
*U42
  1

  0
TEXT
  5
5116
  8
AM_5
 10
308.03622705720551
 20
74.057737218273473
 30
0.0
 40
3.0
  1
品番　　　　　　軸の材質　リングの材質
  0
TEXT
  5
5117
  8
AM_5
 10
308.03622705720551
 20
69.057737218273473
 30
0.0
 40
3.0
  1
5KJ-3t-1A　　ステン　　樹脂
  0
TEXT
  5
5118
  8
AM_5
 10
308.03622705720551
 20
64.057737218273473
 30
0.0
 40
3.0
  1
5KJ-3t-1B　　鉄　　　　樹脂
  0
ENDBLK
  5
511A
  8
0
  0
BLOCK
  8
0
  2
*U43
 70
     1
 10
0.0
 20
0.0
 30
0.0
  3
*U43
  1

  0
TEXT
  5
51C0
  8
AM_5
 62
     7
 10
268.31674628768241
 20
177.91733680067719
 30
0.0
 40
3.0
  1
18.5
 50
90.0
  0
ENDBLK
  5
51C2
  8
0
  0
BLOCK
  8
0
  2
*U44
 70
     1
 10
0.0
 20
0.0
 30
0.0
  3
*U44
  1

  0
TEXT
  5
51C4
  8
AM_5
 62
     7
 10
268.31674628768241
 20
159.41733680067719
 30
0.0
 40
3.0
  1
18.5
 50
90.0
  0
ENDBLK
  5
51C6
  8
0
  0
BLOCK
  8
0
  2
*U45
 70
     1
 10
0.0
 20
0.0
 30
0.0
  3
*U45
  1

  0
TEXT
  5
51C8
  8
AM_5
 62
     7
 10
124.2065635801689
 20
95.417336800677205
 30
0.0
 40
3.0
  1
18.5
 50
90.0
  0
ENDBLK
  5
51CA
  8
0
  0
BLOCK
  8
0
  2
*U46
 70
     1
 10
0.0
 20
0.0
 30
0.0
  3
*U46
  1

  0
TEXT
  5
51CC
  8
AM_5
 62
     7
 10
124.2065635801689
 20
113.91733680067721
 30
0.0
 40
3.0
  1
18.5
 50
90.0
  0
ENDBLK
  5
51CE
  8
0
  0
BLOCK
  8
0
  2
*U47
 70
     1
 10
0.0
 20
0.0
 30
0.0
  3
*U47
  1

  0
TEXT
  5
51D0
  8
AM_5
 62
     7
 10
182.5860498503848
 20
59.398298708867522
 30
0.0
 40
3.0
  1
26
  0
ENDBLK
  5
51D2
  8
0
  0
BLOCK
  8
0
  2
*U48
 70
     1
 10
0.0
 20
0.0
 30
0.0
  3
*U48
  1

  0
TEXT
  5
51D4
  8
AM_5
 62
     7
 10
270.61644192928372
 20
226.98468827917071
 30
0.0
 40
3.149999999999999
  1
10-\U+22055.5\U+00D7\U+22058.5皿孔
  7
ACJISTS
  0
ENDBLK
  5
51D6
  8
0
  0
ENDSEC
  0
SECTION
  2
ENTITIES
  0
INSERT
  5
1BB5
  8
0
  2
ZUWAKU-A3H
 10
0.0
 20
0.0
 30
0.0
1001
GENIUS_GENOREF_13
1005
1C93
1001
GENIUS_GENOBJ-N-SDF_13
1002
{
1000
OWNER
1000
GEN
1002
}
1001
GENIUS_GENODEF_13
1002
{
1000
HIER
1070
     0
1002
}
1002
{
1000
MANEDIT
1070
     0
1002
}
1002
{
1000
NOSEL
1070
     0
1002
}
1002
{
1000
BEHIND
1070
     0
1002
}
1002
{
1000
OTHER
1070
     0
1002
}
1002
{
1000
REACTOR
1002
}
1001
GENIUS_GENSCREG_13
1040
1.0
1040
1.0
1011
24.999999999999979
1021
0.0
1031
0.0
1021
8.9999999999999964
1031
0.0
1011
411.99999999999989
1021
0.0
1031
0.0
1021
284.99999999999989
1031
0.0
1070
     3
  0
POINT
  5
1C93
  8
0
 10
0.0
 20
0.0
 30
0.0
1001
GENIUS_GENOENT_13
1002
{
1000
MYREF
1005
1C93
1002
}
1002
{
1000
GRP
1005
0
1002
}
1001
GENIUS_GENOBJ-N-TIT_13
1002
{
1000
OWNER
1000
GEN
1002
}
1001
GENIUS_GENODEF_13
1002
{
1000
HIER
1070
     1
1002
}
1002
{
1000
MANEDIT
1070
     1
1002
}
1002
{
1000
NOSEL
1070
     0
1002
}
1002
{
1000
BEHIND
1070
     0
1002
}
1002
{
1000
OTHER
1070
     0
1002
}
1002
{
1000
REACTOR
1002
}
1001
GENIUS_GENOLIS_13
1002
{
1000
ENT
1005
1BB5
1005
2A9C
1002
}
1001
GENIUS_GENTITLE_13
1002
{
1000
BORDER
1000
C:\Program Files\Autodesk\ACADM 2008\Acadm\gen\Dwg\Format\ZUWAKU-A3H
1002
}
1002
{
1000
TITLE
1000
C:\Program Files\Autodesk\ACADM 2008\Acadm\gen\Dwg\Title\N_Title
1002
}
1002
{
1000
ADDITIONAL1
1000

1002
}
1002
{
1000
ADDITIONAL2
1000

1002
}
1002
{
1000
SCALE
1000
1:1
1002
}
1002
{
1000
TITLESTD
1000
JIS
1002
}
1002
{
1000
HRA
1005
1BB5
1002
}
1002
{
1000
HTIT
1005
2A9C
1002
}
1002
{
1000
GENIUSID
1005
1C93
1002
}
1002
{
1000
INVTXTID
1005
0
1002
}
1002
{
1000
UNCHG
1002
{
1000
GEN-TITLE-SIZ
1000
GEN-TITLE-SCA
1002
}
1002
}
  0
INSERT
  5
20F2
  8
0
 66
     1
  2
A$C1C06296A
 10
135.5000001316065
 20
8.9999998268887005
 30
0.0
  0
ATTRIB
  5
20F3
  8
AM_BOR
 62
     7
 10
249.8107097069896
 20
9.4999999999999893
 30
0.0
 40
3.0
  1

 11
249.8107097069896
 21
10.999999999999989
 31
0.0
  2
SETS｛20｝
 70
     0
 74
     2
1001
AcDbAttr
1070
     0
1070
     1
  0
ATTRIB
  5
20F4
  8
AM_BOR
 62
     7
 10
154.5607097069896
 20
9.4999999999999893
 30
0.0
 40
3.0
  1

 11
154.5607097069896
 21
10.999999999999989
 31
0.0
  2
REMARKS｛20｝
 70
     0
 74
     2
1001
AcDbAttr
1070
     0
1070
     1
  0
ATTRIB
  5
20F5
  8
AM_BOR
 62
     7
 10
249.8107097069896
 20
14.499999999999989
 30
0.0
 40
3.0
  1

 11
249.8107097069896
 21
15.999999999999989
 31
0.0
  2
SETS｛20｝
 70
     0
 74
     2
1001
AcDbAttr
1070
     0
1070
     1
  0
ATTRIB
  5
20F6
  8
AM_BOR
 62
     7
 10
154.5607097069896
 20
14.499999999999989
 30
0.0
 40
3.0
  1

 11
154.5607097069896
 21
15.999999999999989
 31
0.0
  2
REMARKS｛20｝
 70
     0
 74
     2
1001
AcDbAttr
1070
     0
1070
     1
  0
ATTRIB
  5
20F7
  8
AM_BOR
 62
     7
 10
249.8107097069896
 20
19.499999999999989
 30
0.0
 40
3.0
  1

 11
249.8107097069896
 21
20.999999999999989
 31
0.0
  2
SETS｛20｝
 70
     0
 74
     2
1001
AcDbAttr
1070
     0
1070
     1
  0
ATTRIB
  5
20F8
  8
AM_BOR
 62
     7
 10
154.5607097069896
 20
19.499999999999989
 30
0.0
 40
3.0
  1
左右勝手有り（本図は右勝手）
 11
154.5607097069896
 21
20.999999999999989
 31
0.0
  2
REMARKS｛20｝
 70
     0
 74
     2
1001
AcDbAttr
1070
     0
1070
     1
  0
ATTRIB
  5
20F9
  8
AM_BOR
 62
     7
 10
249.74999999999969
 20
32.499999999999993
 30
0.0
 40
3.0
  1
別記
 11
249.74999999999969
 21
33.999999999999993
 31
0.0
  2
ART_NO｛20｝
 70
     0
 74
     2
1001
AcDbAttr
1070
     0
1070
     1
  0
ATTRIB
  5
20FA
  8
AM_BOR
 62
     7
 10
154.49999999999969
 20
32.499999999999993
 30
0.0
 40
3.0
  1
旗丁番
 11
154.49999999999969
 21
33.999999999999993
 31
0.0
  2
ARTICLE｛20｝
 70
     0
 74
     2
1001
AcDbAttr
1070
     0
1070
     1
  0
ATTRIB
  5
20FB
  8
AM_BOR
 62
     7
 10
249.74999999999969
 20
25.999999999999989
 30
0.0
 40
3.0
  1
ヘアライン
 11
249.74999999999969
 21
27.499999999999989
 31
0.0
  2
FINISH｛20｝
 70
     0
 74
     2
1001
AcDbAttr
1070
     0
1070
     1
  0
ATTRIB
  5
20FC
  8
AM_BOR
 62
     7
 10
154.49999999999969
 20
25.999999999999989
 30
0.0
 40
3.0
  1
ステンレス
 11
154.49999999999969
 21
27.499999999999989
 31
0.0
  2
MATERIAK｛20｝
 70
     0
 74
     2
1001
AcDbAttr
1070
     0
1070
     1
  0
SEQEND
  5
20FD
  8
0
  0
INSERT
  5
4917
  8
0
  2
*U42
 10
0.0
 20
0.0
 30
0.0
  0
LINE
  5
4919
  8
AM_5
 10
380.58494203488988
 20
63.109980318801377
 30
0.0
 11
380.58494203488999
 21
77.874576202480625
 31
0.0
  0
LINE
  5
491A
  8
AM_5
 10
380.58494203488999
 20
77.874576202480625
 30
0.0
 11
306.38178112535729
 21
77.874576202480284
 31
0.0
  0
LINE
  5
491B
  8
AM_5
 10
306.38178112535729
 20
77.874576202480284
 30
0.0
 11
306.38178112535752
 21
63.109980318801391
 31
0.0
  0
LINE
  5
491C
  8
AM_5
 10
306.38178112535752
 20
63.109980318801377
 30
0.0
 11
380.58494203488999
 21
63.109980318801377
 31
0.0
  0
LINE
  5
491D
  8
AM_5
 10
306.38178112535752
 20
68.37276783341224
 30
0.0
 11
380.58494203488999
 21
68.37276783341224
 31
0.0
  0
LINE
  5
491E
  8
AM_5
 10
306.38178112535752
 20
73.068792903863482
 30
0.0
 11
380.58494203488999
 21
73.068792903863482
 31
0.0
  0
LINE
  5
491F
  8
AM_5
 10
333.76403618511091
 20
77.874576202480284
 30
0.0
 11
333.76403618511102
 21
63.109980318801391
 31
0.0
  0
LINE
  5
4920
  8
AM_5
 10
352.56052526555868
 20
77.874576202480284
 30
0.0
 11
352.56052526555879
 21
63.109980318801391
 31
0.0
  0
LINE
  5
4AE0
  8
AM_7
 10
165.19319270752769
 20
90.453051086391497
 30
0.0
 11
178.69319270752769
 21
90.453051086391497
 31
0.0
  0
LINE
  5
4AE1
  8
AM_7
 10
171.94319270752769
 20
97.203051086391497
 30
0.0
 11
171.94319270752769
 21
83.703051086391497
 31
0.0
  0
LINE
  5
4AE2
  8
AM_7
 10
149.19319270752769
 20
90.453051086391497
 30
0.0
 11
162.69319270752769
 21
90.453051086391497
 31
0.0
  0
LINE
  5
4AE3
  8
AM_7
 10
155.94319270752769
 20
97.203051086391497
 30
0.0
 11
155.94319270752769
 21
83.703051086391497
 31
0.0
  0
LINE
  5
4AE4
  8
AM_7
 10
149.19319270752769
 20
127.4530510863915
 30
0.0
 11
162.69319270752769
 21
127.4530510863915
 31
0.0
  0
LINE
  5
4AE5
  8
AM_7
 10
155.94319270752769
 20
134.2030510863915
 30
0.0
 11
155.94319270752769
 21
120.7030510863915
 31
0.0
  0
LINE
  5
4AE6
  8
AM_7
 10
165.19319270752769
 20
127.4530510863915
 30
0.0
 11
178.69319270752769
 21
127.4530510863915
 31
0.0
  0
LINE
  5
4AE7
  8
AM_7
 10
171.94319270752769
 20
134.2030510863915
 30
0.0
 11
171.94319270752769
 21
120.7030510863915
 31
0.0
  0
LINE
  5
4AE8
  8
AM_7
 10
230.69319270752791
 20
154.4530510863915
 30
0.0
 11
217.19319270752791
 21
154.4530510863915
 31
0.0
  0
LINE
  5
4AE9
  8
AM_7
 10
223.94319270752791
 20
161.2030510863915
 30
0.0
 11
223.94319270752791
 21
147.7030510863915
 31
0.0
  0
LINE
  5
4AEA
  8
AM_7
 10
246.69319270752791
 20
154.4530510863915
 30
0.0
 11
233.193192707528
 21
154.4530510863915
 31
0.0
  0
LINE
  5
4AEB
  8
AM_7
 10
239.94319270752791
 20
161.2030510863915
 30
0.0
 11
239.94319270752791
 21
147.7030510863915
 31
0.0
  0
LINE
  5
4AEC
  8
AM_7
 10
246.69319270752791
 20
191.4530510863915
 30
0.0
 11
233.193192707528
 21
191.4530510863915
 31
0.0
  0
LINE
  5
4AED
  8
AM_7
 10
239.94319270752791
 20
198.2030510863915
 30
0.0
 11
239.94319270752791
 21
184.7030510863915
 31
0.0
  0
LINE
  5
4AEE
  8
AM_7
 10
230.69319270752791
 20
191.4530510863915
 30
0.0
 11
217.19319270752791
 21
191.4530510863915
 31
0.0
  0
LINE
  5
4AEF
  8
AM_7
 10
223.94319270752791
 20
198.2030510863915
 30
0.0
 11
223.94319270752791
 21
184.7030510863915
 31
0.0
  0
CIRCLE
  5
4AF0
  8
AM_0
 10
155.94319270752769
 20
90.453051086391497
 30
0.0
 40
4.25
  0
CIRCLE
  5
4AF1
  8
AM_0
 10
171.94319270752769
 20
90.453051086391497
 30
0.0
 40
2.75
  0
CIRCLE
  5
4AF2
  8
AM_0
 10
171.94319270752769
 20
90.453051086391497
 30
0.0
 40
4.25
  0
CIRCLE
  5
4AF3
  8
AM_0
 10
155.94319270752769
 20
127.4530510863915
 30
0.0
 40
2.75
  0
CIRCLE
  5
4AF4
  8
AM_0
 10
155.94319270752769
 20
127.4530510863915
 30
0.0
 40
4.25
  0
CIRCLE
  5
4AF5
  8
AM_0
 10
171.94319270752769
 20
127.4530510863915
 30
0.0
 40
2.75
  0
CIRCLE
  5
4AF6
  8
AM_0
 10
171.94319270752769
 20
127.4530510863915
 30
0.0
 40
4.25
  0
CIRCLE
  5
4AF7
  8
AM_0
 10
223.94319270752791
 20
154.4530510863915
 30
0.0
 40
2.75
  0
CIRCLE
  5
4AF8
  8
AM_0
 10
223.94319270752791
 20
154.4530510863915
 30
0.0
 40
4.25
  0
CIRCLE
  5
4AF9
  8
AM_0
 10
239.94319270752791
 20
154.4530510863915
 30
0.0
 40
2.75
  0
CIRCLE
  5
4AFA
  8
AM_0
 10
239.94319270752791
 20
154.4530510863915
 30
0.0
 40
4.25
  0
CIRCLE
  5
4AFB
  8
AM_0
 10
239.94319270752791
 20
191.4530510863915
 30
0.0
 40
2.75
  0
CIRCLE
  5
4AFC
  8
AM_0
 10
239.94319270752791
 20
191.4530510863915
 30
0.0
 40
4.25
  0
CIRCLE
  5
4AFD
  8
AM_0
 10
223.94319270752791
 20
191.4530510863915
 30
0.0
 40
2.75
  0
CIRCLE
  5
4AFE
  8
AM_0
 10
223.94319270752791
 20
191.4530510863915
 30
0.0
 40
4.25
  0
LINE
  5
4AFF
  8
AM_0
 10
150.94319270752769
 20
77.453051086391497
 30
0.0
 11
206.94319270752769
 21
77.453051086391497
 31
0.0
  0
LINE
  5
4B00
  8
AM_0
 10
244.94319270752769
 20
204.4530510863915
 30
0.0
 11
188.94319270752769
 21
204.4530510863915
 31
0.0
  0
LINE
  5
4B01
  8
AM_0
 10
205.94319270752769
 20
74.953051086391497
 30
0.0
 11
189.94319270752769
 21
74.953051086391497
 31
0.0
  0
LINE
  5
4B02
  8
AM_0
 10
205.94319270752769
 20
206.9530510863915
 30
0.0
 11
189.94319270752769
 21
206.9530510863915
 31
0.0
  0
LINE
  5
4B03
  8
AM_0
 10
244.94319270752769
 20
141.4530510863915
 30
0.0
 11
188.94319270752769
 21
141.4530510863915
 31
0.0
  0
LINE
  5
4B04
  8
AM_0
 10
150.94319270752769
 20
140.4530510863915
 30
0.0
 11
206.94319270752769
 21
140.4530510863915
 31
0.0
  0
LINE
  5
4B05
  8
AM_0
 10
147.94319270752769
 20
80.453051086391497
 30
0.0
 11
147.94319270752769
 21
137.4530510863915
 31
0.0
  0
LINE
  5
4B06
  8
AM_0
 10
247.94319270752769
 20
144.4530510863915
 30
0.0
 11
247.94319270752769
 21
201.4530510863915
 31
0.0
  0
ARC
  5
4B07
  8
AM_0
 10
244.94319270752791
 20
201.4530510863915
 30
0.0
 40
3.0
 50
0.0
 51
90.0
  0
ARC
  5
4B08
  8
AM_0
 10
244.94319270752791
 20
144.4530510863915
 30
0.0
 40
3.0
 50
270.0
 51
0.0
  0
ARC
  5
4B09
  8
AM_0
 10
150.94319270752769
 20
137.4530510863915
 30
0.0
 40
3.0
 50
90.0
 51
180.0
  0
ARC
  5
4B0A
  8
AM_0
 10
150.94319270752769
 20
80.453051086391497
 30
0.0
 40
3.0
 50
180.0
 51
270.0
  0
CIRCLE
  5
4B12
  8
AM_0
 10
155.94319270752769
 20
90.453051086391497
 30
0.0
 40
2.75
  0
LINE
  5
4B13
  8
AM_0
 10
188.94319270752769
 20
77.453051086391497
 30
0.0
 11
188.94319270752769
 21
204.4530510863915
 31
0.0
  0
LINE
  5
4B14
  8
AM_0
 10
206.94319270752769
 20
77.453051086391497
 30
0.0
 11
206.94319270752769
 21
204.4530510863915
 31
0.0
  0
LINE
  5
4B15
  8
AM_0
 10
189.94319270752769
 20
74.953051086391497
 30
0.0
 11
189.94319270752769
 21
77.453051086391497
 31
0.0
  0
LINE
  5
4B16
  8
AM_0
 10
189.94319270752769
 20
204.4530510863915
 30
0.0
 11
189.94319270752769
 21
206.9530510863915
 31
0.0
  0
LINE
  5
4B17
  8
AM_0
 10
205.94319270752769
 20
74.953051086391497
 30
0.0
 11
205.94319270752769
 21
77.453051086391497
 31
0.0
  0
LINE
  5
4B18
  8
AM_0
 10
205.94319270752769
 20
204.4530510863915
 30
0.0
 11
205.94319270752769
 21
206.9530510863915
 31
0.0
  0
LINE
  5
4B19
  8
AM_7
 10
197.94319270752769
 20
71.645317863529044
 30
0.0
 11
197.94319270752769
 21
211.46006422517101
 31
0.0
  0
DIMENSION
  5
4B1A
  8
AM_5
  2
*D16
 10
269.31674628768252
 20
191.4530510863915
 30
0.0
 11
266.81674628768241
 21
197.9530510863915
 31
0.0
 70
     0
 13
244.94319270752769
 23
204.4530510863915
 33
0.0
 14
246.69319270752791
 24
191.4530510863915
 34
0.0
 50
90.0
1001
ACAD_DSTYLE_DIMINSPECT
1070
   396
1000
100%
1070
   395
1000

1070
   394
1070
    33
1070
   393
1070
     0
1001
ACAD
1000
DSTYLE
1002
{
1070
    41
1040
1.0
1070
     6
1000
DOT
1070
     5
1000

1070
   173
1070
     1
1070
     7
1000
DOT
1070
   174
1070
     1
1002
}
  0
DIMENSION
  5
4B1D
  8
AM_5
  2
*D17
 10
269.31674628768252
 20
154.4530510863915
 30
0.0
 11
266.81674628768241
 21
147.9530510863915
 31
0.0
 70
     0
 13
244.94319270752791
 23
141.4530510863915
 33
0.0
 14
246.69319270752791
 24
154.4530510863915
 34
0.0
 50
90.0
1001
ACAD_DSTYLE_DIMINSPECT
1070
   396
1000
100%
1070
   395
1000

1070
   394
1070
    33
1070
   393
1070
     0
1001
ACAD
1000
DSTYLE
1002
{
1070
    41
1040
1.0
1070
     6
1000
DOT
1070
     5
1000

1070
   173
1070
     1
1070
     7
1000
DOT
1070
   174
1070
     1
1002
}
  0
DIMENSION
  5
4B20
  8
AM_5
  2
*D18
 10
125.2065635801689
 20
127.4530510863915
 30
0.0
 11
122.7065635801689
 21
133.9530510863915
 31
0.0
 70
     0
 13
150.94319270752769
 23
140.4530510863915
 33
0.0
 14
149.19319270752769
 24
127.4530510863915
 34
0.0
 50
90.0
1001
ACAD_DSTYLE_DIMINSPECT
1070
   396
1000
100%
1070
   395
1000

1070
   394
1070
    33
1070
   393
1070
     0
1001
ACAD
1000
DSTYLE
1002
{
1070
    41
1040
1.0
1070
     6
1000
DOT
1070
     5
1000

1070
   173
1070
     1
1070
     7
1000
DOT
1070
   174
1070
     1
1002
}
  0
DIMENSION
  5
4B23
  8
AM_5
  2
*D19
 10
125.2065635801689
 20
77.453051086391497
 30
0.0
 11
122.7065635801689
 21
83.953051086391511
 31
0.0
 70
     0
 13
149.19319270752769
 23
90.453051086391497
 33
0.0
 14
150.94319270752769
 24
77.453051086391497
 34
0.0
 50
90.0
1001
ACAD_DSTYLE_DIMINSPECT
1070
   396
1000
100%
1070
   395
1000

1070
   394
1070
    33
1070
   393
1070
     0
1001
ACAD
1000
DSTYLE
1002
{
1070
    41
1040
1.0
1070
     6
1000
DOT
1070
     5
1000

1070
   173
1070
     1
1070
     7
1000
DOT
1070
   174
1070
     1
1002
}
  0
DIMENSION
  5
4B26
  8
AM_5
  2
*D20
 10
118.2065635801689
 20
77.453051086391497
 30
0.0
 11
115.7065635801689
 21
108.9530510863915
 31
0.0
 70
     0
  1
<>
 13
150.94319270752769
 23
140.4530510863915
 33
0.0
 14
150.94319270752769
 24
77.453051086391497
 34
0.0
 50
90.0
1001
ACAD_DSTYLE_DIMINSPECT
1070
   396
1000
100%
1070
   395
1000

1070
   394
1070
    33
1070
   393
1070
     0
1001
ACAD
1000
DSTYLE
1002
{
1070
    41
1040
1.0
1070
     6
1000
DOT
1070
     5
1000

1070
   173
1070
     1
1070
     7
1000
DOT
1070
   286
1070
     0
1070
   284
1070
     8
1070
   274
1070
     2
1070
   272
1070
     2
1070
    47
1040
0.0
1070
    48
1040
0.3
1002
}
  0
DIMENSION
  5
4B29
  8
AM_5
  2
*D21
 10
276.31674628768269
 20
141.4530510863915
 30
0.0
 11
273.81674628768258
 21
172.9530510863915
 31
0.0
 70
     0
  1
<>
 13
244.94319270752769
 23
204.4530510863915
 33
0.0
 14
244.94319270752769
 24
141.4530510863915
 34
0.0
 50
90.0
1001
ACAD_DSTYLE_DIMINSPECT
1070
   396
1000
100%
1070
   395
1000

1070
   394
1070
    33
1070
   393
1070
     0
1001
ACAD
1000
DSTYLE
1002
{
1070
    41
1040
1.0
1070
     6
1000
DOT
1070
     5
1000

1070
   173
1070
     1
1070
     7
1000
DOT
1070
   286
1070
     0
1070
   284
1070
     8
1070
   274
1070
     2
1070
   272
1070
     2
1070
    47
1040
0.0
1070
    48
1040
0.3
1002
}
  0
DIMENSION
  5
4B2C
  8
AM_5
  2
*D22
 10
283.31674628768383
 20
204.4530510863915
 30
0.0
 11
280.81674628768383
 21
140.9530510863915
 31
0.0
 70
     0
  1
<>
 13
206.94319270752769
 23
77.453051086391497
 33
0.0
 14
244.94319270752791
 24
204.4530510863915
 34
0.0
 50
90.0
1001
ACAD_DSTYLE_DIMINSPECT
1070
   396
1000
100%
1070
   395
1000

1070
   394
1070
    33
1070
   393
1070
     0
1001
ACAD
1000
DSTYLE
1002
{
1070
    41
1040
1.0
1070
     6
1000
DOT
1070
     5
1000

1070
   173
1070
     1
1070
     7
1000
DOT
1070
   286
1070
     0
1070
   284
1070
     8
1070
   274
1070
     2
1070
   272
1070
     2
1070
    47
1040
0.5
1070
    48
1040
0.5
1070
   174
1070
     1
1002
}
  0
DIMENSION
  5
4B2F
  8
AM_5
  2
*D23
 10
239.94319270752791
 20
225.7552096534987
 30
0.0
 11
243.9431927075278
 21
228.2552096534987
 31
0.0
 70
     0
 13
247.94319270752769
 23
201.4530510863915
 33
0.0
 14
239.94319270752791
 24
198.2030510863915
 34
0.0
1001
ACAD_DSTYLE_DIMINSPECT
1070
   396
1000
100%
1070
   395
1000

1070
   394
1070
    33
1070
   393
1070
     0
1001
ACAD
1000
DSTYLE
1002
{
1070
    41
1040
1.0
1070
     5
1000

1070
   173
1070
     1
1070
   174
1070
     1
1070
     6
1000
DOT
1070
     7
1000
DOT
1002
}
  0
DIMENSION
  5
4B32
  8
AM_5
  2
*D24
 10
197.94319270752769
 20
234.13433281508969
 30
0.0
 11
222.94319270752769
 21
236.63433281508969
 31
0.0
 70
     0
 13
247.94319270752769
 23
201.4530510863915
 33
0.0
 14
197.94319270752769
 24
211.46006422517101
 34
0.0
1001
ACAD_DSTYLE_DIMINSPECT
1070
   396
1000
100%
1070
   395
1000

1070
   394
1070
    33
1070
   393
1070
     0
1001
ACAD
1000
DSTYLE
1002
{
1070
    41
1040
1.0
1070
     6
1000
DOT
1070
     5
1000

1070
   173
1070
     1
1070
     7
1000
DOT
1002
}
  0
DIMENSION
  5
4B36
  8
AM_5
  2
*D25
 10
155.94319270752769
 20
58.398298708868651
 30
0.0
 11
151.94319270752769
 21
60.898298708868651
 31
0.0
 70
     0
 13
147.94319270752769
 23
80.453051086391497
 33
0.0
 14
155.94319270752769
 24
83.703051086391497
 34
0.0
1001
ACAD_DSTYLE_DIMINSPECT
1070
   396
1000
100%
1070
   395
1000

1070
   394
1070
    33
1070
   393
1070
     0
1001
ACAD
1000
DSTYLE
1002
{
1070
    41
1040
1.0
1070
     5
1000

1070
   173
1070
     1
1070
   174
1070
     1
1070
     6
1000
DOT
1070
     7
1000
DOT
1002
}
  0
DIMENSION
  5
4B39
  8
AM_5
  2
*D26
 10
188.94319270752769
 20
218.8837367899396
 30
0.0
 11
197.94319270752769
 21
218.8837367899396
 31
0.0
 70
   128
  1
(%%c<>)
 13
206.94319270752769
 23
204.4530510863915
 33
0.0
 14
188.94319270752769
 24
204.4530510863915
 34
0.0
1001
ACAD_DSTYLE_DIMINSPECT
1070
   396
1000
100%
1070
   395
1000

1070
   394
1070
    33
1070
   393
1070
     0
1001
ACAD
1000
DSTYLE
1002
{
1070
    41
1040
1.0
1070
     6
1000
DOT
1070
     5
1000

1070
   173
1070
     1
1070
     7
1000
DOT
1002
}
  0
INSERT
  5
4B3C
  8
AM_5
  2
*S41
 10
0.0
 20
0.0
 30
0.0
  0
DIMENSION
  5
4B3E
  8
AM_5
  2
*D27
 10
197.94319270752769
 20
51.39829870886728
 30
0.0
 11
172.94319270752769
 21
53.89829870886728
 31
0.0
 70
     0
 13
147.94319270752769
 23
79.453051086391497
 33
0.0
 14
197.94319270752769
 24
71.645317863529044
 34
0.0
1001
ACAD_DSTYLE_DIMINSPECT
1070
   396
1000
100%
1070
   395
1000

1070
   394
1070
    33
1070
   393
1070
     0
1001
ACAD
1000
DSTYLE
1002
{
1070
    41
1040
1.0
1070
     6
1000
DOT
1070
     5
1000

1070
   173
1070
     1
1070
     7
1000
DOT
1002
}
  0
DIMENSION
  5
4B41
  8
AM_5
  2
*D28
 10
197.94319270752769
 20
225.88373678993869
 30
0.0
 11
210.9431927075278
 21
228.38373678993869
 31
0.0
 70
     0
 13
223.94319270752791
 23
199.2030510863915
 33
0.0
 14
197.94319270752769
 24
211.46006422517101
 34
0.0
1001
ACAD_DSTYLE_DIMINSPECT
1070
   396
1000
100%
1070
   395
1000

1070
   394
1070
    33
1070
   393
1070
     0
1001
ACAD
1000
DSTYLE
1002
{
1070
    41
1040
1.0
1070
     6
1000
DOT
1070
     5
1000

1070
   173
1070
     1
1070
     7
1000
DOT
1002
}
  0
CIRCLE
  5
4B44
  8
AM_0
 10
197.94319270752769
 20
263.59023940090538
 30
0.0
 40
8.0
  0
LINE
  5
4B48
  8
AM_7
 10
239.94319270752661
 20
255.3402394008981
 30
0.0
 11
239.94319270752879
 21
268.8402394008981
 31
0.0
  0
LINE
  5
4B49
  8
AM_7
 10
223.94319270752661
 20
255.3402394009008
 30
0.0
 11
223.94319270752891
 21
268.84023940090083
 31
0.0
  0
LINE
  5
4B4A
  8
AM_7
 10
155.94319270752629
 20
255.8402394009122
 30
0.0
 11
155.9431927075286
 21
269.3402394009122
 31
0.0
  0
LINE
  5
4B4B
  8
AM_7
 10
171.94319270752629
 20
255.8402394009095
 30
0.0
 11
171.9431927075286
 21
269.34023940090941
 31
0.0
  0
LINE
  5
4B4C
  8
AM_7
 10
251.55643069509679
 20
263.59023940089622
 30
0.0
 11
144.32995471995821
 21
263.59023940091532
 31
0.0
  0
CIRCLE
  5
4B4D
  8
AM_0
 10
197.94319270752791
 20
263.59023940090538
 30
0.0
 40
9.0
  0
LINE
  5
4B4E
  8
AM_7
 10
197.9431927075297
 20
276.42762265343021
 30
0.0
 11
197.94319270752541
 21
250.75285614838131
 31
0.0
  0
LINE
  5
4B4F
  8
0
 10
147.94319270752769
 20
265.09023940091538
 30
0.0
 11
189.16822832013531
 21
265.0902394009081
 31
0.0
  0
LINE
  5
4B50
  8
0
 10
147.94319270752769
 20
262.09023940091538
 30
0.0
 11
147.94319270752769
 21
265.09023940091538
 31
0.0
  0
DIMENSION
  5
4B51
  8
AM_5
  2
*D29
 10
133.9431927075272
 20
262.09023940091538
 30
0.0
 11
131.4431927075272
 21
258.09023940091538
 31
0.0
 70
     0
 13
147.94319270752769
 23
265.09023940091538
 33
0.0
 14
147.94319270752769
 24
262.09023940091538
 34
0.0
 50
90.0
1001
ACAD_DSTYLE_DIMINSPECT
1070
   396
1000
100%
1070
   395
1000

1070
   394
1070
    33
1070
   393
1070
     0
1001
ACAD
1000
DSTYLE
1002
{
1070
    41
1040
1.0
1070
     6
1000
DOT
1070
     5
1000

1070
   173
1070
     1
1070
     7
1000
DOT
1002
}
  0
LINE
  5
4B57
  8
0
 10
147.94319270752769
 20
262.09023940091538
 30
0.0
 11
189.16822832013531
 21
262.0902394009081
 31
0.0
  0
LINE
  5
4B58
  8
AM_7
 10
157.19319270752769
 20
108.9530510863915
 30
0.0
 11
170.69319270752769
 21
108.9530510863915
 31
0.0
  0
LINE
  5
4B59
  8
AM_7
 10
163.94319270752769
 20
115.7030510863915
 30
0.0
 11
163.94319270752769
 21
102.2030510863915
 31
0.0
  0
LINE
  5
4B5A
  8
AM_7
 10
238.69319270752769
 20
172.9530510863915
 30
0.0
 11
225.19319270752769
 21
172.9530510863915
 31
0.0
  0
LINE
  5
4B5B
  8
AM_7
 10
231.94319270752769
 20
179.7030510863915
 30
0.0
 11
231.94319270752769
 21
166.2030510863915
 31
0.0
  0
CIRCLE
  5
4B5C
  8
AM_0
 10
163.94319270752769
 20
108.9530510863915
 30
0.0
 40
4.25
  0
CIRCLE
  5
4B5D
  8
AM_0
 10
231.94319270752769
 20
172.9530510863915
 30
0.0
 40
2.75
  0
CIRCLE
  5
4B5E
  8
AM_0
 10
231.94319270752769
 20
172.9530510863915
 30
0.0
 40
4.25
  0
CIRCLE
  5
4B60
  8
AM_0
 10
163.94319270752769
 20
108.9530510863915
 30
0.0
 40
2.75
  0
LINE
  5
4B61
  8
AM_7
 10
169.44319270752769
 20
108.9530510863915
 30
0.0
 11
171.99501932694531
 21
108.9530510863915
 31
0.0
  0
DIMENSION
  5
4B62
  8
AM_5
  2
*D30
 10
269.31674628768252
 20
191.4530510863915
 30
0.0
 11
266.81674628768241
 21
182.2030510863915
 31
0.0
 70
     0
 13
238.69319270752769
 23
172.9530510863915
 33
0.0
 14
246.69319270752791
 24
191.4530510863915
 34
0.0
 50
90.0
1001
ACAD
1000
DSTYLE
1002
{
1070
   174
1070
     1
1002
}
  0
DIMENSION
  5
4B65
  8
AM_5
  2
*D31
 10
269.31674628768252
 20
172.9530510863915
 30
0.0
 11
266.81674628768241
 21
163.7030510863915
 31
0.0
 70
     0
 13
246.69319270752791
 23
154.4530510863915
 33
0.0
 14
238.69319270752769
 24
172.9530510863915
 34
0.0
 50
90.0
1001
ACAD
1000
DSTYLE
1002
{
1070
   174
1070
     1
1002
}
  0
DIMENSION
  5
4B68
  8
AM_5
  2
*D32
 10
125.2065635801689
 20
90.453051086391497
 30
0.0
 11
122.7065635801689
 21
99.703051086391525
 31
0.0
 70
     0
 13
157.19319270752769
 23
108.9530510863915
 33
0.0
 14
149.19319270752769
 24
90.453051086391497
 34
0.0
 50
90.0
1001
ACAD
1000
DSTYLE
1002
{
1070
   174
1070
     1
1002
}
  0
DIMENSION
  5
4B6B
  8
AM_5
  2
*D33
 10
125.2065635801689
 20
108.9530510863915
 30
0.0
 11
122.7065635801689
 21
118.2030510863915
 31
0.0
 70
     0
 13
149.19319270752769
 23
127.4530510863915
 33
0.0
 14
157.19319270752769
 24
108.9530510863915
 34
0.0
 50
90.0
1001
ACAD
1000
DSTYLE
1002
{
1070
   174
1070
     1
1002
}
  0
DIMENSION
  5
4B6E
  8
AM_5
  2
*D34
 10
223.94319270752791
 20
225.7552096534987
 30
0.0
 11
227.9431927075278
 21
228.2552096534987
 31
0.0
 70
     0
 13
231.94319270752769
 23
179.7030510863915
 33
0.0
 14
223.94319270752791
 24
198.2030510863915
 34
0.0
1001
ACAD
1000
DSTYLE
1002
{
1070
   173
1070
     1
1070
   174
1070
     1
1070
     6
1000
GENDOT
1070
     7
1000
OPEN30
1002
}
  0
DIMENSION
  5
4B71
  8
AM_5
  2
*D35
 10
231.94319270752769
 20
225.7552096534987
 30
0.0
 11
235.9431927075278
 21
228.2552096534987
 31
0.0
 70
     0
 13
239.94319270752791
 23
198.2030510863915
 33
0.0
 14
231.94319270752769
 24
179.7030510863915
 34
0.0
1001
ACAD
1000
DSTYLE
1002
{
1070
   174
1070
     1
1070
     5
1000
GENDOT
1002
}
  0
DIMENSION
  5
4B74
  8
AM_5
  2
*D36
 10
171.94319270752769
 20
58.398298708868651
 30
0.0
 11
167.94319270752769
 21
60.898298708868651
 31
0.0
 70
     0
 13
163.94319270752769
 23
102.2030510863915
 33
0.0
 14
171.94319270752769
 24
83.703051086391497
 34
0.0
1001
ACAD
1000
DSTYLE
1002
{
1070
   173
1070
     1
1070
   174
1070
     1
1070
     6
1000
GENDOT
1070
     7
1000
OPEN30
1002
}
  0
DIMENSION
  5
4B77
  8
AM_5
  2
*D37
 10
163.94319270752769
 20
58.398298708868651
 30
0.0
 11
159.94319270752769
 21
60.898298708868651
 31
0.0
 70
     0
 13
155.94319270752769
 23
83.703051086391497
 33
0.0
 14
163.94319270752769
 24
102.2030510863915
 34
0.0
1001
ACAD
1000
DSTYLE
1002
{
1070
   174
1070
     1
1070
     5
1000
GENDOT
1002
}
  0
LINE
  5
4B7A
  8
0
 10
247.9431927075284
 20
265.09023940089742
 30
0.0
 11
247.943192707528
 21
262.09023940089742
 31
0.0
  0
LINE
  5
4B7B
  8
0
 10
206.7181570949204
 20
265.0902394009043
 30
0.0
 11
247.9431927075284
 21
265.09023940089742
 31
0.0
  0
LINE
  5
4B7C
  8
0
 10
247.943192707528
 20
262.09023940089742
 30
0.0
 11
206.8874646175268
 21
262.09023940090418
 31
0.0
  0
LINE
  5
4D53
  8
AM_7
 10
231.94319270752769
 20
255.3402394009006
 30
0.0
 11
231.9431927075299
 21
268.8402394009006
 31
0.0
  0
LINE
  5
4D54
  8
AM_7
 10
163.94319270752769
 20
255.84023940090941
 30
0.0
 11
163.94319270752999
 21
269.34023940090941
 31
0.0
  0
DIMENSION
  5
4DAF
  8
AM_5
  2
*D38
 10
197.94319270752769
 20
58.398298708867522
 30
0.0
 11
184.94319270752769
 21
60.898298708867522
 31
0.0
 70
     0
 13
171.94319270752769
 23
83.703051086391497
 33
0.0
 14
197.94319270752769
 24
71.645317863529044
 34
0.0
 50
0.0000000000001132
1001
ACAD_DSTYLE_DIMINSPECT
1070
   396
1000
100%
1070
   395
1000

1070
   394
1070
    33
1070
   393
1070
     0
  0
VIEWPORT
  5
95A
 67
     1
  8
0
  6
CONTINUOUS
 10
128.5
 20
97.5
 30
0.0
 40
386.73855140186919
 41
222.18000000000001
 68
     1
 69
     1
1001
ACAD
1000
MVIEW
1002
{
1070
    16
1010
0.0
1020
0.0
1030
0.0
1010
0.0
1020
0.0
1030
1.0
1040
0.0
1040
222.18000000000001
1040
128.5
1040
97.5
1040
50.0
1040
0.0
1040
0.0
1070
     0
1070
   100
1070
     1
1070
     1
1070
     0
1070
     0
1070
     0
1070
     0
1040
0.0
1040
0.0
1040
0.0
1040
10.0
1040
10.0
1040
10.0
1040
10.0
1070
     0
1002
{
1002
}
1002
}
1001
GENIUS_GENODEF_13
1002
{
1000
HIER
1070
     0
1002
}
1002
{
1000
MANEDIT
1070
     0
1002
}
1002
{
1000
NOSEL
1070
     0
1002
}
1002
{
1000
BEHIND
1070
     0
1002
}
1002
{
1000
OTHER
1070
     0
1002
}
1002
{
1000
REACTOR
1002
}
1001
GENIUS_GENOBJ-N-SDF_13
1002
{
1000
OWNER
1000
GEN
1002
}
1001
GENIUS_GENSCREG_15
1000
PF
1040
1.0
1000
DF
1040
1.0
1000
MIN
1011
-64.869275700934566
1021
0.0
1031
0.0
1021
-13.59
1031
0.0
1000
MAX
1011
321.86927570093462
1021
0.0
1031
0.0
1021
208.59
1031
0.0
1000
FLAGS
1070
     4
  0
ENDSEC
  0
EOF
