  0
SECTION
  2
HEADER
  9
$ACADVER
  1
AC1009
  9
$INSBASE
 10
0.0
 20
0.0
 30
0.0
  9
$EXTMIN
 10
24.9763804758243886
 20
8.9831550680297596
 30
-0.0000000349181948
  9
$EXTMAX
 10
412.0236231285040844
 20
285.0168475024989903
 30
0.0000000814935746
  9
$LIMMIN
 10
24.9999999999999787
 20
8.9999999999999964
  9
$LIMMAX
 10
411.9999999999998863
 20
284.9999999999998863
  9
$ORTHOMODE
 70
     1
  9
$REGENMODE
 70
     1
  9
$FILLMODE
 70
     1
  9
$QTEXTMODE
 70
     0
  9
$MIRRTEXT
 70
     1
  9
$DRAGMODE
 70
     2
  9
$LTSCALE
 40
5.0
  9
$OSMODE
 70
    53
  9
$ATTMODE
 70
     1
  9
$TEXTSIZE
 40
3.0
  9
$TRACEWID
 40
0.05
  9
$TEXTSTYLE
  7
STANDARD
  9
$CLAYER
  8
0
  9
$CELTYPE
  6
BYLAYER
  9
$CECOLOR
 62
   256
  9
$DIMSCALE
 40
1.0
  9
$DIMASZ
 40
2.5
  9
$DIMEXO
 40
1.0
  9
$DIMDLI
 40
7.0
  9
$DIMRND
 40
0.0
  9
$DIMDLE
 40
0.0
  9
$DIMEXE
 40
1.0
  9
$DIMTP
 40
0.1
  9
$DIMTM
 40
0.1
  9
$DIMTXT
 40
3.0
  9
$DIMCEN
 40
0.0
  9
$DIMTSZ
 40
0.0
  9
$DIMTOL
 70
     0
  9
$DIMLIM
 70
     0
  9
$DIMTIH
 70
     0
  9
$DIMTOH
 70
     0
  9
$DIMSE1
 70
     0
  9
$DIMSE2
 70
     0
  9
$DIMTAD
 70
     3
  9
$DIMZIN
 70
     8
  9
$DIMBLK
  1
OPEN30
  9
$DIMASO
 70
     1
  9
$DIMSHO
 70
     1
  9
$DIMPOST
  1

  9
$DIMAPOST
  1
"
  9
$DIMALT
 70
     0
  9
$DIMALTD
 70
     2
  9
$DIMALTF
 40
0.0393701
  9
$DIMLFAC
 40
1.0
  9
$DIMTOFL
 70
     1
  9
$DIMTVP
 40
0.0
  9
$DIMTIX
 70
     0
  9
$DIMSOXD
 70
     0
  9
$DIMSAH
 70
     0
  9
$DIMBLK1
  1

  9
$DIMBLK2
  1

  9
$DIMSTYLE
  2
AM_JIS
  9
$DIMCLRD
 70
     7
  9
$DIMCLRE
 70
     7
  9
$DIMCLRT
 70
     7
  9
$DIMTFAC
 40
0.71
  9
$DIMGAP
 40
1.0
  9
$LUNITS
 70
     2
  9
$LUPREC
 70
     4
  9
$SKETCHINC
 40
0.1
  9
$FILLETRAD
 40
0.0
  9
$AUNITS
 70
     0
  9
$AUPREC
 70
     0
  9
$MENU
  1
acad
  9
$ELEVATION
 40
0.0
  9
$PELEVATION
 40
0.0
  9
$THICKNESS
 40
0.0
  9
$LIMCHECK
 70
     0
  9
$BLIPMODE
 70
     0
  9
$CHAMFERA
 40
0.0
  9
$CHAMFERB
 40
0.0
  9
$SKPOLY
 70
     0
  9
$TDCREATE
 40
2455755.6568634258583188
  9
$TDUPDATE
 40
2459004.4907060191035271
  9
$TDINDWG
 40
0.1824532407
  9
$TDUSRTIMER
 40
0.1824530556
  9
$USRTIMER
 70
     1
  9
$ANGBASE
 50
0.0
  9
$ANGDIR
 70
     0
  9
$PDMODE
 70
     0
  9
$PDSIZE
 40
0.0
  9
$PLINEWID
 40
0.0
  9
$COORDS
 70
     1
  9
$SPLFRAME
 70
     0
  9
$SPLINETYPE
 70
     6
  9
$SPLINESEGS
 70
     8
  9
$ATTDIA
 70
     1
  9
$ATTREQ
 70
     1
  9
$HANDLING
 70
     1
  9
$HANDSEED
  5
4192
  9
$SURFTAB1
 70
     6
  9
$SURFTAB2
 70
     6
  9
$SURFTYPE
 70
     6
  9
$SURFU
 70
     6
  9
$SURFV
 70
     6
  9
$UCSNAME
  2

  9
$UCSORG
 10
0.0
 20
0.0
 30
0.0
  9
$UCSXDIR
 10
1.0
 20
0.0
 30
0.0
  9
$UCSYDIR
 10
0.0
 20
1.0
 30
0.0
  9
$PUCSNAME
  2

  9
$PUCSORG
 10
0.0
 20
0.0
 30
0.0
  9
$PUCSXDIR
 10
1.0
 20
0.0
 30
0.0
  9
$PUCSYDIR
 10
0.0
 20
1.0
 30
0.0
  9
$USERI1
 70
     0
  9
$USERI2
 70
     0
  9
$USERI3
 70
     0
  9
$USERI4
 70
     0
  9
$USERI5
 70
     0
  9
$USERR1
 40
0.0
  9
$USERR2
 40
0.0
  9
$USERR3
 40
0.0
  9
$USERR4
 40
0.0
  9
$USERR5
 40
0.0
  9
$WORLDVIEW
 70
     1
  9
$SHADEDGE
 70
     3
  9
$SHADEDIF
 70
    70
  9
$TILEMODE
 70
     1
  9
$MAXACTVP
 70
    16
  9
$PLIMCHECK
 70
     0
  9
$PEXTMIN
 10
1.0000000000000000E+20
 20
1.0000000000000000E+20
 30
1.0000000000000000E+20
  9
$PEXTMAX
 10
-1.0000000000000000E+20
 20
-1.0000000000000000E+20
 30
-1.0000000000000000E+20
  9
$PLIMMIN
 10
-20.0
 20
-7.5
  9
$PLIMMAX
 10
277.0
 20
202.5
  9
$UNITMODE
 70
     0
  9
$VISRETAIN
 70
     0
  9
$PLINEGEN
 70
     1
  9
$PSLTSCALE
 70
     0
  0
ENDSEC
  0
SECTION
  2
TABLES
  0
TABLE
  2
VPORT
 70
     1
  0
VPORT
  2
*ACTIVE
 70
     0
 10
0.0
 20
0.0
 11
1.0
 21
1.0
 12
218.5000018021642916
 22
147.0000012852644034
 13
0.0
 23
0.0
 14
2.5
 24
2.5
 15
10.0
 25
10.0
 16
0.0
 26
0.0
 36
1.0
 17
0.0
 27
0.0
 37
0.0
 40
278.524221990268984
 41
2.3418674698795181
 42
50.0
 43
0.0
 44
0.0
 50
0.0
 51
0.0
 71
     0
 72
   100
 73
     1
 74
     3
 75
     0
 76
     0
 77
     0
 78
     1
  0
ENDTAB
  0
TABLE
  2
LTYPE
 70
    21
  0
LTYPE
  2
CONTINUOUS
 70
     0
  3
Solid line (NEC CAE2D for Win R7.2 : 2008.02.20
 72
    65
 73
     0
 40
0.0
  0
LTYPE
  2
HIDDEN
 70
     0
  3
Hidden __ __ __ __ __ __ __ __ __ __ __ __ __ _
 72
    65
 73
     2
 40
0.375
 49
0.25
 49
-0.125
  0
LTYPE
  2
PHANTOM2
 70
     0
  3
Phantom (.5x) ___ _ _ ___ _ _ ___ _ _ ___ _ _
 72
    65
 73
     6
 40
1.25
 49
0.625
 49
-0.125
 49
0.125
 49
-0.125
 49
0.125
 49
-0.125
  0
LTYPE
  2
CENTER
 70
     0
  3
Center ____ _ ____ _ ____ _ ____ _ ____ _ ____
 72
    65
 73
     4
 40
2.0
 49
1.25
 49
-0.25
 49
0.25
 49
-0.25
  0
LTYPE
  2
CENTER2
 70
     0
  3
Center (.5x) ___ _ ___ _ ___ _ ___ _ ___ _ ___
 72
    65
 73
     4
 40
1.125
 49
0.75
 49
-0.125
 49
0.125
 49
-0.125
  0
LTYPE
  2
HIDDEN2
 70
     0
  3
Hidden (.5x) _ _ _ _ _ _ _ _ _ _ _ _ _ _ _ _ _
 72
    65
 73
     2
 40
0.1875
 49
0.125
 49
-0.0625
  0
LTYPE
  2
ACANSTGB
 70
     0
  3
__ . . __ . .
 72
    65
 73
     6
 40
0.35433070866
 49
0.15748031496
 49
-0.03937007874
 49
0.03937007874
 49
-0.03937007874
 49
0.03937007874
 49
-0.03937007874
  0
LTYPE
  2
ACANSTGL
 70
     0
  3
_ _ _ _ _
 72
    65
 73
     2
 40
0.11811023622
 49
0.07874015748
 49
-0.03937007874
  0
LTYPE
  2
ACJISWELD
 70
     0
  3
_ _ _ _ _
 72
    65
 73
     2
 40
2.0
 49
2.0
 49
-1.0
  0
LTYPE
  2
ACJISTGB
 70
     0
  3
__ . . __ . .
 72
    65
 73
     6
 40
9.0
 49
4.0
 49
-1.0
 49
1.0
 49
-1.0
 49
1.0
 49
-1.0
  0
LTYPE
  2
ACJISTGL
 70
     0
  3
_ _ _ _ _
 72
    65
 73
     2
 40
3.0
 49
2.0
 49
-1.0
  0
LTYPE
  2
ACISOWELD
 70
     0
  3
_ _ _ _ _
 72
    65
 73
     2
 40
2.0
 49
2.0
 49
-1.0
  0
LTYPE
  2
ACISOTGB
 70
     0
  3
__ . . __ . .
 72
    65
 73
     6
 40
9.0
 49
4.0
 49
-1.0
 49
1.0
 49
-1.0
 49
1.0
 49
-1.0
  0
LTYPE
  2
ACISOTGL
 70
     0
  3
_ _ _ _ _
 72
    65
 73
     2
 40
3.0
 49
2.0
 49
-1.0
  0
LTYPE
  2
AM_ISO02W050
 70
     0
  3
__ __ __ __ __ __ __ __ __ __ __ __ __ __ __
 72
    65
 73
     2
 40
7.5
 49
6.0
 49
-1.5
  0
LTYPE
  2
AM_ISO08W050
 70
     0
  3
____ . ____ . ____ . ____ . ____ . ____ . ____
 72
    65
 73
     4
 40
18.0
 49
12.0
 49
-1.5
 49
3.0
 49
-1.5
  0
LTYPE
  2
AM_ISO09W050
 70
     0
  3
_____ . . _____ . . _____ . . ____ .. ____
 72
    65
 73
     6
 40
22.5
 49
12.0
 49
-1.5
 49
3.0
 49
-1.5
 49
3.0
 49
-1.5
  0
LTYPE
  2
AMCONSTR
 70
     0
  3
_______________________
 72
    65
 73
     2
 40
9999.0
 49
9999.0
 49
0.0
  0
LTYPE
  2
AM_ISO08W050X2
 70
     0
  3
__ . __ . __ . __ . __ . __
 72
    65
 73
     4
 40
9.0
 49
6.0
 49
-0.75
 49
1.5
 49
-0.75
  0
LTYPE
  2
AM_ISO02W050X2
 70
     0
  3
 _ _ _ _ _ _ _ _ _ _ _ _
 72
    65
 73
     2
 40
3.75
 49
3.0
 49
-0.75
  0
LTYPE
  2
AMZIGZAG
 70
     0
  3
/\/-/\/-/\/-/\/-/\/-/\/
 72
    65
 73
     2
 40
11.0000999999999998
 49
0.0001
 49
-11.0
  0
ENDTAB
  0
TABLE
  2
LAYER
 70
    21
  0
LAYER
  2
0
 70
     0
 62
     3
  6
CONTINUOUS
  0
LAYER
  2
SYS-BUHIN0
 70
     0
 62
     7
  6
CONTINUOUS
  0
LAYER
  2
AM_0
 70
     0
 62
     3
  6
CONTINUOUS
  0
LAYER
  2
DEFPOINTS
 70
     0
 62
     7
  6
CONTINUOUS
  0
LAYER
  2
AM_5
 70
     0
 62
     7
  6
CONTINUOUS
  0
LAYER
  2
AM_BOR
 70
     0
 62
     7
  6
CONTINUOUS
  0
LAYER
  2
SYS-BUHINCODE
 70
     0
 62
     7
  6
CONTINUOUS
  0
LAYER
  2
AM_7
 70
     0
 62
     4
  6
CENTER
  0
LAYER
  2
AM_3
 70
     0
 62
     7
  6
HIDDEN
  0
LAYER
  2
AM_12
 70
     0
 62
   253
  6
CONTINUOUS
  0
LAYER
  2
AM_PAREF
 70
     0
 62
     4
  6
CONTINUOUS
  0
LAYER
  2
AM_6
 70
     0
 62
     7
  6
CONTINUOUS
  0
LAYER
  2
AM_8
 70
     0
 62
   253
  6
CONTINUOUS
  0
LAYER
  2
AM_4
 70
     0
 62
     6
  6
CONTINUOUS
  0
LAYER
  2
AM_10
 70
     0
 62
     7
  6
CONTINUOUS
  0
LAYER
  2
AM_CL
 70
     0
 62
     1
  6
CONTINUOUS
  0
LAYER
  2
AM_2
 70
     0
 62
     5
  6
PHANTOM2
  0
LAYER
  2
AM_1N
 70
     0
 62
    14
  6
CONTINUOUS
  0
LAYER
  2
AM_1
 70
     0
 62
    14
  6
PHANTOM2
  0
LAYER
  2
AM_9
 70
     0
 62
    -7
  6
CONTINUOUS
  0
LAYER
  2
SYS-TEISEI0
 70
     0
 62
     7
  6
CONTINUOUS
  0
ENDTAB
  0
TABLE
  2
STYLE
 70
    14
  0
STYLE
  2
STANDARD
 70
     0
 40
0.0
 41
1.0
 50
0.0
 71
     0
 42
3.0
  3
dim.shx
  4
extfont.shx
  0
STYLE
  2
KNJYOKO
 70
     0
 40
0.0
 41
1.0
 50
0.0
 71
     0
 42
3.099999904632567
  3
TXT.shx
  4
extfont.shx
  0
STYLE
  2
ACANSTS
 70
     0
 40
1.0
 41
1.0
 50
0.0
 71
     0
 42
0.2
  3
romans.shx
  4
extfont.shx
  0
STYLE
  2
ACANSGDT
 70
     0
 40
0.0
 41
1.0
 50
0.0
 71
     0
 42
0.2
  3
amgdt.shx
  4

  0
STYLE
  2
ACJISTS
 70
     0
 40
1.0
 41
1.0
 50
0.0
 71
     0
 42
0.2
  3
isocp.shx
  4
extfont.shx
  0
STYLE
  2
ACJISGDT
 70
     0
 40
0.0
 41
1.0
 50
0.0
 71
     0
 42
0.2
  3
amgdt.shx
  4

  0
STYLE
  2
MINNTYOU
 70
     0
 40
0.0
 41
1.0
 50
0.0
 71
     0
 42
3.0
  3
txt
  4

  0
STYLE
  2
R寸法
 70
     0
 40
2.0
 41
1.0
 50
0.0
 71
     0
 42
3.0
  3
dim.shx
  4
extfont.shx
  0
STYLE
  2
ANKTATE
 70
     4
 40
0.0
 41
1.0
 50
0.0
 71
     0
 42
3.099999904632567
  3
TXT
  4

  0
STYLE
  2
KNJTATE
 70
     4
 40
0.0
 41
1.0
 50
0.0
 71
     0
 42
3.099999904632567
  3
TXT
  4
BIGFONT
  0
STYLE
  2
ACISOTS
 70
     0
 40
1.0
 41
1.0
 50
0.0
 71
     0
 42
2.5
  3
isocp.shx
  4
extfont.shx
  0
STYLE
  2
ACISOGDT
 70
     0
 40
0.0
 41
1.0
 50
0.0
 71
     0
 42
2.5
  3
amgdt.shx
  4

  0
STYLE
  2

 70
     1
 40
0.0
 41
1.0
 50
0.0
 71
     0
 42
3.0
  3
genltshp.shx
  4

  0
ENDTAB
  0
TABLE
  2
VIEW
 70
     6
  0
VIEW
  2
AM_VIEW1
 70
     0
 40
137.9999999999998863
 10
151.853137516688804
 20
215.9999999999998863
 41
253.7062750333776933
 11
0.0
 21
0.0
 31
1.0
 12
0.0
 22
0.0
 32
0.0
 42
50.0
 43
0.0
 44
0.0
 50
0.0
 71
     0
  0
VIEW
  2
AM_VIEW2
 70
     0
 40
137.9999999999998863
 10
285.146862483310997
 20
215.9999999999998863
 41
253.7062750333776933
 11
0.0
 21
0.0
 31
1.0
 12
0.0
 22
0.0
 32
0.0
 42
50.0
 43
0.0
 44
0.0
 50
0.0
 71
     0
  0
VIEW
  2
AM_VIEW3
 70
     0
 40
137.9999999999998863
 10
151.853137516688804
 20
77.9999999999999716
 41
253.7062750333776933
 11
0.0
 21
0.0
 31
1.0
 12
0.0
 22
0.0
 32
0.0
 42
50.0
 43
0.0
 44
0.0
 50
0.0
 71
     0
  0
VIEW
  2
AM_VIEW4
 70
     0
 40
137.9999999999998863
 10
285.146862483310997
 20
77.9999999999999716
 41
253.7062750333776933
 11
0.0
 21
0.0
 31
1.0
 12
0.0
 22
0.0
 32
0.0
 42
50.0
 43
0.0
 44
0.0
 50
0.0
 71
     0
  0
VIEW
  2
AM_VIEW5
 70
     0
 40
137.9999999999998863
 10
218.4999999999998863
 20
146.9999999999998863
 41
253.7062750333776933
 11
0.0
 21
0.0
 31
1.0
 12
0.0
 22
0.0
 32
0.0
 42
50.0
 43
0.0
 44
0.0
 50
0.0
 71
     0
  0
VIEW
  2
AM_VIEW6
 70
     0
 40
275.9972399999999197
 10
218.4999999999998863
 20
146.9999999999998863
 41
507.4074759412548019
 11
0.0
 21
0.0
 31
1.0
 12
0.0
 22
0.0
 32
0.0
 42
50.0
 43
0.0
 44
0.0
 50
0.0
 71
     0
  0
ENDTAB
  0
TABLE
  2
UCS
 70
     0
  0
ENDTAB
  0
TABLE
  2
APPID
 70
    64
  0
APPID
  2
ACAD
 70
     0
  0
APPID
  2
ACADANNOTATIVE
 70
     0
  0
APPID
  2
ACAD_MLEADERVER
 70
     0
  0
APPID
  2
MCAD_NO_VIS
 70
     0
  0
APPID
  2
ACAD_TEMP_GRAPHIC
 70
     0
  0
APPID
  2
AD_DRAW
 70
     0
  0
APPID
  2
ACATTRIBSERVICES
 70
     0
  0
APPID
  2
DESIGNERASSEMBLIES
 70
     0
  0
APPID
  2
ACADM_DIM_EDIT
 70
     0
  0
APPID
  2
AMDT_DM_ADJ
 70
     0
  0
APPID
  2
ACADANNOPO
 70
     0
  0
APPID
  2
ACAECLAYERSTANDARD
 70
     0
  0
APPID
  2
ACDBDYNAMICBLOCKGUID
 70
     0
  0
APPID
  2
ACDBBLOCKREPETAG
 70
     0
  0
APPID
  2
ACAUTHENVIRON
 70
     0
  0
APPID
  2
ACDBDYNAMICBLOCKTRUENAME
 70
     0
  0
APPID
  2
GENIUS_GENREC_14
 70
     0
  0
APPID
  2
GENIUS_GENOBJ-N-REC_13
 70
     0
  0
APPID
  2
GENIUS_GENODEF_13
 70
     0
  0
APPID
  2
ACAD_EXEMPT_FROM_CAD_STANDARDS
 70
     0
  0
APPID
  2
GENIUS_GENOBJ-N-CEN_13
 70
     0
  0
APPID
  2
GENIUS_GENCEN_19
 70
     0
  0
APPID
  2
ACAD_DSTYLE_DIMINSPECT
 70
     0
  0
APPID
  2
DCO15
 70
     0
  0
APPID
  2
ACAD_PSEXT
 70
     0
  0
APPID
  2
GENIUS_GENBH_13
 70
     0
  0
APPID
  2
GENIUS_GENOENT_13
 70
     0
  0
APPID
  2
GENIUS_GENOLIS_13
 70
     0
  0
APPID
  2
GENIUS_GENOBJ-NBEHI-BHF_13
 70
     0
  0
APPID
  2
GENIUS_GENOREF_13
 70
     0
  0
APPID
  2
GENIUS_GENOBJ-NBEHI-BHB_13
 70
     0
  0
APPID
  2
AMG_2DHIDE
 70
     0
  0
APPID
  2
AMG_2DSTRUCT_BTR
 70
     0
  0
APPID
  2
GENIUS_AMGTXT_16
 70
     0
  0
APPID
  2
GENIUS_GENOBJ-N-HTC_13
 70
     0
  0
APPID
  2
GENIUS_GENHATCH_13
 70
     0
  0
APPID
  2
GEVID1208849169
 70
     0
  0
APPID
  2
GEVDC
 70
     0
  0
APPID
  2
ACADM_2DVIEW_IGN_NOTIFY
 70
     0
  0
APPID
  2
GEVID1208849170
 70
     0
  0
APPID
  2
GEVID1208849171
 70
     0
  0
APPID
  2
GEVRADREF
 70
     0
  0
APPID
  2
ACAD_DSTYLE_DIMJAG
 70
     0
  0
APPID
  2
ACAD_DSTYLE_DIMTALN
 70
     0
  0
APPID
  2
GENIUS_GENDTOL_13
 70
     0
  0
APPID
  2
GENIUS_GENTRA_14
 70
     0
  0
APPID
  2
GENIUS_GENOBJ-N-TIT_13
 70
     0
  0
APPID
  2
GENIUS_GENTITLE_13
 70
     0
  0
APPID
  2
GENIUS_GENSCREG_15
 70
     0
  0
APPID
  2
GENIUS_GENOBJ-N-SDF_13
 70
     0
  0
APPID
  2
ACAD_DSTYLE_DIMRADIAL_EXTENSION
 70
     0
  0
APPID
  2
GENIUS_GENOBJ-N-FIL_13
 70
     0
  0
APPID
  2
GENIUS_GENOBJ-N-CRS_13
 70
     0
  0
APPID
  2
GENIUS_GENDIMSH_14
 70
     0
  0
APPID
  2
ACAD_DSTYLE_DIMANGULAR_EXT
 70
     0
  0
APPID
  2
ACAD_NAV_VCDISPLAY
 70
     0
  0
APPID
  2
ACAD_DSTYLE_DIMBREAK
 70
     0
  0
APPID
  2
ACAD_DSTYLE_DIMARC_LENGTH_
 70
     0
  0
APPID
  2
ACAD_DSTYLE_DIM_LINETYPE
 70
     0
  0
APPID
  2
ACAD_DSTYLE_DIM_EXT1_LINETYPE
 70
     0
  0
APPID
  2
ACAD_DSTYLE_DIM_EXT2_LINETYPE
 70
     0
  0
APPID
  2
ACDBATTR
 70
     0
  0
APPID
  2
GENIUS_GENSCREG_13
 70
     0
  0
APPID
  2
CONTENTBLOCKICON
 70
     0
  0
ENDTAB
  0
TABLE
  2
DIMSTYLE
 70
    26
  0
DIMSTYLE
  2
STANDARD
 70
     0
  3

  4

  5

  6

  7

 40
1.0
 41
1.0
 42
0.8
 43
0.38
 44
1.0
 45
0.0
 46
0.0
 47
0.0
 48
0.0
140
3.1000000000000001
141
0.09
142
0.0
143
25.3999999999999986
144
1.0
145
0.5
146
1.0
147
0.09
 71
     0
 72
     0
 73
     0
 74
     0
 75
     0
 76
     0
 77
     1
 78
     0
170
     0
171
     2
172
     0
173
     0
174
     0
175
     0
176
     0
177
     0
178
     0
  0
DIMSTYLE
  2
AM_ANSI
 70
     0
  3

  4
mm
  5

  6

  7

 40
1.0
 41
0.1
 42
0.05
 43
0.5
 44
0.1
 45
0.0
 46
0.0
 47
0.1
 48
0.1
140
0.12
141
0.0
142
0.0
143
25.3999999999999986
144
1.0
145
0.0
146
0.71
147
0.06
 71
     0
 72
     0
 73
     1
 74
     1
 75
     0
 76
     0
 77
     0
 78
     7
170
     0
171
     2
172
     0
173
     0
174
     0
175
     0
176
   256
177
   256
178
     2
  0
DIMSTYLE
  2
AM_ANSI$3
 70
     0
  3

  4
mm
  5

  6

  7

 40
1.0
 41
0.1
 42
0.05
 43
0.5
 44
0.1
 45
0.0
 46
0.0
 47
0.1
 48
0.1
140
0.12
141
0.0
142
0.0
143
25.3999999999999986
144
1.0
145
0.0
146
0.71
147
0.06
 71
     0
 72
     0
 73
     1
 74
     1
 75
     0
 76
     0
 77
     0
 78
     7
170
     0
171
     2
172
     0
173
     0
174
     0
175
     0
176
   256
177
   256
178
     2
  0
DIMSTYLE
  2
AM_ANSI$4
 70
     0
  3

  4
mm
  5

  6

  7

 40
1.0
 41
0.1
 42
0.05
 43
0.5
 44
0.1
 45
0.0
 46
0.0
 47
0.1
 48
0.1
140
0.12
141
0.0
142
0.0
143
25.3999999999999986
144
1.0
145
0.0
146
0.71
147
0.06
 71
     0
 72
     0
 73
     1
 74
     1
 75
     0
 76
     0
 77
     0
 78
     7
170
     0
171
     2
172
     0
173
     0
174
     0
175
     0
176
   256
177
   256
178
     2
  0
DIMSTYLE
  2
AM_ANSI$7
 70
     0
  3

  4
mm
  5

  6

  7

 40
1.0
 41
0.1
 42
0.05
 43
0.5
 44
0.1
 45
0.0
 46
0.0
 47
0.1
 48
0.1
140
0.24
141
0.0
142
0.0
143
25.3999999999999986
144
1.0
145
0.0
146
0.71
147
0.06
 71
     0
 72
     0
 73
     1
 74
     1
 75
     0
 76
     0
 77
     0
 78
     7
170
     0
171
     2
172
     0
173
     0
174
     0
175
     0
176
   256
177
   256
178
     2
  0
DIMSTYLE
  2
AM_ANSI$SF
 70
     0
  3

  4
mm
  5

  6

  7

 40
1.0
 41
0.1
 42
0.05
 43
0.5
 44
0.1
 45
0.0
 46
0.0
 47
0.1
 48
0.1
140
0.12
141
0.0
142
0.0
143
25.3999999999999986
144
1.0
145
0.0
146
0.71
147
0.06
 71
     0
 72
     0
 73
     1
 74
     1
 75
     1
 76
     1
 77
     0
 78
     7
170
     0
171
     2
172
     0
173
     0
174
     0
175
     0
176
   256
177
   256
178
     2
  0
DIMSTYLE
  2
AM_ANSI$SH
 70
     0
  3

  4
mm
  5

  6
GENAXEH
  7

 40
1.0
 41
0.1
 42
0.05
 43
0.5
 44
0.1
 45
0.0
 46
0.0
 47
0.1
 48
0.1
140
0.12
141
0.0
142
0.0
143
25.3999999999999986
144
1.0
145
0.0
146
0.71
147
0.06
 71
     0
 72
     0
 73
     1
 74
     1
 75
     1
 76
     1
 77
     0
 78
     7
170
     0
171
     2
172
     0
173
     1
174
     0
175
     0
176
   256
177
   256
178
     2
  0
DIMSTYLE
  2
AM_JIS
 70
     0
  3

  4
"
  5
OPEN30
  6

  7

 40
1.0
 41
2.5
 42
1.0
 43
7.0
 44
1.0
 45
0.0
 46
0.0
 47
0.1
 48
0.1
140
3.0
141
0.0
142
0.0
143
0.0393701
144
1.0
145
0.0
146
0.71
147
1.0
 71
     0
 72
     0
 73
     0
 74
     0
 75
     0
 76
     0
 77
     3
 78
     8
170
     0
171
     2
172
     1
173
     0
174
     0
175
     0
176
     7
177
     7
178
     7
  0
DIMSTYLE
  2
AM_JIS$3
 70
     0
  3

  4
"
  5
OPEN30
  6

  7

 40
1.0
 41
2.5
 42
1.0
 43
10.0
 44
1.0
 45
0.0
 46
0.0
 47
0.1
 48
0.1
140
3.0
141
0.0
142
0.0
143
0.0393701
144
1.0
145
0.0
146
0.71
147
1.0
 71
     0
 72
     0
 73
     0
 74
     1
 75
     0
 76
     0
 77
     3
 78
     8
170
     0
171
     2
172
     0
173
     0
174
     0
175
     0
176
     7
177
     7
178
     7
  0
DIMSTYLE
  2
AM_JIS$4
 70
     0
  3

  4
"
  5
OPEN30
  6

  7

 40
1.0
 41
2.5
 42
1.0
 43
10.0
 44
1.0
 45
0.0
 46
0.0
 47
0.1
 48
0.1
140
2.0
141
0.0
142
0.0
143
0.0393701
144
1.0
145
0.0
146
0.71
147
1.0
 71
     0
 72
     0
 73
     0
 74
     0
 75
     0
 76
     0
 77
     3
 78
     8
170
     0
171
     2
172
     0
173
     0
174
     0
175
     0
176
     7
177
     7
178
     7
  0
DIMSTYLE
  2
AM_JIS$6
 70
     0
  3

  4
"
  5
OPEN30
  6

  7

 40
1.0
 41
2.5
 42
1.0
 43
10.0
 44
1.0
 45
0.0
 46
0.0
 47
0.1
 48
0.1
140
3.0
141
0.0
142
0.0
143
0.0393701
144
1.0
145
0.0
146
0.71
147
1.0
 71
     0
 72
     0
 73
     0
 74
     0
 75
     0
 76
     0
 77
     0
 78
     8
170
     0
171
     2
172
     1
173
     0
174
     0
175
     0
176
   256
177
     7
178
     7
  0
DIMSTYLE
  2
AM_JIS$7
 70
     0
  3

  4
"
  5
OPEN30
  6

  7

 40
1.0
 41
2.5
 42
1.0
 43
10.0
 44
1.0
 45
0.0
 46
0.0
 47
0.1
 48
0.1
140
3.0
141
0.0
142
0.0
143
0.0393701
144
1.0
145
0.0
146
0.71
147
1.0
 71
     0
 72
     0
 73
     0
 74
     0
 75
     0
 76
     0
 77
     3
 78
     8
170
     0
171
     2
172
     1
173
     0
174
     0
175
     0
176
     7
177
   256
178
     7
  0
DIMSTYLE
  2
AM_JIS$SF
 70
     0
  3

  4
"
  5
OPEN30
  6

  7

 40
1.0
 41
2.5
 42
1.0
 43
7.0
 44
1.0
 45
0.0
 46
0.0
 47
0.1
 48
0.1
140
3.0
141
0.0
142
0.0
143
0.0393701
144
1.0
145
0.0
146
0.71
147
1.0
 71
     0
 72
     0
 73
     0
 74
     0
 75
     1
 76
     1
 77
     3
 78
     8
170
     0
171
     2
172
     1
173
     0
174
     0
175
     0
176
     7
177
   256
178
     7
  0
DIMSTYLE
  2
AM_JIS$SH
 70
     0
  3

  4
"
  5

  6
GENAXEH
  7
OPEN30
 40
1.0
 41
2.5
 42
1.0
 43
7.0
 44
1.0
 45
0.0
 46
0.0
 47
0.1
 48
0.1
140
3.0
141
0.0
142
0.0
143
0.0393701
144
2.0
145
0.0
146
0.71
147
1.0
 71
     0
 72
     0
 73
     0
 74
     0
 75
     1
 76
     1
 77
     3
 78
     8
170
     0
171
     2
172
     1
173
     1
174
     0
175
     0
176
     7
177
   256
178
     7
  0
DIMSTYLE
  2
AM_JIS$2
 70
     0
  3

  4
"
  5
OPEN30
  6

  7

 40
1.0
 41
2.5
 42
1.0
 43
7.0
 44
1.0
 45
0.0
 46
0.0
 47
0.1
 48
0.1
140
3.0
141
0.0
142
0.0
143
0.0393701
144
1.0
145
0.0
146
0.71
147
1.0
 71
     0
 72
     0
 73
     0
 74
     0
 75
     0
 76
     0
 77
     3
 78
     8
170
     0
171
     2
172
     1
173
     0
174
     0
175
     0
176
     7
177
     7
178
     7
  0
DIMSTYLE
  2
AM_JIS$0
 70
     0
  3

  4
"
  5
OPEN30
  6

  7

 40
1.0
 41
2.5
 42
1.0
 43
7.0
 44
1.0
 45
0.0
 46
0.0
 47
0.1
 48
0.1
140
3.0
141
0.0
142
0.0
143
0.0393701
144
1.0
145
0.0
146
0.71
147
1.0
 71
     0
 72
     0
 73
     0
 74
     0
 75
     0
 76
     0
 77
     3
 78
     8
170
     0
171
     2
172
     1
173
     0
174
     0
175
     0
176
     7
177
     7
178
     7
  0
DIMSTYLE
  2
STANDARD$0
 70
     0
  3

  4

  5

  6

  7

 40
1.0
 41
1.0
 42
0.8
 43
0.38
 44
1.0
 45
0.0
 46
0.0
 47
0.0
 48
0.0
140
3.1000000000000001
141
0.09
142
0.0
143
25.3999999999999986
144
1.0
145
0.5
146
1.0
147
0.09
 71
     0
 72
     0
 73
     0
 74
     0
 75
     0
 76
     0
 77
     1
 78
     0
170
     0
171
     2
172
     0
173
     0
174
     0
175
     0
176
     0
177
     0
178
     0
  0
DIMSTYLE
  2
ANNOTATIVE
 70
     0
  3

  4

  5

  6

  7

 40
1.0
 41
0.18
 42
0.0625
 43
0.38
 44
0.18
 45
0.0
 46
0.0
 47
0.0
 48
0.0
140
0.18
141
0.09
142
0.0
143
25.3999999999999986
144
1.0
145
0.0
146
1.0
147
0.09
 71
     0
 72
     0
 73
     1
 74
     1
 75
     0
 76
     0
 77
     0
 78
     0
170
     0
171
     2
172
     0
173
     0
174
     0
175
     0
176
     0
177
     0
178
     0
  0
DIMSTYLE
  2
AM_ISO
 70
     0
  3

  4
"
  5

  6

  7

 40
1.0
 41
2.5
 42
1.0
 43
10.0
 44
1.0
 45
0.0
 46
0.0
 47
0.1
 48
0.1
140
3.5
141
0.0
142
0.0
143
0.0393701
144
1.0
145
0.0
146
0.71
147
1.5
 71
     0
 72
     0
 73
     0
 74
     0
 75
     0
 76
     0
 77
     1
 78
     8
170
     0
171
     2
172
     1
173
     0
174
     0
175
     0
176
   256
177
   256
178
     2
  0
DIMSTYLE
  2
AM_ISO$3
 70
     0
  3

  4
"
  5

  6

  7

 40
1.0
 41
2.5
 42
1.0
 43
10.0
 44
1.0
 45
0.0
 46
0.0
 47
0.1
 48
0.1
140
3.5
141
0.0
142
0.0
143
0.0393701
144
1.0
145
0.0
146
0.71
147
1.5
 71
     0
 72
     0
 73
     0
 74
     1
 75
     0
 76
     0
 77
     1
 78
     8
170
     0
171
     2
172
     0
173
     0
174
     0
175
     0
176
   256
177
   256
178
     2
  0
DIMSTYLE
  2
AM_ISO$4
 70
     0
  3

  4
"
  5

  6

  7

 40
1.0
 41
2.5
 42
1.0
 43
10.0
 44
1.0
 45
0.0
 46
0.0
 47
0.1
 48
0.1
140
3.5
141
0.0
142
0.0
143
0.0393701
144
1.0
145
0.0
146
0.71
147
1.5
 71
     0
 72
     0
 73
     0
 74
     1
 75
     0
 76
     0
 77
     1
 78
     8
170
     0
171
     2
172
     0
173
     0
174
     0
175
     0
176
   256
177
   256
178
     2
  0
DIMSTYLE
  2
AM_ISO$6
 70
     0
  3

  4
"
  5

  6

  7

 40
1.0
 41
2.5
 42
1.0
 43
10.0
 44
1.0
 45
0.0
 46
0.0
 47
0.1
 48
0.1
140
3.5
141
0.0
142
0.0
143
0.0393701
144
1.0
145
0.0
146
0.71
147
1.5
 71
     0
 72
     0
 73
     0
 74
     0
 75
     0
 76
     0
 77
     0
 78
     8
170
     0
171
     2
172
     1
173
     0
174
     0
175
     0
176
   256
177
   256
178
     2
  0
DIMSTYLE
  2
AM_ISO$7
 70
     0
  3

  4
"
  5

  6

  7

 40
1.0
 41
2.5
 42
1.0
 43
10.0
 44
1.0
 45
0.0
 46
0.0
 47
0.1
 48
0.1
140
5.0
141
0.0
142
0.0
143
0.0393701
144
1.0
145
0.0
146
0.71
147
1.5
 71
     0
 72
     0
 73
     0
 74
     0
 75
     0
 76
     0
 77
     1
 78
     8
170
     0
171
     2
172
     1
173
     0
174
     0
175
     0
176
   256
177
   256
178
     2
  0
DIMSTYLE
  2
AM_ISO$SF
 70
     0
  3

  4
"
  5

  6

  7

 40
1.0
 41
2.5
 42
1.0
 43
10.0
 44
1.0
 45
0.0
 46
0.0
 47
0.1
 48
0.1
140
3.5
141
0.0
142
0.0
143
0.0393701
144
1.0
145
0.0
146
0.71
147
1.5
 71
     0
 72
     0
 73
     0
 74
     0
 75
     1
 76
     1
 77
     1
 78
     8
170
     0
171
     2
172
     1
173
     0
174
     0
175
     0
176
   256
177
   256
178
     2
  0
DIMSTYLE
  2
AM_ISO$SH
 70
     0
  3

  4
"
  5

  6
GENAXEH
  7

 40
1.0
 41
2.5
 42
1.0
 43
10.0
 44
1.0
 45
0.0
 46
0.0
 47
0.1
 48
0.1
140
3.5
141
0.0
142
0.0
143
0.0393701
144
2.0
145
0.0
146
0.71
147
1.5
 71
     0
 72
     0
 73
     0
 74
     0
 75
     1
 76
     1
 77
     1
 78
     8
170
     0
171
     2
172
     1
173
     1
174
     0
175
     0
176
   256
177
   256
178
     2
  0
ENDTAB
  0
ENDSEC
  0
SECTION
  2
BLOCKS
  0
BLOCK
  8
0
  2
$MODEL_SPACE
 70
     0
 10
0.0
 20
0.0
 30
0.0
  3
$MODEL_SPACE
  1

  0
ENDBLK
  5
1D3
  8
0
  0
BLOCK
 67
     1
  8
0
  2
$PAPER_SPACE
 70
     0
 10
0.0
 20
0.0
 30
0.0
  3
$PAPER_SPACE
  1

  0
ENDBLK
  5
1D1
 67
     1
  8
0
  0
BLOCK
  8
0
  2
GENAXEH
 70
     0
 10
0.0
 20
0.0
 30
0.0
  3
GENAXEH
  1

  0
LINE
  5
264
  8
0
 10
-1.0
 20
0.0
 30
0.0
 11
1.0
 21
0.0
 31
0.0
  0
ENDBLK
  5
266
  8
0
  0
BLOCK
  8
0
  2
_OPEN30
 70
     0
 10
0.0
 20
0.0
 30
0.0
  3
_OPEN30
  1

  0
LINE
  5
2FA
  8
0
  6
BYBLOCK
 62
     0
 10
-1.0
 20
0.26794919
 30
0.0
 11
0.0
 21
0.0
 31
0.0
  0
LINE
  5
2FB
  8
0
  6
BYBLOCK
 62
     0
 10
0.0
 20
0.0
 30
0.0
 11
-1.0
 21
-0.26794919
 31
0.0
  0
LINE
  5
2FC
  8
0
  6
BYBLOCK
 62
     0
 10
0.0
 20
0.0
 30
0.0
 11
-1.0
 21
0.0
 31
0.0
  0
ENDBLK
  5
2FE
  8
0
  0
BLOCK
  8
0
  2
MYPLIST0
 70
     2
 10
0.0
 20
0.0
 30
0.0
  3
MYPLIST0
  1

  0
LINE
  5
346
  8
SYS-BUHIN0
  6
CONTINUOUS
 62
     4
 10
-170.0
 20
7.0
 30
0.0
 11
0.0
 21
7.0
 31
0.0
  0
LINE
  5
347
  8
SYS-BUHIN0
  6
CONTINUOUS
 62
     4
 10
-170.0
 20
-0.0000000000030695
 30
0.0
 11
0.0
 21
-0.0000000000001137
 31
0.0
  0
LINE
  5
348
  8
SYS-BUHIN0
  6
CONTINUOUS
 62
     4
 10
-170.0
 20
7.0
 30
0.0
 11
-170.0
 21
0.0
 31
0.0
  0
LINE
  5
349
  8
SYS-BUHIN0
  6
CONTINUOUS
 62
     4
 10
0.0
 20
7.0
 30
0.0
 11
0.0
 21
0.0
 31
0.0
  0
LINE
  5
34A
  8
SYS-BUHIN0
  6
CONTINUOUS
 62
     4
 10
-161.0
 20
7.0
 30
0.0
 11
-161.0
 21
0.0
 31
0.0
  0
LINE
  5
34B
  8
SYS-BUHIN0
  6
CONTINUOUS
 62
     4
 10
-99.0
 20
7.0
 30
0.0
 11
-99.0
 21
0.0
 31
0.0
  0
LINE
  5
34C
  8
SYS-BUHIN0
  6
CONTINUOUS
 62
     4
 10
-72.0
 20
7.0
 30
0.0
 11
-72.0
 21
0.0
 31
0.0
  0
LINE
  5
34D
  8
SYS-BUHIN0
  6
CONTINUOUS
 62
     4
 10
-63.0
 20
7.0
 30
0.0
 11
-63.0
 21
0.0
 31
0.0
  0
LINE
  5
34E
  8
SYS-BUHIN0
  6
CONTINUOUS
 62
     4
 10
-16.0
 20
7.0
 30
0.0
 11
-16.0
 21
0.0
 31
0.0
  0
TEXT
  5
34F
  8
SYS-BUHIN0
  6
CONTINUOUS
 62
     7
 10
-13.61264708219346
 20
0.6000000119208835
 30
0.0
 40
1.1000000000000001
  1
PARTS NO.
 41
1.3
  0
TEXT
  5
350
  8
SYS-BUHIN0
  6
CONTINUOUS
 62
     7
 10
-14.3642941911601802
 20
3.0691472933651762
 30
0.0
 40
2.2000000000000002
  1
部品コード
  0
TEXT
  5
351
  8
SYS-BUHIN0
  6
CONTINUOUS
 62
     7
 10
-43.8524548079375265
 20
0.6000000119208835
 30
0.0
 40
1.1000000000000001
  1
REMARKS
 41
1.3
  0
TEXT
  5
352
  8
SYS-BUHIN0
  6
CONTINUOUS
 62
     7
 10
-47.3700002431869507
 20
2.7500000476836699
 30
0.0
 40
2.7999999999999989
  1
備    考
  0
TEXT
  5
353
  8
SYS-BUHIN0
  6
CONTINUOUS
 62
     7
 10
-69.144963642251696
 20
0.6000000119208835
 30
0.0
 40
1.1000000000000001
  1
UNIT
  0
TEXT
  5
354
  8
SYS-BUHIN0
  6
CONTINUOUS
 62
     7
 10
-70.2722623709344134
 20
2.6949072988287521
 30
0.0
 40
2.7999999999999989
  1
数量
  0
TEXT
  5
355
  8
SYS-BUHIN0
  6
CONTINUOUS
 62
     7
 10
-90.5592343834632629
 20
0.6000000119208835
 30
0.0
 40
1.1000000000000001
  1
MATERIAL
 41
1.3
  0
TEXT
  5
357
  8
SYS-BUHIN0
  6
CONTINUOUS
 62
     7
 10
-138.9093619295485951
 20
0.6000000119208835
 30
0.0
 40
1.1000000000000001
  1
  DESCRIPTION
 41
1.3
  0
TEXT
  5
358
  8
SYS-BUHIN0
  6
CONTINUOUS
 62
     7
 10
-142.0050003230572031
 20
2.7500000476836699
 30
0.0
 40
2.7999999999999989
  1
 部  品  名
  0
TEXT
  5
359
  8
SYS-BUHIN0
  6
CONTINUOUS
 62
     7
 10
-166.6340487395731884
 20
0.6000000119208835
 30
0.0
 40
1.1000000000000001
  1
NO.
  0
TEXT
  5
35A
  8
SYS-BUHIN0
  6
CONTINUOUS
 62
     7
 10
-168.2900000810622885
 20
2.7500000476836699
 30
0.0
 40
2.7999999999999989
  1
項番
  0
ATTDEF
  5
35B
  8
AM_0
 62
     7
 10
-168.7900000810622885
 20
3.5
 30
0.0
 40
3.1000000000000001
  1

  3

  2
ITEM
 70
     1
1001
ACDBATTR
1070
     0
1070
     1
  0
TEXT
  5
C0B
  8
AM_BOR
 62
     7
 10
-91.7700001597404338
 20
2.7000000476837149
 30
0.0
 40
2.7999999999999989
  1
材　　質
  0
ENDBLK
  5
35C
  8
0
  0
BLOCK
  8
0
  2
MYPLIST1
 70
     2
 10
0.0
 20
0.0
 30
0.0
  3
MYPLIST1
  1

  0
LINE
  5
393
  8
SYS-BUHIN0
  6
CONTINUOUS
 62
     4
 10
-170.0
 20
6.0
 30
0.0
 11
0.0
 21
6.0
 31
0.0
  0
LINE
  5
394
  8
SYS-BUHIN0
  6
CONTINUOUS
 62
     4
 10
-170.0
 20
0.0
 30
0.0
 11
-170.0
 21
6.0
 31
0.0
  0
LINE
  5
395
  8
SYS-BUHIN0
  6
CONTINUOUS
 62
     4
 10
-161.0
 20
0.0
 30
0.0
 11
-161.0
 21
6.0
 31
0.0
  0
LINE
  5
396
  8
SYS-BUHIN0
  6
CONTINUOUS
 62
     4
 10
-99.0
 20
0.0
 30
0.0
 11
-99.0
 21
6.0
 31
0.0
  0
LINE
  5
397
  8
SYS-BUHIN0
  6
CONTINUOUS
 62
     4
 10
-72.0
 20
0.0
 30
0.0
 11
-72.0
 21
6.0
 31
0.0
  0
LINE
  5
398
  8
SYS-BUHIN0
  6
CONTINUOUS
 62
     4
 10
-63.0
 20
0.0
 30
0.0
 11
-63.0
 21
6.0
 31
0.0
  0
LINE
  5
399
  8
SYS-BUHIN0
  6
CONTINUOUS
 62
     4
 10
-16.0
 20
0.0
 30
0.0
 11
-16.0
 21
6.0
 31
0.0
  0
LINE
  5
39A
  8
SYS-BUHIN0
  6
CONTINUOUS
 62
     4
 10
0.0
 20
0.0
 30
0.0
 11
0.0
 21
6.0
 31
0.0
  0
LINE
  5
39B
  8
SYS-BUHIN0
  6
CONTINUOUS
 62
     4
 10
-170.0
 20
0.0
 30
0.0
 11
0.0
 21
0.0
 31
0.0
  0
ATTDEF
  5
39C
  8
SYS-BUHINCODE
 10
-14.0
 20
2.5
 30
0.0
 40
1.0
  1

 11
-14.0
 21
3.0
 31
0.0
  3
部品コード
  2
PCODE
 70
     0
 74
     2
1001
ACDBATTR
1070
     0
1070
     1
  0
ATTDEF
  5
39D
  8
SYS-BUHIN0
  6
CONTINUOUS
 62
     7
 10
-61.0
 20
2.0
 30
0.0
 40
2.0
  1

 11
-61.0
 21
3.0
 31
0.0
  3
備考
  2
NOTE
 70
     0
 74
     2
1001
ACDBATTR
1070
     0
1070
     1
  0
ATTDEF
  5
39E
  8
SYS-BUHIN0
  6
CONTINUOUS
 62
     7
 10
-67.5
 20
3.0
 30
0.0
 40
2.5
  1

 72
     4
 11
-67.5
 21
3.0
 31
0.0
  3
数量
  2
QTY
 70
     0
1001
ACDBATTR
1070
     0
1070
     1
  0
ATTDEF
  5
39F
  8
SYS-BUHIN0
  6
CONTINUOUS
 62
     7
 10
-97.5959581602098751
 20
2.0
 30
0.0
 40
2.0
  1

 11
-97.5959581602098751
 21
3.0
 31
0.0
  3
材質
  2
MATERIAL
 70
     0
 74
     2
1001
ACDBATTR
1070
     0
1070
     1
  0
ATTDEF
  5
3A0
  8
SYS-BUHIN0
  6
CONTINUOUS
 62
     7
 10
-159.0
 20
1.75
 30
0.0
 40
2.5
  1

 11
-159.0
 21
3.0
 31
0.0
  3
部品名
  2
DESCR
 70
     0
 74
     2
1001
ACDBATTR
1070
     0
1070
     1
  0
ATTDEF
  5
3A1
  8
SYS-BUHIN0
  6
CONTINUOUS
 62
     7
 10
-165.5
 20
3.0
 30
0.0
 40
2.5
  1

 72
     4
 11
-165.5
 21
3.0
 31
0.0
  3
項番
  2
ITEM
 70
     0
1001
ACDBATTR
1070
     0
1070
     1
  0
ENDBLK
  5
370
  8
0
  0
BLOCK
  8
0
  2
A$C1C06296A
 70
     2
 10
0.0
 20
0.0
 30
0.0
  3
A$C1C06296A
  1

  0
LINE
  5
204C
  8
AM_BOR
 10
198.8685188039937088
 20
17.8867445779319887
 30
0.0
 11
203.2337455721774973
 21
13.5215178097486195
 31
0.0
  0
LINE
  5
204D
  8
AM_BOR
 10
198.8685188039935952
 20
17.8667153513160386
 30
0.0
 11
198.8685188039939931
 21
14.1289643611789106
 31
0.0
  0
LINE
  5
204E
  8
AM_BOR
 10
204.7045172738833969
 20
17.8667153264694107
 30
0.0
 11
204.7045172738839085
 21
14.1811288456255493
 31
0.0
  0
LINE
  5
204F
  8
AM_BOR
 10
204.2042888336073077
 20
17.7930102901758609
 30
0.0
 11
204.204288833606995
 21
14.6986103577410798
 31
0.0
  0
LINE
  5
2050
  8
AM_BOR
 10
199.3687472442697981
 20
17.1760524653333491
 30
0.0
 11
199.3687472442705939
 21
14.1978003551034107
 31
0.0
  0
LINE
  5
2051
  8
AM_BOR
 10
200.4375646203926919
 20
18.4653345709555303
 30
0.0
 11
204.2042888336073077
 21
14.6986103577405203
 31
0.0
  0
LINE
  5
2052
  8
AM_BOR
 10
199.3687472442697128
 20
17.1760524653325497
 30
0.0
 11
203.0271328720340875
 21
13.5176668375685196
 31
0.0
  0
ARC
  5
2053
  8
AM_BOR
 10
198.3682903686870134
 20
17.8667153513160493
 30
0.0
 40
0.500228440276212
 50
0.0
 51
50.265515568291427
  0
ARC
  5
2054
  8
AM_BOR
 10
198.3682903438408118
 20
14.1289643611789195
 30
0.0
 40
0.500228440276212
 50
304.6975967840527915
 51
0.0
  0
ARC
  5
2055
  8
AM_BOR
 10
205.2047457340366918
 20
17.8667153264694107
 30
0.0
 40
0.500228440276212
 50
127.0284887689632995
 51
180.0000050089562933
  0
ARC
  5
2056
  8
AM_BOR
 10
203.5373175699668877
 20
17.7930102901758183
 30
0.0
 40
0.6669712537016159
 50
0.0
 51
74.7148235688661515
  0
ARC
  5
2057
  8
AM_BOR
 10
200.0357184979716862
 20
14.1978003551033893
 30
0.0
 40
0.6669712537016159
 50
180.0000050089562933
 51
256.4857883914604031
  0
LINE
  5
2058
  8
AM_BOR
 10
210.9573727773361895
 20
15.9934456649946792
 30
0.0
 11
210.9224749062998967
 21
16.211434571273589
 31
0.0
  0
LINE
  5
2059
  8
AM_BOR
 10
210.9224749062994135
 20
16.2114345712734114
 30
0.0
 11
210.8180468870608024
 21
16.4277644503503701
 31
0.0
  0
LINE
  5
205A
  8
AM_BOR
 10
210.8180468870604045
 20
16.4277644503503701
 30
0.0
 11
210.6448834799014946
 21
16.6407889012216685
 31
0.0
  0
LINE
  5
205B
  8
AM_BOR
 10
210.6448834799012957
 20
16.6407889012216188
 30
0.0
 11
210.4043025629098054
 21
16.8488866791887588
 31
0.0
  0
LINE
  5
205C
  8
AM_BOR
 10
210.4043025629094927
 20
16.8488866791890004
 30
0.0
 11
210.098135102129703
 21
17.0504740345086887
 31
0.0
  0
LINE
  5
205D
  8
AM_BOR
 10
210.0981351021299872
 20
17.0504740345085501
 30
0.0
 11
209.7287112168075964
 21
17.2440167656851386
 31
0.0
  0
LINE
  5
205E
  8
AM_BOR
 10
209.7287112168071133
 20
17.2440167656852097
 30
0.0
 11
209.2988424457736869
 21
17.4280418956699883
 31
0.0
  0
LINE
  5
205F
  8
AM_BOR
 10
209.2988424457736869
 20
17.4280418956700807
 30
0.0
 11
208.8118003499388919
 21
17.6011488821063686
 31
0.0
  0
LINE
  5
2060
  8
AM_BOR
 10
208.8118003499388919
 20
17.6011488821064397
 30
0.0
 11
208.2712916137359116
 21
17.7620202763029695
 31
0.0
  0
LINE
  5
2061
  8
AM_BOR
 10
208.2712916137361105
 20
17.7620202763030903
 30
0.0
 11
207.681429835015507
 21
17.9094317498130806
 31
0.0
  0
LINE
  5
2062
  8
AM_BOR
 10
207.6814298350153081
 20
17.9094317498129705
 30
0.0
 11
207.0467042180816861
 21
18.0422614123133584
 31
0.0
  0
LINE
  5
2063
  8
AM_BOR
 10
207.0467042180816861
 20
18.0422614123134402
 30
0.0
 11
206.371945408137293
 21
18.1594983498679703
 31
0.0
  0
LINE
  5
2064
  8
AM_BOR
 10
206.371945408137492
 20
18.1594983498678815
 30
0.0
 11
205.6622887271568061
 21
18.2602503185922984
 31
0.0
  0
LINE
  5
2065
  8
AM_BOR
 10
205.6622887271566071
 20
18.2602503185923695
 30
0.0
 11
205.022423745999788
 21
18.3325341603967402
 31
0.0
  0
LINE
  5
2066
  8
AM_BOR
 10
205.0224237459993901
 20
18.3325341603967793
 30
0.0
 11
204.923135090983692
 21
18.3437505351688195
 31
0.0
  0
LINE
  5
2067
  8
AM_BOR
 10
204.923135090983692
 20
18.3437505351687484
 30
0.0
 11
204.1601099051040933
 21
18.409363512530259
 31
0.0
  0
LINE
  5
2068
  8
AM_BOR
 10
204.1601099051048038
 20
18.409363512530259
 30
0.0
 11
203.713146860105013
 21
18.4363878729324711
 31
0.0
  0
LINE
  5
2069
  8
AM_BOR
 10
200.437564620392493
 20
18.4653345709555694
 30
0.0
 11
200.1940158259679094
 21
18.4565898963008799
 31
0.0
  0
LINE
  5
206A
  8
AM_BOR
 10
200.1940158259679947
 20
18.4565898963009012
 30
0.0
 11
199.4129261727725861
 21
18.4093635125303088
 31
0.0
  0
LINE
  5
206B
  8
AM_BOR
 10
199.4129261727725861
 20
18.4093635125302484
 30
0.0
 11
198.6499009868929875
 21
18.3437505351687591
 31
0.0
  0
LINE
  5
206C
  8
AM_BOR
 10
198.550612373156298
 20
18.3325341650599789
 30
0.0
 11
197.9107473507208965
 21
18.2602503185924689
 31
0.0
  0
LINE
  5
206D
  8
AM_BOR
 10
198.6499009868929875
 20
18.3437505351687911
 30
0.0
 11
198.550612373156298
 21
18.3325341650599185
 31
0.0
  0
LINE
  5
206E
  8
AM_BOR
 10
197.9107473507212092
 20
18.2602503185924299
 30
0.0
 11
197.2010906697404948
 21
18.1594983498680413
 31
0.0
  0
LINE
  5
206F
  8
AM_BOR
 10
197.2010906697404096
 20
18.1594983498680911
 30
0.0
 11
196.5263318597957891
 21
18.042261412313529
 31
0.0
  0
LINE
  5
2070
  8
AM_BOR
 10
196.5263318597959028
 20
18.0422614123135894
 30
0.0
 11
195.8916062428623945
 21
17.9094317498132192
 31
0.0
  0
LINE
  5
2071
  8
AM_BOR
 10
195.8916062428617124
 20
17.9094317498130202
 30
0.0
 11
195.3017444641411942
 21
17.7620202763030584
 31
0.0
  0
LINE
  5
2072
  8
AM_BOR
 10
195.3017444641409952
 20
17.7620202763031614
 30
0.0
 11
194.7612357279377875
 21
17.6011488821066102
 31
0.0
  0
LINE
  5
2073
  8
AM_BOR
 10
194.7612357279377875
 20
17.6011488821065605
 30
0.0
 11
194.2741936321029925
 21
17.4280418956701517
 31
0.0
  0
LINE
  5
2074
  8
AM_BOR
 10
194.2741936321033904
 20
17.4280418956701517
 30
0.0
 11
193.8443248610695946
 21
17.2440167656852594
 31
0.0
  0
LINE
  5
2075
  8
AM_BOR
 10
193.8443248610695946
 20
17.2440167656852097
 30
0.0
 11
193.4749009757472038
 21
17.0504740345086496
 31
0.0
  0
LINE
  5
2076
  8
AM_BOR
 10
193.4749009757472038
 20
17.0504740345086709
 30
0.0
 11
193.1687335149671867
 21
16.8488866791889293
 31
0.0
  0
LINE
  5
2077
  8
AM_BOR
 10
193.1687335149673004
 20
16.8488866791889507
 30
0.0
 11
192.9281525979749858
 21
16.6407889012216188
 31
0.0
  0
LINE
  5
2078
  8
AM_BOR
 10
192.9281525979752985
 20
16.6407889012218106
 30
0.0
 11
192.7549891908163886
 21
16.4277644503504199
 31
0.0
  0
LINE
  5
2079
  8
AM_BOR
 10
192.7549891908163886
 20
16.4277644503503488
 30
0.0
 11
192.6505611715776922
 21
16.2114345712734789
 31
0.0
  0
LINE
  5
207A
  8
AM_BOR
 10
192.6505611715778912
 20
16.2114345712737311
 30
0.0
 11
192.6156633005415131
 21
15.9934456649946792
 31
0.0
  0
LINE
  5
207B
  8
AM_BOR
 10
192.6156633005406889
 20
15.9934456649946402
 30
0.0
 11
192.6505611715772091
 21
15.7754567587157908
 31
0.0
  0
LINE
  5
207C
  8
AM_BOR
 10
192.6505611715776922
 20
15.7754567587159293
 30
0.0
 11
192.7549891908163033
 21
15.5591268796391304
 31
0.0
  0
LINE
  5
207D
  8
AM_BOR
 10
192.7549891908163886
 20
15.5591268796390292
 30
0.0
 11
192.9281525979752985
 21
15.3461024287676402
 31
0.0
  0
LINE
  5
207E
  8
AM_BOR
 10
192.9281525979750995
 20
15.3461024287676899
 30
0.0
 11
193.1687335149671867
 21
15.1380046508005002
 31
0.0
  0
LINE
  5
207F
  8
AM_BOR
 10
193.1687335149669025
 20
15.1380046508005002
 30
0.0
 11
193.4749009757468912
 21
14.9364172954808101
 31
0.0
  0
LINE
  5
2080
  8
AM_BOR
 10
193.4749009757472891
 20
14.9364172954807106
 30
0.0
 11
193.8443248610695946
 21
14.7428745643040795
 31
0.0
  0
LINE
  5
2081
  8
AM_BOR
 10
193.8443248610695093
 20
14.7428745643041701
 30
0.0
 11
194.2741936321027083
 21
14.5588494343193506
 31
0.0
  0
LINE
  5
2082
  8
AM_BOR
 10
194.2741936321031915
 20
14.5588494343194395
 30
0.0
 11
194.7612357279379012
 21
14.3857424478829596
 31
0.0
  0
LINE
  5
2083
  8
AM_BOR
 10
194.7612357279377875
 20
14.3857424478827696
 30
0.0
 11
195.3017444641409952
 21
14.2248710536861704
 31
0.0
  0
LINE
  5
2084
  8
AM_BOR
 10
195.3017444641409952
 20
14.2248710536863108
 30
0.0
 11
195.8916062428619966
 21
14.0774595801763507
 31
0.0
  0
LINE
  5
2085
  8
AM_BOR
 10
195.8916062428619114
 20
14.0774595801762192
 30
0.0
 11
196.5263318597957891
 21
13.9446299176757904
 31
0.0
  0
LINE
  5
2086
  8
AM_BOR
 10
196.5263318597953912
 20
13.9446299176758206
 30
0.0
 11
197.201090669739699
 21
13.8273929801213207
 31
0.0
  0
LINE
  5
2087
  8
AM_BOR
 10
197.2010906697404948
 20
13.8273929801213296
 30
0.0
 11
197.9107473507208965
 21
13.7266410113970494
 31
0.0
  0
LINE
  5
2088
  8
AM_BOR
 10
197.9107473507204986
 20
13.7266410113971098
 30
0.0
 11
198.5412166771806994
 21
13.6554185716662193
 31
0.0
  0
LINE
  5
2089
  8
AM_BOR
 10
198.5412166771799889
 20
13.6554185716662495
 30
0.0
 11
198.6499009868925896
 21
13.6431407948207308
 31
0.0
  0
LINE
  5
208A
  8
AM_BOR
 10
198.6499009868929022
 20
13.6431407948206793
 30
0.0
 11
199.4129261727725861
 21
13.57752781745919
 31
0.0
  0
LINE
  5
208B
  8
AM_BOR
 10
199.4129261727725861
 20
13.5775278174592007
 30
0.0
 11
199.8798563250743996
 21
13.5492962022068202
 31
0.0
  0
LINE
  5
208C
  8
AM_BOR
 10
203.0271328720324959
 20
13.5176668375699904
 30
0.0
 11
203.379020251909111
 21
13.5303014336886491
 31
0.0
  0
LINE
  5
208D
  8
AM_BOR
 10
203.3790202519091963
 20
13.5303014336885994
 30
0.0
 11
204.1601099051044059
 21
13.57752781745919
 31
0.0
  0
LINE
  5
208E
  8
AM_BOR
 10
204.7045172738839938
 20
13.6243417221955792
 30
0.0
 11
204.9231350909844025
 21
13.6431407948207504
 31
0.0
  0
LINE
  5
208F
  8
AM_BOR
 10
204.1601099051044059
 20
13.5775278174591705
 30
0.0
 11
204.7045172738837948
 21
13.6243417221955099
 31
0.0
  0
LINE
  5
2090
  8
AM_BOR
 10
204.9231350909840899
 20
13.6431407948207593
 30
0.0
 11
205.6622887271566924
 21
13.7266410113971506
 31
0.0
  0
LINE
  5
2091
  8
AM_BOR
 10
205.6622887271566071
 20
13.7266410113971098
 30
0.0
 11
206.3719454081370941
 21
13.8273929801214006
 31
0.0
  0
LINE
  5
2092
  8
AM_BOR
 10
206.371945408137492
 20
13.8273929801214503
 30
0.0
 11
207.0467042180819135
 21
13.9446299176759396
 31
0.0
  0
LINE
  5
2093
  8
AM_BOR
 10
207.0467042180816861
 20
13.9446299176759698
 30
0.0
 11
207.6814298350155923
 21
14.0774595801763702
 31
0.0
  0
LINE
  5
2094
  8
AM_BOR
 10
207.681429835015507
 20
14.0774595801762903
 30
0.0
 11
208.2712916137361105
 21
14.2248710536862504
 31
0.0
  0
LINE
  5
2095
  8
AM_BOR
 10
208.2712916137361958
 20
14.2248710536862895
 30
0.0
 11
208.8118003499392898
 21
14.3857424478828904
 31
0.0
  0
LINE
  5
2096
  8
AM_BOR
 10
208.8118003499392898
 20
14.3857424478829206
 30
0.0
 11
209.2988424457741132
 21
14.5588494343193506
 31
0.0
  0
LINE
  5
2097
  8
AM_BOR
 10
209.2988424457739995
 20
14.5588494343193204
 30
0.0
 11
209.7287112168075112
 21
14.7428745643042198
 31
0.0
  0
LINE
  5
2098
  8
AM_BOR
 10
209.7287112168071133
 20
14.7428745643041506
 30
0.0
 11
210.098135102129703
 21
14.9364172954808296
 31
0.0
  0
LINE
  5
2099
  8
AM_BOR
 10
210.0981351021299872
 20
14.9364172954808101
 30
0.0
 11
210.4043025629098906
 21
15.1380046508003598
 31
0.0
  0
LINE
  5
209A
  8
AM_BOR
 10
210.4043025629100043
 20
15.1380046508005499
 30
0.0
 11
210.6448834799020062
 21
15.3461024287677308
 31
0.0
  0
LINE
  5
209B
  8
AM_BOR
 10
210.6448834799016936
 20
15.3461024287678303
 30
0.0
 11
210.8180468870608024
 21
15.5591268796390292
 31
0.0
  0
LINE
  5
209C
  8
AM_BOR
 10
210.8180468870606887
 20
15.5591268796390594
 30
0.0
 11
210.9224749062989872
 21
15.7754567587158601
 31
0.0
  0
LINE
  5
209D
  8
AM_BOR
 10
210.9224749062998114
 20
15.7754567587157908
 30
0.0
 11
210.9573727773361895
 21
15.9934456649946206
 31
0.0
  0
LINE
  5
209E
  8
AM_BOR
 10
199.1051424870479138
 20
18.3828970152541906
 30
0.0
 11
203.9247425107741094
 21
13.5632969915274995
 31
0.0
  0
ARC
  5
209F
  8
AM_BOR
 10
205.2047457141601967
 20
14.1811288456255493
 30
0.0
 40
0.500228440276212
 50
180.0
 51
244.5184856857075033
  0
LINE
  5
20A0
  8
AM_BOR
 10
199.3652192817665139
 20
18.405261169360589
 30
0.0
 11
204.1903520906298866
 21
13.5801283604962197
 31
0.0
  0
LINE
  5
20A1
  8
AM_BOR
 10
199.6304084355469968
 20
18.4225129644057191
 30
0.0
 11
204.4504288853489982
 21
13.6024925146027709
 31
0.0
  0
LINE
  5
20A2
  8
AM_BOR
 10
199.8967460324556953
 20
18.4386163163227188
 30
0.0
 11
204.7077689502328894
 21
13.6275933985446098
 31
0.0
  0
LINE
  5
20A3
  8
AM_BOR
 10
200.1630836293643085
 20
18.4547196682397612
 30
0.0
 11
204.9488987968830997
 21
13.66890450072008
 31
0.0
  0
LINE
  5
20A4
  8
AM_BOR
 10
198.8450656923284043
 20
18.3605328611475898
 30
0.0
 11
203.6584049138650983
 21
13.5471936396104091
 31
0.0
  0
LINE
  5
20A5
  8
AM_BOR
 10
198.7943784573330959
 20
18.1287791473180704
 30
0.0
 11
203.3920673169571103
 21
13.5310902876933596
 31
0.0
  0
LINE
  5
20A6
  8
AM_BOR
 10
199.0183057366432138
 20
18.3754298728270093
 30
0.0
 11
199.0183057366432138
 21
13.6114614571624397
 31
0.0
  0
LINE
  5
20A7
  8
AM_BOR
 10
199.2180216468426011
 20
18.3926035595376796
 30
0.0
 11
199.2180216468426011
 21
13.5942877704517908
 31
0.0
  0
LINE
  5
20A8
  8
AM_BOR
 10
204.5547303412338067
 20
18.3754298728269987
 30
0.0
 11
204.5547303412338067
 21
13.6114614571624504
 31
0.0
  0
LINE
  5
20A9
  8
AM_BOR
 10
204.35501443103459
 20
18.3926035595376405
 30
0.0
 11
204.35501443103459
 21
13.5942877704517908
 31
0.0
  0
LINE
  5
20AA
  8
AM_BOR
 62
     4
 10
-0.0000001316067255
 20
15.0000001731112906
 30
0.0
 11
190.4999998683931892
 21
15.0000001731112906
 31
0.0
  0
LINE
  5
20AB
  8
AM_BOR
 62
     4
 10
276.4999998683932745
 20
28.0000001731112889
 30
0.0
 11
276.4999998683932745
 21
0.000000173111296
 31
0.0
  0
LINE
  5
20AC
  8
AM_BOR
 62
     4
 10
-0.0000001316067255
 20
15.0000001731112906
 30
0.0
 11
-0.0000001316067255
 21
0.000000173111296
 31
0.0
  0
LINE
  5
20AD
  8
AM_BOR
 62
     4
 10
-0.0000001316067255
 20
28.0000001731112889
 30
0.0
 11
276.4999998683932745
 21
28.0000001731112889
 31
0.0
  0
LINE
  5
20AE
  8
AM_BOR
 62
     4
 10
15.9999998683932692
 20
15.0000001731112906
 30
0.0
 11
15.9999998683932692
 21
0.000000173111296
 31
0.0
  0
TEXT
  5
20AF
  8
AM_BOR
 62
     4
 10
215.1799998683933097
 20
10.0000001731112906
 30
0.0
 40
1.5
  1
NAKANISHI　INDUSTRIAL CO., LTD.
 41
1.5
  0
TEXT
  5
20B0
  8
AM_BOR
 62
     3
 10
213.1999998683932915
 20
13.5000001731112906
 30
0.0
 40
5.5
  1
中西産業株式会社
 41
1.1999999999999991
  0
TEXT
  5
20B1
  8
AM_BOR
 62
     4
 10
196.1927879374059955
 20
10.0000001731112906
 30
0.0
 40
1.5
  1
Nakanishi
 41
1.1999999999999991
  0
TEXT
  5
20B2
  8
AM_BOR
 62
     7
 10
98.104999768257457
 20
15.6500001850322192
 30
0.0
 40
1.0
  1
FINISH
 41
1.6000000000000001
  0
TEXT
  5
20B3
  8
AM_BOR
 62
     7
 10
96.9799997086527981
 20
17.7000002207950082
 30
0.0
 40
2.7999999999999989
  1
仕　　上
  0
TEXT
  5
20B4
  8
AM_BOR
 62
     7
 10
3.1549997801784002
 20
15.6500001850322192
 30
0.0
 40
1.0
  1
MATERIAL
 41
1.6000000000000001
  0
TEXT
  5
20B5
  8
AM_BOR
 62
     7
 10
1.729999708652826
 20
17.7000002207950082
 30
0.0
 40
2.7999999999999989
  1
材　　質
  0
LINE
  5
20B6
  8
AM_BOR
 62
     4
 10
190.4999998683931892
 20
28.0000001731112889
 30
0.0
 11
190.4999998683931892
 21
0.000000173111296
 31
0.0
  0
LINE
  5
20B7
  8
AM_BOR
 62
     4
 10
-0.0000001316067255
 20
28.0000001731112889
 30
0.0
 11
-0.0000001316067255
 21
15.0000001731112906
 31
0.0
  0
LINE
  5
20B8
  8
AM_BOR
 62
     4
 10
-0.0000001316067255
 20
21.5000001731112889
 30
0.0
 11
190.4999998683931892
 21
21.5000001731112889
 31
0.0
  0
LINE
  5
20B9
  8
AM_BOR
 62
     4
 10
15.9999998683932692
 20
28.0000001731112889
 30
0.0
 11
15.9999998683932692
 21
15.0000001731112906
 31
0.0
  0
TEXT
  5
20BA
  8
AM_BOR
 62
     7
 10
98.104999768257457
 20
22.1500001850322192
 30
0.0
 40
1.0
  1
ART. NO.
 41
1.6000000000000001
  0
TEXT
  5
20BB
  8
AM_BOR
 62
     7
 10
96.9799997086526844
 20
24.2000002207950082
 30
0.0
 40
2.7999999999999989
  1
品　　番
  0
TEXT
  5
20BC
  8
AM_BOR
 62
     7
 10
3.1549997801784002
 20
22.1500001850322192
 30
0.0
 40
1.0
  1
ARTICLE
 41
1.6000000000000001
  0
TEXT
  5
20BD
  8
AM_BOR
 62
     7
 10
1.7299997086527119
 20
24.2000002207950082
 30
0.0
 40
2.7999999999999989
  1
品　　名
  0
LINE
  5
20BE
  8
AM_BOR
 62
     4
 10
-0.0000001316067255
 20
15.0000001731112906
 30
0.0
 11
-0.0000001316067255
 21
0.0000001731112924
 31
0.0
  0
LINE
  5
20BF
  8
AM_BOR
 62
     4
 10
95.2499998683932461
 20
28.0000001731112889
 30
0.0
 11
95.2499998683932461
 21
0.000000173111296
 31
0.0
  0
TEXT
  5
20C0
  8
AM_BOR
 62
     7
 10
3.1549997801784002
 20
9.1500001850322192
 30
0.0
 40
1.0
  1
REMARKS
 41
1.6000000000000001
  0
TEXT
  5
20C1
  8
AM_BOR
 62
     7
 10
1.7299997086527119
 20
11.20000022079501
 30
0.0
 40
2.7999999999999989
  1
備　　考
  0
LINE
  5
20C2
  8
AM_BOR
 62
     4
 10
111.2499998683932034
 20
28.0000001731112889
 30
0.0
 11
111.2499998683932034
 21
0.000000173111296
 31
0.0
  0
LINE
  5
20C3
  8
AM_BOR
 62
     4
 10
-0.0000001316067255
 20
0.000000173111296
 30
0.0
 11
276.4999998683932745
 21
0.000000173111296
 31
0.0
  0
TEXT
  5
20C4
  8
AM_BOR
 62
     7
 10
98.404999780178386
 20
9.1500001850322157
 30
0.0
 40
1.0
  1
SETS
 41
1.6000000000000001
  0
TEXT
  5
20C5
  8
AM_BOR
 62
     7
 10
96.9799997086526844
 20
11.20000022079501
 30
0.0
 40
2.7999999999999989
  1
セット品
  0
ATTDEF
  5
20C6
  8
AM_BOR
 62
     7
 10
114.3107095753831004
 20
0.5000001731112853
 30
0.0
 40
3.0
  1

 11
114.3107095753831004
 21
2.0000001731112849
 31
0.0
  3
セット
  2
SETS｛20｝
 70
     0
 74
     2
1001
ACADANNOTATIVE
1000
AnnotativeData
1002
{
1070
     1
1070
     0
1002
}
1001
ACDBATTR
1070
     0
1070
     1
  0
ATTDEF
  5
20CA
  8
AM_BOR
 62
     7
 10
19.0607095753831608
 20
0.5000001731112889
 30
0.0
 40
3.0
  1

 11
19.0607095753831608
 21
2.000000173111288
 31
0.0
  3
備　　考
  2
REMARKS｛20｝
 70
     0
 74
     2
1001
ACADANNOTATIVE
1000
AnnotativeData
1002
{
1070
     1
1070
     0
1002
}
1001
ACDBATTR
1070
     0
1070
     1
  0
ATTDEF
  5
20CE
  8
AM_BOR
 62
     7
 10
114.3107095753831004
 20
5.5000001731112853
 30
0.0
 40
3.0
  1

 11
114.3107095753831004
 21
7.0000001731112853
 31
0.0
  3
セット
  2
SETS｛20｝
 70
     0
 74
     2
1001
ACADANNOTATIVE
1000
AnnotativeData
1002
{
1070
     1
1070
     0
1002
}
1001
ACDBATTR
1070
     0
1070
     1
  0
ATTDEF
  5
20D2
  8
AM_BOR
 62
     7
 10
19.0607095753831608
 20
5.500000173111288
 30
0.0
 40
3.0
  1

 11
19.0607095753831608
 21
7.000000173111288
 31
0.0
  3
備　　考
  2
REMARKS｛20｝
 70
     0
 74
     2
1001
ACADANNOTATIVE
1000
AnnotativeData
1002
{
1070
     1
1070
     0
1002
}
1001
ACDBATTR
1070
     0
1070
     1
  0
ATTDEF
  5
20D6
  8
AM_BOR
 62
     7
 10
114.3107095753831004
 20
10.50000017311128
 30
0.0
 40
3.0
  1

 11
114.3107095753831004
 21
12.00000017311128
 31
0.0
  3
セット
  2
SETS｛20｝
 70
     0
 74
     2
1001
ACADANNOTATIVE
1000
AnnotativeData
1002
{
1070
     1
1070
     0
1002
}
1001
ACDBATTR
1070
     0
1070
     1
  0
ATTDEF
  5
20DA
  8
AM_BOR
 62
     7
 10
19.0607095753831608
 20
10.5000001731112906
 30
0.0
 40
3.0
  1

 11
19.0607095753831608
 21
12.0000001731112906
 31
0.0
  3
備　　考
  2
REMARKS｛20｝
 70
     0
 74
     2
1001
ACADANNOTATIVE
1000
AnnotativeData
1002
{
1070
     1
1070
     0
1002
}
1001
ACDBATTR
1070
     0
1070
     1
  0
ATTDEF
  5
20DE
  8
AM_BOR
 62
     7
 10
114.2499998683932034
 20
23.5000001731112889
 30
0.0
 40
3.0
  1

 11
114.2499998683932034
 21
25.0000001731112889
 31
0.0
  3
品    番
  2
ART_NO｛20｝
 70
     0
 74
     2
1001
ACADANNOTATIVE
1000
AnnotativeData
1002
{
1070
     1
1070
     0
1002
}
1001
ACDBATTR
1070
     0
1070
     1
  0
ATTDEF
  5
20E2
  8
AM_BOR
 62
     7
 10
18.9999998683932709
 20
23.5000001731112889
 30
0.0
 40
3.0
  1

 11
18.9999998683932709
 21
25.0000001731112889
 31
0.0
  3
品    名
  2
ARTICLE｛20｝
 70
     0
 74
     2
1001
ACADANNOTATIVE
1000
AnnotativeData
1002
{
1070
     1
1070
     0
1002
}
1001
ACDBATTR
1070
     0
1070
     1
  0
ATTDEF
  5
20E6
  8
AM_BOR
 62
     7
 10
114.2499998683932034
 20
17.0000001731112889
 30
0.0
 40
3.0
  1

 11
114.2499998683932034
 21
18.5000001731112889
 31
0.0
  3
仕上
  2
FINISH｛20｝
 70
     0
 74
     2
1001
ACADANNOTATIVE
1000
AnnotativeData
1002
{
1070
     1
1070
     0
1002
}
1001
ACDBATTR
1070
     0
1070
     1
  0
ATTDEF
  5
20EA
  8
AM_BOR
 62
     7
 10
18.9999998683932709
 20
17.0000001731112889
 30
0.0
 40
3.0
  1

 11
18.9999998683932709
 21
18.5000001731112889
 31
0.0
  3
材　　質
  2
MATERIAK｛20｝
 70
     0
 74
     2
1001
ACADANNOTATIVE
1000
AnnotativeData
1002
{
1070
     1
1070
     0
1002
}
1001
ACDBATTR
1070
     0
1070
     1
  0
ENDBLK
  5
20F1
  8
0
  0
BLOCK
  8
0
  2
ZUWAKU-A3H
 70
     0
 10
0.0
 20
0.0
 30
0.0
  3
ZUWAKU-A3H
  1

  0
LINE
  5
29DD
  8
AM_BOR
 62
     3
 10
24.9999999999999893
 20
284.9999999999997726
 30
0.0
 11
24.9999999999999787
 21
9.0
 31
0.0
  0
LINE
  5
29DE
  8
AM_BOR
 62
     3
 10
411.9999999999998863
 20
284.9999999999998863
 30
0.0
 11
25.0
 21
284.9999999999998863
 31
0.0
  0
LINE
  5
29DF
  8
AM_BOR
 62
     3
 10
411.9999999999998863
 20
284.9999999999998863
 30
0.0
 11
411.9999999999998863
 21
9.0
 31
0.0
  0
LINE
  5
29E0
  8
AM_BOR
 62
     3
 10
24.9999999999999893
 20
8.9999999999999964
 30
0.0
 11
411.9999999999997158
 21
8.9999999999999964
 31
0.0
  0
TEXT
  5
29E1
  8
SYS-TEISEI0
  6
CONTINUOUS
 62
     3
 10
144.3850000176578874
 20
14.9500000476837194
 30
0.0
 40
3.099999904632567
  1
 
  0
TEXT
  5
29E2
  8
SYS-TEISEI0
  6
CONTINUOUS
 62
     3
 10
169.8850000444799093
 20
14.9500000476837194
 30
0.0
 40
3.099999904632567
  1
 
  0
TEXT
  5
29E3
  8
SYS-TEISEI0
  6
CONTINUOUS
 62
     3
 10
229.2449999570845875
 20
14.9500000476837194
 30
0.0
 40
3.099999904632567
  1
 
  0
TEXT
  5
29E4
  8
SYS-TEISEI0
  6
CONTINUOUS
 62
     3
 10
236.9449999570846046
 20
14.9500000476837194
 30
0.0
 40
3.099999904632567
  1
 
  0
TEXT
  5
29E5
  8
SYS-TEISEI0
  6
CONTINUOUS
 62
     3
 10
144.3850000176578874
 20
19.9500000476837194
 30
0.0
 40
3.099999904632567
  1
 
  0
TEXT
  5
29E6
  8
SYS-TEISEI0
  6
CONTINUOUS
 62
     3
 10
169.8850000444799093
 20
19.9500000476837194
 30
0.0
 40
3.099999904632567
  1
 
  0
TEXT
  5
29E7
  8
SYS-TEISEI0
  6
CONTINUOUS
 62
     3
 10
229.2449999570845875
 20
19.9500000476837194
 30
0.0
 40
3.099999904632567
  1
 
  0
TEXT
  5
29E8
  8
SYS-TEISEI0
  6
CONTINUOUS
 62
     3
 10
236.9449999570846046
 20
19.9500000476837194
 30
0.0
 40
3.099999904632567
  1
 
  0
TEXT
  5
29E9
  8
SYS-TEISEI0
  6
CONTINUOUS
 62
     3
 10
144.3850000176578874
 20
24.9500000476837194
 30
0.0
 40
3.099999904632567
  1
 
  0
TEXT
  5
29EA
  8
SYS-TEISEI0
  6
CONTINUOUS
 62
     3
 10
169.8850000444799093
 20
24.9500000476837194
 30
0.0
 40
3.099999904632567
  1
 
  0
TEXT
  5
29EB
  8
SYS-TEISEI0
  6
CONTINUOUS
 62
     3
 10
229.2449999570845875
 20
24.9500000476837194
 30
0.0
 40
3.099999904632567
  1
 
  0
TEXT
  5
29EC
  8
SYS-TEISEI0
  6
CONTINUOUS
 62
     3
 10
236.9449999570846046
 20
24.9500000476837194
 30
0.0
 40
3.099999904632567
  1
 
  0
TEXT
  5
29ED
  8
AM_BOR
 10
24.9999999999999893
 20
9.0
 30
0.0
 40
5.0
  1
!GENTITLE-LL
  0
TEXT
  5
29EE
  8
AM_BOR
 10
411.9999999999998863
 20
9.0
 30
0.0
 40
5.0
  1
!GENTITLE-INSERT
  0
TEXT
  5
29EF
  8
AM_BOR
 10
411.9999999999998863
 20
284.9999999999998863
 30
0.0
 40
5.0
  1
!GENTITLE-RU
  0
TEXT
  5
29F0
  8
AM_BOR
 10
420.0
 20
297.0
 30
0.0
 40
5.0
  1
!GENTITLE-MAX
  0
ENDBLK
  5
29F2
  8
0
  0
BLOCK
  8
0
  2
_ACMFILLEDHALF
 70
     0
 10
0.0
 20
0.0
 30
0.0
  3
_ACMFILLEDHALF
  1

  0
TRACE
  5
32A5
  8
0
 62
     0
 10
-0.8
 20
0.0
 30
0.0
 11
-1.0
 21
0.166666666
 31
0.0
 12
0.0
 22
0.0
 32
0.0
 13
0.0
 23
0.0
 33
0.0
  0
LINE
  5
32A6
  8
0
 62
     0
 10
-1.0
 20
0.0
 30
0.0
 11
-0.8
 21
0.0
 31
0.0
  0
ENDBLK
  5
32A4
  8
0
  0
BLOCK
  8
0
  2
_ACMFILLED
 70
     0
 10
0.0
 20
0.0
 30
0.0
  3
_ACMFILLED
  1

  0
TRACE
  5
32B1
  8
0
 62
     0
 10
-1.0
 20
-0.166666666
 30
0.0
 11
-1.0
 21
0.166666666
 31
0.0
 12
0.0
 22
0.0
 32
0.0
 13
0.0
 23
0.0
 33
0.0
  0
ENDBLK
  5
32B0
  8
0
  0
BLOCK
  8
0
  2
_ACMOPEN15
 70
     0
 10
0.0
 20
0.0
 30
0.0
  3
_ACMOPEN15
  1

  0
LINE
  5
32BB
  8
0
 62
     0
 10
-1.0
 20
0.0
 30
0.0
 11
0.0
 21
0.0
 31
0.0
  0
LINE
  5
32BC
  8
0
 62
     0
 10
-1.0
 20
-0.131652497
 30
0.0
 11
0.0
 21
0.0
 31
0.0
  0
LINE
  5
32BD
  8
0
 62
     0
 10
0.0
 20
0.0
 30
0.0
 11
-1.0
 21
0.131652497
 31
0.0
  0
ENDBLK
  5
32BA
  8
0
  0
BLOCK
  8
0
  2
_ACMFILLED15
 70
     0
 10
0.0
 20
0.0
 30
0.0
  3
_ACMFILLED15
  1

  0
TRACE
  5
32C9
  8
0
 62
     0
 10
-1.0
 20
-0.131652497
 30
0.0
 11
-1.0
 21
0.131652497
 31
0.0
 12
0.0
 22
0.0
 32
0.0
 13
0.0
 23
0.0
 33
0.0
  0
ENDBLK
  5
32C8
  8
0
  0
BLOCK
  8
0
  2
*D10
 70
     1
 10
0.0
 20
0.0
 30
0.0
  3
*D10
  1

  0
LINE
  5
3D67
  8
AM_5
  6
CONTINUOUS
 62
     7
 10
210.4054520372523882
 20
166.6211897572821101
 30
0.0
 11
210.4054520372523882
 21
180.5950047133692919
 31
0.0
  0
LINE
  5
3D68
  8
AM_5
  6
CONTINUOUS
 62
     7
 10
223.4054520372523882
 20
166.6211897572821101
 30
0.0
 11
223.4054520372523882
 21
180.5950047133692919
 31
0.0
  0
LINE
  5
3D69
  8
AM_5
  6
CONTINUOUS
 62
     7
 10
220.9054520372523882
 20
179.5950047133692919
 30
0.0
 11
212.9054520372523882
 21
179.5950047133692919
 31
0.0
  0
LINE
  5
3D6A
  8
AM_5
  6
CONTINUOUS
 62
     7
 10
210.4054520372523882
 20
179.5950047133692919
 30
0.0
 11
195.0483091801094986
 21
179.5950047133692919
 31
0.0
  0
INSERT
  5
3D6B
  8
AM_5
 62
     7
  2
_OPEN30
 10
223.4054520372523882
 20
179.5950047133692919
 30
0.0
 41
2.5
 42
2.5
 43
2.5
  0
INSERT
  5
3D6C
  8
AM_5
 62
     7
  2
_OPEN30
 10
210.4054520372523882
 20
179.5950047133692919
 30
0.0
 41
2.5
 42
2.5
 43
2.5
 50
180.0
  0
INSERT
  5
3D6D
  8
0
  2
*U36
 10
0.0
 20
0.0
 30
0.0
  0
POINT
  5
3D6E
  8
DEFPOINTS
 62
     0
 10
210.4054520372523882
 20
165.6211897572821101
 30
0.0
  0
POINT
  5
3D6F
  8
DEFPOINTS
 62
     0
 10
223.4054520372523882
 20
165.6211897572821101
 30
0.0
  0
POINT
  5
3D70
  8
DEFPOINTS
 62
     0
 10
223.4054520372523882
 20
179.5950047133692919
 30
0.0
  0
ENDBLK
  5
3775
  8
0
  0
BLOCK
  8
0
  2
*D11
 70
     1
 10
0.0
 20
0.0
 30
0.0
  3
*D11
  1

  0
LINE
  5
3E2C
  8
AM_5
  6
CONTINUOUS
 62
     7
 10
255.9054520372523882
 20
236.0764997090851978
 30
0.0
 11
279.7669167762038001
 21
236.0764997090851978
 31
0.0
  0
LINE
  5
3E2D
  8
AM_5
  6
CONTINUOUS
 62
     7
 10
255.9054520372523882
 20
238.5764997090851978
 30
0.0
 11
279.7669167762038001
 21
238.5764997090851978
 31
0.0
  0
LINE
  5
3E2E
  8
AM_5
  6
CONTINUOUS
 62
     7
 10
278.7669167762036864
 20
233.5764997090851978
 30
0.0
 11
278.7669167762036864
 21
231.0764997090851978
 31
0.0
  0
LINE
  5
3E2F
  8
AM_5
  6
CONTINUOUS
 62
     7
 10
278.7669167762036864
 20
241.0764997090851978
 30
0.0
 11
278.7669167762036864
 21
251.8622139947995038
 31
0.0
  0
LINE
  5
3E30
  8
AM_5
  6
CONTINUOUS
 62
     7
 10
278.7669167762036864
 20
236.0764997090851978
 30
0.0
 11
278.7669167762036864
 21
238.5764997090851978
 31
0.0
  0
INSERT
  5
3E31
  8
AM_5
 62
     7
  2
_OPEN30
 10
278.7669167762036864
 20
236.0764997090851978
 30
0.0
 41
2.5
 42
2.5
 43
2.5
 50
90.0
  0
INSERT
  5
3E32
  8
AM_5
 62
     7
  2
_OPEN30
 10
278.7669167762036864
 20
238.5764997090851978
 30
0.0
 41
2.5
 42
2.5
 43
2.5
 50
270.0
  0
INSERT
  5
3E33
  8
0
  2
*U54
 10
0.0
 20
0.0
 30
0.0
  0
POINT
  5
3E34
  8
DEFPOINTS
 62
     0
 10
254.9054520372523882
 20
236.0764997090851978
 30
0.0
  0
POINT
  5
3E35
  8
DEFPOINTS
 62
     0
 10
254.9054520372523882
 20
238.5764997090851978
 30
0.0
  0
POINT
  5
3E36
  8
DEFPOINTS
 62
     0
 10
278.7669167762036864
 20
238.5764997090851978
 30
0.0
  0
ENDBLK
  5
37BA
  8
0
  0
BLOCK
  8
0
  2
*D12
 70
     1
 10
0.0
 20
0.0
 30
0.0
  3
*D12
  1

  0
LINE
  5
3D71
  8
AM_5
  6
CONTINUOUS
 62
     7
 10
254.9054520372523882
 20
165.6211897572821101
 30
0.0
 11
268.9054520372524166
 21
165.6211897572821101
 31
0.0
  0
LINE
  5
3D72
  8
AM_5
  6
CONTINUOUS
 62
     7
 10
254.6554520372523882
 20
159.6211897572821954
 30
0.0
 11
268.9054520372524166
 21
159.6211897572821954
 31
0.0
  0
LINE
  5
3D73
  8
AM_5
  6
CONTINUOUS
 62
     7
 10
267.9054520372524166
 20
168.1211897572819964
 30
0.0
 11
267.9054520372524166
 21
170.6211897572821101
 31
0.0
  0
LINE
  5
3D74
  8
AM_5
  6
CONTINUOUS
 62
     7
 10
267.9054520372524166
 20
157.1211897572821954
 30
0.0
 11
267.9054520372524166
 21
154.6211897572821954
 31
0.0
  0
LINE
  5
3D75
  8
AM_5
  6
CONTINUOUS
 62
     7
 10
267.9054520372524166
 20
165.6211897572821101
 30
0.0
 11
267.9054520372524166
 21
159.6211897572821954
 31
0.0
  0
INSERT
  5
3D76
  8
AM_5
 62
     7
  2
_OPEN30
 10
267.9054520372524166
 20
165.6211897572821101
 30
0.0
 41
2.5
 42
2.5
 43
2.5
 50
270.0
  0
INSERT
  5
3D77
  8
AM_5
 62
     7
  2
_OPEN30
 10
267.9054520372524166
 20
159.6211897572821954
 30
0.0
 41
2.5
 42
2.5
 43
2.5
 50
90.0
  0
INSERT
  5
3D78
  8
0
  2
*U37
 10
0.0
 20
0.0
 30
0.0
  0
POINT
  5
3D79
  8
DEFPOINTS
 62
     0
 10
253.9054520372523882
 20
165.6211897572821101
 30
0.0
  0
POINT
  5
3D7A
  8
DEFPOINTS
 62
     0
 10
253.6554520372523882
 20
159.6211897572821954
 30
0.0
  0
POINT
  5
3D7B
  8
DEFPOINTS
 62
     0
 10
267.9054520372524166
 20
159.6211897572821954
 30
0.0
  0
ENDBLK
  5
37EC
  8
0
  0
BLOCK
  8
0
  2
*D13
 70
     1
 10
0.0
 20
0.0
 30
0.0
  3
*D13
  1

  0
LINE
  5
3D7C
  8
AM_5
  6
CONTINUOUS
 62
     7
 10
244.6554520372523882
 20
146.8711897572821954
 30
0.0
 11
268.9054520372524166
 21
146.8711897572821954
 31
0.0
  0
LINE
  5
3D7D
  8
AM_5
  6
CONTINUOUS
 62
     7
 10
254.6554520372523882
 20
159.6211897572821101
 30
0.0
 11
268.9054520372524166
 21
159.6211897572821101
 31
0.0
  0
LINE
  5
3D7E
  8
AM_5
  6
CONTINUOUS
 62
     7
 10
267.9054520372524166
 20
144.3711897572821954
 30
0.0
 11
267.9054520372524166
 21
141.8711897572821954
 31
0.0
  0
LINE
  5
3D7F
  8
AM_5
  6
CONTINUOUS
 62
     7
 10
267.9054520372524166
 20
162.1211897572821954
 30
0.0
 11
267.9054520372524166
 21
164.6211897572821101
 31
0.0
  0
LINE
  5
3D80
  8
AM_5
  6
CONTINUOUS
 62
     7
 10
267.9054520372524166
 20
146.8711897572821954
 30
0.0
 11
267.9054520372524166
 21
159.6211897572821101
 31
0.0
  0
INSERT
  5
3D81
  8
AM_5
 62
     7
  2
_OPEN30
 10
267.9054520372524166
 20
146.8711897572821954
 30
0.0
 41
2.5
 42
2.5
 43
2.5
 50
90.0
  0
INSERT
  5
3D82
  8
AM_5
 62
     7
  2
_OPEN30
 10
267.9054520372524166
 20
159.6211897572821101
 30
0.0
 41
2.5
 42
2.5
 43
2.5
 50
270.0
  0
INSERT
  5
3D83
  8
0
  2
*U38
 10
0.0
 20
0.0
 30
0.0
  0
POINT
  5
3D84
  8
DEFPOINTS
 62
     0
 10
243.6554520372523882
 20
146.8711897572821954
 30
0.0
  0
POINT
  5
3D85
  8
DEFPOINTS
 62
     0
 10
253.6554520372523882
 20
159.6211897572821101
 30
0.0
  0
POINT
  5
3D86
  8
DEFPOINTS
 62
     0
 10
267.9054520372524166
 20
159.6211897572821101
 30
0.0
  0
ENDBLK
  5
3829
  8
0
  0
BLOCK
  8
0
  2
*D14
 70
     1
 10
0.0
 20
0.0
 30
0.0
  3
*D14
  1

  0
LINE
  5
3D87
  8
AM_5
  6
CONTINUOUS
 62
     7
 10
254.6554520372523882
 20
134.1211897572821954
 30
0.0
 11
268.9054520372524735
 21
134.1211897572821954
 31
0.0
  0
LINE
  5
3D88
  8
AM_5
  6
CONTINUOUS
 62
     7
 10
244.6554520372523882
 20
146.8711897572821954
 30
0.0
 11
268.9054520372524735
 21
146.8711897572821954
 31
0.0
  0
LINE
  5
3D89
  8
AM_5
  6
CONTINUOUS
 62
     7
 10
267.9054520372524735
 20
131.6211897572821954
 30
0.0
 11
267.9054520372524735
 21
129.1211897572821954
 31
0.0
  0
LINE
  5
3D8A
  8
AM_5
  6
CONTINUOUS
 62
     7
 10
267.9054520372524735
 20
149.3711897572821954
 30
0.0
 11
267.9054520372524735
 21
151.8711897572821954
 31
0.0
  0
LINE
  5
3D8B
  8
AM_5
  6
CONTINUOUS
 62
     7
 10
267.9054520372524735
 20
134.1211897572821954
 30
0.0
 11
267.9054520372524735
 21
146.8711897572821954
 31
0.0
  0
INSERT
  5
3D8C
  8
AM_5
 62
     7
  2
_OPEN30
 10
267.9054520372524735
 20
134.1211897572821954
 30
0.0
 41
2.5
 42
2.5
 43
2.5
 50
90.0
  0
INSERT
  5
3D8D
  8
AM_5
 62
     7
  2
_OPEN30
 10
267.9054520372524735
 20
146.8711897572821954
 30
0.0
 41
2.5
 42
2.5
 43
2.5
 50
270.0
  0
INSERT
  5
3D8E
  8
0
  2
*U39
 10
0.0
 20
0.0
 30
0.0
  0
POINT
  5
3D8F
  8
DEFPOINTS
 62
     0
 10
253.6554520372523882
 20
134.1211897572821954
 30
0.0
  0
POINT
  5
3D90
  8
DEFPOINTS
 62
     0
 10
243.6554520372523882
 20
146.8711897572821954
 30
0.0
  0
POINT
  5
3D91
  8
DEFPOINTS
 62
     0
 10
267.9054520372524735
 20
146.8711897572821954
 30
0.0
  0
ENDBLK
  5
384F
  8
0
  0
BLOCK
  8
0
  2
*D15
 70
     1
 10
0.0
 20
0.0
 30
0.0
  3
*D15
  1

  0
LINE
  5
3D92
  8
AM_5
  6
CONTINUOUS
 62
     7
 10
254.9054520372523882
 20
128.1211897572821954
 30
0.0
 11
268.9054520372524166
 21
128.1211897572821954
 31
0.0
  0
LINE
  5
3D93
  8
AM_5
  6
CONTINUOUS
 62
     7
 10
254.6554520372523882
 20
134.1211897572821954
 30
0.0
 11
268.9054520372524166
 21
134.1211897572821954
 31
0.0
  0
LINE
  5
3D94
  8
AM_5
  6
CONTINUOUS
 62
     7
 10
267.9054520372524166
 20
125.6211897572821954
 30
0.0
 11
267.9054520372524166
 21
123.1211897572821954
 31
0.0
  0
LINE
  5
3D95
  8
AM_5
  6
CONTINUOUS
 62
     7
 10
267.9054520372524166
 20
136.6211897572821954
 30
0.0
 11
267.9054520372524166
 21
139.1211897572821954
 31
0.0
  0
LINE
  5
3D96
  8
AM_5
  6
CONTINUOUS
 62
     7
 10
267.9054520372524166
 20
128.1211897572821954
 30
0.0
 11
267.9054520372524166
 21
134.1211897572821954
 31
0.0
  0
INSERT
  5
3D97
  8
AM_5
 62
     7
  2
_OPEN30
 10
267.9054520372524166
 20
128.1211897572821954
 30
0.0
 41
2.5
 42
2.5
 43
2.5
 50
90.0
  0
INSERT
  5
3D98
  8
AM_5
 62
     7
  2
_OPEN30
 10
267.9054520372524166
 20
134.1211897572821954
 30
0.0
 41
2.5
 42
2.5
 43
2.5
 50
270.0
  0
INSERT
  5
3D99
  8
0
  2
*U40
 10
0.0
 20
0.0
 30
0.0
  0
POINT
  5
3D9A
  8
DEFPOINTS
 62
     0
 10
253.9054520372523882
 20
128.1211897572821954
 30
0.0
  0
POINT
  5
3D9B
  8
DEFPOINTS
 62
     0
 10
253.6554520372523882
 20
134.1211897572821954
 30
0.0
  0
POINT
  5
3D9C
  8
DEFPOINTS
 62
     0
 10
267.9054520372524166
 20
134.1211897572821954
 30
0.0
  0
ENDBLK
  5
3875
  8
0
  0
BLOCK
  8
0
  2
*D16
 70
     1
 10
0.0
 20
0.0
 30
0.0
  3
*D16
  1

  0
LINE
  5
3D9D
  8
AM_5
  6
CONTINUOUS
 62
     7
 10
254.9054520372523882
 20
128.1211897572821954
 30
0.0
 11
275.9054520372524166
 21
128.1211897572821954
 31
0.0
  0
LINE
  5
3D9E
  8
AM_5
  6
CONTINUOUS
 62
     7
 10
254.9054520372523882
 20
165.6211897572821101
 30
0.0
 11
275.9054520372524166
 21
165.6211897572821101
 31
0.0
  0
LINE
  5
3D9F
  8
AM_5
  6
CONTINUOUS
 62
     7
 10
274.9054520372524166
 20
130.6211897572821954
 30
0.0
 11
274.9054520372524166
 21
163.1211897572821101
 31
0.0
  0
INSERT
  5
3DA0
  8
AM_5
 62
     7
  2
_OPEN30
 10
274.9054520372524166
 20
128.1211897572821954
 30
0.0
 41
2.5
 42
2.5
 43
2.5
 50
270.0
  0
INSERT
  5
3DA1
  8
AM_5
 62
     7
  2
_OPEN30
 10
274.9054520372524166
 20
165.6211897572821101
 30
0.0
 41
2.5
 42
2.5
 43
2.5
 50
90.0
  0
INSERT
  5
3DA2
  8
0
  2
*U41
 10
0.0
 20
0.0
 30
0.0
  0
POINT
  5
3DA3
  8
DEFPOINTS
 62
     0
 10
253.9054520372523882
 20
128.1211897572821954
 30
0.0
  0
POINT
  5
3DA4
  8
DEFPOINTS
 62
     0
 10
253.9054520372523882
 20
165.6211897572821101
 30
0.0
  0
POINT
  5
3DA5
  8
DEFPOINTS
 62
     0
 10
274.9054520372524166
 20
165.6211897572821101
 30
0.0
  0
ENDBLK
  5
389C
  8
0
  0
BLOCK
  8
0
  2
*D17
 70
     1
 10
0.0
 20
0.0
 30
0.0
  3
*D17
  1

  0
LINE
  5
3DA6
  8
AM_5
  6
CONTINUOUS
 62
     7
 10
216.9054520372523882
 20
174.0628674814936971
 30
0.0
 11
216.9054520372523882
 21
188.0628674814936971
 31
0.0
  0
LINE
  5
3DA7
  8
AM_5
  6
CONTINUOUS
 62
     7
 10
236.9054520372523882
 20
154.6211897572821954
 30
0.0
 11
236.9054520372523882
 21
188.0628674814936971
 31
0.0
  0
LINE
  5
3DA8
  8
AM_5
  6
CONTINUOUS
 62
     7
 10
219.4054520372523882
 20
187.0628674814936971
 30
0.0
 11
234.4054520372523882
 21
187.0628674814936971
 31
0.0
  0
INSERT
  5
3DA9
  8
AM_5
 62
     7
  2
_OPEN30
 10
216.9054520372523882
 20
187.0628674814936971
 30
0.0
 41
2.5
 42
2.5
 43
2.5
 50
180.0
  0
INSERT
  5
3DAA
  8
AM_5
 62
     7
  2
_OPEN30
 10
236.9054520372523882
 20
187.0628674814936971
 30
0.0
 41
2.5
 42
2.5
 43
2.5
  0
INSERT
  5
3DAB
  8
0
  2
*U42
 10
0.0
 20
0.0
 30
0.0
  0
POINT
  5
3DAC
  8
DEFPOINTS
 62
     0
 10
216.9054520372523882
 20
173.0628674814936971
 30
0.0
  0
POINT
  5
3DAD
  8
DEFPOINTS
 62
     0
 10
236.9054520372523882
 20
153.6211897572821954
 30
0.0
  0
POINT
  5
3DAE
  8
DEFPOINTS
 62
     0
 10
236.9054520372523882
 20
187.0628674814936971
 30
0.0
  0
ENDBLK
  5
38C6
  8
0
  0
BLOCK
  8
0
  2
*D18
 70
     1
 10
0.0
 20
0.0
 30
0.0
  3
*D18
  1

  0
LINE
  5
4127
  8
AM_5
  6
CONTINUOUS
 62
     7
 10
246.9054520372523882
 20
167.3711897572821954
 30
0.0
 11
246.9054520372523882
 21
188.0628674814936971
 31
0.0
  0
LINE
  5
4128
  8
AM_5
  6
CONTINUOUS
 62
     7
 10
236.9054520372523882
 20
154.6211897572821954
 30
0.0
 11
236.9054520372523882
 21
188.0628674814936971
 31
0.0
  0
LINE
  5
4129
  8
AM_5
  6
CONTINUOUS
 62
     7
 10
244.4054520372523882
 20
187.0628674814936971
 30
0.0
 11
239.4054520372523882
 21
187.0628674814936971
 31
0.0
  0
INSERT
  5
412A
  8
AM_5
 62
     7
  2
GENDOT
 10
246.9054520372523882
 20
187.0628674814936971
 30
0.0
 41
2.5
 42
2.5
 43
2.5
  0
INSERT
  5
412B
  8
AM_5
 62
     7
  2
_OPEN30
 10
236.9054520372523882
 20
187.0628674814936971
 30
0.0
 41
2.5
 42
2.5
 43
2.5
 50
180.0
  0
TEXT
  8
AM_5
  40
3
  5
4190
  62
7
  72
0
  71
0
 10
241.905
 20
185.663
 30
0.000000
  1
10
  0
POINT
  5
412D
  8
DEFPOINTS
 62
     0
 10
246.9054520372523882
 20
166.3711897572821954
 30
0.0
  0
POINT
  5
412E
  8
DEFPOINTS
 62
     0
 10
236.9054520372523882
 20
153.6211897572821954
 30
0.0
  0
POINT
  5
412F
  8
DEFPOINTS
 62
     0
 10
236.9054520372523882
 20
187.0628674814936971
 30
0.0
  0
ENDBLK
  5
38F9
  8
0
  0
BLOCK
  8
0
  2
*D19
 70
     1
 10
0.0
 20
0.0
 30
0.0
  3
*D19
  1

  0
LINE
  5
4130
  8
AM_5
  6
CONTINUOUS
 62
     7
 10
254.9054520372523882
 20
165.6211897572821101
 30
0.0
 11
254.9054520372523882
 21
188.0628674814936971
 31
0.0
  0
LINE
  5
4131
  8
AM_5
  6
CONTINUOUS
 62
     7
 10
246.9054520372523882
 20
167.3711897572821954
 30
0.0
 11
246.9054520372523882
 21
188.0628674814936971
 31
0.0
  0
LINE
  5
4132
  8
AM_5
  6
CONTINUOUS
 62
     7
 10
252.4054520372523882
 20
187.0628674814936971
 30
0.0
 11
249.4054520372523882
 21
187.0628674814936971
 31
0.0
  0
INSERT
  5
4133
  8
AM_5
 62
     7
  2
_OPEN30
 10
254.9054520372523882
 20
187.0628674814936971
 30
0.0
 41
2.5
 42
2.5
 43
2.5
  0
INSERT
  5
4134
  8
AM_5
 62
     7
  2
GENDOT
 10
246.9054520372523882
 20
187.0628674814936971
 30
0.0
 41
2.5
 42
2.5
 43
2.5
 50
180.0
  0
TEXT
  8
AM_5
  40
3
  5
4191
  62
7
  72
0
  71
0
 10
250.905
 20
185.663
 30
0.000000
  1
8
  0
POINT
  5
4136
  8
DEFPOINTS
 62
     0
 10
254.9054520372523882
 20
164.6211897572821101
 30
0.0
  0
POINT
  5
4137
  8
DEFPOINTS
 62
     0
 10
246.9054520372523882
 20
166.3711897572821954
 30
0.0
  0
POINT
  5
4138
  8
DEFPOINTS
 62
     0
 10
246.9054520372523882
 20
187.0628674814936971
 30
0.0
  0
ENDBLK
  5
391A
  8
0
  0
BLOCK
  8
0
  2
GENDOT
 70
     0
 10
0.0
 20
0.0
 30
0.0
  3
GENDOT
  1

  0
LINE
  5
3930
  8
0
 10
0.0
 20
0.0
 30
0.0
 11
-1.0
 21
0.0
 31
0.0
  0
POLYLINE
  5
3931
  8
0
 66
     1
 10
0.0
 20
0.0
 30
0.0
 70
     1
 40
0.25
 41
0.25
  0
VERTEX
  5
4139
  8
0
 10
-0.125
 20
0.0
 30
0.0
 42
1.0
  0
VERTEX
  5
413A
  8
0
 10
0.125
 20
0.0
 30
0.0
 42
1.0
  0
SEQEND
  5
413B
  8
0
  0
ENDBLK
  5
3933
  8
0
  0
BLOCK
  8
0
  2
*D21
 70
     1
 10
0.0
 20
0.0
 30
0.0
  3
*D21
  1

  0
LINE
  5
3DC1
  8
AM_5
  6
CONTINUOUS
 62
     7
 10
254.9054520372523882
 20
165.6211897572821101
 30
0.0
 11
254.9054520372523882
 21
195.0628674814936119
 31
0.0
  0
LINE
  5
3DC2
  8
AM_5
  6
CONTINUOUS
 62
     7
 10
216.9054520372523882
 20
174.0628674814936971
 30
0.0
 11
216.9054520372523882
 21
195.0628674814936119
 31
0.0
  0
LINE
  5
3DC3
  8
AM_5
  6
CONTINUOUS
 62
     7
 10
252.4054520372523882
 20
194.0628674814936119
 30
0.0
 11
219.4054520372523882
 21
194.0628674814936119
 31
0.0
  0
INSERT
  5
3DC4
  8
AM_5
 62
     7
  2
_OPEN30
 10
254.9054520372523882
 20
194.0628674814936119
 30
0.0
 41
2.5
 42
2.5
 43
2.5
  0
INSERT
  5
3DC5
  8
AM_5
 62
     7
  2
_OPEN30
 10
216.9054520372523882
 20
194.0628674814936119
 30
0.0
 41
2.5
 42
2.5
 43
2.5
 50
180.0
  0
INSERT
  5
3DC6
  8
0
  2
*U43
 10
0.0
 20
0.0
 30
0.0
  0
POINT
  5
3DC7
  8
DEFPOINTS
 62
     0
 10
254.9054520372523882
 20
164.6211897572821101
 30
0.0
  0
POINT
  5
3DC8
  8
DEFPOINTS
 62
     0
 10
216.9054520372523882
 20
173.0628674814936971
 30
0.0
  0
POINT
  5
3DC9
  8
DEFPOINTS
 62
     0
 10
216.9054520372523882
 20
194.0628674814936119
 30
0.0
  0
ENDBLK
  5
3952
  8
0
  0
BLOCK
  8
0
  2
*D22
 70
     1
 10
0.0
 20
0.0
 30
0.0
  3
*D22
  1

  0
LINE
  5
3DCA
  8
AM_5
  6
CONTINUOUS
 62
     7
 10
254.9054520372523882
 20
165.6211897572821101
 30
0.0
 11
282.9054520372525872
 21
165.6211897572821101
 31
0.0
  0
LINE
  5
3DCB
  8
AM_5
  6
CONTINUOUS
 62
     7
 10
224.4054520372527008
 20
89.6211897572820959
 30
0.0
 11
282.9054520372524735
 21
89.6211897572820959
 31
0.0
  0
LINE
  5
3DCC
  8
AM_5
  6
CONTINUOUS
 62
     7
 10
281.9054520372525872
 20
163.1211897572821101
 30
0.0
 11
281.9054520372524735
 21
92.1211897572820959
 31
0.0
  0
INSERT
  5
3DCD
  8
AM_5
 62
     7
  2
_OPEN30
 10
281.9054520372525872
 20
165.6211897572821101
 30
0.0
 41
2.5
 42
2.5
 43
2.5
 50
90.0
  0
INSERT
  5
3DCE
  8
AM_5
 62
     7
  2
_OPEN30
 10
281.9054520372524735
 20
89.6211897572820959
 30
0.0
 41
2.5
 42
2.5
 43
2.5
 50
270.0
  0
INSERT
  5
3DCF
  8
0
  2
*U44
 10
0.0
 20
0.0
 30
0.0
  0
POINT
  5
3DD0
  8
DEFPOINTS
 62
     0
 10
253.9054520372523882
 20
165.6211897572821101
 30
0.0
  0
POINT
  5
3DD1
  8
DEFPOINTS
 62
     0
 10
223.4054520372525872
 20
89.6211897572821101
 30
0.0
  0
POINT
  5
3DD2
  8
DEFPOINTS
 62
     0
 10
281.9054520372524735
 20
89.6211897572820959
 30
0.0
  0
ENDBLK
  5
3986
  8
0
  0
BLOCK
  8
0
  2
*D23
 70
     1
 10
0.0
 20
0.0
 30
0.0
  3
*D23
  1

  0
LINE
  5
3DD3
  8
AM_5
  6
CONTINUOUS
 62
     7
 10
178.9054520372525872
 20
127.1211897572821954
 30
0.0
 11
164.9054520372525872
 21
127.1211897572821954
 31
0.0
  0
LINE
  5
3DD4
  8
AM_5
  6
CONTINUOUS
 62
     7
 10
179.1554520372393995
 20
121.1211897572927967
 30
0.0
 11
164.9054520372525872
 21
121.1211897572927967
 31
0.0
  0
LINE
  5
3DD5
  8
AM_5
  6
CONTINUOUS
 62
     7
 10
165.9054520372525872
 20
129.6211897572821954
 30
0.0
 11
165.9054520372525872
 21
132.1211897572821954
 31
0.0
  0
LINE
  5
3DD6
  8
AM_5
  6
CONTINUOUS
 62
     7
 10
165.9054520372525872
 20
118.6211897572927967
 30
0.0
 11
165.9054520372525872
 21
116.1211897572927967
 31
0.0
  0
LINE
  5
3DD7
  8
AM_5
  6
CONTINUOUS
 62
     7
 10
165.9054520372525872
 20
127.1211897572821954
 30
0.0
 11
165.9054520372525872
 21
121.1211897572927967
 31
0.0
  0
INSERT
  5
3DD8
  8
AM_5
 62
     7
  2
_OPEN30
 10
165.9054520372525872
 20
127.1211897572821954
 30
0.0
 41
2.5
 42
2.5
 43
2.5
 50
270.0
  0
INSERT
  5
3DD9
  8
AM_5
 62
     7
  2
_OPEN30
 10
165.9054520372525872
 20
121.1211897572927967
 30
0.0
 41
2.5
 42
2.5
 43
2.5
 50
90.0
  0
INSERT
  5
3DDA
  8
0
  2
*U45
 10
0.0
 20
0.0
 30
0.0
  0
POINT
  5
3DDB
  8
DEFPOINTS
 62
     0
 10
179.9054520372525872
 20
127.1211897572821954
 30
0.0
  0
POINT
  5
3DDC
  8
DEFPOINTS
 62
     0
 10
180.1554520372393995
 20
121.1211897572927967
 30
0.0
  0
POINT
  5
3DDD
  8
DEFPOINTS
 62
     0
 10
165.9054520372525872
 20
121.1211897572927967
 30
0.0
  0
ENDBLK
  5
39B0
  8
0
  0
BLOCK
  8
0
  2
*D24
 70
     1
 10
0.0
 20
0.0
 30
0.0
  3
*D24
  1

  0
LINE
  5
3DDE
  8
AM_5
  6
CONTINUOUS
 62
     7
 10
179.1554520372393995
 20
121.1211897572927967
 30
0.0
 11
164.9054520372525872
 21
121.1211897572927967
 31
0.0
  0
LINE
  5
3DDF
  8
AM_5
  6
CONTINUOUS
 62
     7
 10
189.1554520372268087
 20
108.3711897572803053
 30
0.0
 11
164.9054520372525872
 21
108.3711897572803053
 31
0.0
  0
LINE
  5
3DE0
  8
AM_5
  6
CONTINUOUS
 62
     7
 10
165.9054520372525872
 20
123.6211897572927967
 30
0.0
 11
165.9054520372525872
 21
126.1211897572927967
 31
0.0
  0
LINE
  5
3DE1
  8
AM_5
  6
CONTINUOUS
 62
     7
 10
165.9054520372525872
 20
105.8711897572803053
 30
0.0
 11
165.9054520372525872
 21
103.3711897572803053
 31
0.0
  0
LINE
  5
3DE2
  8
AM_5
  6
CONTINUOUS
 62
     7
 10
165.9054520372525872
 20
121.1211897572927967
 30
0.0
 11
165.9054520372525872
 21
108.3711897572803053
 31
0.0
  0
INSERT
  5
3DE3
  8
AM_5
 62
     7
  2
_OPEN30
 10
165.9054520372525872
 20
121.1211897572927967
 30
0.0
 41
2.5
 42
2.5
 43
2.5
 50
270.0
  0
INSERT
  5
3DE4
  8
AM_5
 62
     7
  2
_OPEN30
 10
165.9054520372525872
 20
108.3711897572803053
 30
0.0
 41
2.5
 42
2.5
 43
2.5
 50
90.0
  0
INSERT
  5
3DE5
  8
0
  2
*U46
 10
0.0
 20
0.0
 30
0.0
  0
POINT
  5
3DE6
  8
DEFPOINTS
 62
     0
 10
180.1554520372393995
 20
121.1211897572927967
 30
0.0
  0
POINT
  5
3DE7
  8
DEFPOINTS
 62
     0
 10
190.1554520372268087
 20
108.3711897572803053
 30
0.0
  0
POINT
  5
3DE8
  8
DEFPOINTS
 62
     0
 10
165.9054520372525872
 20
108.3711897572803053
 30
0.0
  0
ENDBLK
  5
39E2
  8
0
  0
BLOCK
  8
0
  2
*D25
 70
     1
 10
0.0
 20
0.0
 30
0.0
  3
*D25
  1

  0
LINE
  5
3DE9
  8
AM_5
  6
CONTINUOUS
 62
     7
 10
189.1554520372268087
 20
108.3711897572803053
 30
0.0
 11
164.9054520372525872
 21
108.3711897572803053
 31
0.0
  0
LINE
  5
3DEA
  8
AM_5
  6
CONTINUOUS
 62
     7
 10
179.1554520372141894
 20
95.6211897572927825
 30
0.0
 11
164.9054520372525872
 21
95.6211897572927825
 31
0.0
  0
LINE
  5
3DEB
  8
AM_5
  6
CONTINUOUS
 62
     7
 10
165.9054520372525872
 20
110.8711897572803053
 30
0.0
 11
165.9054520372525872
 21
113.3711897572803053
 31
0.0
  0
LINE
  5
3DEC
  8
AM_5
  6
CONTINUOUS
 62
     7
 10
165.9054520372525872
 20
93.1211897572927825
 30
0.0
 11
165.9054520372525872
 21
90.6211897572927825
 31
0.0
  0
LINE
  5
3DED
  8
AM_5
  6
CONTINUOUS
 62
     7
 10
165.9054520372525872
 20
108.3711897572803053
 30
0.0
 11
165.9054520372525872
 21
95.6211897572927825
 31
0.0
  0
INSERT
  5
3DEE
  8
AM_5
 62
     7
  2
_OPEN30
 10
165.9054520372525872
 20
108.3711897572803053
 30
0.0
 41
2.5
 42
2.5
 43
2.5
 50
270.0
  0
INSERT
  5
3DEF
  8
AM_5
 62
     7
  2
_OPEN30
 10
165.9054520372525872
 20
95.6211897572927825
 30
0.0
 41
2.5
 42
2.5
 43
2.5
 50
90.0
  0
INSERT
  5
3DF0
  8
0
  2
*U47
 10
0.0
 20
0.0
 30
0.0
  0
POINT
  5
3DF1
  8
DEFPOINTS
 62
     0
 10
190.1554520372268087
 20
108.3711897572803053
 30
0.0
  0
POINT
  5
3DF2
  8
DEFPOINTS
 62
     0
 10
180.1554520372141894
 20
95.6211897572927825
 30
0.0
  0
POINT
  5
3DF3
  8
DEFPOINTS
 62
     0
 10
165.9054520372525872
 20
95.6211897572927825
 30
0.0
  0
ENDBLK
  5
3A08
  8
0
  0
BLOCK
  8
0
  2
*D26
 70
     1
 10
0.0
 20
0.0
 30
0.0
  3
*D26
  1

  0
LINE
  5
3DF4
  8
AM_5
  6
CONTINUOUS
 62
     7
 10
179.1554520372141894
 20
95.6211897572927967
 30
0.0
 11
164.9054520372527008
 21
95.6211897572927967
 31
0.0
  0
LINE
  5
3DF5
  8
AM_5
  6
CONTINUOUS
 62
     7
 10
178.9054520372525872
 20
89.6211897572820959
 30
0.0
 11
164.9054520372527008
 21
89.6211897572820959
 31
0.0
  0
LINE
  5
3DF6
  8
AM_5
  6
CONTINUOUS
 62
     7
 10
165.9054520372525872
 20
98.1211897572927967
 30
0.0
 11
165.9054520372525872
 21
100.6211897572927967
 31
0.0
  0
LINE
  5
3DF7
  8
AM_5
  6
CONTINUOUS
 62
     7
 10
165.9054520372525872
 20
87.1211897572820959
 30
0.0
 11
165.9054520372525872
 21
84.6211897572820959
 31
0.0
  0
LINE
  5
3DF8
  8
AM_5
  6
CONTINUOUS
 62
     7
 10
165.9054520372525872
 20
95.6211897572927967
 30
0.0
 11
165.9054520372525872
 21
89.6211897572820959
 31
0.0
  0
INSERT
  5
3DF9
  8
AM_5
 62
     7
  2
_OPEN30
 10
165.9054520372525872
 20
95.6211897572927967
 30
0.0
 41
2.5
 42
2.5
 43
2.5
 50
270.0
  0
INSERT
  5
3DFA
  8
AM_5
 62
     7
  2
_OPEN30
 10
165.9054520372525872
 20
89.6211897572820959
 30
0.0
 41
2.5
 42
2.5
 43
2.5
 50
90.0
  0
INSERT
  5
3DFB
  8
0
  2
*U48
 10
0.0
 20
0.0
 30
0.0
  0
POINT
  5
3DFC
  8
DEFPOINTS
 62
     0
 10
180.1554520372141894
 20
95.6211897572927967
 30
0.0
  0
POINT
  5
3DFD
  8
DEFPOINTS
 62
     0
 10
179.9054520372525872
 20
89.6211897572820959
 30
0.0
  0
POINT
  5
3DFE
  8
DEFPOINTS
 62
     0
 10
165.9054520372525872
 20
89.6211897572820959
 30
0.0
  0
ENDBLK
  5
3A2E
  8
0
  0
BLOCK
  8
0
  2
*D27
 70
     1
 10
0.0
 20
0.0
 30
0.0
  3
*D27
  1

  0
LINE
  5
3DFF
  8
AM_5
  6
CONTINUOUS
 62
     7
 10
178.9054520372525872
 20
89.6211897572821101
 30
0.0
 11
157.9054520372525872
 21
89.6211897572821243
 31
0.0
  0
LINE
  5
3E00
  8
AM_5
  6
CONTINUOUS
 62
     7
 10
178.9054520372525872
 20
127.1211897572821954
 30
0.0
 11
157.9054520372525872
 21
127.1211897572821954
 31
0.0
  0
LINE
  5
3E01
  8
AM_5
  6
CONTINUOUS
 62
     7
 10
158.9054520372525872
 20
92.1211897572821243
 30
0.0
 11
158.9054520372525872
 21
124.6211897572821954
 31
0.0
  0
INSERT
  5
3E02
  8
AM_5
 62
     7
  2
_OPEN30
 10
158.9054520372525872
 20
89.6211897572821243
 30
0.0
 41
2.5
 42
2.5
 43
2.5
 50
270.0
  0
INSERT
  5
3E03
  8
AM_5
 62
     7
  2
_OPEN30
 10
158.9054520372525872
 20
127.1211897572821954
 30
0.0
 41
2.5
 42
2.5
 43
2.5
 50
90.0
  0
INSERT
  5
3E04
  8
0
  2
*U49
 10
0.0
 20
0.0
 30
0.0
  0
POINT
  5
3E05
  8
DEFPOINTS
 62
     0
 10
179.9054520372525872
 20
89.6211897572821101
 30
0.0
  0
POINT
  5
3E06
  8
DEFPOINTS
 62
     0
 10
179.9054520372525872
 20
127.1211897572821954
 30
0.0
  0
POINT
  5
3E07
  8
DEFPOINTS
 62
     0
 10
158.9054520372525872
 20
127.1211897572821954
 30
0.0
  0
ENDBLK
  5
3A6B
  8
0
  0
BLOCK
  8
0
  2
*D28
 70
     1
 10
0.0
 20
0.0
 30
0.0
  3
*D28
  1

  0
LINE
  5
3E08
  8
AM_5
  6
CONTINUOUS
 62
     7
 10
178.9054520372525872
 20
89.6211897572821385
 30
0.0
 11
178.9054520372525872
 21
65.922123031911724
 31
0.0
  0
LINE
  5
3E09
  8
AM_5
  6
CONTINUOUS
 62
     7
 10
186.9054520372066008
 20
88.6211897572821101
 30
0.0
 11
186.9054520372066008
 21
65.922123031911724
 31
0.0
  0
LINE
  5
3E0A
  8
AM_5
  6
CONTINUOUS
 62
     7
 10
181.4054520372525872
 20
66.922123031911724
 30
0.0
 11
184.4054520372066008
 21
66.922123031911724
 31
0.0
  0
INSERT
  5
3E0B
  8
AM_5
 62
     7
  2
_OPEN30
 10
178.9054520372525872
 20
66.922123031911724
 30
0.0
 41
2.5
 42
2.5
 43
2.5
 50
180.0
  0
INSERT
  5
3E0C
  8
AM_5
 62
     7
  2
_OPEN30
 10
186.9054520372066008
 20
66.922123031911724
 30
0.0
 41
2.5
 42
2.5
 43
2.5
  0
INSERT
  5
3E0D
  8
0
  2
*U50
 10
0.0
 20
0.0
 30
0.0
  0
POINT
  5
3E0E
  8
DEFPOINTS
 62
     0
 10
178.9054520372525872
 20
90.6211897572821385
 30
0.0
  0
POINT
  5
3E0F
  8
DEFPOINTS
 62
     0
 10
186.9054520372066008
 20
89.6211897572821101
 30
0.0
  0
POINT
  5
3E10
  8
DEFPOINTS
 62
     0
 10
186.9054520372066008
 20
66.922123031911724
 30
0.0
  0
ENDBLK
  5
3A95
  8
0
  0
BLOCK
  8
0
  2
*D29
 70
     1
 10
0.0
 20
0.0
 30
0.0
  3
*D29
  1

  0
LINE
  5
3E11
  8
AM_5
  6
CONTINUOUS
 62
     7
 10
186.9054520372066008
 20
88.6211897572821101
 30
0.0
 11
186.9054520372066008
 21
65.9221230319117382
 31
0.0
  0
LINE
  5
3E12
  8
AM_5
  6
CONTINUOUS
 62
     7
 10
196.9054520372183106
 20
100.621189757271793
 30
0.0
 11
196.9054520372183106
 21
65.9221230319117382
 31
0.0
  0
LINE
  5
3E13
  8
AM_5
  6
CONTINUOUS
 62
     7
 10
189.4054520372066008
 20
66.922123031911724
 30
0.0
 11
194.4054520372183106
 21
66.922123031911724
 31
0.0
  0
INSERT
  5
3E14
  8
AM_5
 62
     7
  2
_OPEN30
 10
186.9054520372066008
 20
66.922123031911724
 30
0.0
 41
2.5
 42
2.5
 43
2.5
 50
180.0
  0
INSERT
  5
3E15
  8
AM_5
 62
     7
  2
_OPEN30
 10
196.9054520372183106
 20
66.922123031911724
 30
0.0
 41
2.5
 42
2.5
 43
2.5
  0
INSERT
  5
3E16
  8
0
  2
*U51
 10
0.0
 20
0.0
 30
0.0
  0
POINT
  5
3E17
  8
DEFPOINTS
 62
     0
 10
186.9054520372066008
 20
89.6211897572821101
 30
0.0
  0
POINT
  5
3E18
  8
DEFPOINTS
 62
     0
 10
196.9054520372183106
 20
101.621189757271793
 30
0.0
  0
POINT
  5
3E19
  8
DEFPOINTS
 62
     0
 10
196.9054520372183106
 20
66.922123031911724
 30
0.0
  0
ENDBLK
  5
3ABF
  8
0
  0
BLOCK
  8
0
  2
*D30
 70
     1
 10
0.0
 20
0.0
 30
0.0
  3
*D30
  1

  0
LINE
  5
3E1A
  8
AM_5
  6
CONTINUOUS
 62
     7
 10
196.9054520372183106
 20
100.621189757271793
 30
0.0
 11
196.9054520372183106
 21
65.9221230319117808
 31
0.0
  0
LINE
  5
3E1B
  8
AM_5
  6
CONTINUOUS
 62
     7
 10
216.9054520372523882
 20
80.9900680451672201
 30
0.0
 11
216.9054520372523882
 21
65.9221230319117808
 31
0.0
  0
LINE
  5
3E1C
  8
AM_5
  6
CONTINUOUS
 62
     7
 10
199.4054520372183106
 20
66.9221230319117808
 30
0.0
 11
214.4054520372523882
 21
66.9221230319117808
 31
0.0
  0
INSERT
  5
3E1D
  8
AM_5
 62
     7
  2
_OPEN30
 10
196.9054520372183106
 20
66.9221230319117808
 30
0.0
 41
2.5
 42
2.5
 43
2.5
 50
180.0
  0
INSERT
  5
3E1E
  8
AM_5
 62
     7
  2
_OPEN30
 10
216.9054520372523882
 20
66.9221230319117808
 30
0.0
 41
2.5
 42
2.5
 43
2.5
  0
INSERT
  5
3E1F
  8
0
  2
*U52
 10
0.0
 20
0.0
 30
0.0
  0
POINT
  5
3E20
  8
DEFPOINTS
 62
     0
 10
196.9054520372183106
 20
101.621189757271793
 30
0.0
  0
POINT
  5
3E21
  8
DEFPOINTS
 62
     0
 10
216.9054520372523882
 20
81.9900680451672201
 30
0.0
  0
POINT
  5
3E22
  8
DEFPOINTS
 62
     0
 10
216.9054520372523882
 20
66.9221230319117808
 30
0.0
  0
ENDBLK
  5
3AE0
  8
0
  0
BLOCK
  8
0
  2
*D31
 70
     1
 10
0.0
 20
0.0
 30
0.0
  3
*D31
  1

  0
LINE
  5
3E23
  8
AM_5
  6
CONTINUOUS
 62
     7
 10
178.9054520372525872
 20
89.6211897572821385
 30
0.0
 11
178.9054520372525872
 21
58.9221230319119726
 31
0.0
  0
LINE
  5
3E24
  8
AM_5
  6
CONTINUOUS
 62
     7
 10
216.9054520372523882
 20
80.9900680451672201
 30
0.0
 11
216.9054520372523882
 21
58.9221230319119726
 31
0.0
  0
LINE
  5
3E25
  8
AM_5
  6
CONTINUOUS
 62
     7
 10
181.4054520372525872
 20
59.9221230319119584
 30
0.0
 11
214.4054520372523882
 21
59.9221230319119584
 31
0.0
  0
INSERT
  5
3E26
  8
AM_5
 62
     7
  2
_OPEN30
 10
178.9054520372525872
 20
59.9221230319119584
 30
0.0
 41
2.5
 42
2.5
 43
2.5
 50
180.0
  0
INSERT
  5
3E27
  8
AM_5
 62
     7
  2
_OPEN30
 10
216.9054520372523882
 20
59.9221230319119584
 30
0.0
 41
2.5
 42
2.5
 43
2.5
  0
INSERT
  5
3E28
  8
0
  2
*U53
 10
0.0
 20
0.0
 30
0.0
  0
POINT
  5
3E29
  8
DEFPOINTS
 62
     0
 10
178.9054520372525872
 20
90.6211897572821385
 30
0.0
  0
POINT
  5
3E2A
  8
DEFPOINTS
 62
     0
 10
216.9054520372523882
 20
81.9900680451672201
 30
0.0
  0
POINT
  5
3E2B
  8
DEFPOINTS
 62
     0
 10
216.9054520372523882
 20
59.9221230319119584
 30
0.0
  0
ENDBLK
  5
3B01
  8
0
  0
BLOCK
  8
0
  2
S32
 70
     0
 10
0.0
 20
0.0
 30
0.0
  3
S32
  1

  0
LINE
  5
3EE4
  8
AM_5
  6
CONTINUOUS
 62
     7
 10
314.915100939934689
 20
181.7454108174756868
 30
0.0
 11
267.5290970029267896
 21
181.7454108174756868
 31
0.0
  0
LINE
  5
3EE5
  8
AM_5
  6
CONTINUOUS
 62
     7
 10
267.5290970029267896
 20
181.7454108174756868
 30
0.0
 11
251.9512550750525861
 21
165.0341253474888958
 31
0.0
  0
LINE
  5
3EE6
  8
AM_5
  6
CONTINUOUS
 62
     7
 10
251.9512550750525861
 20
165.0341253474888958
 30
0.0
 11
249.803379457610589
 21
162.7299703327387022
 31
0.0
  0
LINE
  5
3EE7
  8
AM_5
  6
CONTINUOUS
 62
     7
 10
251.6479073138856961
 20
165.3168985357706049
 30
0.0
 11
249.803379457610589
 21
162.7299703327387022
 31
0.0
  0
LINE
  5
3EE8
  8
AM_5
  6
CONTINUOUS
 62
     7
 10
249.803379457610589
 20
162.7299703327387022
 30
0.0
 11
252.2546028362195045
 21
164.7513521592071868
 31
0.0
  0
INSERT
  5
3EE9
  8
0
  2
*U55
 10
0.0
 20
0.0
 30
0.0
  0
ENDBLK
  5
3EEB
  8
0
  0
BLOCK
  8
0
  2

 70
     0
 10
0.0
 20
0.0
 30
0.0
  3

  1

  0
LINE
  5
3FC3
  8
AM_5
  6
CONTINUOUS
 62
     7
 10
314.915100939934689
 20
181.7454108174756868
 30
0.0
 11
267.5290970029267896
 21
181.7454108174756868
 31
0.0
  0
LINE
  5
3FC4
  8
AM_5
  6
CONTINUOUS
 62
     7
 10
267.5290970029267896
 20
181.7454108174756868
 30
0.0
 11
251.9512550750525861
 21
165.0341253474888958
 31
0.0
  0
LINE
  5
3FC5
  8
AM_5
  6
CONTINUOUS
 62
     7
 10
251.9512550750525861
 20
165.0341253474888958
 30
0.0
 11
249.803379457610589
 21
162.7299703327387022
 31
0.0
  0
LINE
  5
3FC6
  8
AM_5
  6
CONTINUOUS
 62
     7
 10
251.6479073138856961
 20
165.3168985357706049
 30
0.0
 11
249.803379457610589
 21
162.7299703327387022
 31
0.0
  0
LINE
  5
3FC7
  8
AM_5
  6
CONTINUOUS
 62
     7
 10
249.803379457610589
 20
162.7299703327387022
 30
0.0
 11
252.2546028362195045
 21
164.7513521592071868
 31
0.0
  0
INSERT
  5
3FC8
  8
0
  2
*U56
 10
0.0
 20
0.0
 30
0.0
  0
ENDBLK
  5
3FC2
  8
0
  0
BLOCK
  8
0
  2
*U36
 70
     1
 10
0.0
 20
0.0
 30
0.0
  3
*U36
  1

  0
TEXT
  5
413D
  8
AM_5
 62
     7
 10
196.0483091801096123
 20
181.5950047133692919
 30
0.0
 40
3.0
  1
(\U+220513)
  0
ENDBLK
  5
413F
  8
0
  0
BLOCK
  8
0
  2
*U37
 70
     1
 10
0.0
 20
0.0
 30
0.0
  3
*U37
  1

  0
TEXT
  5
4141
  8
AM_5
 62
     7
 10
266.9054520372524166
 20
161.6926183287106937
 30
0.0
 40
3.0
  1
6
 50
90.0
  0
ENDBLK
  5
4143
  8
0
  0
BLOCK
  8
0
  2
*U38
 70
     1
 10
0.0
 20
0.0
 30
0.0
  3
*U38
  1

  0
TEXT
  5
4145
  8
AM_5
 62
     7
 10
266.9054520372524166
 20
147.5319040429965014
 30
0.0
 40
3.0
  1
12.75
 50
90.0
  0
ENDBLK
  5
4147
  8
0
  0
BLOCK
  8
0
  2
*U39
 70
     1
 10
0.0
 20
0.0
 30
0.0
  3
*U39
  1

  0
TEXT
  5
4149
  8
AM_5
 62
     7
 10
266.9054520372524166
 20
134.7819040429965014
 30
0.0
 40
3.0
  1
12.75
 50
90.0
  0
ENDBLK
  5
414B
  8
0
  0
BLOCK
  8
0
  2
*U40
 70
     1
 10
0.0
 20
0.0
 30
0.0
  3
*U40
  1

  0
TEXT
  5
414D
  8
AM_5
 62
     7
 10
266.9054520372524166
 20
130.1926183287108074
 30
0.0
 40
3.0
  1
6
 50
90.0
  0
ENDBLK
  5
414F
  8
0
  0
BLOCK
  8
0
  2
*U41
 70
     1
 10
0.0
 20
0.0
 30
0.0
  3
*U41
  1

  0
TEXT
  5
4151
  8
AM_5
 62
     7
 10
273.9054520372524166
 20
142.2997611858536118
 30
0.0
 40
3.0
  1
37.5
 50
90.0
  0
ENDBLK
  5
4153
  8
0
  0
BLOCK
  8
0
  2
*U42
 70
     1
 10
0.0
 20
0.0
 30
0.0
  3
*U42
  1

  0
TEXT
  5
4155
  8
AM_5
 62
     7
 10
224.4768806086810002
 20
188.0628674814936971
 30
0.0
 40
3.0
  1
20
  0
ENDBLK
  5
4157
  8
0
  0
BLOCK
  8
0
  2
*U43
 70
     1
 10
0.0
 20
0.0
 30
0.0
  3
*U43
  1

  0
TEXT
  5
4159
  8
AM_5
 62
     7
 10
233.4768806086810002
 20
195.0628674814936119
 30
0.0
 40
3.0
  1
38
  0
ENDBLK
  5
415B
  8
0
  0
BLOCK
  8
0
  2
*U44
 70
     1
 10
0.0
 20
0.0
 30
0.0
  3
*U44
  1

  0
TEXT
  5
415D
  8
AM_5
 62
     7
 10
280.9054520372524735
 20
125.2640469001392063
 30
0.0
 40
3.0
  1
76
 50
90.0
  0
ENDBLK
  5
415F
  8
0
  0
BLOCK
  8
0
  2
*U45
 70
     1
 10
0.0
 20
0.0
 30
0.0
  3
*U45
  1

  0
TEXT
  5
4161
  8
AM_5
 62
     7
 10
164.9054520372525872
 20
123.1926183287160939
 30
0.0
 40
3.0
  1
6
 50
90.0
  0
ENDBLK
  5
4163
  8
0
  0
BLOCK
  8
0
  2
*U46
 70
     1
 10
0.0
 20
0.0
 30
0.0
  3
*U46
  1

  0
TEXT
  5
4165
  8
AM_5
 62
     7
 10
164.9054520372525872
 20
109.0319040430007931
 30
0.0
 40
3.0
  1
12.75
 50
90.0
  0
ENDBLK
  5
4167
  8
0
  0
BLOCK
  8
0
  2
*U47
 70
     1
 10
0.0
 20
0.0
 30
0.0
  3
*U47
  1

  0
TEXT
  5
4169
  8
AM_5
 62
     7
 10
164.9054520372525872
 20
96.2819040430008783
 30
0.0
 40
3.0
  1
12.75
 50
90.0
  0
ENDBLK
  5
416B
  8
0
  0
BLOCK
  8
0
  2
*U48
 70
     1
 10
0.0
 20
0.0
 30
0.0
  3
*U48
  1

  0
TEXT
  5
416D
  8
AM_5
 62
     7
 10
164.9054520372525872
 20
91.692618328716037
 30
0.0
 40
3.0
  1
6
 50
90.0
  0
ENDBLK
  5
416F
  8
0
  0
BLOCK
  8
0
  2
*U49
 70
     1
 10
0.0
 20
0.0
 30
0.0
  3
*U49
  1

  0
TEXT
  5
4171
  8
AM_5
 62
     7
 10
157.9054520372525019
 20
103.7997611858535976
 30
0.0
 40
3.0
  1
37.5
 50
90.0
  0
ENDBLK
  5
4173
  8
0
  0
BLOCK
  8
0
  2
*U50
 70
     1
 10
0.0
 20
0.0
 30
0.0
  3
*U50
  1

  0
TEXT
  5
4175
  8
AM_5
 62
     7
 10
181.905452037229594
 20
67.922123031911724
 30
0.0
 40
3.0
  1
8
  0
ENDBLK
  5
4177
  8
0
  0
BLOCK
  8
0
  2
*U51
 70
     1
 10
0.0
 20
0.0
 30
0.0
  3
*U51
  1

  0
TEXT
  5
4179
  8
AM_5
 62
     7
 10
189.7625948943552885
 20
67.9221230319117382
 30
0.0
 40
3.0
  1
10
  0
ENDBLK
  5
417B
  8
0
  0
BLOCK
  8
0
  2
*U52
 70
     1
 10
0.0
 20
0.0
 30
0.0
  3
*U52
  1

  0
TEXT
  5
417D
  8
AM_5
 62
     7
 10
204.4768806086640041
 20
67.9221230319117808
 30
0.0
 40
3.0
  1
20
  0
ENDBLK
  5
417F
  8
0
  0
BLOCK
  8
0
  2
*U53
 70
     1
 10
0.0
 20
0.0
 30
0.0
  3
*U53
  1

  0
TEXT
  5
4181
  8
AM_5
 62
     7
 10
195.4768806086811139
 20
60.9221230319119584
 30
0.0
 40
3.0
  1
38
  0
ENDBLK
  5
4183
  8
0
  0
BLOCK
  8
0
  2
*U54
 70
     1
 10
0.0
 20
0.0
 30
0.0
  3
*U54
  1

  0
TEXT
  5
4185
  8
AM_5
 62
     7
 10
277.7669167762036864
 20
244.5764997090853115
 30
0.0
 40
3.0
  1
2.5
 50
90.0
  0
ENDBLK
  5
4187
  8
0
  0
BLOCK
  8
0
  2
*U55
 70
     1
 10
0.0
 20
0.0
 30
0.0
  3
*U55
  1

  0
TEXT
  5
4189
  8
AM_5
 62
     7
 10
270.3951009399347072
 20
183.3204108174757039
 30
0.0
 40
3.149999999999999
  1
6-\U+22056×\U+22058.5皿孔（両面）
  7
ACJISTS
  0
ENDBLK
  5
418B
  8
0
  0
BLOCK
  8
0
  2
*U56
 70
     1
 10
0.0
 20
0.0
 30
0.0
  3
*U56
  1

  0
TEXT
  5
418D
  8
AM_5
 62
     7
 10
270.3951009399347072
 20
183.3204108174757039
 30
0.0
 40
3.149999999999999
  1
6-\U+22055.5×\U+22058.5皿孔（両面）
  7
ACJISTS
  0
ENDBLK
  5
418F
  8
0
  0
ENDSEC
  0
SECTION
  2
ENTITIES
  0
INSERT
  5
1BB5
  8
0
  2
ZUWAKU-A3H
 10
0.0
 20
0.0
 30
0.0
1001
GENIUS_GENOREF_13
1005
1C93
1001
GENIUS_GENOBJ-N-SDF_13
1002
{
1000
OWNER
1000
GEN
1002
}
1001
GENIUS_GENODEF_13
1002
{
1000
HIER
1070
     0
1002
}
1002
{
1000
MANEDIT
1070
     0
1002
}
1002
{
1000
NOSEL
1070
     0
1002
}
1002
{
1000
BEHIND
1070
     0
1002
}
1002
{
1000
OTHER
1070
     0
1002
}
1002
{
1000
REACTOR
1002
}
1001
GENIUS_GENSCREG_13
1040
1.0
1040
1.0
1011
24.9999999999999787
1021
0.0
1031
0.0
1021
8.9999999999999964
1031
0.0
1011
411.9999999999998863
1021
0.0
1031
0.0
1021
284.9999999999998863
1031
0.0
1070
     3
  0
POINT
  5
1C93
  8
0
 10
0.0
 20
0.0
 30
0.0
1001
GENIUS_GENOENT_13
1002
{
1000
MYREF
1005
1C93
1002
}
1002
{
1000
GRP
1005
0
1002
}
1001
GENIUS_GENOBJ-N-TIT_13
1002
{
1000
OWNER
1000
GEN
1002
}
1001
GENIUS_GENODEF_13
1002
{
1000
HIER
1070
     1
1002
}
1002
{
1000
MANEDIT
1070
     1
1002
}
1002
{
1000
NOSEL
1070
     0
1002
}
1002
{
1000
BEHIND
1070
     0
1002
}
1002
{
1000
OTHER
1070
     0
1002
}
1002
{
1000
REACTOR
1002
}
1001
GENIUS_GENOLIS_13
1002
{
1000
ENT
1005
1BB5
1005
2A9C
1002
}
1001
GENIUS_GENTITLE_13
1002
{
1000
BORDER
1000
C:\Program Files\Autodesk\ACADM 2008\Acadm\gen\Dwg\Format\ZUWAKU-A3H
1002
}
1002
{
1000
TITLE
1000
C:\Program Files\Autodesk\ACADM 2008\Acadm\gen\Dwg\Title\N_Title
1002
}
1002
{
1000
ADDITIONAL1
1000

1002
}
1002
{
1000
ADDITIONAL2
1000

1002
}
1002
{
1000
SCALE
1000
1:1
1002
}
1002
{
1000
TITLESTD
1000
JIS
1002
}
1002
{
1000
HRA
1005
1BB5
1002
}
1002
{
1000
HTIT
1005
2A9C
1002
}
1002
{
1000
GENIUSID
1005
1C93
1002
}
1002
{
1000
INVTXTID
1005
0
1002
}
1002
{
1000
UNCHG
1002
{
1000
GEN-TITLE-SIZ
1000
GEN-TITLE-SCA
1002
}
1002
}
  0
INSERT
  5
20F2
  8
0
 66
     1
  2
A$C1C06296A
 10
135.5000001316064981
 20
8.9999998268887005
 30
0.0
  0
ATTRIB
  5
20F3
  8
AM_BOR
 62
     7
 10
249.8107097069895985
 20
9.4999999999999893
 30
0.0
 40
3.0
  1

 11
249.8107097069895985
 21
10.9999999999999893
 31
0.0
  2
SETS｛20｝
 70
     0
 74
     2
1001
ACDBATTR
1070
     0
1070
     1
  0
ATTRIB
  5
20F4
  8
AM_BOR
 62
     7
 10
154.5607097069895985
 20
9.4999999999999893
 30
0.0
 40
3.0
  1

 11
154.5607097069895985
 21
10.9999999999999893
 31
0.0
  2
REMARKS｛20｝
 70
     0
 74
     2
1001
ACDBATTR
1070
     0
1070
     1
  0
ATTRIB
  5
20F5
  8
AM_BOR
 62
     7
 10
249.8107097069895985
 20
14.4999999999999893
 30
0.0
 40
3.0
  1

 11
249.8107097069895985
 21
15.9999999999999893
 31
0.0
  2
SETS｛20｝
 70
     0
 74
     2
1001
ACDBATTR
1070
     0
1070
     1
  0
ATTRIB
  5
20F6
  8
AM_BOR
 62
     7
 10
154.5607097069895985
 20
14.4999999999999893
 30
0.0
 40
3.0
  1

 11
154.5607097069895985
 21
15.9999999999999893
 31
0.0
  2
REMARKS｛20｝
 70
     0
 74
     2
1001
ACDBATTR
1070
     0
1070
     1
  0
ATTRIB
  5
20F7
  8
AM_BOR
 62
     7
 10
249.8107097069895985
 20
19.4999999999999893
 30
0.0
 40
3.0
  1

 11
249.8107097069895985
 21
20.9999999999999893
 31
0.0
  2
SETS｛20｝
 70
     0
 74
     2
1001
ACDBATTR
1070
     0
1070
     1
  0
ATTRIB
  5
20F8
  8
AM_BOR
 62
     7
 10
154.5607097069895985
 20
19.4999999999999893
 30
0.0
 40
3.0
  1

 11
154.5607097069895985
 21
20.9999999999999893
 31
0.0
  2
REMARKS｛20｝
 70
     0
 74
     2
1001
ACDBATTR
1070
     0
1070
     1
  0
ATTRIB
  5
20F9
  8
AM_BOR
 62
     7
 10
249.7499999999996874
 20
32.4999999999999929
 30
0.0
 40
3.0
  1
3KJ-2.5ｔ-2A
 11
249.7499999999996874
 21
33.9999999999999929
 31
0.0
  2
ART_NO｛20｝
 70
     0
 74
     2
1001
ACDBATTR
1070
     0
1070
     1
  0
ATTRIB
  5
20FA
  8
AM_BOR
 62
     7
 10
154.4999999999996874
 20
32.4999999999999929
 30
0.0
 40
3.0
  1
旗丁番
 11
154.4999999999996874
 21
33.9999999999999929
 31
0.0
  2
ARTICLE｛20｝
 70
     0
 74
     2
1001
ACDBATTR
1070
     0
1070
     1
  0
ATTRIB
  5
20FB
  8
AM_BOR
 62
     7
 10
249.7499999999996874
 20
25.9999999999999893
 30
0.0
 40
3.0
  1
ヘアライン
 11
249.7499999999996874
 21
27.4999999999999893
 31
0.0
  2
FINISH｛20｝
 70
     0
 74
     2
1001
ACDBATTR
1070
     0
1070
     1
  0
ATTRIB
  5
20FC
  8
AM_BOR
 62
     7
 10
154.4999999999996874
 20
25.9999999999999893
 30
0.0
 40
3.0
  1
ステンレス
 11
154.4999999999996874
 21
27.4999999999999893
 31
0.0
  2
MATERIAK｛20｝
 70
     0
 74
     2
1001
ACDBATTR
1070
     0
1070
     1
  0
SEQEND
  5
20FD
  8
0
  0
LINE
  5
3485
  8
AM_7
 10
258.7628923668384004
 20
237.3264997090851978
 30
0.0
 11
175.0480117076664044
 21
237.3264997090851978
 31
0.0
  0
LINE
  5
3486
  8
0
 10
254.9054520372523882
 20
238.5764997090851978
 30
0.0
 11
223.2841274483386087
 21
238.5764997090851978
 31
0.0
  0
LINE
  5
3487
  8
0
 10
210.4054520372523882
 20
89.6211897572821101
 30
0.0
 11
210.4054520372523882
 21
165.6211897572821101
 31
0.0
  0
LINE
  5
3488
  8
0
 10
223.4054520372523882
 20
89.6211897572821101
 30
0.0
 11
223.4054520372523882
 21
165.6211897572821101
 31
0.0
  0
LINE
  5
3489
  8
0
 10
179.9054520372525872
 20
89.6211897572821101
 30
0.0
 11
223.4054520372525872
 21
89.6211897572821101
 31
0.0
  0
LINE
  5
348A
  8
0
 10
253.9054520372523882
 20
165.6211897572821101
 30
0.0
 11
210.4054520372525019
 21
165.6211897572821101
 31
0.0
  0
LINE
  5
348D
  8
0
 10
253.9054520372523882
 20
128.1211897572821954
 30
0.0
 11
210.4054520372523882
 21
128.1211897572821954
 31
0.0
  0
LINE
  5
348E
  8
0
 10
179.9054520372525872
 20
127.1211897572821954
 30
0.0
 11
223.4054520372523882
 21
127.1211897572821954
 31
0.0
  0
LINE
  5
348F
  8
0
 10
178.9054520372525872
 20
90.6211897572821385
 30
0.0
 11
178.9054520372525872
 21
126.1211897572821954
 31
0.0
  0
LINE
  5
3490
  8
0
 10
254.9054520372523882
 20
129.1211897572821954
 30
0.0
 11
254.9054520372523882
 21
164.6211897572821101
 31
0.0
  0
LINE
  5
3491
  8
AM_7
 10
216.9054520372523882
 20
225.2456123722720065
 30
0.0
 11
216.9054520372523882
 21
249.4073870458985027
 31
0.0
  0
ARC
  5
3492
  8
0
 10
253.9054520372523882
 20
164.6211897572821101
 30
0.0
 40
1.0
 50
0.0
 51
90.0
  0
ARC
  5
3493
  8
0
 10
253.9054520372523882
 20
129.1211897572821954
 30
0.0
 40
1.0
 50
270.0
 51
0.0
  0
ARC
  5
3494
  8
0
 10
179.9054520372525872
 20
126.1211897572821954
 30
0.0
 40
1.0
 50
90.0
 51
180.0
  0
ARC
  5
3495
  8
0
 10
179.9054520372525872
 20
90.6211897572821385
 30
0.0
 40
1.0
 50
180.0
 51
270.0
  0
CIRCLE
  5
3496
  8
0
 10
246.9054520372523882
 20
159.6211897572821954
 30
0.0
 40
3.0
  0
CIRCLE
  5
3497
  8
0
 10
246.9054520372523882
 20
159.6211897572821954
 30
0.0
 40
4.25
  0
CIRCLE
  5
3498
  8
0
 10
236.9054520372523882
 20
146.8711897572821954
 30
0.0
 40
3.0
  0
CIRCLE
  5
3499
  8
0
 10
236.9054520372523882
 20
146.8711897572821954
 30
0.0
 40
4.25
  0
CIRCLE
  5
349A
  8
0
 10
246.9054520372523882
 20
134.1211897572821954
 30
0.0
 40
3.0
  0
CIRCLE
  5
349B
  8
0
 10
246.9054520372523882
 20
134.1211897572821954
 30
0.0
 40
4.25
  0
LINE
  5
349C
  8
0
 10
222.9054520372523882
 20
87.6211897572820817
 30
0.0
 11
222.9054520372523882
 21
89.6211897572821385
 31
0.0
  0
LINE
  5
349D
  8
0
 10
222.9054520372523882
 20
165.6211897572821101
 30
0.0
 11
222.9054520372523882
 21
167.6211897572821101
 31
0.0
  0
LINE
  5
349E
  8
0
 10
210.9054520372523882
 20
87.6211897572820817
 30
0.0
 11
210.9054520372523882
 21
89.6211897572821385
 31
0.0
  0
LINE
  5
349F
  8
0
 10
210.9054520372523882
 20
165.6211897572821101
 30
0.0
 11
210.9054520372523882
 21
167.6211897572821101
 31
0.0
  0
CIRCLE
  5
34A0
  8
0
 10
216.905452037252104
 20
237.3264997090851978
 30
0.0
 40
6.0
  0
LINE
  5
34A1
  8
0
 10
223.2841274483386087
 20
236.0764997090851978
 30
0.0
 11
254.9054520372523882
 21
236.0764997090851978
 31
0.0
  0
LINE
  5
34A2
  8
AM_7
 10
253.6554520372523882
 20
159.6211897572821954
 30
0.0
 11
240.1554520372523882
 21
159.6211897572821954
 31
0.0
  0
LINE
  5
34A3
  8
AM_7
 10
246.9054520372523882
 20
166.3711897572821954
 30
0.0
 11
246.9054520372523882
 21
152.8711897572821954
 31
0.0
  0
LINE
  5
34A4
  8
AM_7
 10
243.6554520372523882
 20
146.8711897572821954
 30
0.0
 11
230.1554520372523882
 21
146.8711897572821954
 31
0.0
  0
LINE
  5
34A5
  8
AM_7
 10
236.9054520372523882
 20
153.6211897572821954
 30
0.0
 11
236.9054520372523882
 21
140.1211897572821954
 31
0.0
  0
LINE
  5
34A6
  8
AM_7
 10
253.6554520372523882
 20
134.1211897572821954
 30
0.0
 11
240.1554520372523882
 21
134.1211897572821954
 31
0.0
  0
LINE
  5
34A7
  8
AM_7
 10
246.9054520372523882
 20
140.8711897572821954
 30
0.0
 11
246.9054520372523882
 21
127.3711897572821954
 31
0.0
  0
CIRCLE
  5
34A9
  8
0
 10
186.9054520372143031
 20
95.6211897572842844
 30
0.0
 40
3.0
  0
CIRCLE
  5
34AA
  8
0
 10
186.9054520372143031
 20
95.6211897572842844
 30
0.0
 40
4.25
  0
CIRCLE
  5
34AB
  8
0
 10
196.9054520372268939
 20
108.371189757271793
 30
0.0
 40
3.0
  0
CIRCLE
  5
34AC
  8
0
 10
196.9054520372268939
 20
108.371189757271793
 30
0.0
 40
4.25
  0
CIRCLE
  5
34AD
  8
0
 10
186.9054520372393995
 20
121.1211897572843981
 30
0.0
 40
3.0
  0
CIRCLE
  5
34AE
  8
0
 10
186.9054520372393995
 20
121.1211897572843981
 30
0.0
 40
4.25
  0
LINE
  5
34AF
  8
AM_7
 10
180.1554520372141894
 20
95.6211897572927967
 30
0.0
 11
193.6554520372141894
 21
95.6211897572758858
 31
0.0
  0
LINE
  5
34B0
  8
AM_7
 10
186.9054520372056913
 20
88.871189757284327
 30
0.0
 11
186.9054520372226875
 21
102.3711897572842986
 31
0.0
  0
LINE
  5
34B1
  8
AM_7
 10
190.1554520372268087
 20
108.3711897572803053
 30
0.0
 11
203.6554520372268939
 21
108.371189757263295
 31
0.0
  0
LINE
  5
34B2
  8
AM_7
 10
196.9054520372183106
 20
101.621189757271793
 30
0.0
 11
196.9054520372353068
 21
115.121189757271793
 31
0.0
  0
LINE
  5
34B3
  8
AM_7
 10
180.1554520372393995
 20
121.1211897572927967
 30
0.0
 11
193.6554520372393995
 21
121.1211897572759
 31
0.0
  0
LINE
  5
34B4
  8
AM_7
 10
186.9054520372309014
 20
114.3711897572843981
 30
0.0
 11
186.9054520372478976
 21
127.8711897572842986
 31
0.0
  0
CIRCLE
  5
34B5
  8
0
 10
216.905452037252104
 20
237.3264997090851978
 30
0.0
 40
6.5
  0
LINE
  5
34B6
  8
0
 10
210.5267766261661961
 20
236.0764997090851978
 30
0.0
 11
178.9054520372525872
 21
236.0764997090851978
 31
0.0
  0
LINE
  5
34B7
  8
0
 10
178.9054520372525872
 20
238.5764997090851978
 30
0.0
 11
210.5267766261661961
 21
238.5764997090851978
 31
0.0
  0
LINE
  5
34B9
  8
AM_7
 10
216.9054520372523882
 20
81.9900680451672201
 30
0.0
 11
216.9054520372523882
 21
173.0628674814936971
 31
0.0
  0
LINE
  5
34DA
  8
AM_7
 10
236.9054520372523882
 20
242.9333891432904124
 30
0.0
 11
236.9054520372523882
 21
231.2339398241221033
 31
0.0
  0
LINE
  5
34DB
  8
AM_7
 10
246.9054520372523882
 20
242.9333891432904124
 30
0.0
 11
246.9054520372523882
 21
231.2339398241221033
 31
0.0
  0
LINE
  5
34DC
  8
AM_7
 10
196.9054520372393995
 20
242.9333891432904124
 30
0.0
 11
196.9054520372393995
 21
231.2339398241221033
 31
0.0
  0
LINE
  5
34DD
  8
AM_7
 10
186.9054520372393995
 20
242.9333891432904124
 30
0.0
 11
186.9054520372393995
 21
231.2339398241221033
 31
0.0
  0
LINE
  5
34DE
  8
0
 10
254.9054520372523882
 20
236.0764997090851978
 30
0.0
 11
254.9054520372523882
 21
238.5764997090851978
 31
0.0
  0
LINE
  5
34DF
  8
0
 10
178.9054520372525872
 20
236.0764997090851978
 30
0.0
 11
178.9054520372525872
 21
238.5764997090851978
 31
0.0
  0
DIMENSION
  5
3772
  8
AM_5
  2
*D10
 10
223.4054520372523882
 20
179.5950047133692919
 30
0.0
 11
201.4768806086810002
 21
179.5950047133692919
 31
0.0
 70
   128
  1
(%%c<>)
 13
210.4054520372523882
 23
165.6211897572821101
 33
0.0
 14
223.4054520372523882
 24
165.6211897572821101
 34
0.0
1001
ACAD_DSTYLE_DIMINSPECT
1070
   396
1000
100%
1070
   395
1000

1070
   394
1070
    33
1070
   393
1070
     0
  0
DIMENSION
  5
37B7
  8
AM_5
  2
*D11
 10
278.7669167762036864
 20
238.5764997090851978
 30
0.0
 11
276.2669167762036864
 21
247.7193568519423934
 31
0.0
 70
     0
 13
254.9054520372523882
 23
236.0764997090851978
 33
0.0
 14
254.9054520372523882
 24
238.5764997090851978
 34
0.0
 50
90.0
1001
ACAD_DSTYLE_DIMINSPECT
1070
   396
1000
100%
1070
   395
1000

1070
   394
1070
    33
1070
   393
1070
     0
  0
DIMENSION
  5
37E9
  8
AM_5
  2
*D12
 10
267.9054520372524166
 20
159.6211897572821954
 30
0.0
 11
265.4054520372524166
 21
162.6211897572821101
 31
0.0
 70
     0
 13
253.9054520372523882
 23
165.6211897572821101
 33
0.0
 14
253.6554520372523882
 24
159.6211897572821954
 34
0.0
 50
90.0
1001
ACAD_DSTYLE_DIMINSPECT
1070
   396
1000
100%
1070
   395
1000

1070
   394
1070
    33
1070
   393
1070
     0
1001
ACAD
1000
DSTYLE
1002
{
1070
   174
1070
     1
1002
}
  0
DIMENSION
  5
3826
  8
AM_5
  2
*D13
 10
267.9054520372524166
 20
159.6211897572821101
 30
0.0
 11
265.4054520372524166
 21
153.2461897572821954
 31
0.0
 70
     0
 13
243.6554520372523882
 23
146.8711897572821954
 33
0.0
 14
253.6554520372523882
 24
159.6211897572821101
 34
0.0
 50
90.0
1001
ACAD
1000
DSTYLE
1002
{
1070
   174
1070
     1
1002
}
1001
ACAD_DSTYLE_DIMINSPECT
1070
   396
1000
100%
1070
   395
1000

1070
   394
1070
    33
1070
   393
1070
     0
  0
DIMENSION
  5
384C
  8
AM_5
  2
*D14
 10
267.9054520372524735
 20
146.8711897572821954
 30
0.0
 11
265.4054520372524166
 21
140.4961897572821954
 31
0.0
 70
     0
 13
253.6554520372523882
 23
134.1211897572821954
 33
0.0
 14
243.6554520372523882
 24
146.8711897572821954
 34
0.0
 50
90.0
1001
ACAD
1000
DSTYLE
1002
{
1070
   174
1070
     1
1002
}
1001
ACAD_DSTYLE_DIMINSPECT
1070
   396
1000
100%
1070
   395
1000

1070
   394
1070
    33
1070
   393
1070
     0
  0
DIMENSION
  5
3872
  8
AM_5
  2
*D15
 10
267.9054520372524166
 20
134.1211897572821954
 30
0.0
 11
265.4054520372524166
 21
131.1211897572821954
 31
0.0
 70
     0
 13
253.9054520372523882
 23
128.1211897572821954
 33
0.0
 14
253.6554520372523882
 24
134.1211897572821954
 34
0.0
 50
90.0
1001
ACAD
1000
DSTYLE
1002
{
1070
   174
1070
     1
1002
}
1001
ACAD_DSTYLE_DIMINSPECT
1070
   396
1000
100%
1070
   395
1000

1070
   394
1070
    33
1070
   393
1070
     0
  0
DIMENSION
  5
3899
  8
AM_5
  2
*D16
 10
274.9054520372524166
 20
165.6211897572821101
 30
0.0
 11
272.4054520372523029
 21
146.8711897572821101
 31
0.0
 70
     0
 13
253.9054520372523882
 23
128.1211897572821954
 33
0.0
 14
253.9054520372523882
 24
165.6211897572821101
 34
0.0
 50
90.0
1001
ACAD_DSTYLE_DIMINSPECT
1070
   396
1000
100%
1070
   395
1000

1070
   394
1070
    33
1070
   393
1070
     0
  0
DIMENSION
  5
38C3
  8
AM_5
  2
*D17
 10
236.9054520372523882
 20
187.0628674814936971
 30
0.0
 11
226.9054520372523882
 21
189.5628674814936971
 31
0.0
 70
     0
 13
216.9054520372523882
 23
173.0628674814936971
 33
0.0
 14
236.9054520372523882
 24
153.6211897572821954
 34
0.0
1001
ACAD_DSTYLE_DIMINSPECT
1070
   396
1000
100%
1070
   395
1000

1070
   394
1070
    33
1070
   393
1070
     0
1001
ACAD
1000
DSTYLE
1002
{
1070
   174
1070
     1
1002
}
  0
DIMENSION
  5
38F6
  8
AM_5
  2
*D18
 10
236.9054520372523882
 20
187.0628674814936971
 30
0.0
 11
241.9054520372523882
 21
189.5628674814936971
 31
0.0
 70
     0
 13
246.9054520372523882
 23
166.3711897572821954
 33
0.0
 14
236.9054520372523882
 24
153.6211897572821954
 34
0.0
1001
ACAD_DSTYLE_DIMINSPECT
1070
   396
1000
100%
1070
   395
1000

1070
   394
1070
    33
1070
   393
1070
     0
1001
ACAD
1000
DSTYLE
1002
{
1070
   173
1070
     1
1070
   174
1070
     1
1070
     6
1000
GENDOT
1070
     7
1000
OPEN30
1002
}
  0
DIMENSION
  5
3917
  8
AM_5
  2
*D19
 10
246.9054520372523882
 20
187.0628674814936971
 30
0.0
 11
250.9054520372523882
 21
189.5628674814936119
 31
0.0
 70
     0
 13
254.9054520372523882
 23
164.6211897572821101
 33
0.0
 14
246.9054520372523882
 24
166.3711897572821954
 34
0.0
1001
ACAD_DSTYLE_DIMINSPECT
1070
   396
1000
100%
1070
   395
1000

1070
   394
1070
    33
1070
   393
1070
     0
1001
ACAD
1000
DSTYLE
1002
{
1070
   173
1070
     1
1070
   174
1070
     1
1070
     6
1000
OPEN30
1070
     7
1000
GENDOT
1002
}
  0
DIMENSION
  5
394F
  8
AM_5
  2
*D21
 10
216.9054520372523882
 20
194.0628674814936119
 30
0.0
 11
235.9054520372523882
 21
196.5628674814936119
 31
0.0
 70
     0
 13
254.9054520372523882
 23
164.6211897572821101
 33
0.0
 14
216.9054520372523882
 24
173.0628674814936971
 34
0.0
1001
ACAD_DSTYLE_DIMINSPECT
1070
   396
1000
100%
1070
   395
1000

1070
   394
1070
    33
1070
   393
1070
     0
  0
DIMENSION
  5
3983
  8
AM_5
  2
*D22
 10
281.9054520372524735
 20
89.6211897572820959
 30
0.0
 11
279.4054520372524735
 21
127.6211897572820959
 31
0.0
 70
     0
 13
253.9054520372523882
 23
165.6211897572821101
 33
0.0
 14
223.4054520372525872
 24
89.6211897572821101
 34
0.0
 50
90.0
1001
ACAD_DSTYLE_DIMINSPECT
1070
   396
1000
100%
1070
   395
1000

1070
   394
1070
    33
1070
   393
1070
     0
  0
DIMENSION
  5
39AD
  8
AM_5
  2
*D23
 10
165.9054520372525872
 20
121.1211897572927967
 30
0.0
 11
163.4054520372525872
 21
124.121189757287496
 31
0.0
 70
     0
 13
179.9054520372525872
 23
127.1211897572821954
 33
0.0
 14
180.1554520372393995
 24
121.1211897572927967
 34
0.0
 50
90.0
1001
ACAD_DSTYLE_DIMINSPECT
1070
   396
1000
100%
1070
   395
1000

1070
   394
1070
    33
1070
   393
1070
     0
1001
ACAD
1000
DSTYLE
1002
{
1070
   174
1070
     1
1002
}
  0
DIMENSION
  5
39DF
  8
AM_5
  2
*D24
 10
165.9054520372525872
 20
108.3711897572803053
 30
0.0
 11
163.4054520372525872
 21
114.7461897572866008
 31
0.0
 70
     0
 13
180.1554520372393995
 23
121.1211897572927967
 33
0.0
 14
190.1554520372268087
 24
108.3711897572803053
 34
0.0
 50
90.0
1001
ACAD
1000
DSTYLE
1002
{
1070
   174
1070
     1
1002
}
1001
ACAD_DSTYLE_DIMINSPECT
1070
   396
1000
100%
1070
   395
1000

1070
   394
1070
    33
1070
   393
1070
     0
  0
DIMENSION
  5
3A05
  8
AM_5
  2
*D25
 10
165.9054520372525872
 20
95.6211897572927825
 30
0.0
 11
163.4054520372525872
 21
101.9961897572866008
 31
0.0
 70
     0
 13
190.1554520372268087
 23
108.3711897572803053
 33
0.0
 14
180.1554520372141894
 24
95.6211897572927825
 34
0.0
 50
90.0
1001
ACAD
1000
DSTYLE
1002
{
1070
   174
1070
     1
1002
}
1001
ACAD_DSTYLE_DIMINSPECT
1070
   396
1000
100%
1070
   395
1000

1070
   394
1070
    33
1070
   393
1070
     0
  0
DIMENSION
  5
3A2B
  8
AM_5
  2
*D26
 10
165.9054520372525872
 20
89.6211897572820959
 30
0.0
 11
163.4054520372525872
 21
92.6211897572874534
 31
0.0
 70
     0
 13
180.1554520372141894
 23
95.6211897572927967
 33
0.0
 14
179.9054520372525872
 24
89.6211897572820959
 34
0.0
 50
90.0
1001
ACAD
1000
DSTYLE
1002
{
1070
   174
1070
     1
1002
}
1001
ACAD_DSTYLE_DIMINSPECT
1070
   396
1000
100%
1070
   395
1000

1070
   394
1070
    33
1070
   393
1070
     0
  0
DIMENSION
  5
3A68
  8
AM_5
  2
*D27
 10
158.9054520372525872
 20
127.1211897572821954
 30
0.0
 11
156.4054520372525019
 21
108.3711897572821954
 31
0.0
 70
     0
 13
179.9054520372525872
 23
89.6211897572821101
 33
0.0
 14
179.9054520372525872
 24
127.1211897572821954
 34
0.0
 50
90.0
1001
ACAD_DSTYLE_DIMINSPECT
1070
   396
1000
100%
1070
   395
1000

1070
   394
1070
    33
1070
   393
1070
     0
  0
DIMENSION
  5
3A92
  8
AM_5
  2
*D28
 10
186.9054520372066008
 20
66.922123031911724
 30
0.0
 11
182.905452037229594
 21
69.422123031911724
 31
0.0
 70
     0
 13
178.9054520372525872
 23
90.6211897572821385
 33
0.0
 14
186.9054520372066008
 24
89.6211897572821101
 34
0.0
 50
0.0000000000001018
1001
ACAD_DSTYLE_DIMINSPECT
1070
   396
1000
100%
1070
   395
1000

1070
   394
1070
    33
1070
   393
1070
     0
1001
ACAD
1000
DSTYLE
1002
{
1070
   174
1070
     1
1002
}
  0
DIMENSION
  5
3ABC
  8
AM_5
  2
*D29
 10
196.9054520372183106
 20
66.922123031911724
 30
0.0
 11
191.9054520372123989
 21
69.422123031911724
 31
0.0
 70
     0
 13
186.9054520372066008
 23
89.6211897572821101
 33
0.0
 14
196.9054520372183106
 24
101.621189757271793
 34
0.0
1001
ACAD
1000
DSTYLE
1002
{
1070
   174
1070
     1
1002
}
1001
ACAD_DSTYLE_DIMINSPECT
1070
   396
1000
100%
1070
   395
1000

1070
   394
1070
    33
1070
   393
1070
     0
  0
DIMENSION
  5
3ADD
  8
AM_5
  2
*D30
 10
216.9054520372523882
 20
66.9221230319117808
 30
0.0
 11
206.905452037235392
 21
69.4221230319117808
 31
0.0
 70
     0
 13
196.9054520372183106
 23
101.621189757271793
 33
0.0
 14
216.9054520372523882
 24
81.9900680451672201
 34
0.0
1001
ACAD
1000
DSTYLE
1002
{
1070
   174
1070
     1
1002
}
1001
ACAD_DSTYLE_DIMINSPECT
1070
   396
1000
100%
1070
   395
1000

1070
   394
1070
    33
1070
   393
1070
     0
  0
DIMENSION
  5
3AFE
  8
AM_5
  2
*D31
 10
216.9054520372523882
 20
59.9221230319119584
 30
0.0
 11
197.9054520372525019
 21
62.4221230319119584
 31
0.0
 70
     0
 13
178.9054520372525872
 23
90.6211897572821385
 33
0.0
 14
216.9054520372523882
 24
81.9900680451672201
 34
0.0
 50
0.0000000000001018
1001
ACAD_DSTYLE_DIMINSPECT
1070
   396
1000
100%
1070
   395
1000

1070
   394
1070
    33
1070
   393
1070
     0
  0
INSERT
  5
3B29
  8
AM_5
  2
S32
 10
0.0
 20
0.0
 30
0.0
  0
LINE
  5
3D5B
  8
0
 10
222.9054520372523882
 20
167.6211897572821101
 30
0.0
 11
210.9054520372525019
 21
167.6211897572821101
 31
0.0
  0
LINE
  5
3D62
  8
0
 10
210.9054520372525019
 20
167.6211897572821101
 30
0.0
 11
216.9054520372525019
 21
168.6211897572821101
 31
0.0
  0
LINE
  5
3D63
  8
0
 10
216.9054520372525019
 20
168.6211897572821101
 30
0.0
 11
222.9054520372523882
 21
167.6211897572821101
 31
0.0
  0
LINE
  5
3D64
  8
0
 10
222.9054520372523882
 20
87.6211897572820817
 30
0.0
 11
210.9054520372525019
 21
87.6211897572820817
 31
0.0
  0
LINE
  5
3D65
  8
0
 10
210.9054520372525019
 20
87.6211897572820817
 30
0.0
 11
216.9054520372525019
 21
86.6211897572820817
 31
0.0
  0
LINE
  5
3D66
  8
0
 10
216.9054520372525019
 20
86.6211897572820817
 30
0.0
 11
222.9054520372523882
 21
87.6211897572820817
 31
0.0
  0
VIEWPORT
  5
95A
 67
     1
  8
0
  6
CONTINUOUS
 10
128.5
 20
97.5
 30
0.0
 40
386.7385514018691879
 41
222.1800000000000068
 68
     1
 69
     1
1001
ACAD
1000
MVIEW
1002
{
1070
    16
1010
0.0
1020
0.0
1030
0.0
1010
0.0
1020
0.0
1030
1.0
1040
0.0
1040
222.1800000000000068
1040
128.5
1040
97.5
1040
50.0
1040
0.0
1040
0.0
1070
     0
1070
   100
1070
     1
1070
     1
1070
     0
1070
     0
1070
     0
1070
     0
1040
0.0
1040
0.0
1040
0.0
1040
10.0
1040
10.0
1040
10.0
1040
10.0
1070
     0
1002
{
1002
}
1002
}
1001
GENIUS_GENOBJ-N-SDF_13
1002
{
1000
OWNER
1000
GEN
1002
}
1001
GENIUS_GENODEF_13
1002
{
1000
HIER
1070
     0
1002
}
1002
{
1000
MANEDIT
1070
     0
1002
}
1002
{
1000
NOSEL
1070
     0
1002
}
1002
{
1000
BEHIND
1070
     0
1002
}
1002
{
1000
OTHER
1070
     0
1002
}
1002
{
1000
REACTOR
1002
}
1001
GENIUS_GENSCREG_15
1000
PF
1040
1.0
1000
DF
1040
1.0
1000
MIN
1011
-64.8692757009345655
1021
0.0
1031
0.0
1021
-13.5899999999999999
1031
0.0
1000
MAX
1011
321.8692757009346224
1021
0.0
1031
0.0
1021
208.5900000000000034
1031
0.0
1000
FLAGS
1070
     4
  0
ENDSEC
  0
EOF
